  0
SECTION
  2
HEADER
  9
$ACADVER
  1
AC1015
  9
$ACADMAINTVER
 70
     6
  9
$DWGCODEPAGE
  3
ANSI_949
  9
$INSBASE
 10
0.0
 20
0.0
 30
0.0
  9
$EXTMIN
 10
1.000000000000000E+20
 20
1.000000000000000E+20
 30
1.000000000000000E+20
  9
$EXTMAX
 10
-1.000000000000000E+20
 20
-1.000000000000000E+20
 30
-1.000000000000000E+20
  9
$LIMMIN
 10
0.0
 20
0.0
  9
$LIMMAX
 10
420.0
 20
297.0
  9
$ORTHOMODE
 70
     1
  9
$REGENMODE
 70
     1
  9
$FILLMODE
 70
     1
  9
$QTEXTMODE
 70
     0
  9
$MIRRTEXT
 70
     1
  9
$LTSCALE
 40
1.0
  9
$ATTMODE
 70
     1
  9
$TEXTSIZE
 40
3.5
  9
$TRACEWID
 40
1.0
  9
$TEXTSTYLE
  7
Standard
  9
$CLAYER
  8
0
  9
$CELTYPE
  6
ByLayer
  9
$CECOLOR
 62
   256
  9
$CELTSCALE
 40
1.0
  9
$DISPSILH
 70
     0
  9
$DIMSCALE
 40
1.0
  9
$DIMASZ
 40
3.302
  9
$DIMEXO
 40
1.0
  9
$DIMDLI
 40
3.75
  9
$DIMRND
 40
0.0
  9
$DIMDLE
 40
0.0
  9
$DIMEXE
 40
1.0
  9
$DIMTP
 40
0.0
  9
$DIMTM
 40
0.0
  9
$DIMTXT
 40
3.5
  9
$DIMCEN
 40
2.5
  9
$DIMTSZ
 40
0.0
  9
$DIMTOL
 70
     0
  9
$DIMLIM
 70
     0
  9
$DIMTIH
 70
     1
  9
$DIMTOH
 70
     1
  9
$DIMSE1
 70
     0
  9
$DIMSE2
 70
     0
  9
$DIMTAD
 70
     1
  9
$DIMZIN
 70
     0
  9
$DIMBLK
  1

  9
$DIMASO
 70
     1
  9
$DIMSHO
 70
     1
  9
$DIMPOST
  1

  9
$DIMAPOST
  1

  9
$DIMALT
 70
     0
  9
$DIMALTD
 70
     3
  9
$DIMALTF
 40
0.0393700787401575
  9
$DIMLFAC
 40
1.0
  9
$DIMTOFL
 70
     1
  9
$DIMTVP
 40
0.0
  9
$DIMTIX
 70
     0
  9
$DIMSOXD
 70
     0
  9
$DIMSAH
 70
     0
  9
$DIMBLK1
  1

  9
$DIMBLK2
  1

  9
$DIMSTYLE
  2
ISO-25
  9
$DIMCLRD
 70
     0
  9
$DIMCLRE
 70
     0
  9
$DIMCLRT
 70
     0
  9
$DIMTFAC
 40
1.0
  9
$DIMGAP
 40
1.524
  9
$DIMJUST
 70
     0
  9
$DIMSD1
 70
     0
  9
$DIMSD2
 70
     0
  9
$DIMTOLJ
 70
     0
  9
$DIMTZIN
 70
     0
  9
$DIMALTZ
 70
     0
  9
$DIMALTTZ
 70
     0
  9
$DIMUPT
 70
     0
  9
$DIMDEC
 70
     2
  9
$DIMTDEC
 70
     2
  9
$DIMALTU
 70
     2
  9
$DIMALTTD
 70
     3
  9
$DIMTXSTY
  7
Standard
  9
$DIMAUNIT
 70
     0
  9
$DIMADEC
 70
     2
  9
$DIMALTRND
 40
0.0
  9
$DIMAZIN
 70
     0
  9
$DIMDSEP
 70
    44
  9
$DIMATFIT
 70
     3
  9
$DIMFRAC
 70
     0
  9
$DIMLDRBLK
  1

  9
$DIMLUNIT
 70
     2
  9
$DIMLWD
 70
    -2
  9
$DIMLWE
 70
    -2
  9
$DIMTMOVE
 70
     0
  9
$LUNITS
 70
     2
  9
$LUPREC
 70
     2
  9
$SKETCHINC
 40
1.0
  9
$FILLETRAD
 40
10.0
  9
$AUNITS
 70
     0
  9
$AUPREC
 70
     2
  9
$MENU
  1
.
  9
$ELEVATION
 40
0.0
  9
$PELEVATION
 40
0.0
  9
$THICKNESS
 40
0.0
  9
$LIMCHECK
 70
     0
  9
$CHAMFERA
 40
0.0
  9
$CHAMFERB
 40
0.0
  9
$CHAMFERC
 40
0.0
  9
$CHAMFERD
 40
0.0
  9
$SKPOLY
 70
     0
  9
$TDCREATE
 40
2458323.676800532
  9
$TDUCREATE
 40
2458323.301800532
  9
$TDUPDATE
 40
2458324.469823449
  9
$TDUUPDATE
 40
2458324.094823449
  9
$TDINDWG
 40
0.0005590509
  9
$TDUSRTIMER
 40
2458324.094264769
  9
$USRTIMER
 70
     1
  9
$ANGBASE
 50
0.0
  9
$ANGDIR
 70
     0
  9
$PDMODE
 70
     0
  9
$PDSIZE
 40
-1.0
  9
$PLINEWID
 40
0.0
  9
$SPLFRAME
 70
     0
  9
$SPLINETYPE
 70
     6
  9
$SPLINESEGS
 70
     8
  9
$HANDSEED
  5
3ED
  9
$SURFTAB1
 70
     6
  9
$SURFTAB2
 70
     6
  9
$SURFTYPE
 70
     6
  9
$SURFU
 70
     6
  9
$SURFV
 70
     6
  9
$UCSBASE
  2

  9
$UCSNAME
  2

  9
$UCSORG
 10
0.0
 20
0.0
 30
0.0
  9
$UCSXDIR
 10
1.0
 20
0.0
 30
0.0
  9
$UCSYDIR
 10
0.0
 20
1.0
 30
0.0
  9
$UCSORTHOREF
  2

  9
$UCSORTHOVIEW
 70
     0
  9
$UCSORGTOP
 10
0.0
 20
0.0
 30
0.0
  9
$UCSORGBOTTOM
 10
0.0
 20
0.0
 30
0.0
  9
$UCSORGLEFT
 10
0.0
 20
0.0
 30
0.0
  9
$UCSORGRIGHT
 10
0.0
 20
0.0
 30
0.0
  9
$UCSORGFRONT
 10
0.0
 20
0.0
 30
0.0
  9
$UCSORGBACK
 10
0.0
 20
0.0
 30
0.0
  9
$PUCSBASE
  2

  9
$PUCSNAME
  2

  9
$PUCSORG
 10
0.0
 20
0.0
 30
0.0
  9
$PUCSXDIR
 10
1.0
 20
0.0
 30
0.0
  9
$PUCSYDIR
 10
0.0
 20
1.0
 30
0.0
  9
$PUCSORTHOREF
  2

  9
$PUCSORTHOVIEW
 70
     0
  9
$PUCSORGTOP
 10
0.0
 20
0.0
 30
0.0
  9
$PUCSORGBOTTOM
 10
0.0
 20
0.0
 30
0.0
  9
$PUCSORGLEFT
 10
0.0
 20
0.0
 30
0.0
  9
$PUCSORGRIGHT
 10
0.0
 20
0.0
 30
0.0
  9
$PUCSORGFRONT
 10
0.0
 20
0.0
 30
0.0
  9
$PUCSORGBACK
 10
0.0
 20
0.0
 30
0.0
  9
$USERI1
 70
     0
  9
$USERI2
 70
     0
  9
$USERI3
 70
     0
  9
$USERI4
 70
     0
  9
$USERI5
 70
     0
  9
$USERR1
 40
0.0
  9
$USERR2
 40
0.0
  9
$USERR3
 40
0.0
  9
$USERR4
 40
0.0
  9
$USERR5
 40
0.0
  9
$WORLDVIEW
 70
     1
  9
$SHADEDGE
 70
     3
  9
$SHADEDIF
 70
    70
  9
$TILEMODE
 70
     1
  9
$MAXACTVP
 70
    64
  9
$PINSBASE
 10
0.0
 20
0.0
 30
0.0
  9
$PLIMCHECK
 70
     0
  9
$PEXTMIN
 10
1.000000000000000E+20
 20
1.000000000000000E+20
 30
1.000000000000000E+20
  9
$PEXTMAX
 10
-1.000000000000000E+20
 20
-1.000000000000000E+20
 30
-1.000000000000000E+20
  9
$PLIMMIN
 10
0.0
 20
0.0
  9
$PLIMMAX
 10
0.0
 20
0.0
  9
$UNITMODE
 70
     0
  9
$VISRETAIN
 70
     1
  9
$PLINEGEN
 70
     0
  9
$PSLTSCALE
 70
     1
  9
$TREEDEPTH
 70
  3020
  9
$CMLSTYLE
  2
Standard
  9
$CMLJUST
 70
     0
  9
$CMLSCALE
 40
20.0
  9
$PROXYGRAPHICS
 70
     1
  9
$MEASUREMENT
 70
     1
  9
$CELWEIGHT
370
    -1
  9
$ENDCAPS
280
     0
  9
$JOINSTYLE
280
     0
  9
$LWDISPLAY
290
     1
  9
$INSUNITS
 70
     4
  9
$HYPERLINKBASE
  1

  9
$STYLESHEET
  1

  9
$XEDIT
290
     1
  9
$CEPSNTYPE
380
     0
  9
$PSTYLEMODE
290
     1
  9
$FINGERPRINTGUID
  2
{556711B8-7E78-4DD4-B7CB-FC17D2404036}
  9
$VERSIONGUID
  2
{FAEB1C32-E019-11D5-929B-00C0DF256EC4}
  9
$EXTNAMES
290
     1
  9
$PSVPSCALE
 40
0.0
  9
$OLESTARTUP
290
     0
  0
ENDSEC
  0
SECTION
  2
CLASSES
  0
CLASS
  1
ACDBDICTIONARYWDFLT
  2
AcDbDictionaryWithDefault
  3
ObjectDBX Classes
 90
        0
280
     0
281
     0
  0
CLASS
  1
VISUALSTYLE
  2
AcDbVisualStyle
  3
ObjectDBX Classes
 90
     4095
280
     0
281
     0
  0
CLASS
  1
MATERIAL
  2
AcDbMaterial
  3
ObjectDBX Classes
 90
     1153
280
     0
281
     0
  0
CLASS
  1
SCALE
  2
AcDbScale
  3
ObjectDBX Classes
 90
     1153
280
     0
281
     0
  0
CLASS
  1
SUN
  2
AcDbSun
  3
SCENEOE
 90
     1153
280
     0
281
     0
  0
CLASS
  1
ACDBPLACEHOLDER
  2
AcDbPlaceHolder
  3
ObjectDBX Classes
 90
        0
280
     0
281
     0
  0
CLASS
  1
LAYOUT
  2
AcDbLayout
  3
ObjectDBX Classes
 90
        0
280
     0
281
     0
  0
CLASS
  1
TABLESTYLE
  2
AcDbTableStyle
  3
ObjectDBX Classes
 90
     4095
280
     0
281
     0
  0
CLASS
  1
MLEADERSTYLE
  2
AcDbMLeaderStyle
  3
ACDB_MLEADERSTYLE_CLASS
 90
     4095
280
     0
281
     0
  0
CLASS
  1
RASTERVARIABLES
  2
AcDbRasterVariables
  3
ISM
 90
        0
280
     0
281
     0
  0
ENDSEC
  0
SECTION
  2
TABLES
  0
TABLE
  2
VPORT
  5
8
330
0
100
AcDbSymbolTable
 70
     1
  0
VPORT
  5
29
330
8
100
AcDbSymbolTableRecord
100
AcDbViewportTableRecord
  2
*Active
 70
     0
 10
0.0
 20
0.0
 11
1.0
 21
1.0
 12
9.688482931230954
 22
12.49114601062855
 13
0.0
 23
0.0
 14
10.0
 24
10.0
 15
10.0
 25
10.0
 16
0.0
 26
0.0
 36
1.0
 17
0.0
 27
0.0
 37
0.0
 40
214.1345654035392
 41
1.632093933463796
 42
50.0
 43
0.0
 44
0.0
 50
0.0
 51
0.0
 71
    16
 72
  2000
 73
     1
 74
     3
 75
     0
 76
     0
 77
     0
 78
     0
281
     0
 65
     1
110
0.0
120
0.0
130
0.0
111
1.0
121
0.0
131
0.0
112
0.0
122
1.0
132
0.0
 79
     0
146
0.0
  0
ENDTAB
  0
TABLE
  2
LTYPE
  5
5
330
0
100
AcDbSymbolTable
 70
     6
  0
LTYPE
  5
14
330
5
100
AcDbSymbolTableRecord
100
AcDbLinetypeTableRecord
  2
ByBlock
 70
     0
  3

 72
    65
 73
     0
 40
0.0
  0
LTYPE
  5
15
330
5
100
AcDbSymbolTableRecord
100
AcDbLinetypeTableRecord
  2
ByLayer
 70
     0
  3

 72
    65
 73
     0
 40
0.0
  0
LTYPE
  5
16
330
5
100
AcDbSymbolTableRecord
100
AcDbLinetypeTableRecord
  2
Continuous
 70
     0
  3
Solid line
 72
    65
 73
     0
 40
0.0
  0
LTYPE
  5
6A
330
5
100
AcDbSymbolTableRecord
100
AcDbLinetypeTableRecord
  2
HIDDEN
 70
     0
  3
Hidden __ __ __ __ __ __ __ __ __ __ __ __ __ __
 72
    65
 73
     2
 40
1.905
 49
1.27
 74
     0
 49
-0.635
 74
     0
  0
LTYPE
  5
6B
330
5
100
AcDbSymbolTableRecord
100
AcDbLinetypeTableRecord
  2
PHANTOM
 70
     0
  3
Phantom ______  __  __  ______  __  __  ______
 72
    65
 73
     6
 40
12.7
 49
6.35
 74
     0
 49
-1.27
 74
     0
 49
1.27
 74
     0
 49
-1.27
 74
     0
 49
1.27
 74
     0
 49
-1.27
 74
     0
  0
LTYPE
  5
6C
330
5
100
AcDbSymbolTableRecord
100
AcDbLinetypeTableRecord
  2
CENTER
 70
     0
  3
Center ____ _ ____ _ ____ _ ____ _ ____ _ ____
 72
    65
 73
     4
 40
10.16
 49
6.35
 74
     0
 49
-1.27
 74
     0
 49
1.27
 74
     0
 49
-1.27
 74
     0
  0
LTYPE
  5
6D
330
5
100
AcDbSymbolTableRecord
100
AcDbLinetypeTableRecord
  2
CENTERX2
 70
     0
  3
Center (2x) ________  __  ________  __  _____
 72
    65
 73
     4
 40
20.32
 49
12.7
 74
     0
 49
-2.54
 74
     0
 49
2.54
 74
     0
 49
-2.54
 74
     0
  0
LTYPE
  5
6E
330
5
100
AcDbSymbolTableRecord
100
AcDbLinetypeTableRecord
  2
DOT2
 70
     0
  3
Dot (.5x) ........................................
 72
    65
 73
     2
 40
0.635
 49
0.0
 74
     0
 49
-0.635
 74
     0
  0
ENDTAB
  0
TABLE
  2
LAYER
  5
2
102
{ACAD_XDICTIONARY
360
1CE
102
}
330
0
100
AcDbSymbolTable
 70
    18
  0
LAYER
  5
10
330
2
100
AcDbSymbolTableRecord
100
AcDbLayerTableRecord
  2
0
 70
     0
 62
     7
  6
Continuous
370
    -3
390
F
  0
LAYER
  5
6F
330
2
100
AcDbSymbolTableRecord
100
AcDbLayerTableRecord
  2
FORMAT
 70
     0
 62
     2
  6
Continuous
370
    -3
390
F
  0
LAYER
  5
70
330
2
100
AcDbSymbolTableRecord
100
AcDbLayerTableRecord
  2
외형선
 70
     0
 62
     4
  6
Continuous
370
    30
390
F
  0
LAYER
  5
71
330
2
100
AcDbSymbolTableRecord
100
AcDbLayerTableRecord
  2
숨은선
 70
     0
 62
     2
  6
HIDDEN
370
    15
390
F
  0
LAYER
  5
72
330
2
100
AcDbSymbolTableRecord
100
AcDbLayerTableRecord
  2
중심선
 70
     0
 62
     1
  6
CENTERX2
370
    -3
390
F
  0
LAYER
  5
73
330
2
100
AcDbSymbolTableRecord
100
AcDbLayerTableRecord
  2
파단선
 70
     0
 62
     4
  6
Continuous
370
    -3
390
F
  0
LAYER
  5
74
330
2
100
AcDbSymbolTableRecord
100
AcDbLayerTableRecord
  2
해칭선
 70
     0
 62
   100
  6
Continuous
370
    -3
390
F
  0
LAYER
  5
75
330
2
100
AcDbSymbolTableRecord
100
AcDbLayerTableRecord
  2
가는실선
 70
     0
 62
     4
  6
Continuous
370
    -3
390
F
  0
LAYER
  5
76
330
2
100
AcDbSymbolTableRecord
100
AcDbLayerTableRecord
  2
치수_보조선
 70
     0
 62
     4
  6
Continuous
370
    -3
390
F
  0
LAYER
  5
77
330
2
100
AcDbSymbolTableRecord
100
AcDbLayerTableRecord
  2
치수문자_일반주서
 70
     0
 62
     7
  6
Continuous
370
    15
390
F
  0
LAYER
  5
78
330
2
100
AcDbSymbolTableRecord
100
AcDbLayerTableRecord
  2
개별주서
 70
     0
 62
   100
  6
Continuous
370
    30
390
F
  0
LAYER
  5
79
330
2
100
AcDbSymbolTableRecord
100
AcDbLayerTableRecord
  2
중간선
 70
     0
 62
     2
  6
Continuous
370
    15
390
F
  0
LAYER
  5
7A
330
2
100
AcDbSymbolTableRecord
100
AcDbLayerTableRecord
  2
윤곽선
 70
     0
 62
     3
  6
Continuous
370
    40
390
F
  0
LAYER
  5
7B
330
2
100
AcDbSymbolTableRecord
100
AcDbLayerTableRecord
  2
중심마크
 70
     0
 62
   100
  6
Continuous
370
    30
390
F
  0
LAYER
  5
7C
330
2
100
AcDbSymbolTableRecord
100
AcDbLayerTableRecord
  2
가상선
 70
     0
 62
     4
  6
PHANTOM
370
    -3
390
F
  0
LAYER
  5
7D
330
2
100
AcDbSymbolTableRecord
100
AcDbLayerTableRecord
  2
특수지정선
 70
     0
 62
     5
  6
CENTERX2
370
    60
390
F
  0
LAYER
  5
7E
330
2
100
AcDbSymbolTableRecord
100
AcDbLayerTableRecord
  2
참조1
 70
     0
 62
    -4
  6
Continuous
370
    -3
390
F
  0
LAYER
  5
143
330
2
100
AcDbSymbolTableRecord
100
AcDbLayerTableRecord
  2
Defpoints
 70
     0
 62
     7
  6
Continuous
290
     0
370
    -3
390
F
  0
ENDTAB
  0
TABLE
  2
STYLE
  5
3
330
0
100
AcDbSymbolTable
 70
     2
  0
STYLE
  5
11
330
3
100
AcDbSymbolTableRecord
100
AcDbTextStyleTableRecord
  2
Standard
 70
     0
 40
0.0
 41
1.0
 50
0.0
 71
     0
 42
3.5
  3
txt
  4

  0
STYLE
  5
94
330
3
100
AcDbSymbolTableRecord
100
AcDbTextStyleTableRecord
  2
SLDTEXTSTYLE0
 70
     0
 40
0.0
 41
0.75
 50
0.0
 71
     0
 42
3.5
  3
TXT
  4

  0
ENDTAB
  0
TABLE
  2
VIEW
  5
6
330
0
100
AcDbSymbolTable
 70
     0
  0
ENDTAB
  0
TABLE
  2
UCS
  5
7
330
0
100
AcDbSymbolTable
 70
     0
  0
ENDTAB
  0
TABLE
  2
APPID
  5
9
330
0
100
AcDbSymbolTable
 70
     1
  0
APPID
  5
12
330
9
100
AcDbSymbolTableRecord
100
AcDbRegAppTableRecord
  2
ACAD
 70
     0
  0
ENDTAB
  0
TABLE
  2
DIMSTYLE
  5
A
330
0
100
AcDbSymbolTable
 70
     3
100
AcDbDimStyleTable
  0
DIMSTYLE
105
27
330
A
100
AcDbSymbolTableRecord
100
AcDbDimStyleTableRecord
  2
ISO-25
 70
     0
 41
2.5
 42
0.625
 43
3.75
 44
1.25
 73
     0
 74
     0
 77
     1
 78
     8
140
2.5
141
2.5
143
0.03937007874016
147
0.625
171
     3
172
     1
178
     0
271
     2
272
     2
274
     3
278
    44
283
     0
284
     8
340
11
  0
DIMSTYLE
105
C1
330
A
100
AcDbSymbolTableRecord
100
AcDbDimStyleTableRecord
  2
SLDDIMSTYLE0
 70
     0
 41
3.302
 44
0.0
 45
0.000000001
 73
     0
 74
     0
 77
     1
 78
    12
 79
     3
140
3.5
143
0.0393700787401575
147
0.875
148
0.000000001
170
     1
173
     1
178
     0
271
     2
272
     2
276
     2
284
    12
340
94
  0
DIMSTYLE
105
E9
102
{ACAD_REACTORS
330
E8
330
18B
330
198
330
1A5
330
1B2
330
2AA
330
2B7
330
2C4
330
2D1
330
C0
330
D5
330
FD
102
}
330
A
100
AcDbSymbolTableRecord
100
AcDbDimStyleTableRecord
  2
SLDDIMSTYLE1
 70
     0
 41
3.302
 44
0.0
 45
0.000000001
 73
     0
 74
     0
 77
     1
 78
    12
 79
     3
140
3.5
143
0.0393700787401575
147
0.875
148
0.000000001
170
     1
172
     1
173
     1
178
     0
271
     2
272
     2
276
     2
284
    12
289
     0
340
94
  0
ENDTAB
  0
TABLE
  2
BLOCK_RECORD
  5
1
330
0
100
AcDbSymbolTable
 70
    27
  0
BLOCK_RECORD
  5
1F
330
1
100
AcDbSymbolTableRecord
100
AcDbBlockTableRecord
  2
*Model_Space
340
22
  0
BLOCK_RECORD
  5
1B
330
1
100
AcDbSymbolTableRecord
100
AcDbBlockTableRecord
  2
*Paper_Space
340
1E
  0
BLOCK_RECORD
  5
23
330
1
100
AcDbSymbolTableRecord
100
AcDbBlockTableRecord
  2
*Paper_Space0
340
26
  0
BLOCK_RECORD
  5
7F
330
1
100
AcDbSymbolTableRecord
100
AcDbBlockTableRecord
  2
블럭10
340
0
102
{BLKREFS
331
B9
102
}
  0
BLOCK_RECORD
  5
C2
330
1
100
AcDbSymbolTableRecord
100
AcDbBlockTableRecord
  2
_D
340
0
  0
BLOCK_RECORD
  5
D6
330
1
100
AcDbSymbolTableRecord
100
AcDbBlockTableRecord
  2
_D_1
340
0
  0
BLOCK_RECORD
  5
EA
330
1
100
AcDbSymbolTableRecord
100
AcDbBlockTableRecord
  2
_D_2
340
0
  0
BLOCK_RECORD
  5
FE
330
1
100
AcDbSymbolTableRecord
100
AcDbBlockTableRecord
  2
_D_3
340
0
  0
BLOCK_RECORD
  5
117
330
1
100
AcDbSymbolTableRecord
100
AcDbBlockTableRecord
  2
SW_DOWELSYMBOL_0
340
0
102
{BLKREFS
331
11D
331
1C2
331
0
331
2E1
331
0
102
}
  0
BLOCK_RECORD
  5
1D2
330
1
100
AcDbSymbolTableRecord
100
AcDbBlockTableRecord
  2
*D8
340
0
  0
BLOCK_RECORD
  5
1DE
330
1
100
AcDbSymbolTableRecord
100
AcDbBlockTableRecord
  2
*D9
340
0
  0
BLOCK_RECORD
  5
1EA
330
1
100
AcDbSymbolTableRecord
100
AcDbBlockTableRecord
  2
*D10
340
0
  0
BLOCK_RECORD
  5
1F6
330
1
100
AcDbSymbolTableRecord
100
AcDbBlockTableRecord
  2
*D11
340
0
  0
BLOCK_RECORD
  5
22F
330
1
100
AcDbSymbolTableRecord
100
AcDbBlockTableRecord
  2
*D12
340
0
  0
BLOCK_RECORD
  5
23B
330
1
100
AcDbSymbolTableRecord
100
AcDbBlockTableRecord
  2
*D13
340
0
  0
BLOCK_RECORD
  5
247
330
1
100
AcDbSymbolTableRecord
100
AcDbBlockTableRecord
  2
*D14
340
0
  0
BLOCK_RECORD
  5
253
330
1
100
AcDbSymbolTableRecord
100
AcDbBlockTableRecord
  2
*D15
340
0
  0
BLOCK_RECORD
  5
2EF
330
1
100
AcDbSymbolTableRecord
100
AcDbBlockTableRecord
  2
*D17
340
0
  0
BLOCK_RECORD
  5
2FB
330
1
100
AcDbSymbolTableRecord
100
AcDbBlockTableRecord
  2
*D18
340
0
  0
BLOCK_RECORD
  5
307
330
1
100
AcDbSymbolTableRecord
100
AcDbBlockTableRecord
  2
*D19
340
0
  0
BLOCK_RECORD
  5
313
330
1
100
AcDbSymbolTableRecord
100
AcDbBlockTableRecord
  2
*D20
340
0
  0
BLOCK_RECORD
  5
34C
330
1
100
AcDbSymbolTableRecord
100
AcDbBlockTableRecord
  2
*D21
340
0
  0
BLOCK_RECORD
  5
358
330
1
100
AcDbSymbolTableRecord
100
AcDbBlockTableRecord
  2
*D22
340
0
  0
BLOCK_RECORD
  5
364
330
1
100
AcDbSymbolTableRecord
100
AcDbBlockTableRecord
  2
*D23
340
0
  0
BLOCK_RECORD
  5
370
330
1
100
AcDbSymbolTableRecord
100
AcDbBlockTableRecord
  2
*D24
340
0
  0
ENDTAB
  0
ENDSEC
  0
SECTION
  2
BLOCKS
  0
BLOCK
  5
20
330
1F
100
AcDbEntity
  8
0
100
AcDbBlockBegin
  2
*Model_Space
 70
     0
 10
0.0
 20
0.0
 30
0.0
  3
*Model_Space
  1
*Model_Space
  0
ENDBLK
  5
21
330
1F
100
AcDbEntity
  8
0
100
AcDbBlockEnd
  0
BLOCK
  5
1C
330
1B
100
AcDbEntity
 67
     1
  8
0
100
AcDbBlockBegin
  2
*Paper_Space
 70
     0
 10
0.0
 20
0.0
 30
0.0
  3
*Paper_Space
  1
*Paper_Space
  0
ENDBLK
  5
1D
330
1B
100
AcDbEntity
 67
     1
  8
0
100
AcDbBlockEnd
  0
BLOCK
  5
24
330
23
100
AcDbEntity
  8
0
100
AcDbBlockBegin
  2
*Paper_Space0
 70
     0
 10
0.0
 20
0.0
 30
0.0
  3
*Paper_Space0
  1
*Paper_Space0
  0
ENDBLK
  5
25
330
23
100
AcDbEntity
  8
0
100
AcDbBlockEnd
  0
BLOCK
  5
80
330
7F
100
AcDbEntity
  8
0
100
AcDbBlockBegin
  2
블럭10
 70
     2
 10
0.0
 20
0.0
 30
0.0
  3
블럭10
  1
블럭10
  0
ELLIPSE
  5
82
330
7F
100
AcDbEntity
  8
중심선
100
AcDbEllipse
 10
20.54032771741204
 20
12.0471743016438
 30
0.0
 11
6.600054785286829
 21
-1.261213355974178E-13
 31
0.0
210
0.0
220
0.0
230
1.0
 40
0.636358354079598
 41
0.9219305317359503
 42
6.513795318482858
  0
ELLIPSE
  5
83
330
7F
100
AcDbEntity
  8
중심선
100
AcDbEllipse
 10
20.54032771746488
 20
12.04717430159265
 30
0.0
 11
3.960054785062283
 21
1.540847449632565E-10
 31
0.0
210
0.0
220
0.0
230
1.0
 40
0.3939339440162632
 41
1.131841032648279
 42
5.62031148352944
  0
LINE
  5
84
330
7F
100
AcDbEntity
  8
중심선
100
AcDbLine
 10
2.268634060543552
 20
16.24717430164393
 30
0.0
 11
5.714909304380834
 21
16.24717430164393
 31
0.0
  0
LINE
  5
85
330
7F
100
AcDbEntity
  8
중심선
100
AcDbLine
 10
5.245725140726316
 20
7.84717430164391
 30
0.0
 11
8.692000384563599
 21
7.84717430164391
 31
0.0
  0
LINE
  5
86
330
7F
100
AcDbEntity
  8
중심선
100
AcDbLine
 10
15.74043728645272
 20
16.24717430164393
 30
0.0
 11
8.692000384563599
 21
7.84717430164391
 31
0.0
  0
LINE
  5
87
330
7F
100
AcDbEntity
  8
중심선
100
AcDbLine
 10
0.1404042013395286
 20
13.71084872107135
 30
0.0
 11
3.58671253028996
 21
13.71088815037384
 31
0.0
  0
LINE
  5
88
330
7F
100
AcDbEntity
  8
중심선
100
AcDbLine
 10
2.750260043222114
 20
10.84717430164391
 30
0.0
 11
6.196535287059397
 21
10.84717430164391
 31
0.0
  0
LINE
  5
89
330
7F
100
AcDbEntity
  8
중심선
100
AcDbLine
 10
12.29416204261559
 20
16.24717430164393
 30
0.0
 11
5.245725140726316
 21
7.84717430164391
 31
0.0
  0
LINE
  5
8A
330
7F
100
AcDbEntity
  8
중심선
100
AcDbLine
 10
10.72767329541681
 20
16.24717430164393
 30
0.0
 11
6.196535287059397
 21
10.84717430164391
 31
0.0
  0
LINE
  5
8B
330
7F
100
AcDbEntity
  8
중심선
100
AcDbLine
 10
7.28139805157953
 20
16.24717430164393
 30
0.0
 11
2.750260043222114
 21
10.84717430164391
 31
0.0
  0
LINE
  5
8C
330
7F
100
AcDbEntity
  8
중심선
100
AcDbLine
 10
5.714909304380834
 20
16.24717430164393
 30
0.0
 11
3.58671253028996
 21
13.71088815037384
 31
0.0
  0
LINE
  5
8D
330
7F
100
AcDbEntity
  8
중심선
100
AcDbLine
 10
2.268634060543552
 20
16.24717430164393
 30
0.0
 11
0.1404042013395286
 21
13.71084872107135
 31
0.0
  0
LINE
  5
8E
330
7F
100
AcDbEntity
  8
중심선
100
AcDbLine
 10
7.28139805157953
 20
16.24717430164393
 30
0.0
 11
10.72767329541681
 21
16.24717430164393
 31
0.0
  0
LINE
  5
8F
330
7F
100
AcDbEntity
  8
중심선
100
AcDbLine
 10
12.29416204261559
 20
16.24717430164393
 30
0.0
 11
15.74043728645272
 21
16.24717430164393
 31
0.0
  0
LINE
  5
90
330
7F
100
AcDbEntity
  8
중심선
100
AcDbLine
 10
19.22036997980202
 20
11.08717430171403
 30
0.0
 11
23.66174974927406
 21
11.08717430171406
 31
0.0
  0
LINE
  5
91
330
7F
100
AcDbEntity
  8
중심선
100
AcDbLine
 10
19.22039502424796
 20
13.00717430171391
 30
0.0
 11
19.22036997980202
 21
11.08717430171403
 31
0.0
  0
LINE
  5
92
330
7F
100
AcDbEntity
  8
중심선
100
AcDbLine
 10
19.22039502424796
 20
13.00717430171391
 30
0.0
 11
26.96566020931264
 21
13.00717430171391
 31
0.0
  0
LINE
  5
93
330
7F
100
AcDbEntity
  8
중심선
100
AcDbLine
 10
22.22332737316547
 20
13.45928029700563
 30
0.0
 11
24.52862924686651
 21
15.39360700705356
 31
0.0
  0
ATTDEF
  5
95
330
7F
100
AcDbEntity
  8
FORMAT
 62
     2
100
AcDbText
 10
4.408487351596664
 20
2.075366912832191
 30
0.0
 40
4.233333333333333
  1
E2020040
 41
0.75
  7
SLDTEXTSTYLE0
 11
4.408487351596664
 21
-0.0412997538344756
 31
0.0
100
AcDbAttributeDefinition
  3

  2
AUTOATTR0
 70
     0
 74
     1
  0
ENDBLK
  5
81
330
7F
100
AcDbEntity
  8
0
100
AcDbBlockEnd
  0
BLOCK
  5
C3
330
C2
100
AcDbEntity
  8
0
100
AcDbBlockBegin
  2
_D
 70
     0
 10
0.0
 20
0.0
 30
0.0
  3
_D
  1
_D
  0
LINE
  5
C5
330
C2
100
AcDbEntity
  8
치수문자_일반주서
 62
     0
370
    -2
100
AcDbLine
 10
53.27500000000005
 20
8.0010749287239
 30
0.0
 11
53.27500000000005
 21
14.76357492872391
 31
0.0
  0
LINE
  5
C6
330
C2
100
AcDbEntity
  8
치수문자_일반주서
 62
     0
370
    -2
100
AcDbLine
 10
11.99999999999997
 20
7.97188549897996
 30
0.0
 11
11.99999999999997
 21
14.76357492872391
 31
0.0
  0
LINE
  5
C7
330
C2
100
AcDbEntity
  8
치수문자_일반주서
 62
     0
370
    -2
100
AcDbLine
 10
49.97300000000005
 20
14.76357492872391
 30
0.0
 11
15.30199999999997
 21
14.76357492872391
 31
0.0
  0
SOLID
  5
C8
330
C2
100
AcDbEntity
  8
치수문자_일반주서
 62
     0
100
AcDbTrace
 10
49.97300000000005
 20
14.21324159539057
 30
0.0
 11
49.97300000000005
 21
15.31390826205724
 31
0.0
 12
53.27500000000005
 22
14.76357492872391
 32
0.0
 13
53.27500000000005
 23
14.76357492872391
 33
0.0
  0
SOLID
  5
C9
330
C2
100
AcDbEntity
  8
치수문자_일반주서
 62
     0
100
AcDbTrace
 10
15.30199999999997
 20
15.31390826205724
 30
0.0
 11
15.30199999999997
 21
14.21324159539057
 31
0.0
 12
11.99999999999997
 22
14.76357492872391
 32
0.0
 13
11.99999999999997
 23
14.76357492872391
 33
0.0
  0
MTEXT
  5
CA
330
C2
100
AcDbEntity
  8
치수문자_일반주서
 62
     0
100
AcDbMText
 10
32.6375
 20
19.13857492872391
 30
0.0
 40
3.5
 41
0.0
 71
     2
 72
     1
  1
\A1;41.28 [1 5/8]
  7
SLDTEXTSTYLE0
 73
     1
 44
1.0
  0
POINT
  5
CB
330
C2
100
AcDbEntity
  8
Defpoints
 62
     0
100
AcDbPoint
 10
53.27500000000005
 20
7.9385749287239
 30
0.0
  0
POINT
  5
CC
330
C2
100
AcDbEntity
  8
Defpoints
 62
     0
100
AcDbPoint
 10
11.99999999999997
 20
7.90938549897996
 30
0.0
  0
POINT
  5
CD
330
C2
100
AcDbEntity
  8
Defpoints
 62
     0
100
AcDbPoint
 10
11.99999999999997
 20
14.76357492872391
 30
0.0
  0
ENDBLK
  5
C4
330
C2
100
AcDbEntity
  8
0
100
AcDbBlockEnd
  0
BLOCK
  5
D7
330
D6
100
AcDbEntity
  8
0
100
AcDbBlockBegin
  2
_D_1
 70
     0
 10
0.0
 20
0.0
 30
0.0
  3
_D_1
  1
_D_1
  0
LINE
  5
D9
330
D6
100
AcDbEntity
  8
치수문자_일반주서
 62
     0
370
    -2
100
AcDbLine
 10
53.27500000000005
 20
8.0010749287239
 30
0.0
 11
53.27500000000005
 21
31.6102217220047
 31
0.0
  0
LINE
  5
DA
330
D6
100
AcDbEntity
  8
치수문자_일반주서
 62
     0
370
    -2
100
AcDbLine
 10
-41.97500000000002
 20
6.413574928723888
 30
0.0
 11
-41.97500000000002
 21
31.6102217220047
 31
0.0
  0
LINE
  5
DB
330
D6
100
AcDbEntity
  8
치수문자_일반주서
 62
     0
370
    -2
100
AcDbLine
 10
49.97300000000005
 20
31.6102217220047
 30
0.0
 11
-38.67300000000002
 21
31.6102217220047
 31
0.0
  0
SOLID
  5
DC
330
D6
100
AcDbEntity
  8
치수문자_일반주서
 62
     0
100
AcDbTrace
 10
49.97300000000005
 20
31.05988838867136
 30
0.0
 11
49.97300000000005
 21
32.16055505533803
 31
0.0
 12
53.27500000000005
 22
31.6102217220047
 32
0.0
 13
53.27500000000005
 23
31.6102217220047
 33
0.0
  0
SOLID
  5
DD
330
D6
100
AcDbEntity
  8
치수문자_일반주서
 62
     0
100
AcDbTrace
 10
-38.67300000000002
 20
32.16055505533803
 30
0.0
 11
-38.67300000000002
 21
31.05988838867136
 31
0.0
 12
-41.97500000000002
 22
31.6102217220047
 32
0.0
 13
-41.97500000000002
 23
31.6102217220047
 33
0.0
  0
MTEXT
  5
DE
330
D6
100
AcDbEntity
  8
치수문자_일반주서
 62
     0
100
AcDbMText
 10
5.650000000000002
 20
35.9852217220047
 30
0.0
 40
3.5
 41
0.0
 71
     2
 72
     1
  1
\A1;95.25 [3 3/4]
  7
SLDTEXTSTYLE0
 73
     1
 44
1.0
  0
POINT
  5
DF
330
D6
100
AcDbEntity
  8
Defpoints
 62
     0
100
AcDbPoint
 10
53.27500000000005
 20
7.9385749287239
 30
0.0
  0
POINT
  5
E0
330
D6
100
AcDbEntity
  8
Defpoints
 62
     0
100
AcDbPoint
 10
-41.97500000000002
 20
6.351074928723888
 30
0.0
  0
POINT
  5
E1
330
D6
100
AcDbEntity
  8
Defpoints
 62
     0
100
AcDbPoint
 10
-41.97500000000002
 20
31.6102217220047
 30
0.0
  0
ENDBLK
  5
D8
330
D6
100
AcDbEntity
  8
0
100
AcDbBlockEnd
  0
BLOCK
  5
EB
330
EA
100
AcDbEntity
  8
0
100
AcDbBlockBegin
  2
_D_2
 70
     0
 10
0.0
 20
0.0
 30
0.0
  3
_D_2
  1
_D_2
  0
LINE
  5
ED
330
EA
100
AcDbEntity
  8
치수문자_일반주서
 62
     0
370
    -2
100
AcDbLine
 10
-40.45000000000002
 20
7.938574928723908
 30
0.0
 11
-54.34000000000005
 21
7.938574928723857
 31
0.0
  0
LINE
  5
EE
330
EA
100
AcDbEntity
  8
치수문자_일반주서
 62
     0
370
    -2
100
AcDbLine
 10
-40.45000000000002
 20
-7.936425071276121
 30
0.0
 11
-54.33999999999999
 21
-7.936425071276171
 31
0.0
  0
LINE
  5
EF
330
EA
100
AcDbEntity
  8
치수문자_일반주서
 62
     0
370
    -2
100
AcDbLine
 10
-54.34000000000003
 20
4.636574928723857
 30
0.0
 11
-54.34
 21
-4.634425071276172
 31
0.0
  0
SOLID
  5
F0
330
EA
100
AcDbEntity
  8
치수문자_일반주서
 62
     0
100
AcDbTrace
 10
-53.7896666666667
 20
4.636574928723859
 30
0.0
 11
-54.89033333333337
 21
4.636574928723856
 31
0.0
 12
-54.34000000000005
 22
7.938574928723857
 32
0.0
 13
-54.34000000000005
 23
7.938574928723857
 33
0.0
  0
SOLID
  5
F1
330
EA
100
AcDbEntity
  8
치수문자_일반주서
 62
     0
100
AcDbTrace
 10
-54.89033333333334
 20
-4.634425071276174
 30
0.0
 11
-53.78966666666667
 21
-4.63442507127617
 31
0.0
 12
-54.33999999999999
 22
-7.936425071276171
 32
0.0
 13
-54.33999999999999
 23
-7.936425071276171
 33
0.0
  0
MTEXT
  5
F2
330
EA
100
AcDbEntity
  8
치수문자_일반주서
 62
     0
100
AcDbMText
 10
-58.71500000000002
 20
0.0010749287238972
 30
0.0
 40
3.5
 41
0.0
 71
     2
 72
     1
  1
\A1;%%c15.88 [5/8]
  7
SLDTEXTSTYLE0
 11
-3.580687802255616E-15
 21
1.0
 31
0.0
 73
     1
 44
1.0
  0
POINT
  5
F3
330
EA
100
AcDbEntity
  8
Defpoints
 62
     0
100
AcDbPoint
 10
-40.38750000000002
 20
7.938574928723908
 30
0.0
  0
POINT
  5
F4
330
EA
100
AcDbEntity
  8
Defpoints
 62
     0
100
AcDbPoint
 10
-40.38750000000002
 20
-7.936425071276121
 30
0.0
  0
POINT
  5
F5
330
EA
100
AcDbEntity
  8
Defpoints
 62
     0
100
AcDbPoint
 10
-54.33999999999999
 20
-7.936425071276173
 30
0.0
  0
ENDBLK
  5
EC
330
EA
100
AcDbEntity
  8
0
100
AcDbBlockEnd
  0
BLOCK
  5
FF
330
FE
100
AcDbEntity
  8
0
100
AcDbBlockBegin
  2
_D_3
 70
     0
 10
0.0
 20
0.0
 30
0.0
  3
_D_3
  1
_D_3
  0
LINE
  5
101
330
FE
100
AcDbEntity
  8
치수문자_일반주서
 62
     0
370
    -2
100
AcDbLine
 10
53.33750000000005
 20
7.9385749287239
 30
0.0
 11
74.07297502402895
 21
7.93857492872398
 31
0.0
  0
LINE
  5
102
330
FE
100
AcDbEntity
  8
치수문자_일반주서
 62
     0
370
    -2
100
AcDbLine
 10
53.33750000000002
 20
-7.9364250712761
 30
0.0
 11
74.072975024029
 21
-7.93642507127602
 31
0.0
  0
LINE
  5
103
330
FE
100
AcDbEntity
  8
치수문자_일반주서
 62
     0
370
    -2
100
AcDbLine
 10
74.07297502402895
 20
7.93857492872398
 30
0.0
 11
74.07297502402882
 21
42.54257492872401
 31
0.0
  0
LINE
  5
104
330
FE
100
AcDbEntity
  8
치수문자_일반주서
 62
     0
370
    -2
100
AcDbLine
 10
74.07297502402895
 20
7.93857492872398
 30
0.0
 11
74.072975024029
 21
-7.93642507127602
 31
0.0
  0
LINE
  5
105
330
FE
100
AcDbEntity
  8
치수문자_일반주서
 62
     0
370
    -2
100
AcDbLine
 10
74.07297502402893
 20
11.24057492872398
 30
0.0
 11
74.07297502402892
 21
14.54257492872398
 31
0.0
  0
LINE
  5
106
330
FE
100
AcDbEntity
  8
치수문자_일반주서
 62
     0
370
    -2
100
AcDbLine
 10
74.07297502402902
 20
-11.23842507127602
 30
0.0
 11
74.07297502402903
 21
-14.54042507127602
 31
0.0
  0
SOLID
  5
107
330
FE
100
AcDbEntity
  8
치수문자_일반주서
 62
     0
100
AcDbTrace
 10
73.52264169069561
 20
11.24057492872398
 30
0.0
 11
74.62330835736226
 21
11.24057492872398
 31
0.0
 12
74.07297502402895
 22
7.93857492872398
 32
0.0
 13
74.07297502402895
 23
7.93857492872398
 33
0.0
  0
SOLID
  5
108
330
FE
100
AcDbEntity
  8
치수문자_일반주서
 62
     0
100
AcDbTrace
 10
74.62330835736235
 20
-11.23842507127602
 30
0.0
 11
73.52264169069569
 21
-11.23842507127602
 31
0.0
 12
74.072975024029
 22
-7.93642507127602
 32
0.0
 13
74.072975024029
 23
-7.93642507127602
 33
0.0
  0
MTEXT
  5
109
330
FE
100
AcDbEntity
  8
치수문자_일반주서
 62
     0
100
AcDbMText
 10
69.69797502402888
 20
28.54257492872399
 30
0.0
 40
3.5
 41
0.0
 71
     2
 72
     1
  1
\A1;%%c15.88 [5/8]
  7
SLDTEXTSTYLE0
 11
-3.580687802255623E-15
 21
1.0
 31
0.0
 73
     1
 44
1.0
  0
POINT
  5
10A
330
FE
100
AcDbEntity
  8
Defpoints
 62
     0
100
AcDbPoint
 10
53.27500000000005
 20
7.9385749287239
 30
0.0
  0
POINT
  5
381
330
FE
100
AcDbEntity
  8
Defpoints
 62
     0
100
AcDbPoint
 10
53.27500000000002
 20
-7.9364250712761
 30
0.0
  0
POINT
  5
382
330
FE
100
AcDbEntity
  8
Defpoints
 62
     0
100
AcDbPoint
 10
74.072975024029
 20
-7.936425071276022
 30
0.0
  0
ENDBLK
  5
100
330
FE
100
AcDbEntity
  8
0
100
AcDbBlockEnd
  0
BLOCK
  5
118
330
117
100
AcDbEntity
  8
0
100
AcDbBlockBegin
  2
SW_DOWELSYMBOL_0
 70
     0
 10
0.0
 20
0.0
 30
0.0
  3
SW_DOWELSYMBOL_0
  1
SW_DOWELSYMBOL_0
  0
CIRCLE
  5
11A
330
117
100
AcDbEntity
  8
해칭선
 62
     0
100
AcDbCircle
 10
0.0
 20
0.0
 30
0.0
 40
3.000000000000001
  0
HATCH
  5
11B
330
117
100
AcDbEntity
  8
0
  6
Continuous
 62
     0
370
     0
100
AcDbHatch
 10
0.0
 20
0.0
 30
0.0
210
0.0
220
0.0
230
1.0
  2
SOLID
 70
     1
 71
     0
 91
        1
 92
        0
 93
        3
 72
     2
 10
0.0
 20
0.0
 40
3.000000000000001
 50
0.0
 51
90.0
 73
     1
 72
     1
 10
0.0
 20
3.000000000000001
 11
0.0
 21
0.0
 72
     1
 10
0.0
 20
0.0
 11
3.000000000000001
 21
0.0
 97
        0
 75
     0
 76
     1
 98
        1
 10
0.0
 20
0.0
  0
HATCH
  5
11C
330
117
100
AcDbEntity
  8
0
  6
Continuous
 62
     0
370
     0
100
AcDbHatch
 10
0.0
 20
0.0
 30
0.0
210
0.0
220
0.0
230
1.0
  2
SOLID
 70
     1
 71
     0
 91
        1
 92
        0
 93
        3
 72
     2
 10
0.0
 20
0.0
 40
3.000000000000001
 50
180.0
 51
270.0000000000008
 73
     1
 72
     1
 10
0.0
 20
-3.000000000000001
 11
0.0
 21
0.0
 72
     1
 10
0.0
 20
0.0
 11
-3.000000000000001
 21
0.0
 97
        0
 75
     0
 76
     1
 98
        1
 10
0.0
 20
0.0
  0
ENDBLK
  5
119
330
117
100
AcDbEntity
  8
0
100
AcDbBlockEnd
  0
BLOCK
  5
1D3
330
1D2
100
AcDbEntity
  8
0
100
AcDbBlockBegin
  2
*D8
 70
     1
 10
0.0
 20
0.0
 30
0.0
  3
*D8
  1
*D8
  0
LINE
  5
1D5
330
1D2
100
AcDbEntity
  8
치수문자_일반주서
 62
     0
370
    -2
100
AcDbLine
 10
99.60750000000006
 20
19.36649999999995
 30
0.0
 11
99.60750000000006
 21
27.71649999999996
 31
0.0
  0
LINE
  5
1D6
330
1D2
100
AcDbEntity
  8
치수문자_일반주서
 62
     0
370
    -2
100
AcDbLine
 10
67.85750000000006
 20
19.34314845620482
 30
0.0
 11
67.85750000000006
 21
27.71649999999996
 31
0.0
  0
LINE
  5
1D7
330
1D2
100
AcDbEntity
  8
치수문자_일반주서
 62
     0
370
    -2
100
AcDbLine
 10
96.30550000000005
 20
27.71649999999996
 30
0.0
 11
71.15950000000007
 21
27.71649999999996
 31
0.0
  0
SOLID
  5
1D8
330
1D2
100
AcDbEntity
  8
치수문자_일반주서
 62
     0
100
AcDbTrace
 10
96.30550000000005
 20
27.16616666666663
 30
0.0
 11
96.30550000000005
 21
28.2668333333333
 31
0.0
 12
99.60750000000006
 22
27.71649999999996
 32
0.0
 13
99.60750000000006
 23
27.71649999999996
 33
0.0
  0
SOLID
  5
1D9
330
1D2
100
AcDbEntity
  8
치수문자_일반주서
 62
     0
100
AcDbTrace
 10
71.15950000000007
 20
28.2668333333333
 30
0.0
 11
71.15950000000007
 21
27.16616666666663
 31
0.0
 12
67.85750000000006
 22
27.71649999999996
 32
0.0
 13
67.85750000000006
 23
27.71649999999996
 33
0.0
  0
MTEXT
  5
1DA
330
1D2
100
AcDbEntity
  8
치수문자_일반주서
 62
     0
100
AcDbMText
 10
83.73250000000006
 20
32.09149999999996
 30
0.0
 40
3.5
 41
0.0
 71
     2
 72
     1
  1
\A1;31.75 [1 1/4]
  7
SLDTEXTSTYLE0
 73
     1
 44
1.0
  0
POINT
  5
1DB
330
1D2
100
AcDbEntity
  8
Defpoints
 62
     0
100
AcDbPoint
 10
99.60750000000006
 20
19.30399999999995
 30
0.0
  0
POINT
  5
1DC
330
1D2
100
AcDbEntity
  8
Defpoints
 62
     0
100
AcDbPoint
 10
67.85750000000006
 20
19.28064845620482
 30
0.0
  0
POINT
  5
1DD
330
1D2
100
AcDbEntity
  8
Defpoints
 62
     0
100
AcDbPoint
 10
67.85750000000006
 20
27.71649999999996
 30
0.0
  0
ENDBLK
  5
1D4
330
1D2
100
AcDbEntity
  8
0
100
AcDbBlockEnd
  0
BLOCK
  5
1DF
330
1DE
100
AcDbEntity
  8
0
100
AcDbBlockBegin
  2
*D9
 70
     1
 10
0.0
 20
0.0
 30
0.0
  3
*D9
  1
*D9
  0
LINE
  5
1E1
330
1DE
100
AcDbEntity
  8
치수문자_일반주서
 62
     0
370
    -2
100
AcDbLine
 10
99.60750000000006
 20
19.36649999999995
 30
0.0
 11
99.60750000000004
 21
44.56314679328075
 31
0.0
  0
LINE
  5
1E2
330
1DE
100
AcDbEntity
  8
치수문자_일반주서
 62
     0
370
    -2
100
AcDbLine
 10
17.05750000000004
 20
18.09649999999995
 30
0.0
 11
17.05750000000003
 21
44.56314679328075
 31
0.0
  0
LINE
  5
1E3
330
1DE
100
AcDbEntity
  8
치수문자_일반주서
 62
     0
370
    -2
100
AcDbLine
 10
96.30550000000005
 20
44.56314679328075
 30
0.0
 11
20.35950000000003
 21
44.56314679328075
 31
0.0
  0
SOLID
  5
1E4
330
1DE
100
AcDbEntity
  8
치수문자_일반주서
 62
     0
100
AcDbTrace
 10
96.30550000000005
 20
44.01281345994742
 30
0.0
 11
96.30550000000005
 21
45.11348012661409
 31
0.0
 12
99.60750000000004
 22
44.56314679328075
 32
0.0
 13
99.60750000000004
 23
44.56314679328075
 33
0.0
  0
SOLID
  5
1E5
330
1DE
100
AcDbEntity
  8
치수문자_일반주서
 62
     0
100
AcDbTrace
 10
20.35950000000003
 20
45.11348012661409
 30
0.0
 11
20.35950000000003
 21
44.01281345994742
 31
0.0
 12
17.05750000000003
 22
44.56314679328075
 32
0.0
 13
17.05750000000003
 23
44.56314679328075
 33
0.0
  0
MTEXT
  5
1E6
330
1DE
100
AcDbEntity
  8
치수문자_일반주서
 62
     0
100
AcDbMText
 10
58.33250000000005
 20
48.93814679328075
 30
0.0
 40
3.5
 41
0.0
 71
     2
 72
     1
  1
\A1;82.55 [3 1/4]
  7
SLDTEXTSTYLE0
 73
     1
 44
1.0
  0
POINT
  5
1E7
330
1DE
100
AcDbEntity
  8
Defpoints
 62
     0
100
AcDbPoint
 10
99.60750000000006
 20
19.30399999999995
 30
0.0
  0
POINT
  5
1E8
330
1DE
100
AcDbEntity
  8
Defpoints
 62
     0
100
AcDbPoint
 10
17.05750000000004
 20
18.03399999999995
 30
0.0
  0
POINT
  5
1E9
330
1DE
100
AcDbEntity
  8
Defpoints
 62
     0
100
AcDbPoint
 10
17.05750000000004
 20
44.56314679328075
 30
0.0
  0
ENDBLK
  5
1E0
330
1DE
100
AcDbEntity
  8
0
100
AcDbBlockEnd
  0
BLOCK
  5
1EB
330
1EA
100
AcDbEntity
  8
0
100
AcDbBlockBegin
  2
*D10
 70
     1
 10
0.0
 20
0.0
 30
0.0
  3
*D10
  1
*D10
  0
LINE
  5
1ED
330
1EA
100
AcDbEntity
  8
치수문자_일반주서
 62
     0
370
    -2
100
AcDbLine
 10
18.26500000000005
 20
19.30399999999994
 30
0.0
 11
4.37500000000002
 21
19.30399999999989
 31
0.0
  0
LINE
  5
1EE
330
1EA
100
AcDbEntity
  8
치수문자_일반주서
 62
     0
370
    -2
100
AcDbLine
 10
18.26500000000005
 20
6.603999999999954
 30
0.0
 11
4.375000000000065
 21
6.603999999999901
 31
0.0
  0
LINE
  5
1EF
330
1EA
100
AcDbEntity
  8
치수문자_일반주서
 62
     0
370
    -2
100
AcDbLine
 10
4.375000000000032
 20
16.00199999999989
 30
0.0
 11
4.375000000000053
 21
9.9059999999999
 31
0.0
  0
SOLID
  5
1F0
330
1EA
100
AcDbEntity
  8
치수문자_일반주서
 62
     0
100
AcDbTrace
 10
4.925333333333366
 20
16.00199999999989
 30
0.0
 11
3.824666666666699
 21
16.00199999999989
 31
0.0
 12
4.37500000000002
 22
19.30399999999989
 32
0.0
 13
4.37500000000002
 23
19.30399999999989
 33
0.0
  0
SOLID
  5
1F1
330
1EA
100
AcDbEntity
  8
치수문자_일반주서
 62
     0
100
AcDbTrace
 10
3.82466666666672
 20
9.905999999999898
 30
0.0
 11
4.925333333333387
 21
9.905999999999901
 31
0.0
 12
4.375000000000065
 22
6.603999999999901
 32
0.0
 13
4.375000000000065
 23
6.603999999999901
 33
0.0
  0
MTEXT
  5
1F2
330
1EA
100
AcDbEntity
  8
치수문자_일반주서
 62
     0
100
AcDbMText
 10
0.0000000000000426
 20
12.95399999999993
 30
0.0
 40
3.5
 41
0.0
 71
     2
 72
     1
  1
\A1;%%c12.7 [1/2]
  7
SLDTEXTSTYLE0
 11
-3.496765431890260E-15
 21
1.0
 31
0.0
 73
     1
 44
1.0
  0
POINT
  5
1F3
330
1EA
100
AcDbEntity
  8
Defpoints
 62
     0
100
AcDbPoint
 10
18.32750000000005
 20
19.30399999999994
 30
0.0
  0
POINT
  5
1F4
330
1EA
100
AcDbEntity
  8
Defpoints
 62
     0
100
AcDbPoint
 10
18.32750000000005
 20
6.603999999999954
 30
0.0
  0
POINT
  5
1F5
330
1EA
100
AcDbEntity
  8
Defpoints
 62
     0
100
AcDbPoint
 10
4.375000000000064
 20
6.603999999999902
 30
0.0
  0
ENDBLK
  5
1EC
330
1EA
100
AcDbEntity
  8
0
100
AcDbBlockEnd
  0
BLOCK
  5
1F7
330
1F6
100
AcDbEntity
  8
0
100
AcDbBlockBegin
  2
*D11
 70
     1
 10
0.0
 20
0.0
 30
0.0
  3
*D11
  1
*D11
  0
LINE
  5
1F9
330
1F6
100
AcDbEntity
  8
치수문자_일반주서
 62
     0
370
    -2
100
AcDbLine
 10
99.67000000000006
 20
19.30399999999995
 30
0.0
 11
111.6412475092609
 21
19.304
 31
0.0
  0
LINE
  5
1FA
330
1F6
100
AcDbEntity
  8
치수문자_일반주서
 62
     0
370
    -2
100
AcDbLine
 10
99.67000000000006
 20
6.603999999999955
 30
0.0
 11
111.6412475092609
 21
6.603999999999999
 31
0.0
  0
LINE
  5
1FB
330
1F6
100
AcDbEntity
  8
치수문자_일반주서
 62
     0
370
    -2
100
AcDbLine
 10
111.6412475092609
 20
19.304
 30
0.0
 11
111.6412475092608
 21
51.50175000000004
 31
0.0
  0
LINE
  5
1FC
330
1F6
100
AcDbEntity
  8
치수문자_일반주서
 62
     0
370
    -2
100
AcDbLine
 10
111.6412475092609
 20
19.304
 30
0.0
 11
111.6412475092609
 21
6.603999999999999
 31
0.0
  0
LINE
  5
1FD
330
1F6
100
AcDbEntity
  8
치수문자_일반주서
 62
     0
370
    -2
100
AcDbLine
 10
111.6412475092609
 20
22.606
 30
0.0
 11
111.6412475092609
 21
25.908
 31
0.0
  0
LINE
  5
1FE
330
1F6
100
AcDbEntity
  8
치수문자_일반주서
 62
     0
370
    -2
100
AcDbLine
 10
111.641247509261
 20
3.302
 30
0.0
 11
111.641247509261
 21
0.0
 31
0.0
  0
SOLID
  5
1FF
330
1F6
100
AcDbEntity
  8
치수문자_일반주서
 62
     0
100
AcDbTrace
 10
111.0909141759276
 20
22.60599999999999
 30
0.0
 11
112.1915808425942
 21
22.606
 31
0.0
 12
111.6412475092609
 22
19.304
 32
0.0
 13
111.6412475092609
 23
19.304
 33
0.0
  0
SOLID
  5
200
330
1F6
100
AcDbEntity
  8
치수문자_일반주서
 62
     0
100
AcDbTrace
 10
112.1915808425943
 20
3.302000000000001
 30
0.0
 11
111.0909141759276
 21
3.301999999999998
 31
0.0
 12
111.6412475092609
 22
6.603999999999999
 32
0.0
 13
111.6412475092609
 23
6.603999999999999
 33
0.0
  0
MTEXT
  5
201
330
1F6
100
AcDbEntity
  8
치수문자_일반주서
 62
     0
100
AcDbMText
 10
107.2662475092608
 20
39.25175000000002
 30
0.0
 40
3.5
 41
0.0
 71
     2
 72
     1
  1
\A1;%%c12.7 [1/2]
  7
SLDTEXTSTYLE0
 11
-3.356894814614647E-15
 21
1.0
 31
0.0
 73
     1
 44
1.0
  0
POINT
  5
202
330
1F6
100
AcDbEntity
  8
Defpoints
 62
     0
100
AcDbPoint
 10
99.60750000000006
 20
19.30399999999995
 30
0.0
  0
POINT
  5
203
330
1F6
100
AcDbEntity
  8
Defpoints
 62
     0
100
AcDbPoint
 10
99.60750000000006
 20
6.603999999999955
 30
0.0
  0
POINT
  5
204
330
1F6
100
AcDbEntity
  8
Defpoints
 62
     0
100
AcDbPoint
 10
111.6412475092609
 20
6.604
 30
0.0
  0
ENDBLK
  5
1F8
330
1F6
100
AcDbEntity
  8
0
100
AcDbBlockEnd
  0
BLOCK
  5
230
330
22F
100
AcDbEntity
  8
0
100
AcDbBlockBegin
  2
*D12
 70
     1
 10
0.0
 20
0.0
 30
0.0
  3
*D12
  1
*D12
  0
LINE
  5
232
330
22F
100
AcDbEntity
  8
치수문자_일반주서
 62
     0
370
    -2
100
AcDbLine
 10
193.529771130354
 20
-29.70636824324086
 30
0.0
 11
193.529771130354
 21
-21.35636824324085
 31
0.0
  0
LINE
  5
233
330
22F
100
AcDbEntity
  8
치수문자_일반주서
 62
     0
370
    -2
100
AcDbLine
 10
161.779771130354
 20
-29.72971978703599
 30
0.0
 11
161.779771130354
 21
-21.35636824324085
 31
0.0
  0
LINE
  5
234
330
22F
100
AcDbEntity
  8
치수문자_일반주서
 62
     0
370
    -2
100
AcDbLine
 10
190.2277711303541
 20
-21.35636824324085
 30
0.0
 11
165.081771130354
 21
-21.35636824324085
 31
0.0
  0
SOLID
  5
235
330
22F
100
AcDbEntity
  8
치수문자_일반주서
 62
     0
100
AcDbTrace
 10
190.2277711303541
 20
-21.90670157657419
 30
0.0
 11
190.2277711303541
 21
-20.80603490990752
 31
0.0
 12
193.529771130354
 22
-21.35636824324085
 32
0.0
 13
193.529771130354
 23
-21.35636824324085
 33
0.0
  0
SOLID
  5
236
330
22F
100
AcDbEntity
  8
치수문자_일반주서
 62
     0
100
AcDbTrace
 10
165.081771130354
 20
-20.80603490990752
 30
0.0
 11
165.081771130354
 21
-21.90670157657419
 31
0.0
 12
161.779771130354
 22
-21.35636824324085
 32
0.0
 13
161.779771130354
 23
-21.35636824324085
 33
0.0
  0
MTEXT
  5
237
330
22F
100
AcDbEntity
  8
치수문자_일반주서
 62
     0
100
AcDbMText
 10
177.654771130354
 20
-16.98136824324085
 30
0.0
 40
3.5
 41
0.0
 71
     2
 72
     1
  1
\A1;31.75 [1 1/4]
  7
SLDTEXTSTYLE0
 73
     1
 44
1.0
  0
POINT
  5
238
330
22F
100
AcDbEntity
  8
Defpoints
 62
     0
100
AcDbPoint
 10
193.529771130354
 20
-29.76886824324086
 30
0.0
  0
POINT
  5
239
330
22F
100
AcDbEntity
  8
Defpoints
 62
     0
100
AcDbPoint
 10
161.779771130354
 20
-29.79221978703599
 30
0.0
  0
POINT
  5
23A
330
22F
100
AcDbEntity
  8
Defpoints
 62
     0
100
AcDbPoint
 10
161.779771130354
 20
-21.35636824324085
 30
0.0
  0
ENDBLK
  5
231
330
22F
100
AcDbEntity
  8
0
100
AcDbBlockEnd
  0
BLOCK
  5
23C
330
23B
100
AcDbEntity
  8
0
100
AcDbBlockBegin
  2
*D13
 70
     1
 10
0.0
 20
0.0
 30
0.0
  3
*D13
  1
*D13
  0
LINE
  5
23E
330
23B
100
AcDbEntity
  8
치수문자_일반주서
 62
     0
370
    -2
100
AcDbLine
 10
193.529771130354
 20
-29.70636824324086
 30
0.0
 11
193.529771130354
 21
-4.509721449960061
 31
0.0
  0
LINE
  5
23F
330
23B
100
AcDbEntity
  8
치수문자_일반주서
 62
     0
370
    -2
100
AcDbLine
 10
110.979771130354
 20
-30.97636824324086
 30
0.0
 11
110.979771130354
 21
-4.509721449960061
 31
0.0
  0
LINE
  5
240
330
23B
100
AcDbEntity
  8
치수문자_일반주서
 62
     0
370
    -2
100
AcDbLine
 10
190.2277711303541
 20
-4.509721449960061
 30
0.0
 11
114.281771130354
 21
-4.509721449960061
 31
0.0
  0
SOLID
  5
241
330
23B
100
AcDbEntity
  8
치수문자_일반주서
 62
     0
100
AcDbTrace
 10
190.2277711303541
 20
-5.060054783293395
 30
0.0
 11
190.2277711303541
 21
-3.959388116626728
 31
0.0
 12
193.529771130354
 22
-4.509721449960061
 32
0.0
 13
193.529771130354
 23
-4.509721449960061
 33
0.0
  0
SOLID
  5
242
330
23B
100
AcDbEntity
  8
치수문자_일반주서
 62
     0
100
AcDbTrace
 10
114.281771130354
 20
-3.959388116626728
 30
0.0
 11
114.281771130354
 21
-5.060054783293395
 31
0.0
 12
110.979771130354
 22
-4.509721449960061
 32
0.0
 13
110.979771130354
 23
-4.509721449960061
 33
0.0
  0
MTEXT
  5
243
330
23B
100
AcDbEntity
  8
치수문자_일반주서
 62
     0
100
AcDbMText
 10
152.254771130354
 20
-0.1347214499600611
 30
0.0
 40
3.5
 41
0.0
 71
     2
 72
     1
  1
\A1;82.55 [3 1/4]
  7
SLDTEXTSTYLE0
 73
     1
 44
1.0
  0
POINT
  5
244
330
23B
100
AcDbEntity
  8
Defpoints
 62
     0
100
AcDbPoint
 10
193.529771130354
 20
-29.76886824324086
 30
0.0
  0
POINT
  5
245
330
23B
100
AcDbEntity
  8
Defpoints
 62
     0
100
AcDbPoint
 10
110.979771130354
 20
-31.03886824324086
 30
0.0
  0
POINT
  5
246
330
23B
100
AcDbEntity
  8
Defpoints
 62
     0
100
AcDbPoint
 10
110.979771130354
 20
-4.509721449960061
 30
0.0
  0
ENDBLK
  5
23D
330
23B
100
AcDbEntity
  8
0
100
AcDbBlockEnd
  0
BLOCK
  5
248
330
247
100
AcDbEntity
  8
0
100
AcDbBlockBegin
  2
*D14
 70
     1
 10
0.0
 20
0.0
 30
0.0
  3
*D14
  1
*D14
  0
LINE
  5
24A
330
247
100
AcDbEntity
  8
치수문자_일반주서
 62
     0
370
    -2
100
AcDbLine
 10
112.187271130354
 20
-29.76886824324087
 30
0.0
 11
98.29727113035402
 21
-29.76886824324092
 31
0.0
  0
LINE
  5
24B
330
247
100
AcDbEntity
  8
치수문자_일반주서
 62
     0
370
    -2
100
AcDbLine
 10
112.187271130354
 20
-42.46886824324086
 30
0.0
 11
98.29727113035406
 21
-42.46886824324091
 31
0.0
  0
LINE
  5
24C
330
247
100
AcDbEntity
  8
치수문자_일반주서
 62
     0
370
    -2
100
AcDbLine
 10
98.29727113035403
 20
-33.07086824324092
 30
0.0
 11
98.29727113035405
 21
-39.16686824324091
 31
0.0
  0
SOLID
  5
24D
330
247
100
AcDbEntity
  8
치수문자_일반주서
 62
     0
100
AcDbTrace
 10
98.84760446368736
 20
-33.07086824324092
 30
0.0
 11
97.7469377970207
 21
-33.07086824324092
 31
0.0
 12
98.29727113035402
 22
-29.76886824324092
 32
0.0
 13
98.29727113035402
 23
-29.76886824324092
 33
0.0
  0
SOLID
  5
24E
330
247
100
AcDbEntity
  8
치수문자_일반주서
 62
     0
100
AcDbTrace
 10
97.74693779702072
 20
-39.16686824324091
 30
0.0
 11
98.84760446368738
 21
-39.16686824324091
 31
0.0
 12
98.29727113035406
 22
-42.46886824324091
 32
0.0
 13
98.29727113035406
 23
-42.46886824324091
 33
0.0
  0
MTEXT
  5
24F
330
247
100
AcDbEntity
  8
치수문자_일반주서
 62
     0
100
AcDbMText
 10
93.92227113035403
 20
-36.11886824324088
 30
0.0
 40
3.5
 41
0.0
 71
     2
 72
     1
  1
\A1;%%c12.7 [1/2]
  7
SLDTEXTSTYLE0
 11
-3.356894814614651E-15
 21
1.0
 31
0.0
 73
     1
 44
1.0
  0
POINT
  5
250
330
247
100
AcDbEntity
  8
Defpoints
 62
     0
100
AcDbPoint
 10
112.249771130354
 20
-29.76886824324087
 30
0.0
  0
POINT
  5
251
330
247
100
AcDbEntity
  8
Defpoints
 62
     0
100
AcDbPoint
 10
112.249771130354
 20
-42.46886824324086
 30
0.0
  0
POINT
  5
252
330
247
100
AcDbEntity
  8
Defpoints
 62
     0
100
AcDbPoint
 10
98.29727113035406
 20
-42.46886824324091
 30
0.0
  0
ENDBLK
  5
249
330
247
100
AcDbEntity
  8
0
100
AcDbBlockEnd
  0
BLOCK
  5
254
330
253
100
AcDbEntity
  8
0
100
AcDbBlockBegin
  2
*D15
 70
     1
 10
0.0
 20
0.0
 30
0.0
  3
*D15
  1
*D15
  0
LINE
  5
256
330
253
100
AcDbEntity
  8
치수문자_일반주서
 62
     0
370
    -2
100
AcDbLine
 10
193.592271130354
 20
-29.76886824324086
 30
0.0
 11
205.5635186396149
 21
-29.76886824324082
 31
0.0
  0
LINE
  5
257
330
253
100
AcDbEntity
  8
치수문자_일반주서
 62
     0
370
    -2
100
AcDbLine
 10
193.592271130354
 20
-42.46886824324086
 30
0.0
 11
205.563518639615
 21
-42.46886824324081
 31
0.0
  0
LINE
  5
258
330
253
100
AcDbEntity
  8
치수문자_일반주서
 62
     0
370
    -2
100
AcDbLine
 10
205.5635186396149
 20
-29.76886824324082
 30
0.0
 11
205.5635186396148
 21
2.428881756759225
 31
0.0
  0
LINE
  5
259
330
253
100
AcDbEntity
  8
치수문자_일반주서
 62
     0
370
    -2
100
AcDbLine
 10
205.5635186396149
 20
-29.76886824324082
 30
0.0
 11
205.563518639615
 21
-42.46886824324081
 31
0.0
  0
LINE
  5
25A
330
253
100
AcDbEntity
  8
치수문자_일반주서
 62
     0
370
    -2
100
AcDbLine
 10
205.5635186396149
 20
-26.46686824324082
 30
0.0
 11
205.5635186396148
 21
-23.16486824324082
 31
0.0
  0
LINE
  5
25B
330
253
100
AcDbEntity
  8
치수문자_일반주서
 62
     0
370
    -2
100
AcDbLine
 10
205.563518639615
 20
-45.77086824324081
 30
0.0
 11
205.563518639615
 21
-49.07286824324081
 31
0.0
  0
SOLID
  5
25C
330
253
100
AcDbEntity
  8
치수문자_일반주서
 62
     0
100
AcDbTrace
 10
205.0131853062815
 20
-26.46686824324082
 30
0.0
 11
206.1138519729482
 21
-26.46686824324081
 31
0.0
 12
205.5635186396149
 22
-29.76886824324082
 32
0.0
 13
205.5635186396149
 23
-29.76886824324082
 33
0.0
  0
SOLID
  5
25D
330
253
100
AcDbEntity
  8
치수문자_일반주서
 62
     0
100
AcDbTrace
 10
206.1138519729483
 20
-45.77086824324081
 30
0.0
 11
205.0131853062817
 21
-45.77086824324081
 31
0.0
 12
205.563518639615
 22
-42.46886824324081
 32
0.0
 13
205.563518639615
 23
-42.46886824324081
 33
0.0
  0
MTEXT
  5
25E
330
253
100
AcDbEntity
  8
치수문자_일반주서
 62
     0
100
AcDbMText
 10
201.1885186396148
 20
-9.821118243240795
 30
0.0
 40
3.5
 41
0.0
 71
     2
 72
     1
  1
\A1;%%c12.7 [1/2]
  7
SLDTEXTSTYLE0
 11
-4.475859752819530E-15
 21
1.0
 31
0.0
 73
     1
 44
1.0
  0
POINT
  5
25F
330
253
100
AcDbEntity
  8
Defpoints
 62
     0
100
AcDbPoint
 10
193.529771130354
 20
-29.76886824324086
 30
0.0
  0
POINT
  5
260
330
253
100
AcDbEntity
  8
Defpoints
 62
     0
100
AcDbPoint
 10
193.529771130354
 20
-42.46886824324086
 30
0.0
  0
POINT
  5
261
330
253
100
AcDbEntity
  8
Defpoints
 62
     0
100
AcDbPoint
 10
205.5635186396149
 20
-42.46886824324081
 30
0.0
  0
ENDBLK
  5
255
330
253
100
AcDbEntity
  8
0
100
AcDbBlockEnd
  0
BLOCK
  5
2F0
330
2EF
100
AcDbEntity
  8
0
100
AcDbBlockBegin
  2
*D17
 70
     1
 10
0.0
 20
0.0
 30
0.0
  3
*D17
  1
*D17
  0
LINE
  5
2F2
330
2EF
100
AcDbEntity
  8
치수문자_일반주서
 62
     0
370
    -2
100
AcDbLine
 10
99.60750000000004
 20
19.36649999999996
 30
0.0
 11
99.60750000000004
 21
27.71649999999996
 31
0.0
  0
LINE
  5
2F3
330
2EF
100
AcDbEntity
  8
치수문자_일반주서
 62
     0
370
    -2
100
AcDbLine
 10
67.85750000000006
 20
19.34314845620482
 30
0.0
 11
67.85750000000006
 21
27.71649999999996
 31
0.0
  0
LINE
  5
2F4
330
2EF
100
AcDbEntity
  8
치수문자_일반주서
 62
     0
370
    -2
100
AcDbLine
 10
96.30550000000005
 20
27.71649999999996
 30
0.0
 11
71.15950000000007
 21
27.71649999999996
 31
0.0
  0
SOLID
  5
2F5
330
2EF
100
AcDbEntity
  8
치수문자_일반주서
 62
     0
100
AcDbTrace
 10
96.30550000000005
 20
27.16616666666663
 30
0.0
 11
96.30550000000005
 21
28.2668333333333
 31
0.0
 12
99.60750000000004
 22
27.71649999999996
 32
0.0
 13
99.60750000000004
 23
27.71649999999996
 33
0.0
  0
SOLID
  5
2F6
330
2EF
100
AcDbEntity
  8
치수문자_일반주서
 62
     0
100
AcDbTrace
 10
71.15950000000007
 20
28.2668333333333
 30
0.0
 11
71.15950000000007
 21
27.16616666666663
 31
0.0
 12
67.85750000000006
 22
27.71649999999996
 32
0.0
 13
67.85750000000006
 23
27.71649999999996
 33
0.0
  0
MTEXT
  5
2F7
330
2EF
100
AcDbEntity
  8
치수문자_일반주서
 62
     0
100
AcDbMText
 10
83.73250000000006
 20
32.09149999999997
 30
0.0
 40
3.5
 41
0.0
 71
     2
 72
     1
  1
\A1;31.75 [1 1/4]
  7
SLDTEXTSTYLE0
 73
     1
 44
1.0
  0
POINT
  5
2F8
330
2EF
100
AcDbEntity
  8
Defpoints
 62
     0
100
AcDbPoint
 10
99.60750000000004
 20
19.30399999999996
 30
0.0
  0
POINT
  5
2F9
330
2EF
100
AcDbEntity
  8
Defpoints
 62
     0
100
AcDbPoint
 10
67.85750000000006
 20
19.28064845620482
 30
0.0
  0
POINT
  5
2FA
330
2EF
100
AcDbEntity
  8
Defpoints
 62
     0
100
AcDbPoint
 10
67.85750000000006
 20
27.71649999999996
 30
0.0
  0
ENDBLK
  5
2F1
330
2EF
100
AcDbEntity
  8
0
100
AcDbBlockEnd
  0
BLOCK
  5
2FC
330
2FB
100
AcDbEntity
  8
0
100
AcDbBlockBegin
  2
*D18
 70
     1
 10
0.0
 20
0.0
 30
0.0
  3
*D18
  1
*D18
  0
LINE
  5
2FE
330
2FB
100
AcDbEntity
  8
치수문자_일반주서
 62
     0
370
    -2
100
AcDbLine
 10
99.60750000000004
 20
19.36649999999996
 30
0.0
 11
99.60750000000004
 21
44.56314679328075
 31
0.0
  0
LINE
  5
2FF
330
2FB
100
AcDbEntity
  8
치수문자_일반주서
 62
     0
370
    -2
100
AcDbLine
 10
17.05750000000005
 20
18.09649999999995
 30
0.0
 11
17.05750000000005
 21
44.56314679328075
 31
0.0
  0
LINE
  5
300
330
2FB
100
AcDbEntity
  8
치수문자_일반주서
 62
     0
370
    -2
100
AcDbLine
 10
96.30550000000005
 20
44.56314679328075
 30
0.0
 11
20.35950000000005
 21
44.56314679328075
 31
0.0
  0
SOLID
  5
301
330
2FB
100
AcDbEntity
  8
치수문자_일반주서
 62
     0
100
AcDbTrace
 10
96.30550000000005
 20
44.01281345994742
 30
0.0
 11
96.30550000000005
 21
45.11348012661409
 31
0.0
 12
99.60750000000004
 22
44.56314679328075
 32
0.0
 13
99.60750000000004
 23
44.56314679328075
 33
0.0
  0
SOLID
  5
302
330
2FB
100
AcDbEntity
  8
치수문자_일반주서
 62
     0
100
AcDbTrace
 10
20.35950000000005
 20
45.11348012661409
 30
0.0
 11
20.35950000000005
 21
44.01281345994742
 31
0.0
 12
17.05750000000005
 22
44.56314679328075
 32
0.0
 13
17.05750000000005
 23
44.56314679328075
 33
0.0
  0
MTEXT
  5
303
330
2FB
100
AcDbEntity
  8
치수문자_일반주서
 62
     0
100
AcDbMText
 10
58.33250000000005
 20
48.93814679328075
 30
0.0
 40
3.5
 41
0.0
 71
     2
 72
     1
  1
\A1;82.55 [3 1/4]
  7
SLDTEXTSTYLE0
 73
     1
 44
1.0
  0
POINT
  5
304
330
2FB
100
AcDbEntity
  8
Defpoints
 62
     0
100
AcDbPoint
 10
99.60750000000004
 20
19.30399999999996
 30
0.0
  0
POINT
  5
305
330
2FB
100
AcDbEntity
  8
Defpoints
 62
     0
100
AcDbPoint
 10
17.05750000000005
 20
18.03399999999995
 30
0.0
  0
POINT
  5
306
330
2FB
100
AcDbEntity
  8
Defpoints
 62
     0
100
AcDbPoint
 10
17.05750000000005
 20
44.56314679328075
 30
0.0
  0
ENDBLK
  5
2FD
330
2FB
100
AcDbEntity
  8
0
100
AcDbBlockEnd
  0
BLOCK
  5
308
330
307
100
AcDbEntity
  8
0
100
AcDbBlockBegin
  2
*D19
 70
     1
 10
0.0
 20
0.0
 30
0.0
  3
*D19
  1
*D19
  0
LINE
  5
30A
330
307
100
AcDbEntity
  8
치수문자_일반주서
 62
     0
370
    -2
100
AcDbLine
 10
18.26500000000006
 20
19.30399999999995
 30
0.0
 11
4.37500000000002
 21
19.3039999999999
 31
0.0
  0
LINE
  5
30B
330
307
100
AcDbEntity
  8
치수문자_일반주서
 62
     0
370
    -2
100
AcDbLine
 10
18.26500000000006
 20
6.603999999999957
 30
0.0
 11
4.375000000000065
 21
6.603999999999908
 31
0.0
  0
LINE
  5
30C
330
307
100
AcDbEntity
  8
치수문자_일반주서
 62
     0
370
    -2
100
AcDbLine
 10
4.375000000000032
 20
16.0019999999999
 30
0.0
 11
4.375000000000053
 21
9.905999999999906
 31
0.0
  0
SOLID
  5
30D
330
307
100
AcDbEntity
  8
치수문자_일반주서
 62
     0
100
AcDbTrace
 10
4.925333333333366
 20
16.0019999999999
 30
0.0
 11
3.824666666666699
 21
16.00199999999989
 31
0.0
 12
4.37500000000002
 22
19.3039999999999
 32
0.0
 13
4.37500000000002
 23
19.3039999999999
 33
0.0
  0
SOLID
  5
30E
330
307
100
AcDbEntity
  8
치수문자_일반주서
 62
     0
100
AcDbTrace
 10
3.82466666666672
 20
9.905999999999905
 30
0.0
 11
4.925333333333387
 21
9.905999999999908
 31
0.0
 12
4.375000000000065
 22
6.603999999999908
 32
0.0
 13
4.375000000000065
 23
6.603999999999908
 33
0.0
  0
MTEXT
  5
30F
330
307
100
AcDbEntity
  8
치수문자_일반주서
 62
     0
100
AcDbMText
 10
0.0000000000000426
 20
12.95399999999993
 30
0.0
 40
3.5
 41
0.0
 71
     2
 72
     1
  1
\A1;%%c12.7 [1/2]
  7
SLDTEXTSTYLE0
 11
-3.496765431890259E-15
 21
1.0
 31
0.0
 73
     1
 44
1.0
  0
POINT
  5
310
330
307
100
AcDbEntity
  8
Defpoints
 62
     0
100
AcDbPoint
 10
18.32750000000006
 20
19.30399999999995
 30
0.0
  0
POINT
  5
311
330
307
100
AcDbEntity
  8
Defpoints
 62
     0
100
AcDbPoint
 10
18.32750000000006
 20
6.603999999999957
 30
0.0
  0
POINT
  5
312
330
307
100
AcDbEntity
  8
Defpoints
 62
     0
100
AcDbPoint
 10
4.375000000000064
 20
6.603999999999905
 30
0.0
  0
ENDBLK
  5
309
330
307
100
AcDbEntity
  8
0
100
AcDbBlockEnd
  0
BLOCK
  5
314
330
313
100
AcDbEntity
  8
0
100
AcDbBlockBegin
  2
*D20
 70
     1
 10
0.0
 20
0.0
 30
0.0
  3
*D20
  1
*D20
  0
LINE
  5
316
330
313
100
AcDbEntity
  8
치수문자_일반주서
 62
     0
370
    -2
100
AcDbLine
 10
99.67000000000004
 20
19.30399999999996
 30
0.0
 11
111.6412475092609
 21
19.30400000000001
 31
0.0
  0
LINE
  5
317
330
313
100
AcDbEntity
  8
치수문자_일반주서
 62
     0
370
    -2
100
AcDbLine
 10
99.67000000000004
 20
6.603999999999958
 30
0.0
 11
111.6412475092609
 21
6.603999999999999
 31
0.0
  0
LINE
  5
318
330
313
100
AcDbEntity
  8
치수문자_일반주서
 62
     0
370
    -2
100
AcDbLine
 10
111.6412475092609
 20
19.30400000000001
 30
0.0
 11
111.6412475092608
 21
51.50175000000004
 31
0.0
  0
LINE
  5
319
330
313
100
AcDbEntity
  8
치수문자_일반주서
 62
     0
370
    -2
100
AcDbLine
 10
111.6412475092609
 20
19.30400000000001
 30
0.0
 11
111.6412475092609
 21
6.603999999999999
 31
0.0
  0
LINE
  5
31A
330
313
100
AcDbEntity
  8
치수문자_일반주서
 62
     0
370
    -2
100
AcDbLine
 10
111.6412475092609
 20
22.60600000000001
 30
0.0
 11
111.6412475092609
 21
25.908
 31
0.0
  0
LINE
  5
31B
330
313
100
AcDbEntity
  8
치수문자_일반주서
 62
     0
370
    -2
100
AcDbLine
 10
111.6412475092609
 20
3.302
 30
0.0
 11
111.641247509261
 21
0.0
 31
0.0
  0
SOLID
  5
31C
330
313
100
AcDbEntity
  8
치수문자_일반주서
 62
     0
100
AcDbTrace
 10
111.0909141759276
 20
22.606
 30
0.0
 11
112.1915808425942
 21
22.60600000000001
 31
0.0
 12
111.6412475092609
 22
19.30400000000001
 32
0.0
 13
111.6412475092609
 23
19.30400000000001
 33
0.0
  0
SOLID
  5
31D
330
313
100
AcDbEntity
  8
치수문자_일반주서
 62
     0
100
AcDbTrace
 10
112.1915808425943
 20
3.302000000000001
 30
0.0
 11
111.0909141759276
 21
3.301999999999998
 31
0.0
 12
111.6412475092609
 22
6.603999999999999
 32
0.0
 13
111.6412475092609
 23
6.603999999999999
 33
0.0
  0
MTEXT
  5
31E
330
313
100
AcDbEntity
  8
치수문자_일반주서
 62
     0
100
AcDbMText
 10
107.2662475092608
 20
39.25175000000003
 30
0.0
 40
3.5
 41
0.0
 71
     2
 72
     1
  1
\A1;%%c12.7 [1/2]
  7
SLDTEXTSTYLE0
 11
-3.356894814614646E-15
 21
1.0
 31
0.0
 73
     1
 44
1.0
  0
POINT
  5
31F
330
313
100
AcDbEntity
  8
Defpoints
 62
     0
100
AcDbPoint
 10
99.60750000000004
 20
19.30399999999996
 30
0.0
  0
POINT
  5
320
330
313
100
AcDbEntity
  8
Defpoints
 62
     0
100
AcDbPoint
 10
99.60750000000004
 20
6.603999999999958
 30
0.0
  0
POINT
  5
321
330
313
100
AcDbEntity
  8
Defpoints
 62
     0
100
AcDbPoint
 10
111.6412475092609
 20
6.604000000000004
 30
0.0
  0
ENDBLK
  5
315
330
313
100
AcDbEntity
  8
0
100
AcDbBlockEnd
  0
BLOCK
  5
34D
330
34C
100
AcDbEntity
  8
0
100
AcDbBlockBegin
  2
*D21
 70
     1
 10
0.0
 20
0.0
 30
0.0
  3
*D21
  1
*D21
  0
LINE
  5
34F
330
34C
100
AcDbEntity
  8
치수문자_일반주서
 62
     0
370
    -2
100
AcDbLine
 10
217.028822908733
 20
-68.43933014945476
 30
0.0
 11
217.028822908733
 21
-60.08933014945475
 31
0.0
  0
LINE
  5
350
330
34C
100
AcDbEntity
  8
치수문자_일반주서
 62
     0
370
    -2
100
AcDbLine
 10
185.278822908733
 20
-68.46268169324989
 30
0.0
 11
185.278822908733
 21
-60.08933014945475
 31
0.0
  0
LINE
  5
351
330
34C
100
AcDbEntity
  8
치수문자_일반주서
 62
     0
370
    -2
100
AcDbLine
 10
213.726822908733
 20
-60.08933014945475
 30
0.0
 11
188.580822908733
 21
-60.08933014945475
 31
0.0
  0
SOLID
  5
352
330
34C
100
AcDbEntity
  8
치수문자_일반주서
 62
     0
100
AcDbTrace
 10
213.726822908733
 20
-60.63966348278809
 30
0.0
 11
213.726822908733
 21
-59.53899681612142
 31
0.0
 12
217.028822908733
 22
-60.08933014945475
 32
0.0
 13
217.028822908733
 23
-60.08933014945475
 33
0.0
  0
SOLID
  5
353
330
34C
100
AcDbEntity
  8
치수문자_일반주서
 62
     0
100
AcDbTrace
 10
188.580822908733
 20
-59.53899681612142
 30
0.0
 11
188.580822908733
 21
-60.63966348278809
 31
0.0
 12
185.278822908733
 22
-60.08933014945475
 32
0.0
 13
185.278822908733
 23
-60.08933014945475
 33
0.0
  0
MTEXT
  5
354
330
34C
100
AcDbEntity
  8
치수문자_일반주서
 62
     0
100
AcDbMText
 10
201.153822908733
 20
-55.71433014945475
 30
0.0
 40
3.5
 41
0.0
 71
     2
 72
     1
  1
\A1;31.75 [1 1/4]
  7
SLDTEXTSTYLE0
 73
     1
 44
1.0
  0
POINT
  5
355
330
34C
100
AcDbEntity
  8
Defpoints
 62
     0
100
AcDbPoint
 10
217.028822908733
 20
-68.50183014945476
 30
0.0
  0
POINT
  5
356
330
34C
100
AcDbEntity
  8
Defpoints
 62
     0
100
AcDbPoint
 10
185.278822908733
 20
-68.52518169324989
 30
0.0
  0
POINT
  5
357
330
34C
100
AcDbEntity
  8
Defpoints
 62
     0
100
AcDbPoint
 10
185.278822908733
 20
-60.08933014945475
 30
0.0
  0
ENDBLK
  5
34E
330
34C
100
AcDbEntity
  8
0
100
AcDbBlockEnd
  0
BLOCK
  5
359
330
358
100
AcDbEntity
  8
0
100
AcDbBlockBegin
  2
*D22
 70
     1
 10
0.0
 20
0.0
 30
0.0
  3
*D22
  1
*D22
  0
LINE
  5
35B
330
358
100
AcDbEntity
  8
치수문자_일반주서
 62
     0
370
    -2
100
AcDbLine
 10
217.028822908733
 20
-68.43933014945476
 30
0.0
 11
217.028822908733
 21
-43.24268335617397
 31
0.0
  0
LINE
  5
35C
330
358
100
AcDbEntity
  8
치수문자_일반주서
 62
     0
370
    -2
100
AcDbLine
 10
134.478822908733
 20
-69.70933014945477
 30
0.0
 11
134.478822908733
 21
-43.24268335617397
 31
0.0
  0
LINE
  5
35D
330
358
100
AcDbEntity
  8
치수문자_일반주서
 62
     0
370
    -2
100
AcDbLine
 10
213.726822908733
 20
-43.24268335617397
 30
0.0
 11
137.780822908733
 21
-43.24268335617397
 31
0.0
  0
SOLID
  5
35E
330
358
100
AcDbEntity
  8
치수문자_일반주서
 62
     0
100
AcDbTrace
 10
213.726822908733
 20
-43.7930166895073
 30
0.0
 11
213.726822908733
 21
-42.69235002284064
 31
0.0
 12
217.028822908733
 22
-43.24268335617397
 32
0.0
 13
217.028822908733
 23
-43.24268335617397
 33
0.0
  0
SOLID
  5
35F
330
358
100
AcDbEntity
  8
치수문자_일반주서
 62
     0
100
AcDbTrace
 10
137.780822908733
 20
-42.69235002284064
 30
0.0
 11
137.780822908733
 21
-43.7930166895073
 31
0.0
 12
134.478822908733
 22
-43.24268335617397
 32
0.0
 13
134.478822908733
 23
-43.24268335617397
 33
0.0
  0
MTEXT
  5
360
330
358
100
AcDbEntity
  8
치수문자_일반주서
 62
     0
100
AcDbMText
 10
175.753822908733
 20
-38.86768335617397
 30
0.0
 40
3.5
 41
0.0
 71
     2
 72
     1
  1
\A1;82.55 [3 1/4]
  7
SLDTEXTSTYLE0
 73
     1
 44
1.0
  0
POINT
  5
361
330
358
100
AcDbEntity
  8
Defpoints
 62
     0
100
AcDbPoint
 10
217.028822908733
 20
-68.50183014945476
 30
0.0
  0
POINT
  5
362
330
358
100
AcDbEntity
  8
Defpoints
 62
     0
100
AcDbPoint
 10
134.478822908733
 20
-69.77183014945477
 30
0.0
  0
POINT
  5
363
330
358
100
AcDbEntity
  8
Defpoints
 62
     0
100
AcDbPoint
 10
134.478822908733
 20
-43.24268335617397
 30
0.0
  0
ENDBLK
  5
35A
330
358
100
AcDbEntity
  8
0
100
AcDbBlockEnd
  0
BLOCK
  5
365
330
364
100
AcDbEntity
  8
0
100
AcDbBlockBegin
  2
*D23
 70
     1
 10
0.0
 20
0.0
 30
0.0
  3
*D23
  1
*D23
  0
LINE
  5
367
330
364
100
AcDbEntity
  8
치수문자_일반주서
 62
     0
370
    -2
100
AcDbLine
 10
135.686322908733
 20
-68.50183014945478
 30
0.0
 11
121.796322908733
 21
-68.50183014945483
 31
0.0
  0
LINE
  5
368
330
364
100
AcDbEntity
  8
치수문자_일반주서
 62
     0
370
    -2
100
AcDbLine
 10
135.686322908733
 20
-81.20183014945476
 30
0.0
 11
121.796322908733
 21
-81.20183014945482
 31
0.0
  0
LINE
  5
369
330
364
100
AcDbEntity
  8
치수문자_일반주서
 62
     0
370
    -2
100
AcDbLine
 10
121.796322908733
 20
-71.80383014945483
 30
0.0
 11
121.796322908733
 21
-77.89983014945483
 31
0.0
  0
SOLID
  5
36A
330
364
100
AcDbEntity
  8
치수문자_일반주서
 62
     0
100
AcDbTrace
 10
122.3466562420663
 20
-71.80383014945483
 30
0.0
 11
121.2459895753997
 21
-71.80383014945483
 31
0.0
 12
121.796322908733
 22
-68.50183014945483
 32
0.0
 13
121.796322908733
 23
-68.50183014945483
 33
0.0
  0
SOLID
  5
36B
330
364
100
AcDbEntity
  8
치수문자_일반주서
 62
     0
100
AcDbTrace
 10
121.2459895753997
 20
-77.89983014945483
 30
0.0
 11
122.3466562420664
 21
-77.89983014945483
 31
0.0
 12
121.796322908733
 22
-81.20183014945482
 32
0.0
 13
121.796322908733
 23
-81.20183014945482
 33
0.0
  0
MTEXT
  5
36C
330
364
100
AcDbEntity
  8
치수문자_일반주서
 62
     0
100
AcDbMText
 10
117.421322908733
 20
-74.85183014945478
 30
0.0
 40
3.5
 41
0.0
 71
     2
 72
     1
  1
\A1;%%c12.7 [1/2]
  7
SLDTEXTSTYLE0
 11
-3.356894814614650E-15
 21
1.0
 31
0.0
 73
     1
 44
1.0
  0
POINT
  5
36D
330
364
100
AcDbEntity
  8
Defpoints
 62
     0
100
AcDbPoint
 10
135.748822908733
 20
-68.50183014945478
 30
0.0
  0
POINT
  5
36E
330
364
100
AcDbEntity
  8
Defpoints
 62
     0
100
AcDbPoint
 10
135.748822908733
 20
-81.20183014945476
 30
0.0
  0
POINT
  5
36F
330
364
100
AcDbEntity
  8
Defpoints
 62
     0
100
AcDbPoint
 10
121.796322908733
 20
-81.20183014945482
 30
0.0
  0
ENDBLK
  5
366
330
364
100
AcDbEntity
  8
0
100
AcDbBlockEnd
  0
BLOCK
  5
371
330
370
100
AcDbEntity
  8
0
100
AcDbBlockBegin
  2
*D24
 70
     1
 10
0.0
 20
0.0
 30
0.0
  3
*D24
  1
*D24
  0
LINE
  5
373
330
370
100
AcDbEntity
  8
치수문자_일반주서
 62
     0
370
    -2
100
AcDbLine
 10
217.091322908733
 20
-68.50183014945476
 30
0.0
 11
229.0625704179939
 21
-68.50183014945472
 31
0.0
  0
LINE
  5
374
330
370
100
AcDbEntity
  8
치수문자_일반주서
 62
     0
370
    -2
100
AcDbLine
 10
217.091322908733
 20
-81.20183014945476
 30
0.0
 11
229.062570417994
 21
-81.20183014945472
 31
0.0
  0
LINE
  5
375
330
370
100
AcDbEntity
  8
치수문자_일반주서
 62
     0
370
    -2
100
AcDbLine
 10
229.0625704179939
 20
-68.50183014945472
 30
0.0
 11
229.0625704179938
 21
-36.30408014945468
 31
0.0
  0
LINE
  5
376
330
370
100
AcDbEntity
  8
치수문자_일반주서
 62
     0
370
    -2
100
AcDbLine
 10
229.0625704179939
 20
-68.50183014945472
 30
0.0
 11
229.062570417994
 21
-81.20183014945472
 31
0.0
  0
LINE
  5
377
330
370
100
AcDbEntity
  8
치수문자_일반주서
 62
     0
370
    -2
100
AcDbLine
 10
229.0625704179939
 20
-65.19983014945473
 30
0.0
 11
229.0625704179938
 21
-61.89783014945473
 31
0.0
  0
LINE
  5
378
330
370
100
AcDbEntity
  8
치수문자_일반주서
 62
     0
370
    -2
100
AcDbLine
 10
229.062570417994
 20
-84.50383014945473
 30
0.0
 11
229.062570417994
 21
-87.80583014945472
 31
0.0
  0
SOLID
  5
379
330
370
100
AcDbEntity
  8
치수문자_일반주서
 62
     0
100
AcDbTrace
 10
228.5122370846605
 20
-65.19983014945473
 30
0.0
 11
229.6129037513272
 21
-65.19983014945473
 31
0.0
 12
229.0625704179939
 22
-68.50183014945472
 32
0.0
 13
229.0625704179939
 23
-68.50183014945472
 33
0.0
  0
SOLID
  5
37A
330
370
100
AcDbEntity
  8
치수문자_일반주서
 62
     0
100
AcDbTrace
 10
229.6129037513273
 20
-84.50383014945473
 30
0.0
 11
228.5122370846607
 21
-84.50383014945473
 31
0.0
 12
229.062570417994
 22
-81.20183014945472
 32
0.0
 13
229.062570417994
 23
-81.20183014945472
 33
0.0
  0
MTEXT
  5
37B
330
370
100
AcDbEntity
  8
치수문자_일반주서
 62
     0
100
AcDbMText
 10
224.6875704179938
 20
-48.5540801494547
 30
0.0
 40
3.5
 41
0.0
 71
     2
 72
     1
  1
\A1;%%c12.7 [1/2]
  7
SLDTEXTSTYLE0
 11
-4.475859752819528E-15
 21
1.0
 31
0.0
 73
     1
 44
1.0
  0
POINT
  5
37C
330
370
100
AcDbEntity
  8
Defpoints
 62
     0
100
AcDbPoint
 10
217.028822908733
 20
-68.50183014945476
 30
0.0
  0
POINT
  5
37D
330
370
100
AcDbEntity
  8
Defpoints
 62
     0
100
AcDbPoint
 10
217.028822908733
 20
-81.20183014945476
 30
0.0
  0
POINT
  5
37E
330
370
100
AcDbEntity
  8
Defpoints
 62
     0
100
AcDbPoint
 10
229.0625704179939
 20
-81.20183014945472
 30
0.0
  0
ENDBLK
  5
372
330
370
100
AcDbEntity
  8
0
100
AcDbBlockEnd
  0
ENDSEC
  0
SECTION
  2
ENTITIES
  0
LINE
  5
96
330
1F
100
AcDbEntity
  8
0
  6
Continuous
 62
     1
370
    15
100
AcDbLine
 10
34.7762527632667
 20
-7.936425071276101
 30
0.0
 11
39.61435098837582
 21
-7.936425071276101
 31
0.0
  0
LINE
  5
97
330
1F
100
AcDbEntity
  8
0
  6
Continuous
 62
     1
370
    15
100
AcDbLine
 10
18.01978591046334
 20
7.938574928723886
 30
0.0
 11
13.18000280796211
 21
7.938574928723886
 31
0.0
  0
ARC
  5
98
330
1F
100
AcDbEntity
  8
0
  6
Continuous
 62
     1
370
    15
100
AcDbCircle
 10
45.33750000000003
 20
0.0010749287238982
 30
0.0
 40
7.937499999999993
100
AcDbArc
 50
333.8501419247906
 51
0.0
  0
ARC
  5
99
330
1F
100
AcDbEntity
  8
0
  6
Continuous
 62
     1
370
    15
100
AcDbCircle
 10
45.33750000000003
 20
0.0010749287238982
 30
0.0
 40
7.937499999999993
100
AcDbArc
 50
0.0
 51
26.1543445502335
  0
LINE
  5
9A
330
1F
100
AcDbEntity
  8
0
  6
Continuous
 62
     1
370
    15
100
AcDbLine
 10
39.61435098837578
 20
7.938574928723886
 30
0.0
 11
34.7762527632666
 21
7.938574928723886
 31
0.0
  0
LINE
  5
9B
330
1F
100
AcDbEntity
  8
0
  6
Continuous
 62
     1
370
    15
100
AcDbLine
 10
13.18000280796212
 20
-7.936425071276101
 30
0.0
 11
18.01978591046345
 21
-7.936425071276101
 31
0.0
  0
LINE
  5
9C
330
1F
100
AcDbEntity
  8
외형선
  6
Continuous
370
    15
100
AcDbLine
 10
-40.38750000000002
 20
-7.936425071276107
 30
0.0
 11
11.99999999999999
 21
-7.936425071276107
 31
0.0
  0
LINE
  5
9D
330
1F
100
AcDbEntity
  8
외형선
  6
Continuous
370
    15
100
AcDbLine
 10
11.99999999999999
 20
7.938574928723893
 30
0.0
 11
-11.02192500000008
 21
7.938574928723893
 31
0.0
  0
LINE
  5
9E
330
1F
100
AcDbEntity
  8
외형선
  6
Continuous
370
    15
100
AcDbLine
 10
-40.38750000000002
 20
7.93857492872389
 30
0.0
 11
-41.97500000000001
 21
6.351074928723895
 31
0.0
  0
LINE
  5
9F
330
1F
100
AcDbEntity
  8
외형선
  6
Continuous
370
    15
100
AcDbLine
 10
-41.97500000000001
 20
-6.348925071276108
 30
0.0
 11
-40.38750000000002
 21
-7.936425071276103
 31
0.0
  0
SPLINE
  5
A0
330
1F
100
AcDbEntity
  8
0
  6
Continuous
 62
     1
370
    15
100
AcDbSpline
210
0.0
220
0.0
230
1.0
 70
     8
 71
     3
 72
    52
 73
    48
 74
     0
 42
0.000000001
 43
0.00000001
 40
0.0
 40
0.0
 40
0.0
 40
0.0
 40
0.0624999999999993
 40
0.0624999999999993
 40
0.0937499999999992
 40
0.0937499999999992
 40
0.1249999999999991
 40
0.1249999999999991
 40
0.1874999999999989
 40
0.1874999999999989
 40
0.2187499999999988
 40
0.2187499999999988
 40
0.2499999999999987
 40
0.2499999999999987
 40
0.3124999999999976
 40
0.3124999999999976
 40
0.3437499999999975
 40
0.3437499999999975
 40
0.3749999999999974
 40
0.3749999999999974
 40
0.4374999999999982
 40
0.4374999999999982
 40
0.4687499999999991
 40
0.4687499999999991
 40
0.5
 40
0.5
 40
0.5625000000000008
 40
0.5625000000000008
 40
0.6250000000000014
 40
0.6250000000000014
 40
0.6562500000000018
 40
0.6562500000000018
 40
0.6875000000000021
 40
0.6875000000000021
 40
0.7187500000000024
 40
0.7187500000000024
 40
0.7500000000000028
 40
0.7500000000000028
 40
0.8125000000000026
 40
0.8125000000000026
 40
0.8750000000000022
 40
0.8750000000000022
 40
0.9062500000000017
 40
0.9062500000000017
 40
0.9375000000000011
 40
0.9375000000000011
 40
1.0
 40
1.0
 40
1.0
 40
1.0
 10
11.99999999999999
 20
7.909385498979955
 30
0.0
 10
12.69120531640644
 20
7.943688425304309
 30
0.0
 10
13.39015865402367
 20
7.94776665056318
 30
0.0
 10
14.43226461931053
 20
7.908211780167129
 30
0.0
 10
14.77735527408794
 20
7.887490246330733
 30
0.0
 10
15.47122485326932
 20
7.830947625256243
 30
0.0
 10
15.81948779507916
 20
7.795113476585062
 30
0.0
 10
16.8637689071819
 20
7.665310448599872
 30
0.0
 10
17.55436933282451
 20
7.549330905230558
 30
0.0
 10
18.5976809610229
 20
7.3323541958602
 30
0.0
 10
18.94616832929223
 20
7.252876252419016
 30
0.0
 10
19.64157551801403
 20
7.080302774456785
 30
0.0
 10
19.98733769821431
 20
6.987321277036536
 30
0.0
 10
21.02654492924507
 20
6.68847670626397
 30
0.0
 10
21.72574987598117
 20
6.462166830690952
 30
0.0
 10
22.76619014380055
 20
6.087853005359259
 30
0.0
 10
23.11138325547013
 20
5.957347897669733
 30
0.0
 10
23.80630305150411
 20
5.684622569798913
 30
0.0
 10
24.15475267451202
 20
5.542550485751349
 30
0.0
 10
25.19857054004779
 20
5.101018890248435
 30
0.0
 10
25.8889008996987
 20
4.786804106267583
 30
0.0
 10
26.93295637687689
 20
4.288551597596527
 30
0.0
 10
27.28135099497692
 20
4.118133307464962
 30
0.0
 10
27.97589393708988
 20
3.770113019408854
 30
0.0
 10
28.32092246413716
 20
3.592712083404701
 30
0.0
 10
29.36207318483356
 20
3.0496894049068
 30
0.0
 10
30.06121646432981
 20
2.673681149406285
 30
0.0
 10
31.44563911763047
 20
1.906619714670196
 30
0.0
 10
32.14238353021207
 20
1.513478876561065
 30
0.0
 10
33.18527558737
 20
0.9177444620417311
 30
0.0
 10
33.53081111417018
 20
0.7184991603524238
 30
0.0
 10
34.22389503217418
 20
0.3186351427637302
 30
0.0
 10
34.57196942833683
 20
0.1179134143037309
 30
0.0
 10
35.26819370377926
 20
-0.2833847597651158
 30
0.0
 10
35.6163407122673
 20
-0.4839595505973782
 30
0.0
 10
36.3097130046735
 20
-0.8832378653352627
 30
0.0
 10
36.65504889655837
 20
-1.081965127664455
 30
0.0
 10
37.697684480375
 20
-1.675732646244293
 30
0.0
 10
38.39516694983311
 20
-2.067093514477471
 30
0.0
 10
39.77890909771124
 20
-2.828978934441974
 30
0.0
 10
40.4779988538757
 20
-3.201832295362598
 30
0.0
 10
41.51950390823275
 20
-3.739337389609565
 30
0.0
 10
41.86451064025266
 20
-3.914734201590822
 30
0.0
 10
42.55883017613654
 20
-4.258432999595346
 30
0.0
 10
42.90718508266772
 20
-4.426562396303886
 30
0.0
 10
43.95133910348089
 20
-4.917587535893313
 30
0.0
 10
44.64172691263079
 20
-5.226466595748711
 30
0.0
 10
45.33750000000003
 20
-5.514982319213276
 30
0.0
  0
SPLINE
  5
A1
330
1F
100
AcDbEntity
  8
0
  6
Continuous
 62
     1
370
    15
100
AcDbSpline
210
0.0
220
0.0
230
1.0
 70
     8
 71
     3
 72
    16
 73
    12
 74
     0
 42
0.000000001
 43
0.00000001
 40
0.0
 40
0.0
 40
0.0
 40
0.0
 40
0.1255689464569706
 40
0.2548166273883313
 40
0.3789492451110905
 40
0.50689477307131
 40
0.6283641732374518
 40
0.7528580088825539
 40
0.85346427753412
 40
0.9563400336750919
 40
1.0
 40
1.0
 40
1.0
 40
1.0
 10
45.33750000000003
 20
-5.514982319213264
 30
0.0
 10
45.70373697623052
 20
-5.649894047467972
 30
0.0
 10
46.44694040144941
 20
-5.923669949544017
 30
0.0
 10
47.5633369114742
 20
-6.088591804065867
 30
0.0
 10
48.66591173857584
 20
-6.048152946924944
 30
0.0
 10
49.69263657603148
 20
-5.798092804328043
 30
0.0
 10
50.62841105401111
 20
-5.366393082147395
 30
0.0
 10
51.38253071866282
 20
-4.832153359315965
 30
0.0
 10
51.95985350520826
 20
-4.260087585756862
 30
0.0
 10
52.30185474785405
 20
-3.808312220424288
 30
0.0
 10
52.42198653572007
 20
-3.566892078678191
 30
0.0
 10
52.45777951319016
 20
-3.494961527673855
 30
0.0
  0
SPLINE
  5
A2
330
1F
100
AcDbEntity
  8
0
  6
Continuous
 62
     1
370
    15
100
AcDbSpline
210
0.0
220
0.0
230
1.0
 70
     8
 71
     3
 72
    10
 73
     6
 74
     0
 42
0.000000001
 43
0.00000001
 40
0.0
 40
0.0
 40
0.0
 40
0.0
 40
0.3715436727616369
 40
0.6832394598491258
 40
1.0
 40
1.0
 40
1.0
 40
1.0
 10
48.02896441942262
 20
-6.037747410244803
 30
0.0
 10
47.70443564377612
 20
-6.239324682276434
 30
0.0
 10
47.10765286524003
 20
-6.610009359630935
 30
0.0
 10
46.20792601030912
 20
-7.016814744083797
 30
0.0
 10
45.62919667057302
 20
-7.177490704912543
 30
0.0
 10
45.33750000000005
 20
-7.258476132118005
 30
0.0
  0
SPLINE
  5
A3
330
1F
100
AcDbEntity
  8
0
  6
Continuous
 62
     1
370
    15
100
AcDbSpline
210
0.0
220
0.0
230
1.0
 70
     8
 71
     3
 72
    52
 73
    48
 74
     0
 42
0.000000001
 43
0.00000001
 40
0.0
 40
0.0
 40
0.0
 40
0.0
 40
0.0624999999999985
 40
0.0624999999999985
 40
0.0937499999999977
 40
0.0937499999999977
 40
0.124999999999997
 40
0.124999999999997
 40
0.1874999999999955
 40
0.1874999999999955
 40
0.2187499999999945
 40
0.2187499999999945
 40
0.2499999999999936
 40
0.2499999999999936
 40
0.3124999999999921
 40
0.3124999999999921
 40
0.3437499999999918
 40
0.3437499999999918
 40
0.3749999999999916
 40
0.3749999999999916
 40
0.437499999999992
 40
0.437499999999992
 40
0.4687499999999918
 40
0.4687499999999918
 40
0.4999999999999916
 40
0.4999999999999916
 40
0.562499999999992
 40
0.562499999999992
 40
0.6249999999999926
 40
0.6249999999999926
 40
0.6562499999999932
 40
0.6562499999999932
 40
0.6874999999999939
 40
0.6874999999999939
 40
0.7187499999999946
 40
0.7187499999999946
 40
0.7499999999999952
 40
0.7499999999999952
 40
0.8124999999999968
 40
0.8124999999999968
 40
0.8749999999999981
 40
0.8749999999999981
 40
0.9062499999999988
 40
0.9062499999999988
 40
0.9374999999999996
 40
0.9374999999999996
 40
1.0
 40
1.0
 40
1.0
 40
1.0
 10
12.0
 20
3.366250052231743
 30
0.0
 10
12.69120531640644
 20
3.003656315476598
 30
0.0
 10
13.39015865402368
 20
2.626800008366736
 30
0.0
 10
14.43226461931054
 20
2.049720940556387
 30
0.0
 10
14.77735527408797
 20
1.855641165081748
 30
0.0
 10
15.47122485326935
 20
1.463622192846073
 30
0.0
 10
15.81948779507918
 20
1.265774210227625
 30
0.0
 10
16.86376890718184
 20
0.6692559290491993
 30
0.0
 10
17.55436933282451
 20
0.2685614213001181
 30
0.0
 10
18.59768096102285
 20
-0.3331371441880509
 30
0.0
 10
18.94616832929223
 20
-0.5337126005936591
 30
0.0
 10
19.64157551801402
 20
-0.9331548336357243
 30
0.0
 10
19.98733769821432
 20
-1.131800990768211
 30
0.0
 10
21.02654492924508
 20
-1.72429356578818
 30
0.0
 10
21.7257498759812
 20
-2.11538170355132
 30
0.0
 10
22.76619014380059
 20
-2.686090585874477
 30
0.0
 10
23.11138325547016
 20
-2.87364833377044
 30
0.0
 10
23.80630305150419
 20
-3.24372166710169
 30
0.0
 10
24.15475267451207
 20
-3.426000080108341
 30
0.0
 10
25.19857054004784
 20
-3.962192921172083
 30
0.0
 10
25.88890089969872
 20
-4.304906193003966
 30
0.0
 10
26.93295637687686
 20
-4.793721096185218
 30
0.0
 10
27.28135099497694
 20
-4.952271989330288
 30
0.0
 10
27.97589393708992
 20
-5.259253887913578
 30
0.0
 10
28.32092246413719
 20
-5.407537847476441
 30
0.0
 10
29.36207318483362
 20
-5.837325342740849
 30
0.0
 10
30.06121646432983
 20
-6.10316937289843
 30
0.0
 10
31.44563911763053
 20
-6.584511071467089
 30
0.0
 10
32.14238353021213
 20
-6.801375439773583
 30
0.0
 10
33.1852755873701
 20
-7.086141751915088
 30
0.0
 10
33.53081111417019
 20
-7.174186283560045
 30
0.0
 10
34.2238950321742
 20
-7.33658237212304
 30
0.0
 10
34.57196942833686
 20
-7.410954752114728
 30
0.0
 10
35.2681937037793
 20
-7.545344750617085
 30
0.0
 10
35.61634071226734
 20
-7.605361809287759
 30
0.0
 10
36.30971300467354
 20
-7.710583091721652
 30
0.0
 10
36.65504889655841
 20
-7.75581672052029
 30
0.0
 10
37.69768448037505
 20
-7.8694064584818
 30
0.0
 10
38.3951669498332
 20
-7.915228445620912
 30
0.0
 10
39.77890909771125
 20
-7.945944382510136
 30
0.0
 10
40.4779988538757
 20
-7.93089422927072
 30
0.0
 10
41.51950390823276
 20
-7.862932780070237
 30
0.0
 10
41.86451064025273
 20
-7.832796528712743
 30
0.0
 10
42.5588301761366
 20
-7.757482535749631
 30
0.0
 10
42.90718508266775
 20
-7.712311668004849
 30
0.0
 10
43.95133910348096
 20
-7.554783860798896
 30
0.0
 10
44.64172691263083
 20
-7.420728846804135
 30
0.0
 10
45.33750000000006
 20
-7.25847613211802
 30
0.0
  0
SPLINE
  5
A4
330
1F
100
AcDbEntity
  8
0
  6
Continuous
 62
     1
370
    15
100
AcDbSpline
210
0.0
220
0.0
230
1.0
 70
     8
 71
     3
 72
    18
 73
    14
 74
     0
 42
0.000000001
 43
0.00000001
 40
0.0
 40
0.0
 40
0.0
 40
0.0
 40
0.0918530961120665
 40
0.1836264380982549
 40
0.275385460255794
 40
0.3671957277340956
 40
0.4590764467069631
 40
0.5492354226591565
 40
0.6393505648686372
 40
0.7295002806315053
 40
0.8197425725277013
 40
0.9270903773321193
 40
1.0
 40
1.0
 40
1.0
 40
1.0
 10
11.99999999999999
 20
0.6811706384414745
 30
0.0
 10
12.69744084811974
 20
0.2786965373588594
 30
0.0
 10
14.09171697103027
 20
-0.5259022049462345
 30
0.0
 10
16.18217834562659
 20
-1.725531949046876
 30
0.0
 10
18.27230154879736
 20
-2.88400571666307
 30
0.0
 10
20.36344138373108
 20
-3.976261750025853
 30
0.0
 10
22.44303932988379
 20
-4.969923207190876
 30
0.0
 10
24.509065358576
 20
-5.846013536855668
 30
0.0
 10
26.56179608931146
 20
-6.585947110445732
 30
0.0
 10
28.61526720078184
 20
-7.181175123409952
 30
0.0
 10
30.80026659882196
 20
-7.635890921934235
 30
0.0
 10
32.85406783048033
 20
-7.90800671883474
 30
0.0
 10
34.22268239117545
 20
-7.908791496337107
 30
0.0
 10
34.7762527632667
 20
-7.909108919216033
 30
0.0
  0
SPLINE
  5
A5
330
1F
100
AcDbEntity
  8
0
  6
Continuous
 62
     1
370
    15
100
AcDbSpline
210
0.0
220
0.0
230
1.0
 70
     8
 71
     3
 72
    13
 73
     9
 74
     0
 42
0.000000001
 43
0.00000001
 40
0.0
 40
0.0
 40
0.0
 40
0.0
 40
0.150431203010225
 40
0.3203099943963477
 40
0.4901986889852379
 40
0.6601048830692072
 40
0.8300361444154206
 40
1.0
 40
1.0
 40
1.0
 40
1.0
 10
26.38868690963215
 20
-6.499606797632344
 30
0.0
 10
25.66721141533484
 20
-6.726659831265687
 30
0.0
 10
24.13098883045152
 20
-7.210119076923819
 30
0.0
 10
21.77996911247081
 20
-7.678296649446589
 30
0.0
 10
19.33551728618471
 20
-7.943462979983511
 30
0.0
 10
16.89076150049882
 20
-7.948513108973705
 30
0.0
 10
14.44558128365551
 20
-7.720468999324776
 30
0.0
 10
12.81524587488366
 20
-7.365348205205484
 30
0.0
 10
12.0
 20
-7.187770780993583
 30
0.0
  0
SPLINE
  5
A6
330
1F
100
AcDbEntity
  8
0
  6
Continuous
 62
     1
370
    15
100
AcDbSpline
210
0.0
220
0.0
230
1.0
 70
     8
 71
     3
 72
    16
 73
    12
 74
     0
 42
0.000000001
 43
0.00000001
 40
0.0
 40
0.0
 40
0.0
 40
0.0
 40
0.0091244612445286
 40
0.1174878964474203
 40
0.2259626117330093
 40
0.354998813252433
 40
0.4840153498193892
 40
0.6130179649058032
 40
0.7420124246727862
 40
0.8710045085885126
 40
1.0
 40
1.0
 40
1.0
 40
1.0
 10
26.38868690963206
 20
6.501756655080129
 30
0.0
 10
26.44630843045652
 20
6.522600199707007
 30
0.0
 10
27.18825155349053
 20
6.790984726430537
 30
0.0
 10
28.61526797638395
 20
7.172780038572816
 30
0.0
 10
30.8002671522731
 20
7.64600079752697
 30
0.0
 10
33.11541572967477
 20
7.921601999876057
 30
0.0
 10
35.5602266309504
 20
7.967601866829503
 30
0.0
 10
38.00470122240361
 20
7.761934775293801
 30
0.0
 10
40.44899638242943
 20
7.308420605003661
 30
0.0
 10
42.89323362849773
 20
6.637290770292413
 30
0.0
 10
44.52273736867951
 20
6.018235010725377
 30
0.0
 10
45.33750000000003
 20
5.708703042702583
 30
0.0
  0
SPLINE
  5
A7
330
1F
100
AcDbEntity
  8
0
  6
Continuous
 62
     1
370
    15
100
AcDbSpline
210
0.0
220
0.0
230
1.0
 70
     8
 71
     3
 72
    52
 73
    48
 74
     0
 42
0.000000001
 43
0.00000001
 40
0.0
 40
0.0
 40
0.0
 40
0.0
 40
0.0624999999999994
 40
0.0624999999999994
 40
0.09375
 40
0.09375
 40
0.1250000000000006
 40
0.1250000000000006
 40
0.1875000000000017
 40
0.1875000000000017
 40
0.2187500000000015
 40
0.2187500000000015
 40
0.2500000000000013
 40
0.2500000000000013
 40
0.3125000000000009
 40
0.3125000000000009
 40
0.3750000000000004
 40
0.3750000000000004
 40
0.4375
 40
0.4375
 40
0.4687500000000001
 40
0.4687500000000001
 40
0.5000000000000001
 40
0.5000000000000001
 40
0.5312500000000001
 40
0.5312500000000001
 40
0.5625000000000002
 40
0.5625000000000002
 40
0.5937500000000002
 40
0.5937500000000002
 40
0.6250000000000003
 40
0.6250000000000003
 40
0.6562500000000003
 40
0.6562500000000003
 40
0.6875000000000004
 40
0.6875000000000004
 40
0.7500000000000004
 40
0.7500000000000004
 40
0.7812499999999999
 40
0.7812499999999999
 40
0.8124999999999992
 40
0.8124999999999992
 40
0.8749999999999994
 40
0.8749999999999994
 40
0.9374999999999997
 40
0.9374999999999997
 40
1.0
 40
1.0
 40
1.0
 40
1.0
 10
45.33750000000003
 20
5.70870304270257
 30
0.0
 10
45.74083852180947
 20
5.547064599583452
 30
0.0
 10
46.14248580365634
 20
5.363980045368271
 30
0.0
 10
46.74653085865654
 20
5.063976889318072
 30
0.0
 10
46.94808290728548
 20
4.959638250201509
 30
0.0
 10
47.35220434180391
 20
4.742961561412985
 30
0.0
 10
47.55603935565328
 20
4.630149677767802
 30
0.0
 10
48.16018224353985
 20
4.285578343567051
 30
0.0
 10
48.55243892098321
 20
4.048630838049418
 30
0.0
 10
49.12432710624543
 20
3.680290347016255
 30
0.0
 10
49.31216440397921
 20
3.555294937488721
 30
0.0
 10
49.68159249792224
 20
3.299718092125212
 30
0.0
 10
49.86322610903549
 20
3.168960952872976
 30
0.0
 10
50.38723366339397
 20
2.774509024774987
 30
0.0
 10
50.71266620350191
 20
2.50612116251378
 30
0.0
 10
51.30903570548682
 20
1.939778663519328
 30
0.0
 10
51.58097617173839
 20
1.639819780983202
 30
0.0
 10
52.04026901902922
 20
1.003738443291783
 30
0.0
 10
52.23134984624571
 20
0.6644413006611429
 30
0.0
 10
52.44120283759821
 20
0.1021219730092799
 30
0.0
 10
52.4971788143195
 20
-0.09142747308988
 30
0.0
 10
52.57836988185817
 20
-0.4950637950507634
 30
0.0
 10
52.60364718415036
 20
-0.7075071486485264
 30
0.0
 10
52.61724211498368
 20
-1.141875228047833
 30
0.0
 10
52.60602314615225
 20
-1.363090162576131
 30
0.0
 10
52.54318567357527
 20
-1.816171563919292
 30
0.0
 10
52.4917913573811
 20
-2.043109494686073
 30
0.0
 10
52.35197514696901
 20
-2.482392737635887
 30
0.0
 10
52.26126580557967
 20
-2.700393847810627
 30
0.0
 10
52.05026505740112
 20
-3.10281097387593
 30
0.0
 10
51.92911603034246
 20
-3.290167985223361
 30
0.0
 10
51.66235162763775
 20
-3.629553027045131
 30
0.0
 10
51.51964551121995
 20
-3.778447849231827
 30
0.0
 10
51.2160394392961
 20
-4.040008535802343
 30
0.0
 10
51.0573110092954
 20
-4.15038928363828
 30
0.0
 10
50.57090142358399
 20
-4.423393283105057
 30
0.0
 10
50.22409016594557
 20
-4.532001985837624
 30
0.0
 10
49.69883471591542
 20
-4.603051208964212
 30
0.0
 10
49.52183013661107
 20
-4.612056013589216
 30
0.0
 10
49.16220919219529
 20
-4.604747148518047
 30
0.0
 10
48.97858488930677
 20
-4.588141127011863
 30
0.0
 10
48.42733325256373
 20
-4.505446889238403
 30
0.0
 10
48.05797368900046
 20
-4.407508865332236
 30
0.0
 10
47.3034983644196
 20
-4.148300969270089
 30
0.0
 10
46.91574314455495
 20
-3.984824573449425
 30
0.0
 10
46.13514060734857
 20
-3.62167144408297
 30
0.0
 10
45.74066105953462
 20
-3.421361305073829
 30
0.0
 10
45.33750000000005
 20
-3.208726411706502
 30
0.0
  0
SPLINE
  5
A8
330
1F
100
AcDbEntity
  8
0
  6
Continuous
 62
     1
370
    15
100
AcDbSpline
210
0.0
220
0.0
230
1.0
 70
     8
 71
     3
 72
    20
 73
    16
 74
     0
 42
0.000000001
 43
0.00000001
 40
0.0
 40
0.0
 40
0.0
 40
0.0
 40
0.0765023438037387
 40
0.1530230080606195
 40
0.229614861953058
 40
0.3061865103103529
 40
0.3826980082968937
 40
0.4578364318695892
 40
0.5330339149810751
 40
0.6082651842447656
 40
0.6834179356768131
 40
0.7728882633349804
 40
0.8623597974822307
 40
0.9518365474350399
 40
1.0
 40
1.0
 40
1.0
 40
1.0
 10
45.33750000000008
 20
-3.208726411706511
 30
0.0
 10
44.64096130178831
 20
-2.833613755671075
 30
0.0
 10
43.24771710126504
 20
-2.083298613230356
 30
0.0
 10
41.15712900795123
 20
-0.8894213184882698
 30
0.0
 10
39.06526901791163
 20
0.3189606243703454
 30
0.0
 10
36.97371422882405
 20
1.521761170385796
 30
0.0
 10
34.89580777805074
 20
2.682387363989958
 30
0.0
 10
32.83050025249923
 20
3.775426050958828
 30
0.0
 10
30.77644200550088
 20
4.777501690125412
 30
0.0
 10
28.72185604846868
 20
5.673008400627864
 30
0.0
 10
26.53821957831214
 20
6.491138105950384
 30
0.0
 10
24.22421263805451
 20
7.183554679803066
 30
0.0
 10
21.77997750070479
 20
7.676230705122736
 30
0.0
 10
19.71181801041535
 20
7.926995944506837
 30
0.0
 10
18.45838927242702
 20
7.912482586867227
 30
0.0
 10
18.01978591046334
 20
7.907404031332964
 30
0.0
  0
LINE
  5
A9
330
1F
100
AcDbEntity
  8
외형선
  6
Continuous
370
    15
100
AcDbLine
 10
11.99999999999999
 20
0.6811706384414742
 30
0.0
 11
12.0
 21
3.366250052231743
 31
0.0
  0
LWPOLYLINE
  5
AA
330
1F
100
AcDbEntity
  8
0
  6
Continuous
 62
     1
370
    15
100
AcDbPolyline
 90
       26
 70
   128
 43
0.0
 10
48.02896441942262
 20
6.039897267692588
 10
48.64615519323218
 20
6.016269645892409
 10
49.6942975334004
 20
5.764065871745505
 10
50.60124223706204
 20
5.348822564027385
 10
51.40588732797431
 20
4.783522331084459
 10
51.93713394889711
 20
4.262029165120218
 10
52.34306368934567
 20
3.715250815465335
 10
52.50757515210606
 20
3.402421812727119
 10
52.59906860506105
 20
3.122770662402659
 10
52.60954042252354
 20
2.949611872016642
 10
52.55966083618421
 20
2.827748624678178
 10
52.44932661860467
 20
2.775864504590858
 10
52.27190030303539
 20
2.800334167752192
 10
52.07942987076248
 20
2.882307950930451
 10
51.84597777006636
 20
3.020150964298556
 10
51.58618702012615
 20
3.202214339255705
 10
51.2979125779532
 20
3.425485159997324
 10
50.85694042189614
 20
3.790791419639988
 10
50.37817156406135
 20
4.200843405598601
 10
49.71254087184037
 20
4.767669688094257
 10
49.00587070279951
 20
5.33898466966259
 10
48.05518954857452
 20
6.02443086084102
 10
47.05007115186351
 20
6.61720468351654
 10
46.20921366614934
 20
6.993539563837224
 10
45.33750000000005
 20
7.260625989565792
 10
45.33750000000005
 20
7.260625989565792
  0
LINE
  5
AB
330
1F
100
AcDbEntity
  8
0
  6
Continuous
 62
     1
370
    15
100
AcDbLine
 10
11.99999999999999
 20
-7.907235641532168
 30
0.0
 11
13.18000280796213
 21
-7.913852199439335
 31
0.0
  0
SPLINE
  5
AC
330
1F
100
AcDbEntity
  8
0
  6
Continuous
 62
     1
370
    15
100
AcDbSpline
210
0.0
220
0.0
230
1.0
 70
     8
 71
     3
 72
    10
 73
     6
 74
     0
 42
0.000000001
 43
0.00000001
 40
0.0
 40
0.0
 40
0.0
 40
0.0
 40
0.3651456162488165
 40
0.7303786760035453
 40
0.9999999999999999
 40
0.9999999999999999
 40
0.9999999999999999
 40
0.9999999999999999
 10
45.33750000000003
 20
7.260625989565812
 30
0.0
 10
44.64096080791354
 20
7.40594707937443
 30
0.0
 10
43.24771561952257
 20
7.696624059862909
 30
0.0
 10
41.34016712380543
 20
7.910935457906533
 30
0.0
 10
40.12881127450967
 20
7.917865658706301
 30
0.0
 10
39.61435098837578
 20
7.920808900437033
 30
0.0
  0
LINE
  5
AD
330
1F
100
AcDbEntity
  8
외형선
  6
Continuous
370
    15
100
AcDbLine
 10
11.99999999999999
 20
-7.907235641532168
 30
0.0
 11
12.0
 21
-7.187770780993581
 31
0.0
  0
LINE
  5
AE
330
1F
100
AcDbEntity
  8
외형선
  6
Continuous
370
    15
100
AcDbLine
 10
-40.38750000000002
 20
0.0010749287238927
 30
0.0
 11
-40.38750000000002
 21
7.938574928723883
 31
0.0
  0
LINE
  5
AF
330
1F
100
AcDbEntity
  8
외형선
  6
Continuous
370
    15
100
AcDbLine
 10
-40.38750000000002
 20
-7.936425071276091
 30
0.0
 11
-40.38750000000002
 21
0.0010749287238927
 31
0.0
  0
LINE
  5
B0
330
1F
100
AcDbEntity
  8
외형선
  6
Continuous
370
    15
100
AcDbLine
 10
11.99999999999999
 20
0.0010749287238927
 30
0.0
 11
11.99999999999999
 21
7.938574928723886
 31
0.0
  0
LINE
  5
B1
330
1F
100
AcDbEntity
  8
외형선
  6
Continuous
370
    15
100
AcDbLine
 10
11.99999999999999
 20
-7.936425071276094
 30
0.0
 11
11.99999999999999
 21
0.0010749287238927
 31
0.0
  0
LINE
  5
B2
330
1F
100
AcDbEntity
  8
외형선
  6
Continuous
370
    15
100
AcDbLine
 10
-41.97500000000001
 20
0.0010749287238927
 30
0.0
 11
-41.97500000000001
 21
6.351074928723895
 31
0.0
  0
LINE
  5
B3
330
1F
100
AcDbEntity
  8
외형선
  6
Continuous
370
    15
100
AcDbLine
 10
-41.97500000000001
 20
-6.348925071276108
 30
0.0
 11
-41.97500000000001
 21
0.0010749287238927
 31
0.0
  0
LINE
  5
B4
330
1F
100
AcDbEntity
  8
중심선
 48
0.8
100
AcDbLine
 10
-44.97500000000002
 20
0.0010749287238927
 30
0.0
 11
56.27500000000001
 21
0.0010749287239008
 31
0.0
  0
LINE
  5
B5
330
1F
100
AcDbEntity
  8
참조1
100
AcDbLine
 10
60.8867613140312
 20
0.0010749287238892
 30
0.0
 11
60.8867613140312
 21
1.655200094750598
 31
0.0
  0
LINE
  5
B6
330
1F
100
AcDbEntity
  8
참조1
100
AcDbLine
 10
13.26176131403119
 20
0.0010749287238892
 30
0.0
 11
13.26176131403119
 21
-39.99892507127611
 31
0.0
  0
LINE
  5
B7
330
1F
100
AcDbEntity
  8
참조1
100
AcDbLine
 10
13.26176131403119
 20
-39.99892507127611
 30
0.0
 11
-20.1533455002775
 21
-39.9989250712761
 31
0.0
  0
CIRCLE
  5
B8
330
1F
100
AcDbEntity
  8
해칭선
100
AcDbCircle
 10
0.0
 20
0.0
 30
0.0
 40
3.000000000000002
  0
INSERT
  5
B9
330
1F
100
AcDbEntity
  8
0
  6
Continuous
 62
     7
100
AcDbBlockReference
 66
     1
  2
블럭10
 10
-8.290272932125212
 20
-52.04609937292004
 30
0.0
  0
ATTRIB
  5
BA
330
B9
100
AcDbEntity
  8
FORMAT
 62
     2
100
AcDbText
 10
-17.47156822086649
 20
-49.97073246008785
 30
0.0
 40
4.233333333333333
  1
E2020040 [ 4 FLUTE ]
 41
0.75
  7
SLDTEXTSTYLE0
 11
-17.47156822086649
 21
-52.08739912675452
 31
0.0
100
AcDbAttribute
  2
AUTOATTR0
 70
     0
 74
     1
  0
SEQEND
  5
BB
330
B9
100
AcDbEntity
  8
0
  6
Continuous
 62
     7
  0
HATCH
  5
BC
330
1F
100
AcDbEntity
  8
중심선
100
AcDbHatch
 10
0.0
 20
0.0
 30
0.0
210
0.0
220
0.0
230
1.0
  2
SOLID
 70
     1
 71
     0
 91
        1
 92
        0
 93
        4
 72
     1
 10
-2.575363627744364
 20
-35.7989250712761
 11
-6.021638871581647
 21
-35.7989250712761
 72
     1
 10
-6.021638871581647
 20
-35.7989250712761
 11
-8.14986873078567
 21
-38.33525065184867
 72
     1
 10
-8.14986873078567
 20
-38.33525065184867
 11
-4.703560401835238
 21
-38.33521122254619
 72
     1
 10
-4.703560401835238
 20
-38.33521122254619
 11
-2.575363627744365
 21
-35.7989250712761
 97
        0
 75
     0
 76
     1
 98
        1
 10
-7.611761314031195
 20
-0.0000000000000004
  0
HATCH
  5
BD
330
1F
100
AcDbEntity
  8
중심선
100
AcDbHatch
 10
0.0
 20
0.0
 30
0.0
210
0.0
220
0.0
230
1.0
  2
SOLID
 70
     1
 71
     0
 91
        1
 92
        0
 93
        4
 72
     1
 10
2.437400363291614
 20
-35.79892507127608
 11
-1.008874880545696
 21
-35.79892507127613
 72
     1
 10
-1.008874880545696
 20
-35.79892507127613
 11
-5.540012888903084
 21
-41.19892507127612
 72
     1
 10
-5.540012888903084
 20
-41.19892507127612
 11
-2.093737645065802
 21
-41.19892507127612
 72
     1
 10
-2.093737645065802
 20
-41.19892507127612
 11
2.437400363291614
 21
-35.79892507127608
 97
        0
 75
     0
 76
     1
 98
        1
 10
-7.611761314031195
 20
-0.0000000000000004
  0
HATCH
  5
BE
330
1F
100
AcDbEntity
  8
중심선
100
AcDbHatch
 10
0.0
 20
0.0
 30
0.0
210
0.0
220
0.0
230
1.0
  2
SOLID
 70
     1
 71
     0
 91
        1
 92
        0
 93
        4
 72
     1
 10
7.45016435432751
 20
-35.7989250712761
 11
4.003889110490395
 21
-35.7989250712761
 72
     1
 10
4.003889110490395
 20
-35.7989250712761
 11
-3.044547791398882
 21
-44.19892507127612
 72
     1
 10
-3.044547791398882
 20
-44.19892507127612
 11
0.4017274524384007
 21
-44.19892507127612
 72
     1
 10
0.4017274524384007
 20
-44.19892507127612
 11
7.45016435432751
 21
-35.7989250712761
 97
        0
 75
     0
 76
     1
 98
        1
 10
-7.611761314031195
 20
-0.0000000000000004
  0
HATCH
  5
BF
330
1F
100
AcDbEntity
  8
중심선
100
AcDbHatch
 10
0.0
 20
0.0
 30
0.0
210
0.0
220
0.0
230
1.0
  2
SOLID
 70
     1
 71
     0
 91
        1
 92
        0
 93
        6
 72
     3
 10
12.25005478533968
 20
-39.99892507132738
 11
3.960054785062283
 21
1.540882976769353E-10
 40
0.3939339440162628
 50
17.09539180608437
 51
320.0019657685082
 73
     0
 72
     1
 10
13.93305444104025
 20
-38.58681907591443
 11
16.23835631474131
 21
-36.65249236586651
 72
     3
 10
12.25005478528684
 20
-39.99892507127625
 11
6.600054785286829
 21
-1.278976924368180E-13
 40
0.636358354079598
 50
39.99873849337384
 51
368.4976242363725
 73
     1
 72
     1
 10
18.67538727718744
 20
-39.03892507120613
 11
10.93012209212276
 21
-39.03892507120613
 72
     1
 10
10.93012209212276
 20
-39.03892507120613
 11
10.93009704767682
 21
-40.95892507120602
 72
     1
 10
10.93009704767682
 20
-40.95892507120602
 11
15.37147681714886
 21
-40.95892507120599
 97
        0
 75
     0
 76
     1
 98
        1
 10
-7.611761314031195
 20
-0.0000000000000004
  0
DIMENSION
  5
C0
330
1F
100
AcDbEntity
  8
치수문자_일반주서
100
AcDbDimension
  2
_D
 10
11.99999999999997
 20
14.76357492872391
 30
0.0
 11
32.6375
 21
14.76357492872391
 31
0.0
 70
   160
  1
<>
 71
     2
 42
41.27500000000008
  3
SLDDIMSTYLE1
100
AcDbAlignedDimension
 13
53.27500000000005
 23
7.9385749287239
 33
0.0
 14
11.99999999999997
 24
7.90938549897996
 34
0.0
 50
0.0000000000000049
100
AcDbRotatedDimension
1001
ACAD
1000
DSTYLE
1002
{
1070
   171
1070
     6
1070
   273
1070
     7
1002
}
  0
DIMENSION
  5
D5
330
1F
100
AcDbEntity
  8
치수문자_일반주서
100
AcDbDimension
  2
_D_1
 10
-41.97500000000002
 20
31.6102217220047
 30
0.0
 11
5.650000000000002
 21
31.6102217220047
 31
0.0
 70
   160
  1
<>
 71
     2
 42
95.25000000000007
  3
SLDDIMSTYLE1
100
AcDbAlignedDimension
 13
53.27500000000005
 23
7.9385749287239
 33
0.0
 14
-41.97500000000002
 24
6.351074928723888
 34
0.0
 50
0.0000000000000043
100
AcDbRotatedDimension
1001
ACAD
1000
DSTYLE
1002
{
1070
   171
1070
     6
1070
   273
1070
     7
1002
}
  0
DIMENSION
  5
E8
330
1F
100
AcDbEntity
  8
치수문자_일반주서
100
AcDbDimension
  2
_D_2
 10
-54.33999999999999
 20
-7.936425071276171
 30
0.0
 11
-54.34000000000002
 21
0.0010749287239127
 31
0.0
 70
   160
  1
%%c<>
 71
     2
 42
15.87500000000003
 52
-270.0
  3
SLDDIMSTYLE1
100
AcDbAlignedDimension
 13
-40.38750000000002
 23
7.938574928723908
 33
0.0
 14
-40.38750000000002
 24
-7.936425071276121
 34
0.0
 50
90.0000000000002
100
AcDbRotatedDimension
1001
ACAD
1000
DSTYLE
1002
{
1070
   171
1070
     6
1070
   273
1070
     7
1002
}
  0
DIMENSION
  5
FD
330
1F
100
AcDbEntity
  8
치수문자_일반주서
100
AcDbDimension
  2
_D_3
 10
74.072975024029
 20
-7.93642507127602
 30
0.0
 11
74.07297502402888
 21
28.54257492872401
 31
0.0
 70
   160
  1
%%c<>
 71
     2
 42
15.875
 52
-270.0
  3
SLDDIMSTYLE1
100
AcDbAlignedDimension
 13
53.27500000000005
 23
7.9385749287239
 33
0.0
 14
53.27500000000002
 24
-7.9364250712761
 34
0.0
 50
90.0000000000002
100
AcDbRotatedDimension
1001
ACAD
1000
DSTYLE
1002
{
1070
   171
1070
     6
1070
   273
1070
     7
1002
}
  0
LINE
  5
110
330
1F
100
AcDbEntity
  8
참조1
100
AcDbLine
 10
77.81899512937676
 20
7.441074928723896
 30
0.0
 11
77.81899512937676
 21
-7.438925071276109
 31
0.0
  0
LINE
  5
111
330
1F
100
AcDbEntity
  8
참조1
100
AcDbLine
 10
90.51899512937676
 20
5.441074928723896
 30
0.0
 11
77.81899512937676
 21
5.441074928723896
 31
0.0
  0
SOLID
  5
112
330
1F
100
AcDbEntity
  8
참조1
100
AcDbTrace
 10
77.81899512937676
 20
5.441074928723896
 30
0.0
 11
84.16899512937675
 21
4.425074928723896
 31
0.0
 12
84.16899512937675
 22
6.457074928723896
 32
0.0
 13
84.16899512937675
 23
6.457074928723896
 33
0.0
  0
LINE
  5
113
330
1F
100
AcDbEntity
  8
참조1
100
AcDbLine
 10
90.51899512937676
 20
-5.438925071276109
 30
0.0
 11
77.81899512937676
 21
-5.438925071276109
 31
0.0
  0
SOLID
  5
114
330
1F
100
AcDbEntity
  8
참조1
100
AcDbTrace
 10
77.81899512937676
 20
-5.438925071276109
 30
0.0
 11
84.16899512937675
 21
-6.454925071276109
 31
0.0
 12
84.16899512937675
 22
-4.422925071276109
 32
0.0
 13
84.16899512937675
 23
-4.422925071276109
 33
0.0
  0
MTEXT
  5
115
330
1F
100
AcDbEntity
  8
참조1
100
AcDbMText
 10
87.21648522184704
 20
10.98929157337383
 30
0.0
 40
3.5
 41
0.0
 71
     1
 72
     1
  1
A
  7
SLDTEXTSTYLE0
 73
     1
 44
1.0
  0
MTEXT
  5
116
330
1F
100
AcDbEntity
  8
참조1
100
AcDbMText
 10
87.21648522184704
 20
0.1092915733738259
 30
0.0
 40
3.5
 41
0.0
 71
     1
 72
     1
  1
A
  7
SLDTEXTSTYLE0
 73
     1
 44
1.0
  0
INSERT
  5
11D
330
1F
100
AcDbEntity
  8
해칭선
100
AcDbBlockReference
  2
SW_DOWELSYMBOL_0
 10
0.0
 20
0.0
 30
0.0
  0
LINE
  5
3B8
330
1F
100
AcDbEntity
  8
외형선
  6
Continuous
370
    15
100
AcDbLine
 10
-22.85832500000003
 20
6.287574928723853
 30
0.0
 11
-12.67292500000001
 21
6.287574928723853
 31
0.0
  0
LINE
  5
3B9
330
1F
100
AcDbEntity
  8
외형선
  6
Continuous
370
    15
100
AcDbLine
 10
-22.85832500000003
 20
6.287574928723952
 30
0.0
 11
-24.50932499999998
 21
7.938574928723863
 31
0.0
  0
LINE
  5
3BA
330
1F
100
AcDbEntity
  8
외형선
  6
Continuous
370
    15
100
AcDbLine
 10
-12.67292500000012
 20
6.287574928723952
 30
0.0
 11
-11.02192500000011
 21
7.938574928723863
 31
0.0
  0
LINE
  5
3E9
330
1F
100
AcDbEntity
  8
외형선
  6
Continuous
370
    15
100
AcDbLine
 10
-24.50932500000001
 20
7.938574928723893
 30
0.0
 11
-40.38750000000002
 21
7.938574928723893
 31
0.0
  0
ENDSEC
  0
SECTION
  2
OBJECTS
  0
DICTIONARY
  5
C
330
0
100
AcDbDictionary
281
     1
  3
ACAD_GROUP
350
D
  3
ACAD_IMAGE_VARS
350
141
  3
ACAD_LAYOUT
350
1A
  3
ACAD_MLINESTYLE
350
17
  3
ACAD_PLOTSETTINGS
350
19
  3
ACAD_PLOTSTYLENAME
350
E
  3
ACAD_SCALELIST
350
47
  3
APPDATA
350
13F
  3
DWGPROPS
350
3EC
  0
DICTIONARY
  5
1CE
330
2
100
AcDbDictionary
280
     1
281
     1
  3
ACAD_LAYERSTATES
360
1CF
  0
DICTIONARY
  5
D
102
{ACAD_REACTORS
330
C
102
}
330
C
100
AcDbDictionary
281
     1
  0
RASTERVARIABLES
  5
141
102
{ACAD_REACTORS
330
C
102
}
330
C
100
AcDbRasterVariables
 90
        0
 70
     1
 71
     1
 72
     1
  0
DICTIONARY
  5
1A
102
{ACAD_REACTORS
330
C
102
}
330
C
100
AcDbDictionary
281
     1
  3
Layout1
350
1E
  3
Layout2
350
26
  3
Model
350
22
  0
DICTIONARY
  5
17
102
{ACAD_REACTORS
330
C
102
}
330
C
100
AcDbDictionary
281
     1
  3
Standard
350
18
  0
DICTIONARY
  5
19
102
{ACAD_REACTORS
330
C
102
}
330
C
100
AcDbDictionary
281
     1
  0
ACDBDICTIONARYWDFLT
  5
E
102
{ACAD_REACTORS
330
C
102
}
330
C
100
AcDbDictionary
281
     1
  3
Normal
350
F
100
AcDbDictionaryWithDefault
340
F
  0
DICTIONARY
  5
47
102
{ACAD_REACTORS
330
C
102
}
330
C
100
AcDbDictionary
281
     1
  3
A0
350
48
  3
A1
350
49
  3
A2
350
4A
  3
A3
350
4B
  3
A4
350
4C
  3
A5
350
4D
  3
A6
350
4E
  3
A7
350
4F
  3
A8
350
50
  3
A9
350
51
  3
B0
350
52
  3
B1
350
53
  3
B2
350
54
  3
B3
350
55
  3
B4
350
56
  3
B5
350
57
  3
B6
350
58
  3
B7
350
59
  3
B8
350
5A
  3
B9
350
5B
  3
C0
350
5C
  3
C1
350
5D
  3
C2
350
5E
  3
C3
350
5F
  3
C4
350
60
  3
C5
350
61
  3
C6
350
62
  3
C7
350
63
  3
C8
350
64
  3
C9
350
65
  3
D0
350
66
  3
D1
350
67
  3
D2
350
68
  0
DICTIONARY
  5
13F
102
{ACAD_REACTORS
330
C
102
}
330
C
100
AcDbDictionary
281
     1
  0
XRECORD
  5
3EC
102
{ACAD_REACTORS
330
C
102
}
330
C
100
AcDbXrecord
280
     1
  1
DWGPROPS COOKIE
  2

  3

  4

  6

  7

  8
12017012
  9

300
=
301
=
302
=
303
=
304
=
305
=
306
=
307
=
308
=
309
=
 40
0.0
 41
2458323.301800532
 42
2458324.094823449
  1

 90
        0
  0
DICTIONARY
  5
1CF
102
{ACAD_REACTORS
330
1CE
102
}
330
1CE
100
AcDbDictionary
281
     1
  0
LAYOUT
  5
1E
102
{ACAD_REACTORS
330
1A
102
}
330
1A
100
AcDbPlotSettings
  1

  2
none_device
  4

  6

 40
0.0
 41
0.0
 42
0.0
 43
0.0
 44
0.0
 45
0.0
 46
0.0
 47
0.0
 48
0.0
 49
0.0
140
0.0
141
0.0
142
1.0
143
1.0
 70
   688
 72
     1
 73
     0
 74
     5
  7

 75
    16
147
1.0
148
0.0
149
0.0
100
AcDbLayout
  1
Layout1
 70
     1
 71
     1
 10
0.0
 20
0.0
 11
420.0
 21
297.0
 12
0.0
 22
0.0
 32
0.0
 14
1.000000000000000E+20
 24
1.000000000000000E+20
 34
1.000000000000000E+20
 15
-1.000000000000000E+20
 25
-1.000000000000000E+20
 35
-1.000000000000000E+20
146
0.0
 13
0.0
 23
0.0
 33
0.0
 16
1.0
 26
0.0
 36
0.0
 17
0.0
 27
1.0
 37
0.0
 76
     0
330
1B
  0
LAYOUT
  5
26
102
{ACAD_REACTORS
330
1A
102
}
330
1A
100
AcDbPlotSettings
  1

  2
none_device
  4

  6

 40
0.0
 41
0.0
 42
0.0
 43
0.0
 44
0.0
 45
0.0
 46
0.0
 47
0.0
 48
0.0
 49
0.0
140
0.0
141
0.0
142
1.0
143
1.0
 70
   688
 72
     1
 73
     0
 74
     5
  7

 75
    16
147
1.0
148
0.0
149
0.0
100
AcDbLayout
  1
Layout2
 70
     1
 71
     2
 10
0.0
 20
0.0
 11
0.0
 21
0.0
 12
0.0
 22
0.0
 32
0.0
 14
0.0
 24
0.0
 34
0.0
 15
0.0
 25
0.0
 35
0.0
146
0.0
 13
0.0
 23
0.0
 33
0.0
 16
1.0
 26
0.0
 36
0.0
 17
0.0
 27
1.0
 37
0.0
 76
     0
330
23
  0
LAYOUT
  5
22
102
{ACAD_REACTORS
330
1A
102
}
330
1A
100
AcDbPlotSettings
  1

  2
none_device
  4
ANSI_A_(11.00_x_8.50_Inches)
  6

 40
6.35
 41
19.05
 42
6.35000508
 43
19.05000254
 44
279.4
 45
215.9
 46
105.4588139959598
 47
63.5402635944215
 48
0.0
 49
0.0
140
0.0
141
0.0
142
0.0632772222829022
143
1.0
 70
  1696
 72
     0
 73
     0
 74
     0
  7

 75
     0
147
0.0235690232323232
148
0.0
149
0.0
100
AcDbLayout
  1
Model
 70
     1
 71
     0
 10
0.0
 20
0.0
 11
420.0
 21
297.0
 12
0.0
 22
0.0
 32
0.0
 14
1.000000000000000E+20
 24
1.000000000000000E+20
 34
1.000000000000000E+20
 15
-1.000000000000000E+20
 25
-1.000000000000000E+20
 35
-1.000000000000000E+20
146
0.0
 13
0.0
 23
0.0
 33
0.0
 16
1.0
 26
0.0
 36
0.0
 17
0.0
 27
1.0
 37
0.0
 76
     0
330
1F
331
29
  0
MLINESTYLE
  5
18
102
{ACAD_REACTORS
330
17
102
}
330
17
100
AcDbMlineStyle
  2
Standard
 70
     0
  3

 62
   256
 51
90.0
 52
90.0
 71
     2
 49
0.5
 62
   256
  6
BYLAYER
 49
-0.5
 62
   256
  6
BYLAYER
  0
ACDBPLACEHOLDER
  5
F
102
{ACAD_REACTORS
330
E
102
}
330
E
  0
SCALE
  5
48
102
{ACAD_REACTORS
330
47
102
}
330
47
100
AcDbScale
 70
     0
300
1:1
140
1.0
141
1.0
290
     1
  0
SCALE
  5
49
102
{ACAD_REACTORS
330
47
102
}
330
47
100
AcDbScale
 70
     0
300
1:2
140
1.0
141
2.0
290
     0
  0
SCALE
  5
4A
102
{ACAD_REACTORS
330
47
102
}
330
47
100
AcDbScale
 70
     0
300
1:4
140
1.0
141
4.0
290
     0
  0
SCALE
  5
4B
102
{ACAD_REACTORS
330
47
102
}
330
47
100
AcDbScale
 70
     0
300
1:5
140
1.0
141
5.0
290
     0
  0
SCALE
  5
4C
102
{ACAD_REACTORS
330
47
102
}
330
47
100
AcDbScale
 70
     0
300
1:8
140
1.0
141
8.0
290
     0
  0
SCALE
  5
4D
102
{ACAD_REACTORS
330
47
102
}
330
47
100
AcDbScale
 70
     0
300
1:10
140
1.0
141
10.0
290
     0
  0
SCALE
  5
4E
102
{ACAD_REACTORS
330
47
102
}
330
47
100
AcDbScale
 70
     0
300
1:16
140
1.0
141
16.0
290
     0
  0
SCALE
  5
4F
102
{ACAD_REACTORS
330
47
102
}
330
47
100
AcDbScale
 70
     0
300
1:20
140
1.0
141
20.0
290
     0
  0
SCALE
  5
50
102
{ACAD_REACTORS
330
47
102
}
330
47
100
AcDbScale
 70
     0
300
1:30
140
1.0
141
30.0
290
     0
  0
SCALE
  5
51
102
{ACAD_REACTORS
330
47
102
}
330
47
100
AcDbScale
 70
     0
300
1:40
140
1.0
141
40.0
290
     0
  0
SCALE
  5
52
102
{ACAD_REACTORS
330
47
102
}
330
47
100
AcDbScale
 70
     0
300
1:50
140
1.0
141
50.0
290
     0
  0
SCALE
  5
53
102
{ACAD_REACTORS
330
47
102
}
330
47
100
AcDbScale
 70
     0
300
1:100
140
1.0
141
100.0
290
     0
  0
SCALE
  5
54
102
{ACAD_REACTORS
330
47
102
}
330
47
100
AcDbScale
 70
     0
300
2:1
140
2.0
141
1.0
290
     0
  0
SCALE
  5
55
102
{ACAD_REACTORS
330
47
102
}
330
47
100
AcDbScale
 70
     0
300
4:1
140
4.0
141
1.0
290
     0
  0
SCALE
  5
56
102
{ACAD_REACTORS
330
47
102
}
330
47
100
AcDbScale
 70
     0
300
8:1
140
8.0
141
1.0
290
     0
  0
SCALE
  5
57
102
{ACAD_REACTORS
330
47
102
}
330
47
100
AcDbScale
 70
     0
300
10:1
140
10.0
141
1.0
290
     0
  0
SCALE
  5
58
102
{ACAD_REACTORS
330
47
102
}
330
47
100
AcDbScale
 70
     0
300
100:1
140
100.0
141
1.0
290
     0
  0
SCALE
  5
59
102
{ACAD_REACTORS
330
47
102
}
330
47
100
AcDbScale
 70
     0
300
1/128" = 1'-0"
140
0.0078125
141
12.0
290
     0
  0
SCALE
  5
5A
102
{ACAD_REACTORS
330
47
102
}
330
47
100
AcDbScale
 70
     0
300
1/64" = 1'-0"
140
0.015625
141
12.0
290
     0
  0
SCALE
  5
5B
102
{ACAD_REACTORS
330
47
102
}
330
47
100
AcDbScale
 70
     0
300
1/32" = 1'-0"
140
0.03125
141
12.0
290
     0
  0
SCALE
  5
5C
102
{ACAD_REACTORS
330
47
102
}
330
47
100
AcDbScale
 70
     0
300
1/16" = 1'-0"
140
0.0625
141
12.0
290
     0
  0
SCALE
  5
5D
102
{ACAD_REACTORS
330
47
102
}
330
47
100
AcDbScale
 70
     0
300
3/32" = 1'-0"
140
0.09375
141
12.0
290
     0
  0
SCALE
  5
5E
102
{ACAD_REACTORS
330
47
102
}
330
47
100
AcDbScale
 70
     0
300
1/8" = 1'-0"
140
0.125
141
12.0
290
     0
  0
SCALE
  5
5F
102
{ACAD_REACTORS
330
47
102
}
330
47
100
AcDbScale
 70
     0
300
3/16" = 1'-0"
140
0.1875
141
12.0
290
     0
  0
SCALE
  5
60
102
{ACAD_REACTORS
330
47
102
}
330
47
100
AcDbScale
 70
     0
300
1/4" = 1'-0"
140
0.25
141
12.0
290
     0
  0
SCALE
  5
61
102
{ACAD_REACTORS
330
47
102
}
330
47
100
AcDbScale
 70
     0
300
3/8" = 1'-0"
140
0.375
141
12.0
290
     0
  0
SCALE
  5
62
102
{ACAD_REACTORS
330
47
102
}
330
47
100
AcDbScale
 70
     0
300
1/2" = 1'-0"
140
0.5
141
12.0
290
     0
  0
SCALE
  5
63
102
{ACAD_REACTORS
330
47
102
}
330
47
100
AcDbScale
 70
     0
300
3/4" = 1'-0"
140
0.75
141
12.0
290
     0
  0
SCALE
  5
64
102
{ACAD_REACTORS
330
47
102
}
330
47
100
AcDbScale
 70
     0
300
1" = 1'-0"
140
1.0
141
12.0
290
     0
  0
SCALE
  5
65
102
{ACAD_REACTORS
330
47
102
}
330
47
100
AcDbScale
 70
     0
300
1-1/2" = 1'-0"
140
1.5
141
12.0
290
     0
  0
SCALE
  5
66
102
{ACAD_REACTORS
330
47
102
}
330
47
100
AcDbScale
 70
     0
300
3" = 1'-0"
140
3.0
141
12.0
290
     0
  0
SCALE
  5
67
102
{ACAD_REACTORS
330
47
102
}
330
47
100
AcDbScale
 70
     0
300
6" = 1'-0"
140
6.0
141
12.0
290
     0
  0
SCALE
  5
68
102
{ACAD_REACTORS
330
47
102
}
330
47
100
AcDbScale
 70
     0
300
1'-0" = 1'-0"
140
12.0
141
12.0
290
     0
  0
ENDSEC
  0
EOF
