  0
SECTION
  2
HEADER
  9
$ACADVER
  1
AC1015
  9
$ACADMAINTVER
 70
     6
  9
$DWGCODEPAGE
  3
ANSI_949
  9
$INSBASE
 10
0.0
 20
0.0
 30
0.0
  9
$EXTMIN
 10
1.000000000000000E+20
 20
1.000000000000000E+20
 30
1.000000000000000E+20
  9
$EXTMAX
 10
-1.000000000000000E+20
 20
-1.000000000000000E+20
 30
-1.000000000000000E+20
  9
$LIMMIN
 10
0.0
 20
0.0
  9
$LIMMAX
 10
420.0
 20
297.0
  9
$ORTHOMODE
 70
     1
  9
$REGENMODE
 70
     1
  9
$FILLMODE
 70
     1
  9
$QTEXTMODE
 70
     0
  9
$MIRRTEXT
 70
     1
  9
$LTSCALE
 40
1.0
  9
$ATTMODE
 70
     1
  9
$TEXTSIZE
 40
3.5
  9
$TRACEWID
 40
1.0
  9
$TEXTSTYLE
  7
Standard
  9
$CLAYER
  8
0
  9
$CELTYPE
  6
ByLayer
  9
$CECOLOR
 62
   256
  9
$CELTSCALE
 40
1.0
  9
$DISPSILH
 70
     0
  9
$DIMSCALE
 40
1.0
  9
$DIMASZ
 40
3.302
  9
$DIMEXO
 40
1.0
  9
$DIMDLI
 40
3.75
  9
$DIMRND
 40
0.0
  9
$DIMDLE
 40
0.0
  9
$DIMEXE
 40
1.0
  9
$DIMTP
 40
0.0
  9
$DIMTM
 40
0.0
  9
$DIMTXT
 40
3.5
  9
$DIMCEN
 40
2.5
  9
$DIMTSZ
 40
0.0
  9
$DIMTOL
 70
     0
  9
$DIMLIM
 70
     0
  9
$DIMTIH
 70
     1
  9
$DIMTOH
 70
     1
  9
$DIMSE1
 70
     0
  9
$DIMSE2
 70
     0
  9
$DIMTAD
 70
     1
  9
$DIMZIN
 70
     0
  9
$DIMBLK
  1

  9
$DIMASO
 70
     1
  9
$DIMSHO
 70
     1
  9
$DIMPOST
  1

  9
$DIMAPOST
  1

  9
$DIMALT
 70
     0
  9
$DIMALTD
 70
     3
  9
$DIMALTF
 40
0.0393700787401575
  9
$DIMLFAC
 40
1.0
  9
$DIMTOFL
 70
     1
  9
$DIMTVP
 40
0.0
  9
$DIMTIX
 70
     0
  9
$DIMSOXD
 70
     0
  9
$DIMSAH
 70
     0
  9
$DIMBLK1
  1

  9
$DIMBLK2
  1

  9
$DIMSTYLE
  2
ISO-25
  9
$DIMCLRD
 70
     0
  9
$DIMCLRE
 70
     0
  9
$DIMCLRT
 70
     0
  9
$DIMTFAC
 40
1.0
  9
$DIMGAP
 40
1.524
  9
$DIMJUST
 70
     0
  9
$DIMSD1
 70
     0
  9
$DIMSD2
 70
     0
  9
$DIMTOLJ
 70
     0
  9
$DIMTZIN
 70
     0
  9
$DIMALTZ
 70
     0
  9
$DIMALTTZ
 70
     0
  9
$DIMUPT
 70
     0
  9
$DIMDEC
 70
     2
  9
$DIMTDEC
 70
     2
  9
$DIMALTU
 70
     2
  9
$DIMALTTD
 70
     3
  9
$DIMTXSTY
  7
Standard
  9
$DIMAUNIT
 70
     0
  9
$DIMADEC
 70
     2
  9
$DIMALTRND
 40
0.0
  9
$DIMAZIN
 70
     0
  9
$DIMDSEP
 70
    44
  9
$DIMATFIT
 70
     3
  9
$DIMFRAC
 70
     0
  9
$DIMLDRBLK
  1

  9
$DIMLUNIT
 70
     2
  9
$DIMLWD
 70
    -2
  9
$DIMLWE
 70
    -2
  9
$DIMTMOVE
 70
     0
  9
$LUNITS
 70
     2
  9
$LUPREC
 70
     2
  9
$SKETCHINC
 40
1.0
  9
$FILLETRAD
 40
10.0
  9
$AUNITS
 70
     0
  9
$AUPREC
 70
     2
  9
$MENU
  1
.
  9
$ELEVATION
 40
0.0
  9
$PELEVATION
 40
0.0
  9
$THICKNESS
 40
0.0
  9
$LIMCHECK
 70
     0
  9
$CHAMFERA
 40
0.0
  9
$CHAMFERB
 40
0.0
  9
$CHAMFERC
 40
0.0
  9
$CHAMFERD
 40
0.0
  9
$SKPOLY
 70
     0
  9
$TDCREATE
 40
2458323.677223935
  9
$TDUCREATE
 40
2458323.302223935
  9
$TDUPDATE
 40
2458324.475002546
  9
$TDUUPDATE
 40
2458324.100002546
  9
$TDINDWG
 40
0.0004346412
  9
$TDUSRTIMER
 40
2458324.098788854
  9
$USRTIMER
 70
     1
  9
$ANGBASE
 50
0.0
  9
$ANGDIR
 70
     0
  9
$PDMODE
 70
     0
  9
$PDSIZE
 40
-1.0
  9
$PLINEWID
 40
0.0
  9
$SPLFRAME
 70
     0
  9
$SPLINETYPE
 70
     6
  9
$SPLINESEGS
 70
     8
  9
$HANDSEED
  5
27F
  9
$SURFTAB1
 70
     6
  9
$SURFTAB2
 70
     6
  9
$SURFTYPE
 70
     6
  9
$SURFU
 70
     6
  9
$SURFV
 70
     6
  9
$UCSBASE
  2

  9
$UCSNAME
  2

  9
$UCSORG
 10
0.0
 20
0.0
 30
0.0
  9
$UCSXDIR
 10
1.0
 20
0.0
 30
0.0
  9
$UCSYDIR
 10
0.0
 20
1.0
 30
0.0
  9
$UCSORTHOREF
  2

  9
$UCSORTHOVIEW
 70
     0
  9
$UCSORGTOP
 10
0.0
 20
0.0
 30
0.0
  9
$UCSORGBOTTOM
 10
0.0
 20
0.0
 30
0.0
  9
$UCSORGLEFT
 10
0.0
 20
0.0
 30
0.0
  9
$UCSORGRIGHT
 10
0.0
 20
0.0
 30
0.0
  9
$UCSORGFRONT
 10
0.0
 20
0.0
 30
0.0
  9
$UCSORGBACK
 10
0.0
 20
0.0
 30
0.0
  9
$PUCSBASE
  2

  9
$PUCSNAME
  2

  9
$PUCSORG
 10
0.0
 20
0.0
 30
0.0
  9
$PUCSXDIR
 10
1.0
 20
0.0
 30
0.0
  9
$PUCSYDIR
 10
0.0
 20
1.0
 30
0.0
  9
$PUCSORTHOREF
  2

  9
$PUCSORTHOVIEW
 70
     0
  9
$PUCSORGTOP
 10
0.0
 20
0.0
 30
0.0
  9
$PUCSORGBOTTOM
 10
0.0
 20
0.0
 30
0.0
  9
$PUCSORGLEFT
 10
0.0
 20
0.0
 30
0.0
  9
$PUCSORGRIGHT
 10
0.0
 20
0.0
 30
0.0
  9
$PUCSORGFRONT
 10
0.0
 20
0.0
 30
0.0
  9
$PUCSORGBACK
 10
0.0
 20
0.0
 30
0.0
  9
$USERI1
 70
     0
  9
$USERI2
 70
     0
  9
$USERI3
 70
     0
  9
$USERI4
 70
     0
  9
$USERI5
 70
     0
  9
$USERR1
 40
0.0
  9
$USERR2
 40
0.0
  9
$USERR3
 40
0.0
  9
$USERR4
 40
0.0
  9
$USERR5
 40
0.0
  9
$WORLDVIEW
 70
     1
  9
$SHADEDGE
 70
     3
  9
$SHADEDIF
 70
    70
  9
$TILEMODE
 70
     1
  9
$MAXACTVP
 70
    64
  9
$PINSBASE
 10
0.0
 20
0.0
 30
0.0
  9
$PLIMCHECK
 70
     0
  9
$PEXTMIN
 10
1.000000000000000E+20
 20
1.000000000000000E+20
 30
1.000000000000000E+20
  9
$PEXTMAX
 10
-1.000000000000000E+20
 20
-1.000000000000000E+20
 30
-1.000000000000000E+20
  9
$PLIMMIN
 10
0.0
 20
0.0
  9
$PLIMMAX
 10
0.0
 20
0.0
  9
$UNITMODE
 70
     0
  9
$VISRETAIN
 70
     1
  9
$PLINEGEN
 70
     0
  9
$PSLTSCALE
 70
     1
  9
$TREEDEPTH
 70
  3020
  9
$CMLSTYLE
  2
Standard
  9
$CMLJUST
 70
     0
  9
$CMLSCALE
 40
20.0
  9
$PROXYGRAPHICS
 70
     1
  9
$MEASUREMENT
 70
     1
  9
$CELWEIGHT
370
    -1
  9
$ENDCAPS
280
     0
  9
$JOINSTYLE
280
     0
  9
$LWDISPLAY
290
     1
  9
$INSUNITS
 70
     4
  9
$HYPERLINKBASE
  1

  9
$STYLESHEET
  1

  9
$XEDIT
290
     1
  9
$CEPSNTYPE
380
     0
  9
$PSTYLEMODE
290
     1
  9
$FINGERPRINTGUID
  2
{E8BBE813-653F-478E-A676-CE88576C5EB8}
  9
$VERSIONGUID
  2
{FAEB1C32-E019-11D5-929B-00C0DF256EC4}
  9
$EXTNAMES
290
     1
  9
$PSVPSCALE
 40
0.0
  9
$OLESTARTUP
290
     0
  0
ENDSEC
  0
SECTION
  2
CLASSES
  0
CLASS
  1
ACDBDICTIONARYWDFLT
  2
AcDbDictionaryWithDefault
  3
ObjectDBX Classes
 90
        0
280
     0
281
     0
  0
CLASS
  1
VISUALSTYLE
  2
AcDbVisualStyle
  3
ObjectDBX Classes
 90
     4095
280
     0
281
     0
  0
CLASS
  1
MATERIAL
  2
AcDbMaterial
  3
ObjectDBX Classes
 90
     1153
280
     0
281
     0
  0
CLASS
  1
SCALE
  2
AcDbScale
  3
ObjectDBX Classes
 90
     1153
280
     0
281
     0
  0
CLASS
  1
SUN
  2
AcDbSun
  3
SCENEOE
 90
     1153
280
     0
281
     0
  0
CLASS
  1
ACDBPLACEHOLDER
  2
AcDbPlaceHolder
  3
ObjectDBX Classes
 90
        0
280
     0
281
     0
  0
CLASS
  1
LAYOUT
  2
AcDbLayout
  3
ObjectDBX Classes
 90
        0
280
     0
281
     0
  0
CLASS
  1
TABLESTYLE
  2
AcDbTableStyle
  3
ObjectDBX Classes
 90
     4095
280
     0
281
     0
  0
CLASS
  1
MLEADERSTYLE
  2
AcDbMLeaderStyle
  3
ACDB_MLEADERSTYLE_CLASS
 90
     4095
280
     0
281
     0
  0
CLASS
  1
RASTERVARIABLES
  2
AcDbRasterVariables
  3
ISM
 90
        0
280
     0
281
     0
  0
ENDSEC
  0
SECTION
  2
TABLES
  0
TABLE
  2
VPORT
  5
8
330
0
100
AcDbSymbolTable
 70
     1
  0
VPORT
  5
29
330
8
100
AcDbSymbolTableRecord
100
AcDbViewportTableRecord
  2
*Active
 70
     0
 10
0.0
 20
0.0
 11
1.0
 21
1.0
 12
-5.617774880025696
 22
9.982475160639218
 13
0.0
 23
0.0
 14
10.0
 24
10.0
 15
10.0
 25
10.0
 16
0.0
 26
0.0
 36
1.0
 17
0.0
 27
0.0
 37
0.0
 40
191.9712910559821
 41
1.616438356164384
 42
50.0
 43
0.0
 44
0.0
 50
0.0
 51
0.0
 71
    16
 72
  2000
 73
     1
 74
     3
 75
     0
 76
     0
 77
     0
 78
     0
281
     0
 65
     1
110
0.0
120
0.0
130
0.0
111
1.0
121
0.0
131
0.0
112
0.0
122
1.0
132
0.0
 79
     0
146
0.0
  0
ENDTAB
  0
TABLE
  2
LTYPE
  5
5
330
0
100
AcDbSymbolTable
 70
     6
  0
LTYPE
  5
14
330
5
100
AcDbSymbolTableRecord
100
AcDbLinetypeTableRecord
  2
ByBlock
 70
     0
  3

 72
    65
 73
     0
 40
0.0
  0
LTYPE
  5
15
330
5
100
AcDbSymbolTableRecord
100
AcDbLinetypeTableRecord
  2
ByLayer
 70
     0
  3

 72
    65
 73
     0
 40
0.0
  0
LTYPE
  5
16
330
5
100
AcDbSymbolTableRecord
100
AcDbLinetypeTableRecord
  2
Continuous
 70
     0
  3
Solid line
 72
    65
 73
     0
 40
0.0
  0
LTYPE
  5
6A
330
5
100
AcDbSymbolTableRecord
100
AcDbLinetypeTableRecord
  2
HIDDEN
 70
     0
  3
Hidden __ __ __ __ __ __ __ __ __ __ __ __ __ __
 72
    65
 73
     2
 40
1.905
 49
1.27
 74
     0
 49
-0.635
 74
     0
  0
LTYPE
  5
6B
330
5
100
AcDbSymbolTableRecord
100
AcDbLinetypeTableRecord
  2
PHANTOM
 70
     0
  3
Phantom ______  __  __  ______  __  __  ______
 72
    65
 73
     6
 40
12.7
 49
6.35
 74
     0
 49
-1.27
 74
     0
 49
1.27
 74
     0
 49
-1.27
 74
     0
 49
1.27
 74
     0
 49
-1.27
 74
     0
  0
LTYPE
  5
6C
330
5
100
AcDbSymbolTableRecord
100
AcDbLinetypeTableRecord
  2
CENTER
 70
     0
  3
Center ____ _ ____ _ ____ _ ____ _ ____ _ ____
 72
    65
 73
     4
 40
10.16
 49
6.35
 74
     0
 49
-1.27
 74
     0
 49
1.27
 74
     0
 49
-1.27
 74
     0
  0
LTYPE
  5
6D
330
5
100
AcDbSymbolTableRecord
100
AcDbLinetypeTableRecord
  2
CENTERX2
 70
     0
  3
Center (2x) ________  __  ________  __  _____
 72
    65
 73
     4
 40
20.32
 49
12.7
 74
     0
 49
-2.54
 74
     0
 49
2.54
 74
     0
 49
-2.54
 74
     0
  0
LTYPE
  5
6E
330
5
100
AcDbSymbolTableRecord
100
AcDbLinetypeTableRecord
  2
DOT2
 70
     0
  3
Dot (.5x) ........................................
 72
    65
 73
     2
 40
0.635
 49
0.0
 74
     0
 49
-0.635
 74
     0
  0
ENDTAB
  0
TABLE
  2
LAYER
  5
2
102
{ACAD_XDICTIONARY
360
1D7
102
}
330
0
100
AcDbSymbolTable
 70
    18
  0
LAYER
  5
10
330
2
100
AcDbSymbolTableRecord
100
AcDbLayerTableRecord
  2
0
 70
     0
 62
     7
  6
Continuous
370
    -3
390
F
  0
LAYER
  5
6F
330
2
100
AcDbSymbolTableRecord
100
AcDbLayerTableRecord
  2
FORMAT
 70
     0
 62
     2
  6
Continuous
370
    -3
390
F
  0
LAYER
  5
70
330
2
100
AcDbSymbolTableRecord
100
AcDbLayerTableRecord
  2
외형선
 70
     0
 62
     4
  6
Continuous
370
    30
390
F
  0
LAYER
  5
71
330
2
100
AcDbSymbolTableRecord
100
AcDbLayerTableRecord
  2
숨은선
 70
     0
 62
     2
  6
HIDDEN
370
    15
390
F
  0
LAYER
  5
72
330
2
100
AcDbSymbolTableRecord
100
AcDbLayerTableRecord
  2
중심선
 70
     0
 62
     1
  6
CENTERX2
370
    -3
390
F
  0
LAYER
  5
73
330
2
100
AcDbSymbolTableRecord
100
AcDbLayerTableRecord
  2
파단선
 70
     0
 62
     4
  6
Continuous
370
    -3
390
F
  0
LAYER
  5
74
330
2
100
AcDbSymbolTableRecord
100
AcDbLayerTableRecord
  2
해칭선
 70
     0
 62
   100
  6
Continuous
370
    -3
390
F
  0
LAYER
  5
75
330
2
100
AcDbSymbolTableRecord
100
AcDbLayerTableRecord
  2
가는실선
 70
     0
 62
     4
  6
Continuous
370
    -3
390
F
  0
LAYER
  5
76
330
2
100
AcDbSymbolTableRecord
100
AcDbLayerTableRecord
  2
치수_보조선
 70
     0
 62
     4
  6
Continuous
370
    -3
390
F
  0
LAYER
  5
77
330
2
100
AcDbSymbolTableRecord
100
AcDbLayerTableRecord
  2
치수문자_일반주서
 70
     0
 62
     7
  6
Continuous
370
    15
390
F
  0
LAYER
  5
78
330
2
100
AcDbSymbolTableRecord
100
AcDbLayerTableRecord
  2
개별주서
 70
     0
 62
   100
  6
Continuous
370
    30
390
F
  0
LAYER
  5
79
330
2
100
AcDbSymbolTableRecord
100
AcDbLayerTableRecord
  2
중간선
 70
     0
 62
     2
  6
Continuous
370
    15
390
F
  0
LAYER
  5
7A
330
2
100
AcDbSymbolTableRecord
100
AcDbLayerTableRecord
  2
윤곽선
 70
     0
 62
     3
  6
Continuous
370
    40
390
F
  0
LAYER
  5
7B
330
2
100
AcDbSymbolTableRecord
100
AcDbLayerTableRecord
  2
중심마크
 70
     0
 62
   100
  6
Continuous
370
    30
390
F
  0
LAYER
  5
7C
330
2
100
AcDbSymbolTableRecord
100
AcDbLayerTableRecord
  2
가상선
 70
     0
 62
     4
  6
PHANTOM
370
    -3
390
F
  0
LAYER
  5
7D
330
2
100
AcDbSymbolTableRecord
100
AcDbLayerTableRecord
  2
특수지정선
 70
     0
 62
     5
  6
CENTERX2
370
    60
390
F
  0
LAYER
  5
7E
330
2
100
AcDbSymbolTableRecord
100
AcDbLayerTableRecord
  2
참조1
 70
     0
 62
    -4
  6
Continuous
370
    -3
390
F
  0
LAYER
  5
143
330
2
100
AcDbSymbolTableRecord
100
AcDbLayerTableRecord
  2
Defpoints
 70
     0
 62
     7
  6
Continuous
290
     0
370
    -3
390
F
  0
ENDTAB
  0
TABLE
  2
STYLE
  5
3
330
0
100
AcDbSymbolTable
 70
     2
  0
STYLE
  5
11
330
3
100
AcDbSymbolTableRecord
100
AcDbTextStyleTableRecord
  2
Standard
 70
     0
 40
0.0
 41
1.0
 50
0.0
 71
     0
 42
3.5
  3
txt
  4

  0
STYLE
  5
94
330
3
100
AcDbSymbolTableRecord
100
AcDbTextStyleTableRecord
  2
SLDTEXTSTYLE0
 70
     0
 40
0.0
 41
0.75
 50
0.0
 71
     0
 42
3.5
  3
TXT
  4

  0
ENDTAB
  0
TABLE
  2
VIEW
  5
6
330
0
100
AcDbSymbolTable
 70
     0
  0
ENDTAB
  0
TABLE
  2
UCS
  5
7
330
0
100
AcDbSymbolTable
 70
     0
  0
ENDTAB
  0
TABLE
  2
APPID
  5
9
330
0
100
AcDbSymbolTable
 70
     1
  0
APPID
  5
12
330
9
100
AcDbSymbolTableRecord
100
AcDbRegAppTableRecord
  2
ACAD
 70
     0
  0
ENDTAB
  0
TABLE
  2
DIMSTYLE
  5
A
330
0
100
AcDbSymbolTable
 70
     3
100
AcDbDimStyleTable
  0
DIMSTYLE
105
27
330
A
100
AcDbSymbolTableRecord
100
AcDbDimStyleTableRecord
  2
ISO-25
 70
     0
 41
2.5
 42
0.625
 43
3.75
 44
1.25
 73
     0
 74
     0
 77
     1
 78
     8
140
2.5
141
2.5
143
0.03937007874016
147
0.625
171
     3
172
     1
178
     0
271
     2
272
     2
274
     3
278
    44
283
     0
284
     8
340
11
  0
DIMSTYLE
105
C1
330
A
100
AcDbSymbolTableRecord
100
AcDbDimStyleTableRecord
  2
SLDDIMSTYLE0
 70
     0
 41
3.302
 44
0.0
 45
0.000000001
 73
     0
 74
     0
 77
     1
 78
    12
 79
     3
140
3.5
143
0.0393700787401575
147
0.875
148
0.000000001
170
     1
173
     1
178
     0
271
     2
272
     2
276
     2
284
    12
340
94
  0
DIMSTYLE
105
E9
102
{ACAD_REACTORS
330
E8
330
194
330
1A1
330
1AE
330
1BB
330
C0
330
D5
330
FD
102
}
330
A
100
AcDbSymbolTableRecord
100
AcDbDimStyleTableRecord
  2
SLDDIMSTYLE1
 70
     0
 41
3.302
 44
0.0
 45
0.000000001
 73
     0
 74
     0
 77
     1
 78
    12
 79
     3
140
3.5
143
0.0393700787401575
147
0.875
148
0.000000001
170
     1
172
     1
173
     1
178
     0
271
     2
272
     2
276
     2
284
    12
289
     0
340
94
  0
ENDTAB
  0
TABLE
  2
BLOCK_RECORD
  5
1
330
0
100
AcDbSymbolTable
 70
    16
  0
BLOCK_RECORD
  5
1F
330
1
100
AcDbSymbolTableRecord
100
AcDbBlockTableRecord
  2
*Model_Space
340
22
  0
BLOCK_RECORD
  5
1B
330
1
100
AcDbSymbolTableRecord
100
AcDbBlockTableRecord
  2
*Paper_Space
340
1E
  0
BLOCK_RECORD
  5
23
330
1
100
AcDbSymbolTableRecord
100
AcDbBlockTableRecord
  2
*Paper_Space0
340
26
  0
BLOCK_RECORD
  5
7F
330
1
100
AcDbSymbolTableRecord
100
AcDbBlockTableRecord
  2
블럭10
340
0
102
{BLKREFS
331
B9
102
}
  0
BLOCK_RECORD
  5
C2
330
1
100
AcDbSymbolTableRecord
100
AcDbBlockTableRecord
  2
_D
340
0
  0
BLOCK_RECORD
  5
D6
330
1
100
AcDbSymbolTableRecord
100
AcDbBlockTableRecord
  2
_D_1
340
0
  0
BLOCK_RECORD
  5
EA
330
1
100
AcDbSymbolTableRecord
100
AcDbBlockTableRecord
  2
_D_2
340
0
  0
BLOCK_RECORD
  5
FE
330
1
100
AcDbSymbolTableRecord
100
AcDbBlockTableRecord
  2
_D_3
340
0
  0
BLOCK_RECORD
  5
117
330
1
100
AcDbSymbolTableRecord
100
AcDbBlockTableRecord
  2
SW_DOWELSYMBOL_0
340
0
102
{BLKREFS
331
11D
331
1CB
331
0
102
}
  0
BLOCK_RECORD
  5
1DB
330
1
100
AcDbSymbolTableRecord
100
AcDbBlockTableRecord
  2
*D8
340
0
  0
BLOCK_RECORD
  5
1E7
330
1
100
AcDbSymbolTableRecord
100
AcDbBlockTableRecord
  2
*D9
340
0
  0
BLOCK_RECORD
  5
1F3
330
1
100
AcDbSymbolTableRecord
100
AcDbBlockTableRecord
  2
*D10
340
0
  0
BLOCK_RECORD
  5
1FF
330
1
100
AcDbSymbolTableRecord
100
AcDbBlockTableRecord
  2
*D11
340
0
  0
BLOCK_RECORD
  5
241
330
1
100
AcDbSymbolTableRecord
100
AcDbBlockTableRecord
  2
*D12
340
0
  0
BLOCK_RECORD
  5
24D
330
1
100
AcDbSymbolTableRecord
100
AcDbBlockTableRecord
  2
*D13
340
0
  0
BLOCK_RECORD
  5
259
330
1
100
AcDbSymbolTableRecord
100
AcDbBlockTableRecord
  2
*D14
340
0
  0
BLOCK_RECORD
  5
265
330
1
100
AcDbSymbolTableRecord
100
AcDbBlockTableRecord
  2
*D15
340
0
  0
ENDTAB
  0
ENDSEC
  0
SECTION
  2
BLOCKS
  0
BLOCK
  5
20
330
1F
100
AcDbEntity
  8
0
100
AcDbBlockBegin
  2
*Model_Space
 70
     0
 10
0.0
 20
0.0
 30
0.0
  3
*Model_Space
  1
*Model_Space
  0
ENDBLK
  5
21
330
1F
100
AcDbEntity
  8
0
100
AcDbBlockEnd
  0
BLOCK
  5
1C
330
1B
100
AcDbEntity
 67
     1
  8
0
100
AcDbBlockBegin
  2
*Paper_Space
 70
     0
 10
0.0
 20
0.0
 30
0.0
  3
*Paper_Space
  1
*Paper_Space
  0
ENDBLK
  5
1D
330
1B
100
AcDbEntity
 67
     1
  8
0
100
AcDbBlockEnd
  0
BLOCK
  5
24
330
23
100
AcDbEntity
  8
0
100
AcDbBlockBegin
  2
*Paper_Space0
 70
     0
 10
0.0
 20
0.0
 30
0.0
  3
*Paper_Space0
  1
*Paper_Space0
  0
ENDBLK
  5
25
330
23
100
AcDbEntity
  8
0
100
AcDbBlockEnd
  0
BLOCK
  5
80
330
7F
100
AcDbEntity
  8
0
100
AcDbBlockBegin
  2
블럭10
 70
     2
 10
0.0
 20
0.0
 30
0.0
  3
블럭10
  1
블럭10
  0
ELLIPSE
  5
82
330
7F
100
AcDbEntity
  8
중심선
100
AcDbEllipse
 10
20.54032771741204
 20
12.0471743016438
 30
0.0
 11
6.600054785286829
 21
-1.261213355974178E-13
 31
0.0
210
0.0
220
0.0
230
1.0
 40
0.636358354079598
 41
0.9219305317359503
 42
6.513795318482858
  0
ELLIPSE
  5
83
330
7F
100
AcDbEntity
  8
중심선
100
AcDbEllipse
 10
20.54032771746488
 20
12.04717430159265
 30
0.0
 11
3.960054785062283
 21
1.540847449632565E-10
 31
0.0
210
0.0
220
0.0
230
1.0
 40
0.3939339440162632
 41
1.131841032648279
 42
5.62031148352944
  0
LINE
  5
84
330
7F
100
AcDbEntity
  8
중심선
100
AcDbLine
 10
2.268634060543552
 20
16.24717430164393
 30
0.0
 11
5.714909304380834
 21
16.24717430164393
 31
0.0
  0
LINE
  5
85
330
7F
100
AcDbEntity
  8
중심선
100
AcDbLine
 10
5.245725140726316
 20
7.84717430164391
 30
0.0
 11
8.692000384563599
 21
7.84717430164391
 31
0.0
  0
LINE
  5
86
330
7F
100
AcDbEntity
  8
중심선
100
AcDbLine
 10
15.74043728645272
 20
16.24717430164393
 30
0.0
 11
8.692000384563599
 21
7.84717430164391
 31
0.0
  0
LINE
  5
87
330
7F
100
AcDbEntity
  8
중심선
100
AcDbLine
 10
0.1404042013395286
 20
13.71084872107135
 30
0.0
 11
3.58671253028996
 21
13.71088815037384
 31
0.0
  0
LINE
  5
88
330
7F
100
AcDbEntity
  8
중심선
100
AcDbLine
 10
2.750260043222114
 20
10.84717430164391
 30
0.0
 11
6.196535287059397
 21
10.84717430164391
 31
0.0
  0
LINE
  5
89
330
7F
100
AcDbEntity
  8
중심선
100
AcDbLine
 10
12.29416204261559
 20
16.24717430164393
 30
0.0
 11
5.245725140726316
 21
7.84717430164391
 31
0.0
  0
LINE
  5
8A
330
7F
100
AcDbEntity
  8
중심선
100
AcDbLine
 10
10.72767329541681
 20
16.24717430164393
 30
0.0
 11
6.196535287059397
 21
10.84717430164391
 31
0.0
  0
LINE
  5
8B
330
7F
100
AcDbEntity
  8
중심선
100
AcDbLine
 10
7.28139805157953
 20
16.24717430164393
 30
0.0
 11
2.750260043222114
 21
10.84717430164391
 31
0.0
  0
LINE
  5
8C
330
7F
100
AcDbEntity
  8
중심선
100
AcDbLine
 10
5.714909304380834
 20
16.24717430164393
 30
0.0
 11
3.58671253028996
 21
13.71088815037384
 31
0.0
  0
LINE
  5
8D
330
7F
100
AcDbEntity
  8
중심선
100
AcDbLine
 10
2.268634060543552
 20
16.24717430164393
 30
0.0
 11
0.1404042013395286
 21
13.71084872107135
 31
0.0
  0
LINE
  5
8E
330
7F
100
AcDbEntity
  8
중심선
100
AcDbLine
 10
7.28139805157953
 20
16.24717430164393
 30
0.0
 11
10.72767329541681
 21
16.24717430164393
 31
0.0
  0
LINE
  5
8F
330
7F
100
AcDbEntity
  8
중심선
100
AcDbLine
 10
12.29416204261559
 20
16.24717430164393
 30
0.0
 11
15.74043728645272
 21
16.24717430164393
 31
0.0
  0
LINE
  5
90
330
7F
100
AcDbEntity
  8
중심선
100
AcDbLine
 10
19.22036997980202
 20
11.08717430171403
 30
0.0
 11
23.66174974927406
 21
11.08717430171406
 31
0.0
  0
LINE
  5
91
330
7F
100
AcDbEntity
  8
중심선
100
AcDbLine
 10
19.22039502424796
 20
13.00717430171391
 30
0.0
 11
19.22036997980202
 21
11.08717430171403
 31
0.0
  0
LINE
  5
92
330
7F
100
AcDbEntity
  8
중심선
100
AcDbLine
 10
19.22039502424796
 20
13.00717430171391
 30
0.0
 11
26.96566020931264
 21
13.00717430171391
 31
0.0
  0
LINE
  5
93
330
7F
100
AcDbEntity
  8
중심선
100
AcDbLine
 10
22.22332737316547
 20
13.45928029700563
 30
0.0
 11
24.52862924686651
 21
15.39360700705356
 31
0.0
  0
ATTDEF
  5
95
330
7F
100
AcDbEntity
  8
FORMAT
 62
     2
100
AcDbText
 10
4.408487351596664
 20
2.075366912832191
 30
0.0
 40
4.233333333333333
  1
E2020048
 41
0.75
  7
SLDTEXTSTYLE0
 11
4.408487351596664
 21
-0.0412997538344756
 31
0.0
100
AcDbAttributeDefinition
  3

  2
AUTOATTR0
 70
     0
 74
     1
  0
ENDBLK
  5
81
330
7F
100
AcDbEntity
  8
0
100
AcDbBlockEnd
  0
BLOCK
  5
C3
330
C2
100
AcDbEntity
  8
0
100
AcDbBlockBegin
  2
_D
 70
     0
 10
0.0
 20
0.0
 30
0.0
  3
_D
  1
_D
  0
LINE
  5
C5
330
C2
100
AcDbEntity
  8
치수문자_일반주서
 62
     0
370
    -2
100
AcDbLine
 10
53.27500000000006
 20
9.587500000000004
 30
0.0
 11
53.27500000000006
 21
21.94464644001395
 31
0.0
  0
LINE
  5
C6
330
C2
100
AcDbEntity
  8
치수문자_일반주서
 62
     0
370
    -2
100
AcDbLine
 10
11.99999999999999
 20
9.552472684307286
 30
0.0
 11
11.99999999999999
 21
21.94464644001395
 31
0.0
  0
LINE
  5
C7
330
C2
100
AcDbEntity
  8
치수문자_일반주서
 62
     0
370
    -2
100
AcDbLine
 10
49.97300000000006
 20
21.94464644001395
 30
0.0
 11
15.30199999999999
 21
21.94464644001395
 31
0.0
  0
SOLID
  5
C8
330
C2
100
AcDbEntity
  8
치수문자_일반주서
 62
     0
100
AcDbTrace
 10
49.97300000000006
 20
21.39431310668062
 30
0.0
 11
49.97300000000006
 21
22.49497977334729
 31
0.0
 12
53.27500000000006
 22
21.94464644001395
 32
0.0
 13
53.27500000000006
 23
21.94464644001395
 33
0.0
  0
SOLID
  5
C9
330
C2
100
AcDbEntity
  8
치수문자_일반주서
 62
     0
100
AcDbTrace
 10
15.30199999999999
 20
22.49497977334729
 30
0.0
 11
15.30199999999999
 21
21.39431310668062
 31
0.0
 12
11.99999999999999
 22
21.94464644001395
 32
0.0
 13
11.99999999999999
 23
21.94464644001395
 33
0.0
  0
MTEXT
  5
CA
330
C2
100
AcDbEntity
  8
치수문자_일반주서
 62
     0
100
AcDbMText
 10
32.08335944752216
 20
26.31964644001395
 30
0.0
 40
3.5
 41
0.0
 71
     2
 72
     1
  1
\A1;41.28 [1 5/8]
  7
SLDTEXTSTYLE0
 73
     1
 44
1.0
  0
POINT
  5
CB
330
C2
100
AcDbEntity
  8
Defpoints
 62
     0
100
AcDbPoint
 10
53.27500000000006
 20
9.525000000000004
 30
0.0
  0
POINT
  5
CC
330
C2
100
AcDbEntity
  8
Defpoints
 62
     0
100
AcDbPoint
 10
11.99999999999999
 20
9.489972684307286
 30
0.0
  0
POINT
  5
CD
330
C2
100
AcDbEntity
  8
Defpoints
 62
     0
100
AcDbPoint
 10
11.99999999999999
 20
21.94464644001395
 30
0.0
  0
ENDBLK
  5
C4
330
C2
100
AcDbEntity
  8
0
100
AcDbBlockEnd
  0
BLOCK
  5
D7
330
D6
100
AcDbEntity
  8
0
100
AcDbBlockBegin
  2
_D_1
 70
     0
 10
0.0
 20
0.0
 30
0.0
  3
_D_1
  1
_D_1
  0
LINE
  5
D9
330
D6
100
AcDbEntity
  8
치수문자_일반주서
 62
     0
370
    -2
100
AcDbLine
 10
53.27500000000006
 20
9.587500000000004
 30
0.0
 11
53.27500000000006
 21
31.6091467932808
 31
0.0
  0
LINE
  5
DA
330
D6
100
AcDbEntity
  8
치수문자_일반주서
 62
     0
370
    -2
100
AcDbLine
 10
-45.15000000000002
 20
7.682500000000012
 30
0.0
 11
-45.15000000000002
 21
31.6091467932808
 31
0.0
  0
LINE
  5
DB
330
D6
100
AcDbEntity
  8
치수문자_일반주서
 62
     0
370
    -2
100
AcDbLine
 10
49.97300000000006
 20
31.6091467932808
 30
0.0
 11
-41.84800000000002
 21
31.6091467932808
 31
0.0
  0
SOLID
  5
DC
330
D6
100
AcDbEntity
  8
치수문자_일반주서
 62
     0
100
AcDbTrace
 10
49.97300000000006
 20
31.05881345994747
 30
0.0
 11
49.97300000000006
 21
32.15948012661413
 31
0.0
 12
53.27500000000006
 22
31.6091467932808
 32
0.0
 13
53.27500000000006
 23
31.6091467932808
 33
0.0
  0
SOLID
  5
DD
330
D6
100
AcDbEntity
  8
치수문자_일반주서
 62
     0
100
AcDbTrace
 10
-41.84800000000002
 20
32.15948012661413
 30
0.0
 11
-41.84800000000002
 21
31.05881345994747
 31
0.0
 12
-45.15000000000002
 22
31.6091467932808
 32
0.0
 13
-45.15000000000002
 23
31.6091467932808
 33
0.0
  0
MTEXT
  5
DE
330
D6
100
AcDbEntity
  8
치수문자_일반주서
 62
     0
100
AcDbMText
 10
4.062500000000004
 20
35.9841467932808
 30
0.0
 40
3.5
 41
0.0
 71
     2
 72
     1
  1
\A1;98.43 [3 7/8]
  7
SLDTEXTSTYLE0
 73
     1
 44
1.0
  0
POINT
  5
DF
330
D6
100
AcDbEntity
  8
Defpoints
 62
     0
100
AcDbPoint
 10
53.27500000000006
 20
9.525000000000004
 30
0.0
  0
POINT
  5
E0
330
D6
100
AcDbEntity
  8
Defpoints
 62
     0
100
AcDbPoint
 10
-45.15000000000002
 20
7.620000000000012
 30
0.0
  0
POINT
  5
E1
330
D6
100
AcDbEntity
  8
Defpoints
 62
     0
100
AcDbPoint
 10
-45.15000000000002
 20
31.6091467932808
 30
0.0
  0
ENDBLK
  5
D8
330
D6
100
AcDbEntity
  8
0
100
AcDbBlockEnd
  0
BLOCK
  5
EB
330
EA
100
AcDbEntity
  8
0
100
AcDbBlockBegin
  2
_D_2
 70
     0
 10
0.0
 20
0.0
 30
0.0
  3
_D_2
  1
_D_2
  0
LINE
  5
ED
330
EA
100
AcDbEntity
  8
치수문자_일반주서
 62
     0
370
    -2
100
AcDbLine
 10
-43.3075
 20
9.525000000000002
 30
0.0
 11
-57.19750000000005
 21
9.524999999999947
 31
0.0
  0
LINE
  5
EE
330
EA
100
AcDbEntity
  8
치수문자_일반주서
 62
     0
370
    -2
100
AcDbLine
 10
-43.3075
 20
-9.52500000000001
 30
0.0
 11
-57.19749999999998
 21
-9.525000000000064
 31
0.0
  0
LINE
  5
EF
330
EA
100
AcDbEntity
  8
치수문자_일반주서
 62
     0
370
    -2
100
AcDbLine
 10
-57.19750000000003
 20
6.222999999999947
 30
0.0
 11
-57.1975
 21
-6.223000000000065
 31
0.0
  0
SOLID
  5
F0
330
EA
100
AcDbEntity
  8
치수문자_일반주서
 62
     0
100
AcDbTrace
 10
-56.6471666666667
 20
6.222999999999949
 30
0.0
 11
-57.74783333333337
 21
6.222999999999946
 31
0.0
 12
-57.19750000000005
 22
9.524999999999947
 32
0.0
 13
-57.19750000000005
 23
9.524999999999947
 33
0.0
  0
SOLID
  5
F1
330
EA
100
AcDbEntity
  8
치수문자_일반주서
 62
     0
100
AcDbTrace
 10
-57.74783333333333
 20
-6.223000000000066
 30
0.0
 11
-56.64716666666666
 21
-6.223000000000063
 31
0.0
 12
-57.19749999999998
 22
-9.525000000000064
 32
0.0
 13
-57.19749999999998
 23
-9.525000000000064
 33
0.0
  0
MTEXT
  5
F2
330
EA
100
AcDbEntity
  8
치수문자_일반주서
 62
     0
100
AcDbMText
 10
-61.57250000000002
 20
-0.0000000000000158
 30
0.0
 40
3.5
 41
0.0
 71
     2
 72
     1
  1
\A1;%%c19.05 [3/4]
  7
SLDTEXTSTYLE0
 11
-3.356894814614645E-15
 21
1.0
 31
0.0
 73
     1
 44
1.0
  0
POINT
  5
F3
330
EA
100
AcDbEntity
  8
Defpoints
 62
     0
100
AcDbPoint
 10
-43.245
 20
9.525000000000002
 30
0.0
  0
POINT
  5
F4
330
EA
100
AcDbEntity
  8
Defpoints
 62
     0
100
AcDbPoint
 10
-43.245
 20
-9.52500000000001
 30
0.0
  0
POINT
  5
F5
330
EA
100
AcDbEntity
  8
Defpoints
 62
     0
100
AcDbPoint
 10
-57.19749999999998
 20
-9.52500000000006
 30
0.0
  0
ENDBLK
  5
EC
330
EA
100
AcDbEntity
  8
0
100
AcDbBlockEnd
  0
BLOCK
  5
FF
330
FE
100
AcDbEntity
  8
0
100
AcDbBlockBegin
  2
_D_3
 70
     0
 10
0.0
 20
0.0
 30
0.0
  3
_D_3
  1
_D_3
  0
LINE
  5
101
330
FE
100
AcDbEntity
  8
치수문자_일반주서
 62
     0
370
    -2
100
AcDbLine
 10
53.33750000000006
 20
9.525000000000004
 30
0.0
 11
66.01651285621536
 21
9.525000000000048
 31
0.0
  0
LINE
  5
102
330
FE
100
AcDbEntity
  8
치수문자_일반주서
 62
     0
370
    -2
100
AcDbLine
 10
53.33750000000003
 20
-9.524999999999997
 30
0.0
 11
66.01651285621543
 21
-9.524999999999945
 31
0.0
  0
LINE
  5
103
330
FE
100
AcDbEntity
  8
치수문자_일반주서
 62
     0
370
    -2
100
AcDbLine
 10
66.01651285621536
 20
9.525000000000048
 30
0.0
 11
66.01651285621523
 21
43.69150000000008
 31
0.0
  0
LINE
  5
104
330
FE
100
AcDbEntity
  8
치수문자_일반주서
 62
     0
370
    -2
100
AcDbLine
 10
66.01651285621536
 20
9.525000000000048
 30
0.0
 11
66.01651285621543
 21
-9.524999999999945
 31
0.0
  0
LINE
  5
105
330
FE
100
AcDbEntity
  8
치수문자_일반주서
 62
     0
370
    -2
100
AcDbLine
 10
66.01651285621534
 20
12.82700000000005
 30
0.0
 11
66.01651285621533
 21
16.12900000000005
 31
0.0
  0
LINE
  5
106
330
FE
100
AcDbEntity
  8
치수문자_일반주서
 62
     0
370
    -2
100
AcDbLine
 10
66.01651285621544
 20
-12.82699999999994
 30
0.0
 11
66.01651285621546
 21
-16.12899999999994
 31
0.0
  0
SOLID
  5
107
330
FE
100
AcDbEntity
  8
치수문자_일반주서
 62
     0
100
AcDbTrace
 10
65.46617952288202
 20
12.82700000000005
 30
0.0
 11
66.56684618954867
 21
12.82700000000005
 31
0.0
 12
66.01651285621536
 22
9.525000000000048
 32
0.0
 13
66.01651285621536
 23
9.525000000000048
 33
0.0
  0
SOLID
  5
108
330
FE
100
AcDbEntity
  8
치수문자_일반주서
 62
     0
100
AcDbTrace
 10
66.56684618954877
 20
-12.82699999999994
 30
0.0
 11
65.46617952288211
 21
-12.82699999999995
 31
0.0
 12
66.01651285621543
 22
-9.524999999999945
 32
0.0
 13
66.01651285621543
 23
-9.524999999999945
 33
0.0
  0
MTEXT
  5
109
330
FE
100
AcDbEntity
  8
치수문자_일반주서
 62
     0
100
AcDbMText
 10
61.64151285621529
 20
29.91025000000005
 30
0.0
 40
3.5
 41
0.0
 71
     2
 72
     1
  1
\A1;%%c19.05 [3/4]
  7
SLDTEXTSTYLE0
 11
-3.729883127349607E-15
 21
1.0
 31
0.0
 73
     1
 44
1.0
  0
POINT
  5
10A
330
FE
100
AcDbEntity
  8
Defpoints
 62
     0
100
AcDbPoint
 10
53.27500000000006
 20
9.525000000000004
 30
0.0
  0
POINT
  5
276
330
FE
100
AcDbEntity
  8
Defpoints
 62
     0
100
AcDbPoint
 10
53.27500000000003
 20
-9.524999999999997
 30
0.0
  0
POINT
  5
277
330
FE
100
AcDbEntity
  8
Defpoints
 62
     0
100
AcDbPoint
 10
66.01651285621543
 20
-9.524999999999949
 30
0.0
  0
ENDBLK
  5
100
330
FE
100
AcDbEntity
  8
0
100
AcDbBlockEnd
  0
BLOCK
  5
118
330
117
100
AcDbEntity
  8
0
100
AcDbBlockBegin
  2
SW_DOWELSYMBOL_0
 70
     0
 10
0.0
 20
0.0
 30
0.0
  3
SW_DOWELSYMBOL_0
  1
SW_DOWELSYMBOL_0
  0
CIRCLE
  5
11A
330
117
100
AcDbEntity
  8
해칭선
 62
     0
100
AcDbCircle
 10
0.0
 20
0.0
 30
0.0
 40
3.000000000000001
  0
HATCH
  5
11B
330
117
100
AcDbEntity
  8
0
  6
Continuous
 62
     0
370
     0
100
AcDbHatch
 10
0.0
 20
0.0
 30
0.0
210
0.0
220
0.0
230
1.0
  2
SOLID
 70
     1
 71
     0
 91
        1
 92
        0
 93
        3
 72
     2
 10
0.0
 20
0.0
 40
3.000000000000001
 50
0.0
 51
90.0
 73
     1
 72
     1
 10
0.0
 20
3.000000000000001
 11
0.0
 21
0.0
 72
     1
 10
0.0
 20
0.0
 11
3.000000000000003
 21
0.0
 97
        0
 75
     0
 76
     1
 98
        1
 10
0.0
 20
0.0
  0
HATCH
  5
11C
330
117
100
AcDbEntity
  8
0
  6
Continuous
 62
     0
370
     0
100
AcDbHatch
 10
0.0
 20
0.0
 30
0.0
210
0.0
220
0.0
230
1.0
  2
SOLID
 70
     1
 71
     0
 91
        1
 92
        0
 93
        3
 72
     2
 10
0.0
 20
0.0
 40
3.000000000000001
 50
180.0
 51
270.0000000000008
 73
     1
 72
     1
 10
0.0
 20
-3.000000000000001
 11
0.0
 21
0.0
 72
     1
 10
0.0
 20
0.0
 11
-3.000000000000001
 21
0.0
 97
        0
 75
     0
 76
     1
 98
        1
 10
0.0
 20
0.0
  0
ENDBLK
  5
119
330
117
100
AcDbEntity
  8
0
100
AcDbBlockEnd
  0
BLOCK
  5
1DC
330
1DB
100
AcDbEntity
  8
0
100
AcDbBlockBegin
  2
*D8
 70
     1
 10
0.0
 20
0.0
 30
0.0
  3
*D8
  1
*D8
  0
LINE
  5
1DE
330
1DB
100
AcDbEntity
  8
치수문자_일반주서
 62
     0
370
    -2
100
AcDbLine
 10
111.6725000000001
 20
24.12899999999995
 30
0.0
 11
111.6725000000001
 21
30.09774999999996
 31
0.0
  0
LINE
  5
1DF
330
1DB
100
AcDbEntity
  8
치수문자_일반주서
 62
     0
370
    -2
100
AcDbLine
 10
70.39750000000004
 20
24.09689162728164
 30
0.0
 11
70.39750000000004
 21
30.09774999999996
 31
0.0
  0
LINE
  5
1E0
330
1DB
100
AcDbEntity
  8
치수문자_일반주서
 62
     0
370
    -2
100
AcDbLine
 10
108.3705000000001
 20
30.09774999999996
 30
0.0
 11
73.69950000000003
 21
30.09774999999996
 31
0.0
  0
SOLID
  5
1E1
330
1DB
100
AcDbEntity
  8
치수문자_일반주서
 62
     0
100
AcDbTrace
 10
108.3705000000001
 20
29.54741666666662
 30
0.0
 11
108.3705000000001
 21
30.64808333333329
 31
0.0
 12
111.6725000000001
 22
30.09774999999996
 32
0.0
 13
111.6725000000001
 23
30.09774999999996
 33
0.0
  0
SOLID
  5
1E2
330
1DB
100
AcDbEntity
  8
치수문자_일반주서
 62
     0
100
AcDbTrace
 10
73.69950000000003
 20
30.64808333333329
 30
0.0
 11
73.69950000000003
 21
29.54741666666662
 31
0.0
 12
70.39750000000004
 22
30.09774999999996
 32
0.0
 13
70.39750000000004
 23
30.09774999999996
 33
0.0
  0
MTEXT
  5
1E3
330
1DB
100
AcDbEntity
  8
치수문자_일반주서
 62
     0
100
AcDbMText
 10
92.02900766347042
 20
34.47274999999996
 30
0.0
 40
3.5
 41
0.0
 71
     2
 72
     1
  1
\A1;41.28 [1 5/8]
  7
SLDTEXTSTYLE0
 73
     1
 44
1.0
  0
POINT
  5
1E4
330
1DB
100
AcDbEntity
  8
Defpoints
 62
     0
100
AcDbPoint
 10
111.6725000000001
 20
24.06649999999995
 30
0.0
  0
POINT
  5
1E5
330
1DB
100
AcDbEntity
  8
Defpoints
 62
     0
100
AcDbPoint
 10
70.39750000000004
 20
24.03439162728164
 30
0.0
  0
POINT
  5
1E6
330
1DB
100
AcDbEntity
  8
Defpoints
 62
     0
100
AcDbPoint
 10
70.39750000000004
 20
30.09774999999996
 30
0.0
  0
ENDBLK
  5
1DD
330
1DB
100
AcDbEntity
  8
0
100
AcDbBlockEnd
  0
BLOCK
  5
1E8
330
1E7
100
AcDbEntity
  8
0
100
AcDbBlockBegin
  2
*D9
 70
     1
 10
0.0
 20
0.0
 30
0.0
  3
*D9
  1
*D9
  0
LINE
  5
1EA
330
1E7
100
AcDbEntity
  8
치수문자_일반주서
 62
     0
370
    -2
100
AcDbLine
 10
111.6725000000001
 20
24.12899999999995
 30
0.0
 11
111.6725000000001
 21
46.94439679328075
 31
0.0
  0
LINE
  5
1EB
330
1E7
100
AcDbEntity
  8
치수문자_일반주서
 62
     0
370
    -2
100
AcDbLine
 10
16.42250000000004
 20
23.01774999999996
 30
0.0
 11
16.42250000000004
 21
46.94439679328075
 31
0.0
  0
LINE
  5
1EC
330
1E7
100
AcDbEntity
  8
치수문자_일반주서
 62
     0
370
    -2
100
AcDbLine
 10
108.3705000000001
 20
46.94439679328075
 30
0.0
 11
19.72450000000004
 21
46.94439679328075
 31
0.0
  0
SOLID
  5
1ED
330
1E7
100
AcDbEntity
  8
치수문자_일반주서
 62
     0
100
AcDbTrace
 10
108.3705000000001
 20
46.39406345994741
 30
0.0
 11
108.3705000000001
 21
47.49473012661408
 31
0.0
 12
111.6725000000001
 22
46.94439679328075
 32
0.0
 13
111.6725000000001
 23
46.94439679328075
 33
0.0
  0
SOLID
  5
1EE
330
1E7
100
AcDbEntity
  8
치수문자_일반주서
 62
     0
100
AcDbTrace
 10
19.72450000000004
 20
47.49473012661408
 30
0.0
 11
19.72450000000004
 21
46.39406345994741
 31
0.0
 12
16.42250000000004
 22
46.94439679328075
 32
0.0
 13
16.42250000000004
 23
46.94439679328075
 33
0.0
  0
MTEXT
  5
1EF
330
1E7
100
AcDbEntity
  8
치수문자_일반주서
 62
     0
100
AcDbMText
 10
64.04750000000007
 20
51.31939679328075
 30
0.0
 40
3.5
 41
0.0
 71
     2
 72
     1
  1
\A1;95.25 [3 3/4]
  7
SLDTEXTSTYLE0
 73
     1
 44
1.0
  0
POINT
  5
1F0
330
1E7
100
AcDbEntity
  8
Defpoints
 62
     0
100
AcDbPoint
 10
111.6725000000001
 20
24.06649999999995
 30
0.0
  0
POINT
  5
1F1
330
1E7
100
AcDbEntity
  8
Defpoints
 62
     0
100
AcDbPoint
 10
16.42250000000004
 20
22.95524999999996
 30
0.0
  0
POINT
  5
1F2
330
1E7
100
AcDbEntity
  8
Defpoints
 62
     0
100
AcDbPoint
 10
16.42250000000004
 20
46.94439679328075
 30
0.0
  0
ENDBLK
  5
1E9
330
1E7
100
AcDbEntity
  8
0
100
AcDbBlockEnd
  0
BLOCK
  5
1F4
330
1F3
100
AcDbEntity
  8
0
100
AcDbBlockBegin
  2
*D10
 70
     1
 10
0.0
 20
0.0
 30
0.0
  3
*D10
  1
*D10
  0
LINE
  5
1F6
330
1F3
100
AcDbEntity
  8
치수문자_일반주서
 62
     0
370
    -2
100
AcDbLine
 10
18.26500000000004
 20
24.86024999999995
 30
0.0
 11
4.37500000000001
 21
24.8602499999999
 31
0.0
  0
LINE
  5
1F7
330
1F3
100
AcDbEntity
  8
치수문자_일반주서
 62
     0
370
    -2
100
AcDbLine
 10
18.26500000000004
 20
5.810249999999938
 30
0.0
 11
4.375000000000076
 21
5.810249999999884
 31
0.0
  0
LINE
  5
1F8
330
1F3
100
AcDbEntity
  8
치수문자_일반주서
 62
     0
370
    -2
100
AcDbLine
 10
4.375000000000021
 20
21.5582499999999
 30
0.0
 11
4.375000000000065
 21
9.112249999999884
 31
0.0
  0
SOLID
  5
1F9
330
1F3
100
AcDbEntity
  8
치수문자_일반주서
 62
     0
100
AcDbTrace
 10
4.925333333333355
 20
21.5582499999999
 30
0.0
 11
3.824666666666688
 21
21.55824999999989
 31
0.0
 12
4.37500000000001
 22
24.8602499999999
 32
0.0
 13
4.37500000000001
 23
24.8602499999999
 33
0.0
  0
SOLID
  5
1FA
330
1F3
100
AcDbEntity
  8
치수문자_일반주서
 62
     0
100
AcDbTrace
 10
3.824666666666732
 20
9.112249999999882
 30
0.0
 11
4.925333333333398
 21
9.112249999999886
 31
0.0
 12
4.375000000000076
 22
5.810249999999884
 32
0.0
 13
4.375000000000076
 23
5.810249999999884
 33
0.0
  0
MTEXT
  5
1FB
330
1F3
100
AcDbEntity
  8
치수문자_일반주서
 62
     0
100
AcDbMText
 10
0.0000000000000426
 20
15.33524999999993
 30
0.0
 40
3.5
 41
0.0
 71
     2
 72
     1
  1
\A1;%%c19.05 [3/4]
  7
SLDTEXTSTYLE0
 11
-3.496765431890255E-15
 21
1.0
 31
0.0
 73
     1
 44
1.0
  0
POINT
  5
1FC
330
1F3
100
AcDbEntity
  8
Defpoints
 62
     0
100
AcDbPoint
 10
18.32750000000004
 20
24.86024999999995
 30
0.0
  0
POINT
  5
1FD
330
1F3
100
AcDbEntity
  8
Defpoints
 62
     0
100
AcDbPoint
 10
18.32750000000004
 20
5.810249999999938
 30
0.0
  0
POINT
  5
1FE
330
1F3
100
AcDbEntity
  8
Defpoints
 62
     0
100
AcDbPoint
 10
4.375000000000078
 20
5.810249999999885
 30
0.0
  0
ENDBLK
  5
1F5
330
1F3
100
AcDbEntity
  8
0
100
AcDbBlockEnd
  0
BLOCK
  5
200
330
1FF
100
AcDbEntity
  8
0
100
AcDbBlockBegin
  2
*D11
 70
     1
 10
0.0
 20
0.0
 30
0.0
  3
*D11
  1
*D11
  0
LINE
  5
202
330
1FF
100
AcDbEntity
  8
치수문자_일반주서
 62
     0
370
    -2
100
AcDbLine
 10
111.7350000000001
 20
24.06649999999995
 30
0.0
 11
123.6047061529379
 21
24.06649999999999
 31
0.0
  0
LINE
  5
203
330
1FF
100
AcDbEntity
  8
치수문자_일반주서
 62
     0
370
    -2
100
AcDbLine
 10
111.735
 20
6.603999999999953
 30
0.0
 11
123.6047061529379
 21
6.603999999999999
 31
0.0
  0
LINE
  5
204
330
1FF
100
AcDbEntity
  8
치수문자_일반주서
 62
     0
370
    -2
100
AcDbLine
 10
123.6047061529379
 20
24.06649999999999
 30
0.0
 11
123.6047061529378
 21
61.29550000000003
 31
0.0
  0
LINE
  5
205
330
1FF
100
AcDbEntity
  8
치수문자_일반주서
 62
     0
370
    -2
100
AcDbLine
 10
123.6047061529379
 20
24.06649999999999
 30
0.0
 11
123.6047061529379
 21
6.603999999999999
 31
0.0
  0
LINE
  5
206
330
1FF
100
AcDbEntity
  8
치수문자_일반주서
 62
     0
370
    -2
100
AcDbLine
 10
123.6047061529379
 20
27.36849999999999
 30
0.0
 11
123.6047061529379
 21
30.67049999999999
 31
0.0
  0
LINE
  5
207
330
1FF
100
AcDbEntity
  8
치수문자_일반주서
 62
     0
370
    -2
100
AcDbLine
 10
123.604706152938
 20
3.302
 30
0.0
 11
123.604706152938
 21
0.0
 31
0.0
  0
SOLID
  5
208
330
1FF
100
AcDbEntity
  8
치수문자_일반주서
 62
     0
100
AcDbTrace
 10
123.0543728196045
 20
27.36849999999999
 30
0.0
 11
124.1550394862712
 21
27.36849999999999
 31
0.0
 12
123.6047061529379
 22
24.06649999999999
 32
0.0
 13
123.6047061529379
 23
24.06649999999999
 33
0.0
  0
SOLID
  5
209
330
1FF
100
AcDbEntity
  8
치수문자_일반주서
 62
     0
100
AcDbTrace
 10
124.1550394862713
 20
3.302000000000001
 30
0.0
 11
123.0543728196046
 21
3.301999999999998
 31
0.0
 12
123.6047061529379
 22
6.603999999999999
 32
0.0
 13
123.6047061529379
 23
6.603999999999999
 33
0.0
  0
MTEXT
  5
20A
330
1FF
100
AcDbEntity
  8
치수문자_일반주서
 62
     0
100
AcDbMText
 10
119.2297061529378
 20
45.98300000000002
 30
0.0
 40
3.5
 41
0.0
 71
     2
 72
     1
  1
\A1;%%c17.46 [11/16]
  7
SLDTEXTSTYLE0
 11
-3.255170729323295E-15
 21
1.0
 31
0.0
 73
     1
 44
1.0
  0
POINT
  5
20B
330
1FF
100
AcDbEntity
  8
Defpoints
 62
     0
100
AcDbPoint
 10
111.6725000000001
 20
24.06649999999995
 30
0.0
  0
POINT
  5
20C
330
1FF
100
AcDbEntity
  8
Defpoints
 62
     0
100
AcDbPoint
 10
111.6725
 20
6.603999999999953
 30
0.0
  0
POINT
  5
20D
330
1FF
100
AcDbEntity
  8
Defpoints
 62
     0
100
AcDbPoint
 10
123.604706152938
 20
6.603999999999997
 30
0.0
  0
ENDBLK
  5
201
330
1FF
100
AcDbEntity
  8
0
100
AcDbBlockEnd
  0
BLOCK
  5
242
330
241
100
AcDbEntity
  8
0
100
AcDbBlockBegin
  2
*D12
 70
     1
 10
0.0
 20
0.0
 30
0.0
  3
*D12
  1
*D12
  0
LINE
  5
244
330
241
100
AcDbEntity
  8
치수문자_일반주서
 62
     0
370
    -2
100
AcDbLine
 10
218.0638468168047
 20
-44.35117928062091
 30
0.0
 11
218.0638468168047
 21
-38.3824292806209
 31
0.0
  0
LINE
  5
245
330
241
100
AcDbEntity
  8
치수문자_일반주서
 62
     0
370
    -2
100
AcDbLine
 10
176.7888468168046
 20
-44.38328765333922
 30
0.0
 11
176.7888468168046
 21
-38.3824292806209
 31
0.0
  0
LINE
  5
246
330
241
100
AcDbEntity
  8
치수문자_일반주서
 62
     0
370
    -2
100
AcDbLine
 10
214.7618468168047
 20
-38.3824292806209
 30
0.0
 11
180.0908468168046
 21
-38.3824292806209
 31
0.0
  0
SOLID
  5
247
330
241
100
AcDbEntity
  8
치수문자_일반주서
 62
     0
100
AcDbTrace
 10
214.7618468168047
 20
-38.93276261395424
 30
0.0
 11
214.7618468168047
 21
-37.83209594728757
 31
0.0
 12
218.0638468168047
 22
-38.3824292806209
 32
0.0
 13
218.0638468168047
 23
-38.3824292806209
 33
0.0
  0
SOLID
  5
248
330
241
100
AcDbEntity
  8
치수문자_일반주서
 62
     0
100
AcDbTrace
 10
180.0908468168046
 20
-37.83209594728757
 30
0.0
 11
180.0908468168046
 21
-38.93276261395424
 31
0.0
 12
176.7888468168046
 22
-38.3824292806209
 32
0.0
 13
176.7888468168046
 23
-38.3824292806209
 33
0.0
  0
MTEXT
  5
249
330
241
100
AcDbEntity
  8
치수문자_일반주서
 62
     0
100
AcDbMText
 10
198.420354480275
 20
-34.0074292806209
 30
0.0
 40
3.5
 41
0.0
 71
     2
 72
     1
  1
\A1;41.28 [1 5/8]
  7
SLDTEXTSTYLE0
 73
     1
 44
1.0
  0
POINT
  5
24A
330
241
100
AcDbEntity
  8
Defpoints
 62
     0
100
AcDbPoint
 10
218.0638468168047
 20
-44.41367928062091
 30
0.0
  0
POINT
  5
24B
330
241
100
AcDbEntity
  8
Defpoints
 62
     0
100
AcDbPoint
 10
176.7888468168046
 20
-44.44578765333922
 30
0.0
  0
POINT
  5
24C
330
241
100
AcDbEntity
  8
Defpoints
 62
     0
100
AcDbPoint
 10
176.7888468168046
 20
-38.3824292806209
 30
0.0
  0
ENDBLK
  5
243
330
241
100
AcDbEntity
  8
0
100
AcDbBlockEnd
  0
BLOCK
  5
24E
330
24D
100
AcDbEntity
  8
0
100
AcDbBlockBegin
  2
*D13
 70
     1
 10
0.0
 20
0.0
 30
0.0
  3
*D13
  1
*D13
  0
LINE
  5
250
330
24D
100
AcDbEntity
  8
치수문자_일반주서
 62
     0
370
    -2
100
AcDbLine
 10
218.0638468168047
 20
-44.35117928062091
 30
0.0
 11
218.0638468168047
 21
-21.53578248734011
 31
0.0
  0
LINE
  5
251
330
24D
100
AcDbEntity
  8
치수문자_일반주서
 62
     0
370
    -2
100
AcDbLine
 10
122.8138468168046
 20
-45.4624292806209
 30
0.0
 11
122.8138468168046
 21
-21.53578248734011
 31
0.0
  0
LINE
  5
252
330
24D
100
AcDbEntity
  8
치수문자_일반주서
 62
     0
370
    -2
100
AcDbLine
 10
214.7618468168047
 20
-21.53578248734011
 30
0.0
 11
126.1158468168046
 21
-21.53578248734011
 31
0.0
  0
SOLID
  5
253
330
24D
100
AcDbEntity
  8
치수문자_일반주서
 62
     0
100
AcDbTrace
 10
214.7618468168047
 20
-22.08611582067345
 30
0.0
 11
214.7618468168047
 21
-20.98544915400678
 31
0.0
 12
218.0638468168047
 22
-21.53578248734011
 32
0.0
 13
218.0638468168047
 23
-21.53578248734011
 33
0.0
  0
SOLID
  5
254
330
24D
100
AcDbEntity
  8
치수문자_일반주서
 62
     0
100
AcDbTrace
 10
126.1158468168046
 20
-20.98544915400678
 30
0.0
 11
126.1158468168046
 21
-22.08611582067345
 31
0.0
 12
122.8138468168046
 22
-21.53578248734011
 32
0.0
 13
122.8138468168046
 23
-21.53578248734011
 33
0.0
  0
MTEXT
  5
255
330
24D
100
AcDbEntity
  8
치수문자_일반주서
 62
     0
100
AcDbMText
 10
170.4388468168047
 20
-17.16078248734011
 30
0.0
 40
3.5
 41
0.0
 71
     2
 72
     1
  1
\A1;95.25 [3 3/4]
  7
SLDTEXTSTYLE0
 73
     1
 44
1.0
  0
POINT
  5
256
330
24D
100
AcDbEntity
  8
Defpoints
 62
     0
100
AcDbPoint
 10
218.0638468168047
 20
-44.41367928062091
 30
0.0
  0
POINT
  5
257
330
24D
100
AcDbEntity
  8
Defpoints
 62
     0
100
AcDbPoint
 10
122.8138468168046
 20
-45.5249292806209
 30
0.0
  0
POINT
  5
258
330
24D
100
AcDbEntity
  8
Defpoints
 62
     0
100
AcDbPoint
 10
122.8138468168046
 20
-21.53578248734011
 30
0.0
  0
ENDBLK
  5
24F
330
24D
100
AcDbEntity
  8
0
100
AcDbBlockEnd
  0
BLOCK
  5
25A
330
259
100
AcDbEntity
  8
0
100
AcDbBlockBegin
  2
*D14
 70
     1
 10
0.0
 20
0.0
 30
0.0
  3
*D14
  1
*D14
  0
LINE
  5
25C
330
259
100
AcDbEntity
  8
치수문자_일반주서
 62
     0
370
    -2
100
AcDbLine
 10
124.6563468168046
 20
-43.61992928062091
 30
0.0
 11
110.7663468168046
 21
-43.61992928062097
 31
0.0
  0
LINE
  5
25D
330
259
100
AcDbEntity
  8
치수문자_일반주서
 62
     0
370
    -2
100
AcDbLine
 10
124.6563468168046
 20
-62.66992928062092
 30
0.0
 11
110.7663468168047
 21
-62.66992928062098
 31
0.0
  0
LINE
  5
25E
330
259
100
AcDbEntity
  8
치수문자_일반주서
 62
     0
370
    -2
100
AcDbLine
 10
110.7663468168046
 20
-46.92192928062097
 30
0.0
 11
110.7663468168047
 21
-59.36792928062098
 31
0.0
  0
SOLID
  5
25F
330
259
100
AcDbEntity
  8
치수문자_일반주서
 62
     0
100
AcDbTrace
 10
111.316680150138
 20
-46.92192928062097
 30
0.0
 11
110.2160134834713
 21
-46.92192928062097
 31
0.0
 12
110.7663468168046
 22
-43.61992928062097
 32
0.0
 13
110.7663468168046
 23
-43.61992928062097
 33
0.0
  0
SOLID
  5
260
330
259
100
AcDbEntity
  8
치수문자_일반주서
 62
     0
100
AcDbTrace
 10
110.2160134834713
 20
-59.36792928062098
 30
0.0
 11
111.316680150138
 21
-59.36792928062098
 31
0.0
 12
110.7663468168047
 22
-62.66992928062098
 32
0.0
 13
110.7663468168047
 23
-62.66992928062098
 33
0.0
  0
MTEXT
  5
261
330
259
100
AcDbEntity
  8
치수문자_일반주서
 62
     0
100
AcDbMText
 10
106.3913468168046
 20
-53.14492928062093
 30
0.0
 40
3.5
 41
0.0
 71
     2
 72
     1
  1
\A1;%%c19.05 [3/4]
  7
SLDTEXTSTYLE0
 11
-3.729883127349606E-15
 21
1.0
 31
0.0
 73
     1
 44
1.0
  0
POINT
  5
262
330
259
100
AcDbEntity
  8
Defpoints
 62
     0
100
AcDbPoint
 10
124.7188468168046
 20
-43.61992928062091
 30
0.0
  0
POINT
  5
263
330
259
100
AcDbEntity
  8
Defpoints
 62
     0
100
AcDbPoint
 10
124.7188468168046
 20
-62.66992928062092
 30
0.0
  0
POINT
  5
264
330
259
100
AcDbEntity
  8
Defpoints
 62
     0
100
AcDbPoint
 10
110.7663468168047
 20
-62.66992928062097
 30
0.0
  0
ENDBLK
  5
25B
330
259
100
AcDbEntity
  8
0
100
AcDbBlockEnd
  0
BLOCK
  5
266
330
265
100
AcDbEntity
  8
0
100
AcDbBlockBegin
  2
*D15
 70
     1
 10
0.0
 20
0.0
 30
0.0
  3
*D15
  1
*D15
  0
LINE
  5
268
330
265
100
AcDbEntity
  8
치수문자_일반주서
 62
     0
370
    -2
100
AcDbLine
 10
218.1263468168047
 20
-44.41367928062091
 30
0.0
 11
229.9960529697425
 21
-44.41367928062087
 31
0.0
  0
LINE
  5
269
330
265
100
AcDbEntity
  8
치수문자_일반주서
 62
     0
370
    -2
100
AcDbLine
 10
218.1263468168046
 20
-61.8761792806209
 30
0.0
 11
229.9960529697425
 21
-61.87617928062086
 31
0.0
  0
LINE
  5
26A
330
265
100
AcDbEntity
  8
치수문자_일반주서
 62
     0
370
    -2
100
AcDbLine
 10
229.9960529697425
 20
-44.41367928062087
 30
0.0
 11
229.9960529697424
 21
-7.184679280620827
 31
0.0
  0
LINE
  5
26B
330
265
100
AcDbEntity
  8
치수문자_일반주서
 62
     0
370
    -2
100
AcDbLine
 10
229.9960529697425
 20
-44.41367928062087
 30
0.0
 11
229.9960529697425
 21
-61.87617928062086
 31
0.0
  0
LINE
  5
26C
330
265
100
AcDbEntity
  8
치수문자_일반주서
 62
     0
370
    -2
100
AcDbLine
 10
229.9960529697425
 20
-41.11167928062087
 30
0.0
 11
229.9960529697425
 21
-37.80967928062087
 31
0.0
  0
LINE
  5
26D
330
265
100
AcDbEntity
  8
치수문자_일반주서
 62
     0
370
    -2
100
AcDbLine
 10
229.9960529697425
 20
-65.17817928062087
 30
0.0
 11
229.9960529697425
 21
-68.48017928062086
 31
0.0
  0
SOLID
  5
26E
330
265
100
AcDbEntity
  8
치수문자_일반주서
 62
     0
100
AcDbTrace
 10
229.4457196364092
 20
-41.11167928062087
 30
0.0
 11
230.5463863030758
 21
-41.11167928062087
 31
0.0
 12
229.9960529697425
 22
-44.41367928062087
 32
0.0
 13
229.9960529697425
 23
-44.41367928062087
 33
0.0
  0
SOLID
  5
26F
330
265
100
AcDbEntity
  8
치수문자_일반주서
 62
     0
100
AcDbTrace
 10
230.5463863030759
 20
-65.17817928062087
 30
0.0
 11
229.4457196364092
 21
-65.17817928062087
 31
0.0
 12
229.9960529697425
 22
-61.87617928062086
 32
0.0
 13
229.9960529697425
 23
-61.87617928062086
 33
0.0
  0
MTEXT
  5
270
330
265
100
AcDbEntity
  8
치수문자_일반주서
 62
     0
100
AcDbMText
 10
225.6210529697424
 20
-22.49717928062084
 30
0.0
 40
3.5
 41
0.0
 71
     2
 72
     1
  1
\A1;%%c17.46 [11/16]
  7
SLDTEXTSTYLE0
 11
-3.255170729323295E-15
 21
1.0
 31
0.0
 73
     1
 44
1.0
  0
POINT
  5
271
330
265
100
AcDbEntity
  8
Defpoints
 62
     0
100
AcDbPoint
 10
218.0638468168047
 20
-44.41367928062091
 30
0.0
  0
POINT
  5
272
330
265
100
AcDbEntity
  8
Defpoints
 62
     0
100
AcDbPoint
 10
218.0638468168046
 20
-61.8761792806209
 30
0.0
  0
POINT
  5
273
330
265
100
AcDbEntity
  8
Defpoints
 62
     0
100
AcDbPoint
 10
229.9960529697425
 20
-61.87617928062086
 30
0.0
  0
ENDBLK
  5
267
330
265
100
AcDbEntity
  8
0
100
AcDbBlockEnd
  0
ENDSEC
  0
SECTION
  2
ENTITIES
  0
LINE
  5
96
330
1F
100
AcDbEntity
  8
0
  6
Continuous
 62
     1
370
    15
100
AcDbLine
 10
39.32987498846241
 20
-9.525000000000002
 30
0.0
 11
43.75000000000003
 21
-9.525000000000002
 31
0.0
  0
LINE
  5
97
330
1F
100
AcDbEntity
  8
0
  6
Continuous
 62
     1
370
    15
100
AcDbLine
 10
19.2219359831451
 20
9.524999999999995
 30
0.0
 11
13.41587725766421
 21
9.524999999999995
 31
0.0
  0
ARC
  5
98
330
1F
100
AcDbEntity
  8
0
  6
Continuous
 62
     1
370
    15
100
AcDbCircle
 10
43.75000000000003
 20
0.0000000000000001
 30
0.0
 40
9.524999999999999
100
AcDbArc
 50
335.7612748160512
 51
0.0
  0
ARC
  5
99
330
1F
100
AcDbEntity
  8
0
  6
Continuous
 62
     1
370
    15
100
AcDbCircle
 10
43.75000000000003
 20
0.0000000000000001
 30
0.0
 40
9.524999999999995
100
AcDbArc
 50
270.0000000000009
 51
278.0820960437482
  0
ARC
  5
9A
330
1F
100
AcDbEntity
  8
0
  6
Continuous
 62
     1
370
    15
100
AcDbCircle
 10
43.75000000000003
 20
0.0000000000000001
 30
0.0
 40
9.524999999999991
100
AcDbArc
 50
81.90661510411667
 51
90.0
  0
ARC
  5
9B
330
1F
100
AcDbEntity
  8
0
  6
Continuous
 62
     1
370
    15
100
AcDbCircle
 10
43.75000000000003
 20
0.0000000000000001
 30
0.0
 40
9.524999999999999
100
AcDbArc
 50
0.0
 51
24.2364671947242
  0
LINE
  5
9C
330
1F
100
AcDbEntity
  8
0
  6
Continuous
 62
     1
370
    15
100
AcDbLine
 10
13.41587725766421
 20
-9.525000000000002
 30
0.0
 11
19.22193598314524
 21
-9.525000000000002
 31
0.0
  0
LINE
  5
9D
330
1F
100
AcDbEntity
  8
0
  6
Continuous
 62
     1
370
    15
100
AcDbLine
 10
43.75000000000003
 20
9.524999999999995
 30
0.0
 11
39.32987498846227
 21
9.524999999999995
 31
0.0
  0
LINE
  5
9E
330
1F
100
AcDbEntity
  8
외형선
  6
Continuous
370
    15
100
AcDbLine
 10
-43.24499999999999
 20
9.524999999999999
 30
0.0
 11
-45.15000000000001
 21
7.620000000000004
 31
0.0
  0
LINE
  5
9F
330
1F
100
AcDbEntity
  8
외형선
  6
Continuous
370
    15
100
AcDbLine
 10
-45.15000000000001
 20
-7.620000000000012
 30
0.0
 11
-43.24499999999999
 21
-9.525000000000006
 31
0.0
  0
LINE
  5
A0
330
1F
100
AcDbEntity
  8
외형선
  6
Continuous
370
    15
100
AcDbLine
 10
-43.24499999999999
 20
-9.525000000000006
 30
0.0
 11
12.0
 21
-9.525000000000006
 31
0.0
  0
LINE
  5
A1
330
1F
100
AcDbEntity
  8
외형선
  6
Continuous
370
    15
100
AcDbLine
 10
12.0
 20
9.524999999999999
 30
0.0
 11
-11.656925
 21
9.524999999999999
 31
0.0
  0
SPLINE
  5
A2
330
1F
100
AcDbEntity
  8
0
  6
Continuous
 62
     1
370
    15
100
AcDbSpline
210
0.0
220
0.0
230
1.0
 70
     8
 71
     3
 72
    18
 73
    14
 74
     0
 42
0.000000001
 43
0.00000001
 40
0.0
 40
0.0
 40
0.0
 40
0.0
 40
0.0929788052820421
 40
0.1859134313243301
 40
0.27882595816016
 40
0.3717385647516993
 40
0.4646734297037942
 40
0.5576526285679623
 40
0.6506310379853493
 40
0.7528622723705485
 40
0.8550852351241907
 40
0.957302703608159
 40
1.0
 40
1.0
 40
1.0
 40
1.0
 10
12.0
 20
0.8161148516610907
 30
0.0
 10
12.8471019305174
 20
0.3271721120260963
 30
0.0
 10
14.54090328778615
 20
-0.6504810442058101
 30
0.0
 10
17.08086524564786
 20
-2.107094075621854
 30
0.0
 10
19.62012676470356
 20
-3.512287817584578
 30
0.0
 10
22.15939244889342
 20
-4.834790076066162
 30
0.0
 10
24.69935754466031
 20
-6.04288708169324
 30
0.0
 10
27.24028224490523
 20
-7.108125069928416
 30
0.0
 10
29.86582130311634
 20
-8.034088424741203
 30
0.0
 10
32.57550167972366
 20
-8.782251336360474
 30
0.0
 10
35.36931159735744
 20
-9.285792444234113
 30
0.0
 10
37.62073735926802
 20
-9.526950932134683
 30
0.0
 10
38.94090449565356
 20
-9.499800018326246
 30
0.0
 10
39.32987498846242
 20
-9.491800346138382
 30
0.0
  0
SPLINE
  5
A3
330
1F
100
AcDbEntity
  8
0
  6
Continuous
 62
     1
370
    15
100
AcDbSpline
210
0.0
220
0.0
230
1.0
 70
     8
 71
     3
 72
    15
 73
    11
 74
     0
 42
0.000000001
 43
0.00000001
 40
0.0
 40
0.0
 40
0.0
 40
0.0
 40
0.0440003323083234
 40
0.1910252694065653
 40
0.325815890736268
 40
0.4607292557686772
 40
0.5955794171825558
 40
0.7303415489692089
 40
0.8651152458856934
 40
1.0
 40
1.0
 40
1.0
 40
1.0
 10
29.26961054728928
 20
-7.793472060295191
 30
0.0
 10
29.01632243888819
 20
-7.882614119120132
 30
0.0
 10
27.91668462693363
 20
-8.269619964511648
 30
0.0
 10
26.04113544812202
 20
-8.74725352923507
 30
0.0
 10
23.6425264844113
 20
-9.218022007296753
 30
0.0
 10
21.31318228202773
 20
-9.479334227803605
 30
0.0
 10
18.98444522048041
 20
-9.556380546632525
 30
0.0
 10
16.65685830175849
 20
-9.439202710684352
 30
0.0
 10
14.32906929907837
 20
-9.146766576977324
 30
0.0
 10
12.77656956222684
 20
-8.800046358306268
 30
0.0
 10
12.0
 20
-8.626614851660982
 30
0.0
  0
SPLINE
  5
A4
330
1F
100
AcDbEntity
  8
0
  6
Continuous
 62
     1
370
    15
100
AcDbSpline
210
0.0
220
0.0
230
1.0
 70
     8
 71
     3
 72
    44
 73
    40
 74
     0
 42
0.000000001
 43
0.00000001
 40
0.0
 40
0.0
 40
0.0
 40
0.0
 40
0.0624999999999998
 40
0.0624999999999998
 40
0.1249999999999996
 40
0.1249999999999996
 40
0.1874999999999994
 40
0.1874999999999994
 40
0.2499999999999997
 40
0.2499999999999997
 40
0.3124999999999999
 40
0.3124999999999999
 40
0.3750000000000002
 40
0.3750000000000002
 40
0.4375000000000004
 40
0.4375000000000004
 40
0.5000000000000008
 40
0.5000000000000008
 40
0.562500000000001
 40
0.562500000000001
 40
0.5937500000000007
 40
0.5937500000000007
 40
0.6250000000000003
 40
0.6250000000000003
 40
0.6562500000000001
 40
0.6562500000000001
 40
0.6874999999999998
 40
0.6874999999999998
 40
0.749999999999999
 40
0.749999999999999
 40
0.7812499999999991
 40
0.7812499999999991
 40
0.8124999999999992
 40
0.8124999999999992
 40
0.8749999999999994
 40
0.8749999999999994
 40
0.9374999999999998
 40
0.9374999999999998
 40
1.0
 40
1.0
 40
1.0
 40
1.0
 10
12.0
 20
9.489972684307277
 30
0.0
 10
12.65864792923109
 20
9.522647822270638
 30
0.0
 10
13.32280593522403
 20
9.532512528810193
 30
0.0
 10
14.6477990314656
 20
9.506141687827908
 30
0.0
 10
15.30551369494086
 20
9.47005370791919
 30
0.0
 10
16.6299452360917
 20
9.352276488666451
 30
0.0
 10
17.29434818357159
 20
9.270531156622763
 30
0.0
 10
18.61316785655266
 20
9.06328450746052
 30
0.0
 10
19.2755802049028
 20
8.937398594669242
 30
0.0
 10
20.60098271780246
 20
8.643046111149731
 30
0.0
 10
21.2589719418476
 20
8.475031943545698
 30
0.0
 10
22.5826900044811
 20
8.09835758782764
 30
0.0
 10
23.2472610962693
 20
7.889703120362604
 30
0.0
 10
24.56745480287325
 20
7.43637536574587
 30
0.0
 10
25.22839425957729
 20
7.191146257088363
 30
0.0
 10
26.5540538938763
 20
6.666694659653606
 30
0.0
 10
27.21259213405706
 20
6.388325068071167
 30
0.0
 10
28.53544506775983
 20
5.801376677491793
 30
0.0
 10
29.20010744163053
 20
5.492677617703873
 30
0.0
 10
30.19117051846043
 20
5.011822706830392
 30
0.0
 10
30.52005897602598
 20
4.848664724882578
 30
0.0
 10
31.18124077675468
 20
4.5161446177279
 30
0.0
 10
31.51270586113763
 20
4.346913640131035
 30
0.0
 10
32.17558804209742
 20
4.003414004653042
 30
0.0
 10
32.50700405351427
 20
3.829145909992531
 30
0.0
 10
33.16799044755031
 20
3.476531738952689
 30
0.0
 10
33.49684975582589
 20
3.298318156350164
 30
0.0
 10
34.48822711969584
 20
2.757179596864813
 30
0.0
 10
35.15290387810184
 20
2.388198698408204
 30
0.0
 10
36.14477167333273
 20
1.828377152436363
 30
0.0
 10
36.47367975416518
 20
1.640880231160649
 30
0.0
 10
37.13431557173828
 20
1.26360393459603
 30
0.0
 10
37.46563755183294
 20
1.073899248892935
 30
0.0
 10
38.45992504355293
 20
0.5031212138658265
 30
0.0
 10
39.12038373825676
 20
0.1209300575778062
 30
0.0
 10
40.4410528435852
 20
-0.6421468669736234
 30
0.0
 10
41.10566708341287
 20
-1.023876214157989
 30
0.0
 10
42.42907925385643
 20
-1.779450449809417
 30
0.0
 10
43.08724173314845
 20
-2.153188850187755
 30
0.0
 10
43.75000000000003
 20
-2.521700735090852
 30
0.0
  0
SPLINE
  5
A5
330
1F
100
AcDbEntity
  8
0
  6
Continuous
 62
     1
370
    15
100
AcDbSpline
210
0.0
220
0.0
230
1.0
 70
     8
 71
     3
 72
    56
 73
    52
 74
     0
 42
0.000000001
 43
0.00000001
 40
0.0
 40
0.0
 40
0.0
 40
0.0
 40
0.0625000000000002
 40
0.0625000000000002
 40
0.0937500000000004
 40
0.0937500000000004
 40
0.1250000000000005
 40
0.1250000000000005
 40
0.1875000000000007
 40
0.1875000000000007
 40
0.2187500000000002
 40
0.2187500000000002
 40
0.2499999999999997
 40
0.2499999999999997
 40
0.3124999999999997
 40
0.3124999999999997
 40
0.3749999999999997
 40
0.3749999999999997
 40
0.4062499999999993
 40
0.4062499999999993
 40
0.4374999999999989
 40
0.4374999999999989
 40
0.4687499999999986
 40
0.4687499999999986
 40
0.4999999999999982
 40
0.4999999999999982
 40
0.5312499999999978
 40
0.5312499999999978
 40
0.5468749999999978
 40
0.5468749999999978
 40
0.5624999999999977
 40
0.5624999999999977
 40
0.5937499999999974
 40
0.5937499999999974
 40
0.6249999999999972
 40
0.6249999999999972
 40
0.6562499999999971
 40
0.6562499999999971
 40
0.6874999999999969
 40
0.6874999999999969
 40
0.7499999999999964
 40
0.7499999999999964
 40
0.7812499999999969
 40
0.7812499999999969
 40
0.8124999999999972
 40
0.8124999999999972
 40
0.8749999999999981
 40
0.8749999999999981
 40
0.9374999999999991
 40
0.9374999999999991
 40
1.0
 40
1.0
 40
1.0
 40
1.0
 10
43.75000000000003
 20
-2.521700735090862
 30
0.0
 10
44.2339620561151
 20
-2.790796993018766
 30
0.0
 10
44.71582504952778
 20
-3.034169358260959
 30
0.0
 10
45.44039920786246
 20
-3.353249250264895
 30
0.0
 10
45.68214104075408
 20
-3.452051725642443
 30
0.0
 10
46.1672248684545
 20
-3.632113497127274
 30
0.0
 10
46.41185767443402
 20
-3.713865355232739
 30
0.0
 10
47.1369201563348
 20
-3.928260578914229
 30
0.0
 10
47.60759167651453
 20
-4.0301881149883
 30
0.0
 10
48.29369772490867
 20
-4.126917391168049
 30
0.0
 10
48.51899274617982
 20
-4.149910726375101
 30
0.0
 10
48.96226266624819
 20
-4.177783953256442
 30
0.0
 10
49.18034712746127
 20
-4.182481626621808
 30
0.0
 10
49.80935961046208
 20
-4.172425494364026
 30
0.0
 10
50.19992104013343
 20
-4.133749208543583
 30
0.0
 10
50.91557405825476
 20
-4.020157254743128
 30
0.0
 10
51.24187584071561
 20
-3.944364409665997
 30
0.0
 10
51.65521020651245
 20
-3.836435957205173
 30
0.0
 10
51.7810095323145
 20
-3.801386199655884
 30
0.0
 10
52.00636437852442
 20
-3.739713631415778
 30
0.0
 10
52.10630366840056
 20
-3.712993599633121
 30
0.0
 10
52.2742708975081
 20
-3.677196069864566
 30
0.0
 10
52.34148240563252
 20
-3.668278074826019
 30
0.0
 10
52.43897549192796
 20
-3.678005131323006
 30
0.0
 10
52.46933488895647
 20
-3.697047306078472
 30
0.0
 10
52.48570246947212
 20
-3.773626339526104
 30
0.0
 10
52.47226486836664
 20
-3.830616643098643
 30
0.0
 10
52.41576556006663
 20
-3.952369254790428
 30
0.0
 10
52.39073959353514
 20
-3.999083143542451
 30
0.0
 10
52.32960451637952
 20
-4.102741428846385
 30
0.0
 10
52.29337579847653
 20
-4.159971951114625
 30
0.0
 10
52.16761385116435
 20
-4.348399167529095
 30
0.0
 10
52.05881606214955
 20
-4.49928712119433
 30
0.0
 10
51.80567399955187
 20
-4.831043349365707
 30
0.0
 10
51.66033040180935
 20
-5.013430925676836
 30
0.0
 10
51.34019290133374
 20
-5.398058393266673
 30
0.0
 10
51.16894344995609
 20
-5.596090305410574
 30
0.0
 10
50.80463206745291
 20
-5.999308665328225
 30
0.0
 10
50.61416909885396
 20
-6.201437632122316
 30
0.0
 10
50.03049237978682
 20
-6.791616925618104
 30
0.0
 10
49.61430396018767
 20
-7.173285915083111
 30
0.0
 10
48.983740902606
 20
-7.681985624702661
 30
0.0
 10
48.77128378313471
 20
-7.842314033131554
 30
0.0
 10
48.33985000359658
 20
-8.144128388411056
 30
0.0
 10
48.11954741631472
 20
-8.286264451991723
 30
0.0
 10
47.45817640237684
 20
-8.675799892658445
 30
0.0
 10
47.01493294248689
 20
-8.888421041368417
 30
0.0
 10
46.10930465916977
 20
-9.223070491685846
 30
0.0
 10
45.64377160648873
 20
-9.345045045433642
 30
0.0
 10
44.707209869118
 20
-9.490103215975967
 30
0.0
 10
44.23385234560014
 20
-9.514778457915426
 30
0.0
 10
43.75000000000004
 20
-9.491347006548045
 30
0.0
  0
SPLINE
  5
A6
330
1F
100
AcDbEntity
  8
0
  6
Continuous
 62
     1
370
    15
100
AcDbSpline
210
0.0
220
0.0
230
1.0
 70
     8
 71
     3
 72
    44
 73
    40
 74
     0
 42
0.000000001
 43
0.00000001
 40
0.0
 40
0.0
 40
0.0
 40
0.0
 40
0.0624999999999989
 40
0.0624999999999989
 40
0.1249999999999979
 40
0.1249999999999979
 40
0.1874999999999968
 40
0.1874999999999968
 40
0.2499999999999963
 40
0.2499999999999963
 40
0.3124999999999957
 40
0.3124999999999957
 40
0.3749999999999952
 40
0.3749999999999952
 40
0.4374999999999946
 40
0.4374999999999946
 40
0.499999999999994
 40
0.499999999999994
 40
0.5624999999999933
 40
0.5624999999999933
 40
0.5937499999999936
 40
0.5937499999999936
 40
0.6249999999999937
 40
0.6249999999999937
 40
0.6562499999999938
 40
0.6562499999999938
 40
0.6874999999999939
 40
0.6874999999999939
 40
0.7499999999999943
 40
0.7499999999999943
 40
0.781249999999995
 40
0.781249999999995
 40
0.8124999999999957
 40
0.8124999999999957
 40
0.8749999999999971
 40
0.8749999999999971
 40
0.9374999999999984
 40
0.9374999999999984
 40
1.0
 40
1.0
 40
1.0
 40
1.0
 10
12.0
 20
4.038210148209422
 30
0.0
 10
12.65864792923109
 20
3.692822694640765
 30
0.0
 10
13.32280593522404
 20
3.336729830645207
 30
0.0
 10
14.64779903146559
 20
2.610733231137853
 30
0.0
 10
15.30551369494089
 20
2.241443918498232
 30
0.0
 10
16.62994523609174
 20
1.492176243922998
 30
0.0
 10
17.29434818357161
 20
1.112613421161633
 30
0.0
 10
18.6131678565527
 20
0.3518648205745399
 30
0.0
 10
19.27558020490286
 20
-0.030851682880694
 30
0.0
 10
20.60098271780244
 20
-0.7944073834026885
 30
0.0
 10
21.25897194184762
 20
-1.17428507495658
 30
0.0
 10
22.58269000448108
 20
-1.928036145376077
 30
0.0
 10
23.24726109626932
 20
-2.301666799068725
 30
0.0
 10
24.5674548028733
 20
-3.034383169246457
 30
0.0
 10
25.2283942595773
 20
-3.394467552200497
 30
0.0
 10
26.55405389387627
 20
-4.097205423396757
 30
0.0
 10
27.21259213405705
 20
-4.438780675343295
 30
0.0
 10
28.53544506775986
 20
-5.099918693219906
 30
0.0
 10
29.2001074416305
 20
-5.41948168649104
 30
0.0
 10
30.19117051846043
 20
-5.877152509499481
 30
0.0
 10
30.520058976026
 20
-6.026041978934316
 30
0.0
 10
31.18124077675467
 20
-6.316895026267731
 30
0.0
 10
31.5127058611376
 20
-6.458726975776357
 30
0.0
 10
32.17558804209739
 20
-6.734412688255023
 30
0.0
 10
32.50700405351422
 20
-6.868266001333848
 30
0.0
 10
33.1679904475503
 20
-7.127291114776595
 30
0.0
 10
33.49684975582592
 20
-7.252381789435649
 30
0.0
 10
34.48822711969582
 20
-7.6149362629205
 30
0.0
 10
35.15290387810184
 20
-7.839261215254126
 30
0.0
 10
36.14477167333276
 20
-8.146027899811594
 30
0.0
 10
36.47367975416519
 20
-8.243267464122253
 30
0.0
 10
37.13431557173831
 20
-8.427985544754325
 30
0.0
 10
37.46563755183294
 20
-8.515412757329345
 30
0.0
 10
38.45992504355296
 20
-8.762136534848695
 30
0.0
 10
39.12038373825682
 20
-8.905649271148095
 30
0.0
 10
40.44105284358518
 20
-9.149153044941412
 30
0.0
 10
41.1056670834129
 20
-9.249344795537032
 30
0.0
 10
42.42907925385646
 20
-9.404349013340997
 30
0.0
 10
43.08724173314849
 20
-9.459251702599913
 30
0.0
 10
43.75000000000004
 20
-9.491347006548079
 30
0.0
  0
SPLINE
  5
A7
330
1F
100
AcDbEntity
  8
0
  6
Continuous
 62
     1
370
    15
100
AcDbSpline
210
0.0
220
0.0
230
1.0
 70
     8
 71
     3
 72
    13
 73
     9
 74
     0
 42
0.000000001
 43
0.00000001
 40
0.0
 40
0.0
 40
0.0
 40
0.0
 40
0.0353497891794057
 40
0.2283005604838856
 40
0.4212357199482221
 40
0.614160509552724
 40
0.8070801830490345
 40
1.0
 40
1.0
 40
1.0
 40
1.0
 10
29.26961054728916
 20
7.793472060295182
 30
0.0
 10
29.44024490268741
 20
7.854356297578218
 30
0.0
 10
30.54225766936957
 20
8.247566718885308
 30
0.0
 10
32.57549727600234
 20
8.768247318090117
 30
0.0
 10
35.36931299675494
 20
9.299865019934954
 30
0.0
 10
38.16294049466009
 20
9.542743660562891
 30
0.0
 10
40.95648022197898
 20
9.536147731591676
 30
0.0
 10
42.81882650985364
 20
9.302137292651755
 30
0.0
 10
43.75000000000003
 20
9.185132029679398
 30
0.0
  0
SPLINE
  5
A8
330
1F
100
AcDbEntity
  8
0
  6
Continuous
 62
     1
370
    15
100
AcDbSpline
210
0.0
220
0.0
230
1.0
 70
     8
 71
     3
 72
    56
 73
    52
 74
     0
 42
0.000000001
 43
0.00000001
 40
0.0
 40
0.0
 40
0.0
 40
0.0
 40
0.0625000000000002
 40
0.0625000000000002
 40
0.0937500000000004
 40
0.0937500000000004
 40
0.1250000000000005
 40
0.1250000000000005
 40
0.1875000000000006
 40
0.1875000000000006
 40
0.21875
 40
0.21875
 40
0.2499999999999994
 40
0.2499999999999994
 40
0.3124999999999994
 40
0.3124999999999994
 40
0.3749999999999995
 40
0.3749999999999995
 40
0.4062499999999991
 40
0.4062499999999991
 40
0.4374999999999987
 40
0.4374999999999987
 40
0.4687499999999984
 40
0.4687499999999984
 40
0.499999999999998
 40
0.499999999999998
 40
0.5312499999999977
 40
0.5312499999999977
 40
0.5468749999999977
 40
0.5468749999999977
 40
0.5624999999999976
 40
0.5624999999999976
 40
0.5937499999999974
 40
0.5937499999999974
 40
0.6249999999999973
 40
0.6249999999999973
 40
0.6562499999999973
 40
0.6562499999999973
 40
0.6874999999999972
 40
0.6874999999999972
 40
0.7499999999999969
 40
0.7499999999999969
 40
0.7812499999999973
 40
0.7812499999999973
 40
0.8124999999999978
 40
0.8124999999999978
 40
0.8749999999999986
 40
0.8749999999999986
 40
0.9374999999999993
 40
0.9374999999999993
 40
1.0
 40
1.0
 40
1.0
 40
1.0
 10
43.75000000000003
 20
9.185132029679387
 30
0.0
 10
44.2339620561151
 20
9.111253915653993
 30
0.0
 10
44.71582504952778
 20
8.993885336338478
 30
0.0
 10
45.44039920786246
 20
8.757838347713617
 30
0.0
 10
45.68214104075409
 20
8.669052965115355
 30
0.0
 10
46.16722486845453
 20
8.471545603321955
 30
0.0
 10
46.41185767443395
 20
8.362103289312836
 30
0.0
 10
47.13692015633475
 20
8.008300692798182
 30
0.0
 10
47.6075916765145
 20
7.739900402860511
 30
0.0
 10
48.29369772490868
 20
7.288686753381
 30
0.0
 10
48.51899274617986
 20
7.130066138508344
 30
0.0
 10
48.96226266624814
 20
6.795684890241062
 30
0.0
 10
49.1803471274612
 20
6.61972189277857
 30
0.0
 10
49.80935961046202
 20
6.075221253833384
 30
0.0
 10
50.19992104013339
 20
5.68705467563113
 30
0.0
 10
50.91557405825476
 20
4.850241116636455
 30
0.0
 10
51.24187584071562
 20
4.398366864341543
 30
0.0
 10
51.65521020651246
 20
3.686677475408417
 30
0.0
 10
51.78100953231448
 20
3.443057466572438
 30
0.0
 10
52.00636437852442
 20
2.940966689579513
 30
0.0
 10
52.10630366840059
 20
2.681357377789529
 30
0.0
 10
52.27427089750812
 20
2.149149735718038
 30
0.0
 10
52.34148240563253
 20
1.879601463194797
 30
0.0
 10
52.43897549192796
 20
1.33293614836678
 30
0.0
 10
52.46933488895647
 20
1.052818030570699
 30
0.0
 10
52.48570246947213
 20
0.5006317100862369
 30
0.0
 10
52.47226486836661
 20
0.2292537940040649
 30
0.0
 10
52.41576556006657
 20
-0.1688925171510707
 30
0.0
 10
52.39073959353514
 20
-0.2998090823033524
 30
0.0
 10
52.32960451637949
 20
-0.5503011072411735
 30
0.0
 10
52.29337579847655
 20
-0.6709060460175098
 30
0.0
 10
52.16761385116436
 20
-1.018495505669482
 30
0.0
 10
52.05881606214957
 20
-1.234180393358871
 30
0.0
 10
51.8056739995519
 20
-1.603230104016384
 30
0.0
 10
51.66033040180938
 20
-1.759693787323567
 30
0.0
 10
51.34019290133377
 20
-2.013523340041992
 30
0.0
 10
51.16894344995605
 20
-2.108840460840768
 30
0.0
 10
50.80463206745296
 20
-2.246022849442406
 30
0.0
 10
50.61416909885401
 20
-2.286442476942167
 30
0.0
 10
50.03049237978682
 20
-2.3371652264264
 30
0.0
 10
49.61430396018758
 20
-2.277213512697795
 30
0.0
 10
48.98374090260593
 20
-2.09695494970801
 30
0.0
 10
48.77128378313471
 20
-2.021741980471242
 30
0.0
 10
48.33985000359657
 20
-1.846366864462529
 30
0.0
 10
48.11954741631472
 20
-1.745794623425901
 30
0.0
 10
47.45817640237685
 20
-1.419414395869321
 30
0.0
 10
47.01493294248694
 20
-1.1691802766491
 30
0.0
 10
46.10930465916978
 20
-0.6320209470388899
 30
0.0
 10
45.64377160648876
 20
-0.342068198207617
 30
0.0
 10
44.70720986911803
 20
0.234389990266833
 30
0.0
 10
44.23385234560017
 20
0.5219687415256072
 30
0.0
 10
43.75000000000004
 20
0.799973125355501
 30
0.0
  0
SPLINE
  5
A9
330
1F
100
AcDbEntity
  8
0
  6
Continuous
 62
     1
370
    15
100
AcDbSpline
210
0.0
220
0.0
230
1.0
 70
     8
 71
     3
 72
    17
 73
    13
 74
     0
 42
0.000000001
 43
0.00000001
 40
0.0
 40
0.0
 40
0.0
 40
0.0
 40
0.1035199564416181
 40
0.2070519203324426
 40
0.3106205632964369
 40
0.4142327714974512
 40
0.5178024759430288
 40
0.6213349708052203
 40
0.7248549253305689
 40
0.8197607233937291
 40
0.9147529450444314
 40
1.0
 40
1.0
 40
1.0
 40
1.0
 10
43.75000000000007
 20
0.7999731253555145
 30
0.0
 10
42.90367379338457
 20
1.285185132022579
 30
0.0
 10
41.21092321339141
 20
2.255665425891639
 30
0.0
 10
38.67140154443422
 20
3.653074896151046
 30
0.0
 10
36.13095927277864
 20
4.965544746144353
 30
0.0
 10
33.58984106471992
 20
6.159773790425816
 30
0.0
 10
31.04937380661983
 20
7.208836992714443
 30
0.0
 10
28.50985577264955
 20
8.086828375344105
 30
0.0
 10
26.04113134319767
 20
8.755776818267055
 30
0.0
 10
23.64253263594425
 20
9.213118951510232
 30
0.0
 10
21.39249019222729
 20
9.481361036975626
 30
0.0
 10
19.91889598427634
 20
9.505086287577711
 30
0.0
 10
19.2219359831451
 20
9.516307525145866
 30
0.0
  0
LINE
  5
AA
330
1F
100
AcDbEntity
  8
외형선
  6
Continuous
370
    15
100
AcDbLine
 10
12.0
 20
0.8161148516610913
 30
0.0
 11
12.0
 21
4.038210148209422
 31
0.0
  0
SPLINE
  5
AB
330
1F
100
AcDbEntity
  8
0
  6
Continuous
 62
     1
370
    15
100
AcDbSpline
210
0.0
220
0.0
230
1.0
 70
     8
 71
     3
 72
    21
 73
    17
 74
     0
 42
0.000000001
 43
0.00000001
 40
0.0
 40
0.0
 40
0.0
 40
0.0
 40
0.0144795120942153
 40
0.0691694076726642
 40
0.1259824511259157
 40
0.1734544075124353
 40
0.2222820808396186
 40
0.2705291371045335
 40
0.3198204707457912
 40
0.390402326567064
 40
0.4630046385712376
 40
0.5594823696661838
 40
0.6586665559554902
 40
0.7887555233089263
 40
0.922543689853205
 40
1.0
 40
1.0
 40
1.0
 40
1.0
 10
52.4319774748804
 20
3.908519627136022
 30
0.0
 10
52.42741907681972
 20
3.92142349870011
 30
0.0
 10
52.4056433642306
 20
3.983065986856095
 30
0.0
 10
52.29048918271941
 20
4.168167518178583
 30
0.0
 10
52.09506429111615
 20
4.451340030124951
 30
0.0
 10
51.84422436618068
 20
4.78234680283364
 30
0.0
 10
51.56636990394918
 20
5.12901128173179
 30
0.0
 10
51.25021067532572
 20
5.503354625116422
 30
0.0
 10
50.85644745790997
 20
5.945900160635073
 30
0.0
 10
50.37237535763381
 20
6.454283748786407
 30
0.0
 10
49.73757908922344
 20
7.062244176479179
 30
0.0
 10
48.99675111841599
 20
7.68698699207245
 30
0.0
 10
48.07052368749945
 20
8.34133784021287
 30
0.0
 10
47.0064055824964
 20
8.908684977333493
 30
0.0
 10
45.9812818684358
 20
9.282562780113118
 30
0.0
 10
45.3283414859565
 20
9.379281979196595
 30
0.0
 10
45.08893000611629
 20
9.414745686455152
 30
0.0
  0
LINE
  5
AC
330
1F
100
AcDbEntity
  8
0
  6
Continuous
 62
     1
370
    15
100
AcDbLine
 10
12.0
 20
-9.489972684307286
 30
0.0
 11
13.41587725766421
 21
-9.497151119190997
 31
0.0
  0
LINE
  5
AD
330
1F
100
AcDbEntity
  8
외형선
  6
Continuous
370
    15
100
AcDbLine
 10
12.0
 20
-9.489972684307286
 30
0.0
 11
12.0
 21
-8.626614851660984
 31
0.0
  0
LINE
  5
AE
330
1F
100
AcDbEntity
  8
외형선
  6
Continuous
370
    15
100
AcDbLine
 10
-43.24499999999999
 20
-0.0000000000000039
 30
0.0
 11
-43.24499999999999
 21
9.524999999999999
 31
0.0
  0
LINE
  5
AF
330
1F
100
AcDbEntity
  8
외형선
  6
Continuous
370
    15
100
AcDbLine
 10
-43.24499999999999
 20
-9.525000000000006
 30
0.0
 11
-43.24499999999999
 21
-0.0000000000000039
 31
0.0
  0
LINE
  5
B0
330
1F
100
AcDbEntity
  8
외형선
  6
Continuous
370
    15
100
AcDbLine
 10
-45.15000000000001
 20
-0.0000000000000039
 30
0.0
 11
-45.15000000000001
 21
7.620000000000004
 31
0.0
  0
LINE
  5
B1
330
1F
100
AcDbEntity
  8
외형선
  6
Continuous
370
    15
100
AcDbLine
 10
-45.15000000000001
 20
-7.620000000000012
 30
0.0
 11
-45.15000000000001
 21
-0.0000000000000039
 31
0.0
  0
LINE
  5
B2
330
1F
100
AcDbEntity
  8
외형선
  6
Continuous
370
    15
100
AcDbLine
 10
12.0
 20
-0.0000000000000039
 30
0.0
 11
12.0
 21
9.524999999999999
 31
0.0
  0
LINE
  5
B3
330
1F
100
AcDbEntity
  8
외형선
  6
Continuous
370
    15
100
AcDbLine
 10
12.0
 20
-9.525000000000006
 30
0.0
 11
12.0
 21
-0.0000000000000039
 31
0.0
  0
LINE
  5
B4
330
1F
100
AcDbEntity
  8
중심선
100
AcDbLine
 10
-48.15000000000002
 20
-0.0000000000000039
 30
0.0
 11
56.27500000000002
 21
0.0000000000000046
 31
0.0
  0
LINE
  5
B5
330
1F
100
AcDbEntity
  8
참조1
100
AcDbLine
 10
64.0617613140312
 20
0.0010749287238892
 30
0.0
 11
64.0617613140312
 21
1.655200094750598
 31
0.0
  0
LINE
  5
B6
330
1F
100
AcDbEntity
  8
참조1
100
AcDbLine
 10
14.84926131403119
 20
0.0010749287238892
 30
0.0
 11
14.84926131403119
 21
-39.99892507127611
 31
0.0
  0
LINE
  5
B7
330
1F
100
AcDbEntity
  8
참조1
100
AcDbLine
 10
14.84926131403119
 20
-39.99892507127611
 30
0.0
 11
-20.1533455002775
 21
-39.9989250712761
 31
0.0
  0
CIRCLE
  5
B8
330
1F
100
AcDbEntity
  8
해칭선
100
AcDbCircle
 10
0.0
 20
0.0
 30
0.0
 40
3.000000000000001
  0
INSERT
  5
B9
330
1F
100
AcDbEntity
  8
0
  6
Continuous
 62
     7
100
AcDbBlockReference
 66
     1
  2
블럭10
 10
-9.877772932125207
 20
-52.04717430164393
 30
0.0
  0
ATTRIB
  5
BA
330
B9
100
AcDbEntity
  8
FORMAT
 62
     2
100
AcDbText
 10
-19.05906822086649
 20
-49.97180738881175
 30
0.0
 40
4.233333333333333
  1
E2020048 [ 4 FLUTE ]
 41
0.75
  7
SLDTEXTSTYLE0
 11
-19.05906822086649
 21
-52.08847405547841
 31
0.0
100
AcDbAttribute
  2
AUTOATTR0
 70
     0
 74
     1
  0
SEQEND
  5
BB
330
B9
100
AcDbEntity
  8
0
  6
Continuous
 62
     7
  0
HATCH
  5
BC
330
1F
100
AcDbEntity
  8
중심선
100
AcDbHatch
 10
0.0
 20
0.0
 30
0.0
210
0.0
220
0.0
230
1.0
  2
SOLID
 70
     1
 71
     0
 91
        1
 92
        0
 93
        4
 72
     1
 10
-4.162863627744363
 20
-35.8
 11
-7.609138871581645
 21
-35.8
 72
     1
 10
-7.609138871581645
 20
-35.8
 11
-9.737368730785668
 21
-38.3363255805726
 72
     1
 10
-9.737368730785668
 20
-38.3363255805726
 11
-6.291060401835237
 21
-38.33628615127011
 72
     1
 10
-6.291060401835236
 20
-38.33628615127011
 11
-4.162863627744363
 21
-35.8
 97
        0
 75
     0
 76
     1
 98
        1
 10
-10.78676131403119
 20
-0.001074928723897
  0
HATCH
  5
BD
330
1F
100
AcDbEntity
  8
중심선
100
AcDbHatch
 10
0.0
 20
0.0
 30
0.0
210
0.0
220
0.0
230
1.0
  2
SOLID
 70
     1
 71
     0
 91
        1
 92
        0
 93
        4
 72
     1
 10
0.8499003632916438
 20
-35.79999999999998
 11
-2.596374880545639
 21
-35.8
 72
     1
 10
-2.596374880545639
 20
-35.8
 11
-7.127512888903082
 21
-41.20000000000002
 72
     1
 10
-7.127512888903082
 20
-41.20000000000002
 11
-3.681237645065799
 21
-41.20000000000002
 72
     1
 10
-3.681237645065799
 20
-41.20000000000002
 11
0.8499003632916438
 21
-35.79999999999998
 97
        0
 75
     0
 76
     1
 98
        1
 10
-10.78676131403119
 20
-0.001074928723897
  0
HATCH
  5
BE
330
1F
100
AcDbEntity
  8
중심선
100
AcDbHatch
 10
0.0
 20
0.0
 30
0.0
210
0.0
220
0.0
230
1.0
  2
SOLID
 70
     1
 71
     0
 91
        1
 92
        0
 93
        4
 72
     1
 10
5.862664354327539
 20
-35.79999999999998
 11
2.416389110490396
 21
-35.8
 72
     1
 10
2.416389110490396
 20
-35.8
 11
-4.632047791398881
 21
-44.20000000000002
 72
     1
 10
-4.632047791398881
 20
-44.20000000000002
 11
-1.185772547561598
 21
-44.20000000000002
 72
     1
 10
-1.185772547561598
 20
-44.20000000000002
 11
5.862664354327539
 21
-35.79999999999998
 97
        0
 75
     0
 76
     1
 98
        1
 10
-10.78676131403119
 20
-0.001074928723897
  0
HATCH
  5
BF
330
1F
100
AcDbEntity
  8
중심선
100
AcDbHatch
 10
0.0
 20
0.0
 30
0.0
210
0.0
220
0.0
230
1.0
  2
SOLID
 70
     1
 71
     0
 91
        1
 92
        0
 93
        6
 72
     3
 10
10.66255478533968
 20
-40.00000000005127
 11
3.960054785062283
 21
1.540882976769353E-10
 40
0.3939339440162628
 50
17.09539180608437
 51
320.0019657685075
 73
     0
 72
     1
 10
12.34555444104028
 20
-38.58789400463827
 11
14.65085631474131
 21
-36.65356729459038
 72
     3
 10
10.66255478528684
 20
-40.00000000000015
 11
6.600054785286829
 21
-1.278976924368180E-13
 40
0.636358354079598
 50
39.99873849337411
 51
368.4976242363725
 73
     1
 72
     1
 10
17.08788727718744
 20
-39.03999999993002
 11
9.34262209212276
 21
-39.03999999993002
 72
     1
 10
9.34262209212276
 20
-39.03999999993002
 11
9.342597047676826
 21
-40.95999999992991
 72
     1
 10
9.342597047676826
 20
-40.95999999992991
 11
13.78397681714886
 21
-40.95999999992988
 97
        0
 75
     0
 76
     1
 98
        1
 10
-10.78676131403119
 20
-0.001074928723897
  0
DIMENSION
  5
C0
330
1F
100
AcDbEntity
  8
치수문자_일반주서
100
AcDbDimension
  2
_D
 10
11.99999999999999
 20
21.94464644001395
 30
0.0
 11
32.08335944752216
 21
21.94464644001395
 31
0.0
 70
   160
  1
<>
 71
     2
 42
41.27500000000007
  3
SLDDIMSTYLE1
100
AcDbAlignedDimension
 13
53.27500000000006
 23
9.525000000000004
 33
0.0
 14
11.99999999999999
 24
9.489972684307286
 34
0.0
 50
0.0000000000000049
100
AcDbRotatedDimension
1001
ACAD
1000
DSTYLE
1002
{
1070
   171
1070
     6
1070
   273
1070
     7
1002
}
  0
DIMENSION
  5
D5
330
1F
100
AcDbEntity
  8
치수문자_일반주서
100
AcDbDimension
  2
_D_1
 10
-45.15000000000002
 20
31.6091467932808
 30
0.0
 11
4.062500000000004
 21
31.6091467932808
 31
0.0
 70
   160
  1
<>
 71
     2
 42
98.42500000000008
  3
SLDDIMSTYLE1
100
AcDbAlignedDimension
 13
53.27500000000006
 23
9.525000000000004
 33
0.0
 14
-45.15000000000002
 24
7.620000000000012
 34
0.0
 50
0.0000000000000041
100
AcDbRotatedDimension
1001
ACAD
1000
DSTYLE
1002
{
1070
   171
1070
     6
1070
   273
1070
     7
1002
}
  0
DIMENSION
  5
E8
330
1F
100
AcDbEntity
  8
치수문자_일반주서
100
AcDbDimension
  2
_D_2
 10
-57.19749999999998
 20
-9.525000000000064
 30
0.0
 11
-57.19750000000002
 21
-0.0000000000000013
 31
0.0
 70
   160
  1
%%c<>
 71
     2
 42
19.05000000000001
 52
-270.0
  3
SLDDIMSTYLE1
100
AcDbAlignedDimension
 13
-43.245
 23
9.525000000000002
 33
0.0
 14
-43.245
 24
-9.52500000000001
 34
0.0
 50
90.0000000000002
100
AcDbRotatedDimension
1001
ACAD
1000
DSTYLE
1002
{
1070
   171
1070
     6
1070
   273
1070
     7
1002
}
  0
DIMENSION
  5
FD
330
1F
100
AcDbEntity
  8
치수문자_일반주서
100
AcDbDimension
  2
_D_3
 10
66.01651285621543
 20
-9.524999999999945
 30
0.0
 11
66.01651285621529
 21
29.91025000000007
 31
0.0
 70
   160
  1
%%c<>
 71
     2
 42
19.05
 52
-270.0
  3
SLDDIMSTYLE1
100
AcDbAlignedDimension
 13
53.27500000000006
 23
9.525000000000004
 33
0.0
 14
53.27500000000003
 24
-9.524999999999997
 34
0.0
 50
90.0000000000002
100
AcDbRotatedDimension
1001
ACAD
1000
DSTYLE
1002
{
1070
   171
1070
     6
1070
   273
1070
     7
1002
}
  0
LINE
  5
110
330
1F
100
AcDbEntity
  8
참조1
100
AcDbLine
 10
77.81899512937676
 20
7.441074928723896
 30
0.0
 11
77.81899512937676
 21
-7.438925071276109
 31
0.0
  0
LINE
  5
111
330
1F
100
AcDbEntity
  8
참조1
100
AcDbLine
 10
90.51899512937676
 20
5.441074928723896
 30
0.0
 11
77.81899512937676
 21
5.441074928723896
 31
0.0
  0
SOLID
  5
112
330
1F
100
AcDbEntity
  8
참조1
100
AcDbTrace
 10
77.81899512937676
 20
5.441074928723896
 30
0.0
 11
84.16899512937675
 21
4.425074928723896
 31
0.0
 12
84.16899512937675
 22
6.457074928723896
 32
0.0
 13
84.16899512937675
 23
6.457074928723896
 33
0.0
  0
LINE
  5
113
330
1F
100
AcDbEntity
  8
참조1
100
AcDbLine
 10
90.51899512937676
 20
-5.438925071276109
 30
0.0
 11
77.81899512937676
 21
-5.438925071276109
 31
0.0
  0
SOLID
  5
114
330
1F
100
AcDbEntity
  8
참조1
100
AcDbTrace
 10
77.81899512937676
 20
-5.438925071276109
 30
0.0
 11
84.16899512937675
 21
-6.454925071276109
 31
0.0
 12
84.16899512937675
 22
-4.422925071276109
 32
0.0
 13
84.16899512937675
 23
-4.422925071276109
 33
0.0
  0
MTEXT
  5
115
330
1F
100
AcDbEntity
  8
참조1
100
AcDbMText
 10
87.21648522184704
 20
10.98929157337383
 30
0.0
 40
3.5
 41
0.0
 71
     1
 72
     1
  1
A
  7
SLDTEXTSTYLE0
 73
     1
 44
1.0
  0
MTEXT
  5
116
330
1F
100
AcDbEntity
  8
참조1
100
AcDbMText
 10
87.21648522184704
 20
0.1092915733738259
 30
0.0
 40
3.5
 41
0.0
 71
     1
 72
     1
  1
A
  7
SLDTEXTSTYLE0
 73
     1
 44
1.0
  0
INSERT
  5
11D
330
1F
100
AcDbEntity
  8
해칭선
100
AcDbBlockReference
  2
SW_DOWELSYMBOL_0
 10
0.0
 20
0.0
 30
0.0
  0
LINE
  5
23C
330
1F
100
AcDbEntity
  8
외형선
  6
Continuous
370
    15
100
AcDbLine
 10
-25.14432499999997
 20
7.619999999999996
 30
0.0
 11
-13.56192499999996
 21
7.619999999999996
 31
0.0
  0
LINE
  5
23D
330
1F
100
AcDbEntity
  8
외형선
  6
Continuous
370
    15
100
AcDbLine
 10
-25.14432499999997
 20
7.619999999999981
 30
0.0
 11
-27.04932500000011
 21
9.525000000000011
 31
0.0
  0
LINE
  5
23E
330
1F
100
AcDbEntity
  8
외형선
  6
Continuous
370
    15
100
AcDbLine
 10
-13.56192499999996
 20
7.619999999999981
 30
0.0
 11
-11.65692499999999
 21
9.525000000000011
 31
0.0
  0
LINE
  5
27B
330
1F
100
AcDbEntity
  8
외형선
  6
Continuous
370
    15
100
AcDbLine
 10
-27.04932500000011
 20
9.524999999999999
 30
0.0
 11
-43.24499999999999
 21
9.524999999999999
 31
0.0
  0
ENDSEC
  0
SECTION
  2
OBJECTS
  0
DICTIONARY
  5
C
330
0
100
AcDbDictionary
281
     1
  3
ACAD_GROUP
350
D
  3
ACAD_IMAGE_VARS
350
141
  3
ACAD_LAYOUT
350
1A
  3
ACAD_MLINESTYLE
350
17
  3
ACAD_PLOTSETTINGS
350
19
  3
ACAD_PLOTSTYLENAME
350
E
  3
ACAD_SCALELIST
350
47
  3
APPDATA
350
13F
  3
DWGPROPS
350
27E
  0
DICTIONARY
  5
1D7
330
2
100
AcDbDictionary
280
     1
281
     1
  3
ACAD_LAYERSTATES
360
1D8
  0
DICTIONARY
  5
D
102
{ACAD_REACTORS
330
C
102
}
330
C
100
AcDbDictionary
281
     1
  0
RASTERVARIABLES
  5
141
102
{ACAD_REACTORS
330
C
102
}
330
C
100
AcDbRasterVariables
 90
        0
 70
     1
 71
     1
 72
     1
  0
DICTIONARY
  5
1A
102
{ACAD_REACTORS
330
C
102
}
330
C
100
AcDbDictionary
281
     1
  3
Layout1
350
1E
  3
Layout2
350
26
  3
Model
350
22
  0
DICTIONARY
  5
17
102
{ACAD_REACTORS
330
C
102
}
330
C
100
AcDbDictionary
281
     1
  3
Standard
350
18
  0
DICTIONARY
  5
19
102
{ACAD_REACTORS
330
C
102
}
330
C
100
AcDbDictionary
281
     1
  0
ACDBDICTIONARYWDFLT
  5
E
102
{ACAD_REACTORS
330
C
102
}
330
C
100
AcDbDictionary
281
     1
  3
Normal
350
F
100
AcDbDictionaryWithDefault
340
F
  0
DICTIONARY
  5
47
102
{ACAD_REACTORS
330
C
102
}
330
C
100
AcDbDictionary
281
     1
  3
A0
350
48
  3
A1
350
49
  3
A2
350
4A
  3
A3
350
4B
  3
A4
350
4C
  3
A5
350
4D
  3
A6
350
4E
  3
A7
350
4F
  3
A8
350
50
  3
A9
350
51
  3
B0
350
52
  3
B1
350
53
  3
B2
350
54
  3
B3
350
55
  3
B4
350
56
  3
B5
350
57
  3
B6
350
58
  3
B7
350
59
  3
B8
350
5A
  3
B9
350
5B
  3
C0
350
5C
  3
C1
350
5D
  3
C2
350
5E
  3
C3
350
5F
  3
C4
350
60
  3
C5
350
61
  3
C6
350
62
  3
C7
350
63
  3
C8
350
64
  3
C9
350
65
  3
D0
350
66
  3
D1
350
67
  3
D2
350
68
  0
DICTIONARY
  5
13F
102
{ACAD_REACTORS
330
C
102
}
330
C
100
AcDbDictionary
281
     1
  0
XRECORD
  5
27E
102
{ACAD_REACTORS
330
C
102
}
330
C
100
AcDbXrecord
280
     1
  1
DWGPROPS COOKIE
  2

  3

  4

  6

  7

  8
12017012
  9

300
=
301
=
302
=
303
=
304
=
305
=
306
=
307
=
308
=
309
=
 40
0.0
 41
2458323.302223935
 42
2458324.100002546
  1

 90
        0
  0
DICTIONARY
  5
1D8
102
{ACAD_REACTORS
330
1D7
102
}
330
1D7
100
AcDbDictionary
281
     1
  0
LAYOUT
  5
1E
102
{ACAD_REACTORS
330
1A
102
}
330
1A
100
AcDbPlotSettings
  1

  2
none_device
  4

  6

 40
0.0
 41
0.0
 42
0.0
 43
0.0
 44
0.0
 45
0.0
 46
0.0
 47
0.0
 48
0.0
 49
0.0
140
0.0
141
0.0
142
1.0
143
1.0
 70
   688
 72
     1
 73
     0
 74
     5
  7

 75
    16
147
1.0
148
0.0
149
0.0
100
AcDbLayout
  1
Layout1
 70
     1
 71
     1
 10
0.0
 20
0.0
 11
420.0
 21
297.0
 12
0.0
 22
0.0
 32
0.0
 14
1.000000000000000E+20
 24
1.000000000000000E+20
 34
1.000000000000000E+20
 15
-1.000000000000000E+20
 25
-1.000000000000000E+20
 35
-1.000000000000000E+20
146
0.0
 13
0.0
 23
0.0
 33
0.0
 16
1.0
 26
0.0
 36
0.0
 17
0.0
 27
1.0
 37
0.0
 76
     0
330
1B
  0
LAYOUT
  5
26
102
{ACAD_REACTORS
330
1A
102
}
330
1A
100
AcDbPlotSettings
  1

  2
none_device
  4

  6

 40
0.0
 41
0.0
 42
0.0
 43
0.0
 44
0.0
 45
0.0
 46
0.0
 47
0.0
 48
0.0
 49
0.0
140
0.0
141
0.0
142
1.0
143
1.0
 70
   688
 72
     1
 73
     0
 74
     5
  7

 75
    16
147
1.0
148
0.0
149
0.0
100
AcDbLayout
  1
Layout2
 70
     1
 71
     2
 10
0.0
 20
0.0
 11
0.0
 21
0.0
 12
0.0
 22
0.0
 32
0.0
 14
0.0
 24
0.0
 34
0.0
 15
0.0
 25
0.0
 35
0.0
146
0.0
 13
0.0
 23
0.0
 33
0.0
 16
1.0
 26
0.0
 36
0.0
 17
0.0
 27
1.0
 37
0.0
 76
     0
330
23
  0
LAYOUT
  5
22
102
{ACAD_REACTORS
330
1A
102
}
330
1A
100
AcDbPlotSettings
  1

  2
none_device
  4
ANSI_A_(11.00_x_8.50_Inches)
  6

 40
6.35
 41
19.05
 42
6.35000508
 43
19.05000254
 44
279.4
 45
215.9
 46
102.7275800629941
 47
55.39601377234897
 48
0.0
 49
0.0
140
0.0
141
0.0
142
0.0569547996289625
143
1.0
 70
  1696
 72
     0
 73
     0
 74
     0
  7

 75
     0
147
0.0235690232323232
148
0.0
149
0.0
100
AcDbLayout
  1
Model
 70
     1
 71
     0
 10
0.0
 20
0.0
 11
420.0
 21
297.0
 12
0.0
 22
0.0
 32
0.0
 14
1.000000000000000E+20
 24
1.000000000000000E+20
 34
1.000000000000000E+20
 15
-1.000000000000000E+20
 25
-1.000000000000000E+20
 35
-1.000000000000000E+20
146
0.0
 13
0.0
 23
0.0
 33
0.0
 16
1.0
 26
0.0
 36
0.0
 17
0.0
 27
1.0
 37
0.0
 76
     0
330
1F
331
29
  0
MLINESTYLE
  5
18
102
{ACAD_REACTORS
330
17
102
}
330
17
100
AcDbMlineStyle
  2
Standard
 70
     0
  3

 62
   256
 51
90.0
 52
90.0
 71
     2
 49
0.5
 62
   256
  6
BYLAYER
 49
-0.5
 62
   256
  6
BYLAYER
  0
ACDBPLACEHOLDER
  5
F
102
{ACAD_REACTORS
330
E
102
}
330
E
  0
SCALE
  5
48
102
{ACAD_REACTORS
330
47
102
}
330
47
100
AcDbScale
 70
     0
300
1:1
140
1.0
141
1.0
290
     1
  0
SCALE
  5
49
102
{ACAD_REACTORS
330
47
102
}
330
47
100
AcDbScale
 70
     0
300
1:2
140
1.0
141
2.0
290
     0
  0
SCALE
  5
4A
102
{ACAD_REACTORS
330
47
102
}
330
47
100
AcDbScale
 70
     0
300
1:4
140
1.0
141
4.0
290
     0
  0
SCALE
  5
4B
102
{ACAD_REACTORS
330
47
102
}
330
47
100
AcDbScale
 70
     0
300
1:5
140
1.0
141
5.0
290
     0
  0
SCALE
  5
4C
102
{ACAD_REACTORS
330
47
102
}
330
47
100
AcDbScale
 70
     0
300
1:8
140
1.0
141
8.0
290
     0
  0
SCALE
  5
4D
102
{ACAD_REACTORS
330
47
102
}
330
47
100
AcDbScale
 70
     0
300
1:10
140
1.0
141
10.0
290
     0
  0
SCALE
  5
4E
102
{ACAD_REACTORS
330
47
102
}
330
47
100
AcDbScale
 70
     0
300
1:16
140
1.0
141
16.0
290
     0
  0
SCALE
  5
4F
102
{ACAD_REACTORS
330
47
102
}
330
47
100
AcDbScale
 70
     0
300
1:20
140
1.0
141
20.0
290
     0
  0
SCALE
  5
50
102
{ACAD_REACTORS
330
47
102
}
330
47
100
AcDbScale
 70
     0
300
1:30
140
1.0
141
30.0
290
     0
  0
SCALE
  5
51
102
{ACAD_REACTORS
330
47
102
}
330
47
100
AcDbScale
 70
     0
300
1:40
140
1.0
141
40.0
290
     0
  0
SCALE
  5
52
102
{ACAD_REACTORS
330
47
102
}
330
47
100
AcDbScale
 70
     0
300
1:50
140
1.0
141
50.0
290
     0
  0
SCALE
  5
53
102
{ACAD_REACTORS
330
47
102
}
330
47
100
AcDbScale
 70
     0
300
1:100
140
1.0
141
100.0
290
     0
  0
SCALE
  5
54
102
{ACAD_REACTORS
330
47
102
}
330
47
100
AcDbScale
 70
     0
300
2:1
140
2.0
141
1.0
290
     0
  0
SCALE
  5
55
102
{ACAD_REACTORS
330
47
102
}
330
47
100
AcDbScale
 70
     0
300
4:1
140
4.0
141
1.0
290
     0
  0
SCALE
  5
56
102
{ACAD_REACTORS
330
47
102
}
330
47
100
AcDbScale
 70
     0
300
8:1
140
8.0
141
1.0
290
     0
  0
SCALE
  5
57
102
{ACAD_REACTORS
330
47
102
}
330
47
100
AcDbScale
 70
     0
300
10:1
140
10.0
141
1.0
290
     0
  0
SCALE
  5
58
102
{ACAD_REACTORS
330
47
102
}
330
47
100
AcDbScale
 70
     0
300
100:1
140
100.0
141
1.0
290
     0
  0
SCALE
  5
59
102
{ACAD_REACTORS
330
47
102
}
330
47
100
AcDbScale
 70
     0
300
1/128" = 1'-0"
140
0.0078125
141
12.0
290
     0
  0
SCALE
  5
5A
102
{ACAD_REACTORS
330
47
102
}
330
47
100
AcDbScale
 70
     0
300
1/64" = 1'-0"
140
0.015625
141
12.0
290
     0
  0
SCALE
  5
5B
102
{ACAD_REACTORS
330
47
102
}
330
47
100
AcDbScale
 70
     0
300
1/32" = 1'-0"
140
0.03125
141
12.0
290
     0
  0
SCALE
  5
5C
102
{ACAD_REACTORS
330
47
102
}
330
47
100
AcDbScale
 70
     0
300
1/16" = 1'-0"
140
0.0625
141
12.0
290
     0
  0
SCALE
  5
5D
102
{ACAD_REACTORS
330
47
102
}
330
47
100
AcDbScale
 70
     0
300
3/32" = 1'-0"
140
0.09375
141
12.0
290
     0
  0
SCALE
  5
5E
102
{ACAD_REACTORS
330
47
102
}
330
47
100
AcDbScale
 70
     0
300
1/8" = 1'-0"
140
0.125
141
12.0
290
     0
  0
SCALE
  5
5F
102
{ACAD_REACTORS
330
47
102
}
330
47
100
AcDbScale
 70
     0
300
3/16" = 1'-0"
140
0.1875
141
12.0
290
     0
  0
SCALE
  5
60
102
{ACAD_REACTORS
330
47
102
}
330
47
100
AcDbScale
 70
     0
300
1/4" = 1'-0"
140
0.25
141
12.0
290
     0
  0
SCALE
  5
61
102
{ACAD_REACTORS
330
47
102
}
330
47
100
AcDbScale
 70
     0
300
3/8" = 1'-0"
140
0.375
141
12.0
290
     0
  0
SCALE
  5
62
102
{ACAD_REACTORS
330
47
102
}
330
47
100
AcDbScale
 70
     0
300
1/2" = 1'-0"
140
0.5
141
12.0
290
     0
  0
SCALE
  5
63
102
{ACAD_REACTORS
330
47
102
}
330
47
100
AcDbScale
 70
     0
300
3/4" = 1'-0"
140
0.75
141
12.0
290
     0
  0
SCALE
  5
64
102
{ACAD_REACTORS
330
47
102
}
330
47
100
AcDbScale
 70
     0
300
1" = 1'-0"
140
1.0
141
12.0
290
     0
  0
SCALE
  5
65
102
{ACAD_REACTORS
330
47
102
}
330
47
100
AcDbScale
 70
     0
300
1-1/2" = 1'-0"
140
1.5
141
12.0
290
     0
  0
SCALE
  5
66
102
{ACAD_REACTORS
330
47
102
}
330
47
100
AcDbScale
 70
     0
300
3" = 1'-0"
140
3.0
141
12.0
290
     0
  0
SCALE
  5
67
102
{ACAD_REACTORS
330
47
102
}
330
47
100
AcDbScale
 70
     0
300
6" = 1'-0"
140
6.0
141
12.0
290
     0
  0
SCALE
  5
68
102
{ACAD_REACTORS
330
47
102
}
330
47
100
AcDbScale
 70
     0
300
1'-0" = 1'-0"
140
12.0
141
12.0
290
     0
  0
ENDSEC
  0
EOF
