  0
SECTION
  2
HEADER
  9
$ACADVER
  1
AC1015
  9
$ACADMAINTVER
 70
     6
  9
$DWGCODEPAGE
  3
ANSI_949
  9
$INSBASE
 10
0.0
 20
0.0
 30
0.0
  9
$EXTMIN
 10
1.000000000000000E+20
 20
1.000000000000000E+20
 30
1.000000000000000E+20
  9
$EXTMAX
 10
-1.000000000000000E+20
 20
-1.000000000000000E+20
 30
-1.000000000000000E+20
  9
$LIMMIN
 10
0.0
 20
0.0
  9
$LIMMAX
 10
420.0
 20
297.0
  9
$ORTHOMODE
 70
     1
  9
$REGENMODE
 70
     1
  9
$FILLMODE
 70
     1
  9
$QTEXTMODE
 70
     0
  9
$MIRRTEXT
 70
     1
  9
$LTSCALE
 40
1.0
  9
$ATTMODE
 70
     1
  9
$TEXTSIZE
 40
3.5
  9
$TRACEWID
 40
1.0
  9
$TEXTSTYLE
  7
Standard
  9
$CLAYER
  8
0
  9
$CELTYPE
  6
ByLayer
  9
$CECOLOR
 62
   256
  9
$CELTSCALE
 40
1.0
  9
$DISPSILH
 70
     0
  9
$DIMSCALE
 40
1.0
  9
$DIMASZ
 40
3.302
  9
$DIMEXO
 40
1.0
  9
$DIMDLI
 40
3.75
  9
$DIMRND
 40
0.0
  9
$DIMDLE
 40
0.0
  9
$DIMEXE
 40
1.0
  9
$DIMTP
 40
0.0
  9
$DIMTM
 40
0.0
  9
$DIMTXT
 40
3.5
  9
$DIMCEN
 40
2.5
  9
$DIMTSZ
 40
0.0
  9
$DIMTOL
 70
     0
  9
$DIMLIM
 70
     0
  9
$DIMTIH
 70
     1
  9
$DIMTOH
 70
     1
  9
$DIMSE1
 70
     0
  9
$DIMSE2
 70
     0
  9
$DIMTAD
 70
     1
  9
$DIMZIN
 70
     0
  9
$DIMBLK
  1

  9
$DIMASO
 70
     1
  9
$DIMSHO
 70
     1
  9
$DIMPOST
  1

  9
$DIMAPOST
  1

  9
$DIMALT
 70
     0
  9
$DIMALTD
 70
     3
  9
$DIMALTF
 40
0.0393700787401575
  9
$DIMLFAC
 40
1.0
  9
$DIMTOFL
 70
     1
  9
$DIMTVP
 40
0.0
  9
$DIMTIX
 70
     0
  9
$DIMSOXD
 70
     0
  9
$DIMSAH
 70
     0
  9
$DIMBLK1
  1

  9
$DIMBLK2
  1

  9
$DIMSTYLE
  2
ISO-25
  9
$DIMCLRD
 70
     0
  9
$DIMCLRE
 70
     0
  9
$DIMCLRT
 70
     0
  9
$DIMTFAC
 40
1.0
  9
$DIMGAP
 40
1.524
  9
$DIMJUST
 70
     0
  9
$DIMSD1
 70
     0
  9
$DIMSD2
 70
     0
  9
$DIMTOLJ
 70
     0
  9
$DIMTZIN
 70
     0
  9
$DIMALTZ
 70
     0
  9
$DIMALTTZ
 70
     0
  9
$DIMUPT
 70
     0
  9
$DIMDEC
 70
     2
  9
$DIMTDEC
 70
     2
  9
$DIMALTU
 70
     2
  9
$DIMALTTD
 70
     3
  9
$DIMTXSTY
  7
Standard
  9
$DIMAUNIT
 70
     0
  9
$DIMADEC
 70
     2
  9
$DIMALTRND
 40
0.0
  9
$DIMAZIN
 70
     0
  9
$DIMDSEP
 70
    44
  9
$DIMATFIT
 70
     3
  9
$DIMFRAC
 70
     0
  9
$DIMLDRBLK
  1

  9
$DIMLUNIT
 70
     2
  9
$DIMLWD
 70
    -2
  9
$DIMLWE
 70
    -2
  9
$DIMTMOVE
 70
     0
  9
$LUNITS
 70
     2
  9
$LUPREC
 70
     2
  9
$SKETCHINC
 40
1.0
  9
$FILLETRAD
 40
10.0
  9
$AUNITS
 70
     0
  9
$AUPREC
 70
     2
  9
$MENU
  1
.
  9
$ELEVATION
 40
0.0
  9
$PELEVATION
 40
0.0
  9
$THICKNESS
 40
0.0
  9
$LIMCHECK
 70
     0
  9
$CHAMFERA
 40
0.0
  9
$CHAMFERB
 40
0.0
  9
$CHAMFERC
 40
0.0
  9
$CHAMFERD
 40
0.0
  9
$SKPOLY
 70
     0
  9
$TDCREATE
 40
2458323.677435903
  9
$TDUCREATE
 40
2458323.302435903
  9
$TDUPDATE
 40
2458324.476510116
  9
$TDUUPDATE
 40
2458324.101510116
  9
$TDINDWG
 40
0.000609838
  9
$TDUSRTIMER
 40
2458324.100900521
  9
$USRTIMER
 70
     1
  9
$ANGBASE
 50
0.0
  9
$ANGDIR
 70
     0
  9
$PDMODE
 70
     0
  9
$PDSIZE
 40
-1.0
  9
$PLINEWID
 40
0.0
  9
$SPLFRAME
 70
     0
  9
$SPLINETYPE
 70
     6
  9
$SPLINESEGS
 70
     8
  9
$HANDSEED
  5
2A9
  9
$SURFTAB1
 70
     6
  9
$SURFTAB2
 70
     6
  9
$SURFTYPE
 70
     6
  9
$SURFU
 70
     6
  9
$SURFV
 70
     6
  9
$UCSBASE
  2

  9
$UCSNAME
  2

  9
$UCSORG
 10
0.0
 20
0.0
 30
0.0
  9
$UCSXDIR
 10
1.0
 20
0.0
 30
0.0
  9
$UCSYDIR
 10
0.0
 20
1.0
 30
0.0
  9
$UCSORTHOREF
  2

  9
$UCSORTHOVIEW
 70
     0
  9
$UCSORGTOP
 10
0.0
 20
0.0
 30
0.0
  9
$UCSORGBOTTOM
 10
0.0
 20
0.0
 30
0.0
  9
$UCSORGLEFT
 10
0.0
 20
0.0
 30
0.0
  9
$UCSORGRIGHT
 10
0.0
 20
0.0
 30
0.0
  9
$UCSORGFRONT
 10
0.0
 20
0.0
 30
0.0
  9
$UCSORGBACK
 10
0.0
 20
0.0
 30
0.0
  9
$PUCSBASE
  2

  9
$PUCSNAME
  2

  9
$PUCSORG
 10
0.0
 20
0.0
 30
0.0
  9
$PUCSXDIR
 10
1.0
 20
0.0
 30
0.0
  9
$PUCSYDIR
 10
0.0
 20
1.0
 30
0.0
  9
$PUCSORTHOREF
  2

  9
$PUCSORTHOVIEW
 70
     0
  9
$PUCSORGTOP
 10
0.0
 20
0.0
 30
0.0
  9
$PUCSORGBOTTOM
 10
0.0
 20
0.0
 30
0.0
  9
$PUCSORGLEFT
 10
0.0
 20
0.0
 30
0.0
  9
$PUCSORGRIGHT
 10
0.0
 20
0.0
 30
0.0
  9
$PUCSORGFRONT
 10
0.0
 20
0.0
 30
0.0
  9
$PUCSORGBACK
 10
0.0
 20
0.0
 30
0.0
  9
$USERI1
 70
     0
  9
$USERI2
 70
     0
  9
$USERI3
 70
     0
  9
$USERI4
 70
     0
  9
$USERI5
 70
     0
  9
$USERR1
 40
0.0
  9
$USERR2
 40
0.0
  9
$USERR3
 40
0.0
  9
$USERR4
 40
0.0
  9
$USERR5
 40
0.0
  9
$WORLDVIEW
 70
     1
  9
$SHADEDGE
 70
     3
  9
$SHADEDIF
 70
    70
  9
$TILEMODE
 70
     1
  9
$MAXACTVP
 70
    64
  9
$PINSBASE
 10
0.0
 20
0.0
 30
0.0
  9
$PLIMCHECK
 70
     0
  9
$PEXTMIN
 10
1.000000000000000E+20
 20
1.000000000000000E+20
 30
1.000000000000000E+20
  9
$PEXTMAX
 10
-1.000000000000000E+20
 20
-1.000000000000000E+20
 30
-1.000000000000000E+20
  9
$PLIMMIN
 10
0.0
 20
0.0
  9
$PLIMMAX
 10
0.0
 20
0.0
  9
$UNITMODE
 70
     0
  9
$VISRETAIN
 70
     1
  9
$PLINEGEN
 70
     0
  9
$PSLTSCALE
 70
     1
  9
$TREEDEPTH
 70
  3020
  9
$CMLSTYLE
  2
Standard
  9
$CMLJUST
 70
     0
  9
$CMLSCALE
 40
20.0
  9
$PROXYGRAPHICS
 70
     1
  9
$MEASUREMENT
 70
     1
  9
$CELWEIGHT
370
    -1
  9
$ENDCAPS
280
     0
  9
$JOINSTYLE
280
     0
  9
$LWDISPLAY
290
     1
  9
$INSUNITS
 70
     4
  9
$HYPERLINKBASE
  1

  9
$STYLESHEET
  1

  9
$XEDIT
290
     1
  9
$CEPSNTYPE
380
     0
  9
$PSTYLEMODE
290
     1
  9
$FINGERPRINTGUID
  2
{38BAF5CB-1C0B-49B2-A876-FF7FC626D865}
  9
$VERSIONGUID
  2
{FAEB1C32-E019-11D5-929B-00C0DF256EC4}
  9
$EXTNAMES
290
     1
  9
$PSVPSCALE
 40
0.0
  9
$OLESTARTUP
290
     0
  0
ENDSEC
  0
SECTION
  2
CLASSES
  0
CLASS
  1
ACDBDICTIONARYWDFLT
  2
AcDbDictionaryWithDefault
  3
ObjectDBX Classes
 90
        0
280
     0
281
     0
  0
CLASS
  1
VISUALSTYLE
  2
AcDbVisualStyle
  3
ObjectDBX Classes
 90
     4095
280
     0
281
     0
  0
CLASS
  1
MATERIAL
  2
AcDbMaterial
  3
ObjectDBX Classes
 90
     1153
280
     0
281
     0
  0
CLASS
  1
SCALE
  2
AcDbScale
  3
ObjectDBX Classes
 90
     1153
280
     0
281
     0
  0
CLASS
  1
SUN
  2
AcDbSun
  3
SCENEOE
 90
     1153
280
     0
281
     0
  0
CLASS
  1
ACDBPLACEHOLDER
  2
AcDbPlaceHolder
  3
ObjectDBX Classes
 90
        0
280
     0
281
     0
  0
CLASS
  1
LAYOUT
  2
AcDbLayout
  3
ObjectDBX Classes
 90
        0
280
     0
281
     0
  0
CLASS
  1
TABLESTYLE
  2
AcDbTableStyle
  3
ObjectDBX Classes
 90
     4095
280
     0
281
     0
  0
CLASS
  1
MLEADERSTYLE
  2
AcDbMLeaderStyle
  3
ACDB_MLEADERSTYLE_CLASS
 90
     4095
280
     0
281
     0
  0
CLASS
  1
RASTERVARIABLES
  2
AcDbRasterVariables
  3
ISM
 90
        0
280
     0
281
     0
  0
ENDSEC
  0
SECTION
  2
TABLES
  0
TABLE
  2
VPORT
  5
8
330
0
100
AcDbSymbolTable
 70
     1
  0
VPORT
  5
29
330
8
100
AcDbSymbolTableRecord
100
AcDbViewportTableRecord
  2
*Active
 70
     0
 10
0.0
 20
0.0
 11
1.0
 21
1.0
 12
-3.219946578017471
 22
-2.071971175038881
 13
0.0
 23
0.0
 14
10.0
 24
10.0
 15
10.0
 25
10.0
 16
0.0
 26
0.0
 36
1.0
 17
0.0
 27
0.0
 37
0.0
 40
167.1616218582651
 41
1.632093933463796
 42
50.0
 43
0.0
 44
0.0
 50
0.0
 51
0.0
 71
    16
 72
  2000
 73
     1
 74
     3
 75
     0
 76
     0
 77
     0
 78
     0
281
     0
 65
     1
110
0.0
120
0.0
130
0.0
111
1.0
121
0.0
131
0.0
112
0.0
122
1.0
132
0.0
 79
     0
146
0.0
  0
ENDTAB
  0
TABLE
  2
LTYPE
  5
5
330
0
100
AcDbSymbolTable
 70
     6
  0
LTYPE
  5
14
330
5
100
AcDbSymbolTableRecord
100
AcDbLinetypeTableRecord
  2
ByBlock
 70
     0
  3

 72
    65
 73
     0
 40
0.0
  0
LTYPE
  5
15
330
5
100
AcDbSymbolTableRecord
100
AcDbLinetypeTableRecord
  2
ByLayer
 70
     0
  3

 72
    65
 73
     0
 40
0.0
  0
LTYPE
  5
16
330
5
100
AcDbSymbolTableRecord
100
AcDbLinetypeTableRecord
  2
Continuous
 70
     0
  3
Solid line
 72
    65
 73
     0
 40
0.0
  0
LTYPE
  5
6A
330
5
100
AcDbSymbolTableRecord
100
AcDbLinetypeTableRecord
  2
HIDDEN
 70
     0
  3
Hidden __ __ __ __ __ __ __ __ __ __ __ __ __ __
 72
    65
 73
     2
 40
1.905
 49
1.27
 74
     0
 49
-0.635
 74
     0
  0
LTYPE
  5
6B
330
5
100
AcDbSymbolTableRecord
100
AcDbLinetypeTableRecord
  2
PHANTOM
 70
     0
  3
Phantom ______  __  __  ______  __  __  ______
 72
    65
 73
     6
 40
12.7
 49
6.35
 74
     0
 49
-1.27
 74
     0
 49
1.27
 74
     0
 49
-1.27
 74
     0
 49
1.27
 74
     0
 49
-1.27
 74
     0
  0
LTYPE
  5
6C
330
5
100
AcDbSymbolTableRecord
100
AcDbLinetypeTableRecord
  2
CENTER
 70
     0
  3
Center ____ _ ____ _ ____ _ ____ _ ____ _ ____
 72
    65
 73
     4
 40
10.16
 49
6.35
 74
     0
 49
-1.27
 74
     0
 49
1.27
 74
     0
 49
-1.27
 74
     0
  0
LTYPE
  5
6D
330
5
100
AcDbSymbolTableRecord
100
AcDbLinetypeTableRecord
  2
CENTERX2
 70
     0
  3
Center (2x) ________  __  ________  __  _____
 72
    65
 73
     4
 40
20.32
 49
12.7
 74
     0
 49
-2.54
 74
     0
 49
2.54
 74
     0
 49
-2.54
 74
     0
  0
LTYPE
  5
6E
330
5
100
AcDbSymbolTableRecord
100
AcDbLinetypeTableRecord
  2
DOT2
 70
     0
  3
Dot (.5x) ........................................
 72
    65
 73
     2
 40
0.635
 49
0.0
 74
     0
 49
-0.635
 74
     0
  0
ENDTAB
  0
TABLE
  2
LAYER
  5
2
102
{ACAD_XDICTIONARY
360
1CE
102
}
330
0
100
AcDbSymbolTable
 70
    18
  0
LAYER
  5
10
330
2
100
AcDbSymbolTableRecord
100
AcDbLayerTableRecord
  2
0
 70
     0
 62
     7
  6
Continuous
370
    -3
390
F
  0
LAYER
  5
6F
330
2
100
AcDbSymbolTableRecord
100
AcDbLayerTableRecord
  2
FORMAT
 70
     0
 62
     2
  6
Continuous
370
    -3
390
F
  0
LAYER
  5
70
330
2
100
AcDbSymbolTableRecord
100
AcDbLayerTableRecord
  2
외형선
 70
     0
 62
     4
  6
Continuous
370
    30
390
F
  0
LAYER
  5
71
330
2
100
AcDbSymbolTableRecord
100
AcDbLayerTableRecord
  2
숨은선
 70
     0
 62
     2
  6
HIDDEN
370
    15
390
F
  0
LAYER
  5
72
330
2
100
AcDbSymbolTableRecord
100
AcDbLayerTableRecord
  2
중심선
 70
     0
 62
     1
  6
CENTERX2
370
    -3
390
F
  0
LAYER
  5
73
330
2
100
AcDbSymbolTableRecord
100
AcDbLayerTableRecord
  2
파단선
 70
     0
 62
     4
  6
Continuous
370
    -3
390
F
  0
LAYER
  5
74
330
2
100
AcDbSymbolTableRecord
100
AcDbLayerTableRecord
  2
해칭선
 70
     0
 62
   100
  6
Continuous
370
    -3
390
F
  0
LAYER
  5
75
330
2
100
AcDbSymbolTableRecord
100
AcDbLayerTableRecord
  2
가는실선
 70
     0
 62
     4
  6
Continuous
370
    -3
390
F
  0
LAYER
  5
76
330
2
100
AcDbSymbolTableRecord
100
AcDbLayerTableRecord
  2
치수_보조선
 70
     0
 62
     4
  6
Continuous
370
    -3
390
F
  0
LAYER
  5
77
330
2
100
AcDbSymbolTableRecord
100
AcDbLayerTableRecord
  2
치수문자_일반주서
 70
     0
 62
     7
  6
Continuous
370
    15
390
F
  0
LAYER
  5
78
330
2
100
AcDbSymbolTableRecord
100
AcDbLayerTableRecord
  2
개별주서
 70
     0
 62
   100
  6
Continuous
370
    30
390
F
  0
LAYER
  5
79
330
2
100
AcDbSymbolTableRecord
100
AcDbLayerTableRecord
  2
중간선
 70
     0
 62
     2
  6
Continuous
370
    15
390
F
  0
LAYER
  5
7A
330
2
100
AcDbSymbolTableRecord
100
AcDbLayerTableRecord
  2
윤곽선
 70
     0
 62
     3
  6
Continuous
370
    40
390
F
  0
LAYER
  5
7B
330
2
100
AcDbSymbolTableRecord
100
AcDbLayerTableRecord
  2
중심마크
 70
     0
 62
   100
  6
Continuous
370
    30
390
F
  0
LAYER
  5
7C
330
2
100
AcDbSymbolTableRecord
100
AcDbLayerTableRecord
  2
가상선
 70
     0
 62
     4
  6
PHANTOM
370
    -3
390
F
  0
LAYER
  5
7D
330
2
100
AcDbSymbolTableRecord
100
AcDbLayerTableRecord
  2
특수지정선
 70
     0
 62
     5
  6
CENTERX2
370
    60
390
F
  0
LAYER
  5
7E
330
2
100
AcDbSymbolTableRecord
100
AcDbLayerTableRecord
  2
참조1
 70
     0
 62
    -4
  6
Continuous
370
    -3
390
F
  0
LAYER
  5
143
330
2
100
AcDbSymbolTableRecord
100
AcDbLayerTableRecord
  2
Defpoints
 70
     0
 62
     7
  6
Continuous
290
     0
370
    -3
390
F
  0
ENDTAB
  0
TABLE
  2
STYLE
  5
3
330
0
100
AcDbSymbolTable
 70
     2
  0
STYLE
  5
11
330
3
100
AcDbSymbolTableRecord
100
AcDbTextStyleTableRecord
  2
Standard
 70
     0
 40
0.0
 41
1.0
 50
0.0
 71
     0
 42
3.5
  3
txt
  4

  0
STYLE
  5
94
330
3
100
AcDbSymbolTableRecord
100
AcDbTextStyleTableRecord
  2
SLDTEXTSTYLE0
 70
     0
 40
0.0
 41
0.75
 50
0.0
 71
     0
 42
3.5
  3
TXT
  4

  0
ENDTAB
  0
TABLE
  2
VIEW
  5
6
330
0
100
AcDbSymbolTable
 70
     0
  0
ENDTAB
  0
TABLE
  2
UCS
  5
7
330
0
100
AcDbSymbolTable
 70
     0
  0
ENDTAB
  0
TABLE
  2
APPID
  5
9
330
0
100
AcDbSymbolTable
 70
     1
  0
APPID
  5
12
330
9
100
AcDbSymbolTableRecord
100
AcDbRegAppTableRecord
  2
ACAD
 70
     0
  0
ENDTAB
  0
TABLE
  2
DIMSTYLE
  5
A
330
0
100
AcDbSymbolTable
 70
     3
100
AcDbDimStyleTable
  0
DIMSTYLE
105
27
330
A
100
AcDbSymbolTableRecord
100
AcDbDimStyleTableRecord
  2
ISO-25
 70
     0
 41
2.5
 42
0.625
 43
3.75
 44
1.25
 73
     0
 74
     0
 77
     1
 78
     8
140
2.5
141
2.5
143
0.03937007874016
147
0.625
171
     3
172
     1
178
     0
271
     2
272
     2
274
     3
278
    44
283
     0
284
     8
340
11
  0
DIMSTYLE
105
C1
330
A
100
AcDbSymbolTableRecord
100
AcDbDimStyleTableRecord
  2
SLDDIMSTYLE0
 70
     0
 41
3.302
 44
0.0
 45
0.000000001
 73
     0
 74
     0
 77
     1
 78
    12
 79
     3
140
3.5
143
0.0393700787401575
147
0.875
148
0.000000001
170
     1
173
     1
178
     0
271
     2
272
     2
276
     2
284
    12
340
94
  0
DIMSTYLE
105
E9
102
{ACAD_REACTORS
330
E8
330
18B
330
198
330
1A5
330
1B2
330
C0
330
D5
330
FD
102
}
330
A
100
AcDbSymbolTableRecord
100
AcDbDimStyleTableRecord
  2
SLDDIMSTYLE1
 70
     0
 41
3.302
 44
0.0
 45
0.000000001
 73
     0
 74
     0
 77
     1
 78
    12
 79
     3
140
3.5
143
0.0393700787401575
147
0.875
148
0.000000001
170
     1
172
     1
173
     1
178
     0
271
     2
272
     2
276
     2
284
    12
289
     0
340
94
  0
ENDTAB
  0
TABLE
  2
BLOCK_RECORD
  5
1
330
0
100
AcDbSymbolTable
 70
    17
  0
BLOCK_RECORD
  5
1F
330
1
100
AcDbSymbolTableRecord
100
AcDbBlockTableRecord
  2
*Model_Space
340
22
  0
BLOCK_RECORD
  5
1B
330
1
100
AcDbSymbolTableRecord
100
AcDbBlockTableRecord
  2
*Paper_Space
340
1E
  0
BLOCK_RECORD
  5
23
330
1
100
AcDbSymbolTableRecord
100
AcDbBlockTableRecord
  2
*Paper_Space0
340
26
  0
BLOCK_RECORD
  5
7F
330
1
100
AcDbSymbolTableRecord
100
AcDbBlockTableRecord
  2
블럭10
340
0
102
{BLKREFS
331
B9
102
}
  0
BLOCK_RECORD
  5
C2
330
1
100
AcDbSymbolTableRecord
100
AcDbBlockTableRecord
  2
_D
340
0
  0
BLOCK_RECORD
  5
D6
330
1
100
AcDbSymbolTableRecord
100
AcDbBlockTableRecord
  2
_D_1
340
0
  0
BLOCK_RECORD
  5
EA
330
1
100
AcDbSymbolTableRecord
100
AcDbBlockTableRecord
  2
_D_2
340
0
  0
BLOCK_RECORD
  5
FE
330
1
100
AcDbSymbolTableRecord
100
AcDbBlockTableRecord
  2
_D_3
340
0
  0
BLOCK_RECORD
  5
117
330
1
100
AcDbSymbolTableRecord
100
AcDbBlockTableRecord
  2
SW_DOWELSYMBOL_0
340
0
102
{BLKREFS
331
11D
331
1C2
331
0
102
}
  0
BLOCK_RECORD
  5
1D2
330
1
100
AcDbSymbolTableRecord
100
AcDbBlockTableRecord
  2
*D8
340
0
  0
BLOCK_RECORD
  5
1DE
330
1
100
AcDbSymbolTableRecord
100
AcDbBlockTableRecord
  2
*D9
340
0
  0
BLOCK_RECORD
  5
1EA
330
1
100
AcDbSymbolTableRecord
100
AcDbBlockTableRecord
  2
*D10
340
0
  0
BLOCK_RECORD
  5
1F6
330
1
100
AcDbSymbolTableRecord
100
AcDbBlockTableRecord
  2
*D11
340
0
  0
BLOCK_RECORD
  5
22F
330
1
100
AcDbSymbolTableRecord
100
AcDbBlockTableRecord
  2
*D12
340
0
  0
BLOCK_RECORD
  5
23B
330
1
100
AcDbSymbolTableRecord
100
AcDbBlockTableRecord
  2
*D13
340
0
  0
BLOCK_RECORD
  5
247
330
1
100
AcDbSymbolTableRecord
100
AcDbBlockTableRecord
  2
*D14
340
0
  0
BLOCK_RECORD
  5
253
330
1
100
AcDbSymbolTableRecord
100
AcDbBlockTableRecord
  2
*D15
340
0
  0
ENDTAB
  0
ENDSEC
  0
SECTION
  2
BLOCKS
  0
BLOCK
  5
20
330
1F
100
AcDbEntity
  8
0
100
AcDbBlockBegin
  2
*Model_Space
 70
     0
 10
0.0
 20
0.0
 30
0.0
  3
*Model_Space
  1
*Model_Space
  0
ENDBLK
  5
21
330
1F
100
AcDbEntity
  8
0
100
AcDbBlockEnd
  0
BLOCK
  5
1C
330
1B
100
AcDbEntity
 67
     1
  8
0
100
AcDbBlockBegin
  2
*Paper_Space
 70
     0
 10
0.0
 20
0.0
 30
0.0
  3
*Paper_Space
  1
*Paper_Space
  0
ENDBLK
  5
1D
330
1B
100
AcDbEntity
 67
     1
  8
0
100
AcDbBlockEnd
  0
BLOCK
  5
24
330
23
100
AcDbEntity
  8
0
100
AcDbBlockBegin
  2
*Paper_Space0
 70
     0
 10
0.0
 20
0.0
 30
0.0
  3
*Paper_Space0
  1
*Paper_Space0
  0
ENDBLK
  5
25
330
23
100
AcDbEntity
  8
0
100
AcDbBlockEnd
  0
BLOCK
  5
80
330
7F
100
AcDbEntity
  8
0
100
AcDbBlockBegin
  2
블럭10
 70
     2
 10
0.0
 20
0.0
 30
0.0
  3
블럭10
  1
블럭10
  0
ELLIPSE
  5
82
330
7F
100
AcDbEntity
  8
중심선
100
AcDbEllipse
 10
20.54032771741204
 20
12.0471743016438
 30
0.0
 11
6.600054785286829
 21
-1.261213355974178E-13
 31
0.0
210
0.0
220
0.0
230
1.0
 40
0.636358354079598
 41
0.9219305317359503
 42
6.513795318482858
  0
ELLIPSE
  5
83
330
7F
100
AcDbEntity
  8
중심선
100
AcDbEllipse
 10
20.54032771746488
 20
12.04717430159265
 30
0.0
 11
3.960054785062283
 21
1.540847449632565E-10
 31
0.0
210
0.0
220
0.0
230
1.0
 40
0.3939339440162632
 41
1.131841032648279
 42
5.62031148352944
  0
LINE
  5
84
330
7F
100
AcDbEntity
  8
중심선
100
AcDbLine
 10
2.268634060543552
 20
16.24717430164393
 30
0.0
 11
5.714909304380834
 21
16.24717430164393
 31
0.0
  0
LINE
  5
85
330
7F
100
AcDbEntity
  8
중심선
100
AcDbLine
 10
5.245725140726316
 20
7.84717430164391
 30
0.0
 11
8.692000384563599
 21
7.84717430164391
 31
0.0
  0
LINE
  5
86
330
7F
100
AcDbEntity
  8
중심선
100
AcDbLine
 10
15.74043728645272
 20
16.24717430164393
 30
0.0
 11
8.692000384563599
 21
7.84717430164391
 31
0.0
  0
LINE
  5
87
330
7F
100
AcDbEntity
  8
중심선
100
AcDbLine
 10
0.1404042013395286
 20
13.71084872107135
 30
0.0
 11
3.58671253028996
 21
13.71088815037384
 31
0.0
  0
LINE
  5
88
330
7F
100
AcDbEntity
  8
중심선
100
AcDbLine
 10
2.750260043222114
 20
10.84717430164391
 30
0.0
 11
6.196535287059397
 21
10.84717430164391
 31
0.0
  0
LINE
  5
89
330
7F
100
AcDbEntity
  8
중심선
100
AcDbLine
 10
12.29416204261559
 20
16.24717430164393
 30
0.0
 11
5.245725140726316
 21
7.84717430164391
 31
0.0
  0
LINE
  5
8A
330
7F
100
AcDbEntity
  8
중심선
100
AcDbLine
 10
10.72767329541681
 20
16.24717430164393
 30
0.0
 11
6.196535287059397
 21
10.84717430164391
 31
0.0
  0
LINE
  5
8B
330
7F
100
AcDbEntity
  8
중심선
100
AcDbLine
 10
7.28139805157953
 20
16.24717430164393
 30
0.0
 11
2.750260043222114
 21
10.84717430164391
 31
0.0
  0
LINE
  5
8C
330
7F
100
AcDbEntity
  8
중심선
100
AcDbLine
 10
5.714909304380834
 20
16.24717430164393
 30
0.0
 11
3.58671253028996
 21
13.71088815037384
 31
0.0
  0
LINE
  5
8D
330
7F
100
AcDbEntity
  8
중심선
100
AcDbLine
 10
2.268634060543552
 20
16.24717430164393
 30
0.0
 11
0.1404042013395286
 21
13.71084872107135
 31
0.0
  0
LINE
  5
8E
330
7F
100
AcDbEntity
  8
중심선
100
AcDbLine
 10
7.28139805157953
 20
16.24717430164393
 30
0.0
 11
10.72767329541681
 21
16.24717430164393
 31
0.0
  0
LINE
  5
8F
330
7F
100
AcDbEntity
  8
중심선
100
AcDbLine
 10
12.29416204261559
 20
16.24717430164393
 30
0.0
 11
15.74043728645272
 21
16.24717430164393
 31
0.0
  0
LINE
  5
90
330
7F
100
AcDbEntity
  8
중심선
100
AcDbLine
 10
19.22036997980202
 20
11.08717430171403
 30
0.0
 11
23.66174974927406
 21
11.08717430171406
 31
0.0
  0
LINE
  5
91
330
7F
100
AcDbEntity
  8
중심선
100
AcDbLine
 10
19.22039502424796
 20
13.00717430171391
 30
0.0
 11
19.22036997980202
 21
11.08717430171403
 31
0.0
  0
LINE
  5
92
330
7F
100
AcDbEntity
  8
중심선
100
AcDbLine
 10
19.22039502424796
 20
13.00717430171391
 30
0.0
 11
26.96566020931264
 21
13.00717430171391
 31
0.0
  0
LINE
  5
93
330
7F
100
AcDbEntity
  8
중심선
100
AcDbLine
 10
22.22332737316547
 20
13.45928029700563
 30
0.0
 11
24.52862924686651
 21
15.39360700705356
 31
0.0
  0
ATTDEF
  5
95
330
7F
100
AcDbEntity
  8
FORMAT
 62
     2
100
AcDbText
 10
4.408487351596664
 20
2.075366912832191
 30
0.0
 40
4.233333333333333
  1
E2020056
 41
0.75
  7
SLDTEXTSTYLE0
 11
4.408487351596664
 21
-0.0412997538344756
 31
0.0
100
AcDbAttributeDefinition
  3

  2
AUTOATTR0
 70
     0
 74
     1
  0
ENDBLK
  5
81
330
7F
100
AcDbEntity
  8
0
100
AcDbBlockEnd
  0
BLOCK
  5
C3
330
C2
100
AcDbEntity
  8
0
100
AcDbBlockBegin
  2
_D
 70
     0
 10
0.0
 20
0.0
 30
0.0
  3
_D
  1
_D
  0
LINE
  5
C5
330
C2
100
AcDbEntity
  8
치수문자_일반주서
 62
     0
370
    -2
100
AcDbLine
 10
59.62499999999992
 20
11.17500000000001
 30
0.0
 11
59.62499999999991
 21
20.24147519829781
 31
0.0
  0
LINE
  5
C6
330
C2
100
AcDbEntity
  8
치수문자_일반주서
 62
     0
370
    -2
100
AcDbLine
 10
11.99999999999999
 20
11.13413479835851
 30
0.0
 11
11.99999999999998
 21
20.24147519829781
 31
0.0
  0
LINE
  5
C7
330
C2
100
AcDbEntity
  8
치수문자_일반주서
 62
     0
370
    -2
100
AcDbLine
 10
56.32299999999992
 20
20.24147519829781
 30
0.0
 11
15.30199999999998
 21
20.24147519829781
 31
0.0
  0
SOLID
  5
C8
330
C2
100
AcDbEntity
  8
치수문자_일반주서
 62
     0
100
AcDbTrace
 10
56.32299999999992
 20
19.69114186496448
 30
0.0
 11
56.32299999999992
 21
20.79180853163114
 31
0.0
 12
59.62499999999991
 22
20.24147519829781
 32
0.0
 13
59.62499999999991
 23
20.24147519829781
 33
0.0
  0
SOLID
  5
C9
330
C2
100
AcDbEntity
  8
치수문자_일반주서
 62
     0
100
AcDbTrace
 10
15.30199999999998
 20
20.79180853163114
 30
0.0
 11
15.30199999999998
 21
19.69114186496448
 31
0.0
 12
11.99999999999998
 22
20.24147519829781
 32
0.0
 13
11.99999999999998
 23
20.24147519829781
 33
0.0
  0
MTEXT
  5
CA
330
C2
100
AcDbEntity
  8
치수문자_일반주서
 62
     0
100
AcDbMText
 10
36.68584570637861
 20
24.61647519829781
 30
0.0
 40
3.5
 41
0.0
 71
     2
 72
     1
  1
\A1;47.63 [1 7/8]
  7
SLDTEXTSTYLE0
 73
     1
 44
1.0
  0
POINT
  5
CB
330
C2
100
AcDbEntity
  8
Defpoints
 62
     0
100
AcDbPoint
 10
59.62499999999992
 20
11.11250000000001
 30
0.0
  0
POINT
  5
CC
330
C2
100
AcDbEntity
  8
Defpoints
 62
     0
100
AcDbPoint
 10
11.99999999999999
 20
11.07163479835851
 30
0.0
  0
POINT
  5
CD
330
C2
100
AcDbEntity
  8
Defpoints
 62
     0
100
AcDbPoint
 10
11.99999999999999
 20
20.24147519829781
 30
0.0
  0
ENDBLK
  5
C4
330
C2
100
AcDbEntity
  8
0
100
AcDbBlockEnd
  0
BLOCK
  5
D7
330
D6
100
AcDbEntity
  8
0
100
AcDbBlockBegin
  2
_D_1
 70
     0
 10
0.0
 20
0.0
 30
0.0
  3
_D_1
  1
_D_1
  0
LINE
  5
D9
330
D6
100
AcDbEntity
  8
치수문자_일반주서
 62
     0
370
    -2
100
AcDbLine
 10
59.62499999999992
 20
11.17500000000001
 30
0.0
 11
59.62499999999993
 21
31.6091467932808
 31
0.0
  0
LINE
  5
DA
330
D6
100
AcDbEntity
  8
치수문자_일반주서
 62
     0
370
    -2
100
AcDbLine
 10
-45.15000000000002
 20
8.952500000000006
 30
0.0
 11
-45.15000000000001
 21
31.6091467932808
 31
0.0
  0
LINE
  5
DB
330
D6
100
AcDbEntity
  8
치수문자_일반주서
 62
     0
370
    -2
100
AcDbLine
 10
56.32299999999993
 20
31.6091467932808
 30
0.0
 11
-41.84800000000001
 21
31.6091467932808
 31
0.0
  0
SOLID
  5
DC
330
D6
100
AcDbEntity
  8
치수문자_일반주서
 62
     0
100
AcDbTrace
 10
56.32299999999993
 20
31.05881345994747
 30
0.0
 11
56.32299999999993
 21
32.15948012661413
 31
0.0
 12
59.62499999999993
 22
31.6091467932808
 32
0.0
 13
59.62499999999993
 23
31.6091467932808
 33
0.0
  0
SOLID
  5
DD
330
D6
100
AcDbEntity
  8
치수문자_일반주서
 62
     0
100
AcDbTrace
 10
-41.84800000000001
 20
32.15948012661413
 30
0.0
 11
-41.84800000000001
 21
31.05881345994747
 31
0.0
 12
-45.15000000000001
 22
31.6091467932808
 32
0.0
 13
-45.15000000000001
 23
31.6091467932808
 33
0.0
  0
MTEXT
  5
DE
330
D6
100
AcDbEntity
  8
치수문자_일반주서
 62
     0
100
AcDbMText
 10
7.237499999999955
 20
35.9841467932808
 30
0.0
 40
3.5
 41
0.0
 71
     2
 72
     1
  1
\A1;104.78 [4 1/8]
  7
SLDTEXTSTYLE0
 73
     1
 44
1.0
  0
POINT
  5
DF
330
D6
100
AcDbEntity
  8
Defpoints
 62
     0
100
AcDbPoint
 10
59.62499999999992
 20
11.11250000000001
 30
0.0
  0
POINT
  5
E0
330
D6
100
AcDbEntity
  8
Defpoints
 62
     0
100
AcDbPoint
 10
-45.15000000000002
 20
8.890000000000006
 30
0.0
  0
POINT
  5
E1
330
D6
100
AcDbEntity
  8
Defpoints
 62
     0
100
AcDbPoint
 10
-45.15000000000002
 20
31.6091467932808
 30
0.0
  0
ENDBLK
  5
D8
330
D6
100
AcDbEntity
  8
0
100
AcDbBlockEnd
  0
BLOCK
  5
EB
330
EA
100
AcDbEntity
  8
0
100
AcDbBlockBegin
  2
_D_2
 70
     0
 10
0.0
 20
0.0
 30
0.0
  3
_D_2
  1
_D_2
  0
LINE
  5
ED
330
EA
100
AcDbEntity
  8
치수문자_일반주서
 62
     0
370
    -2
100
AcDbLine
 10
-45.21250000000002
 20
11.11249999999999
 30
0.0
 11
-56.88000000000006
 21
11.11249999999994
 31
0.0
  0
LINE
  5
EE
330
EA
100
AcDbEntity
  8
치수문자_일반주서
 62
     0
370
    -2
100
AcDbLine
 10
-42.99000000000002
 20
-11.1125
 30
0.0
 11
-56.87999999999998
 21
-11.11250000000005
 31
0.0
  0
LINE
  5
EF
330
EA
100
AcDbEntity
  8
치수문자_일반주서
 62
     0
370
    -2
100
AcDbLine
 10
-56.88000000000005
 20
7.810499999999942
 30
0.0
 11
-56.88
 21
-7.810500000000054
 31
0.0
  0
SOLID
  5
F0
330
EA
100
AcDbEntity
  8
치수문자_일반주서
 62
     0
100
AcDbTrace
 10
-56.32966666666671
 20
7.810499999999944
 30
0.0
 11
-57.43033333333338
 21
7.810499999999941
 31
0.0
 12
-56.88000000000006
 22
11.11249999999994
 32
0.0
 13
-56.88000000000006
 23
11.11249999999994
 33
0.0
  0
SOLID
  5
F1
330
EA
100
AcDbEntity
  8
치수문자_일반주서
 62
     0
100
AcDbTrace
 10
-57.43033333333333
 20
-7.810500000000056
 30
0.0
 11
-56.32966666666666
 21
-7.810500000000053
 31
0.0
 12
-56.87999999999998
 22
-11.11250000000005
 32
0.0
 13
-56.87999999999998
 23
-11.11250000000005
 33
0.0
  0
MTEXT
  5
F2
330
EA
100
AcDbEntity
  8
치수문자_일반주서
 62
     0
100
AcDbMText
 10
-61.25500000000002
 20
-0.0000000000000206
 30
0.0
 40
3.5
 41
0.0
 71
     2
 72
     1
  1
\A1;%%c22.23 [7/8]
  7
SLDTEXTSTYLE0
 11
-3.516746948643917E-15
 21
1.0
 31
0.0
 73
     1
 44
1.0
  0
POINT
  5
F3
330
EA
100
AcDbEntity
  8
Defpoints
 62
     0
100
AcDbPoint
 10
-45.15000000000002
 20
11.11249999999999
 30
0.0
  0
POINT
  5
F4
330
EA
100
AcDbEntity
  8
Defpoints
 62
     0
100
AcDbPoint
 10
-42.92750000000002
 20
-11.1125
 30
0.0
  0
POINT
  5
F5
330
EA
100
AcDbEntity
  8
Defpoints
 62
     0
100
AcDbPoint
 10
-56.87999999999998
 20
-11.11250000000005
 30
0.0
  0
ENDBLK
  5
EC
330
EA
100
AcDbEntity
  8
0
100
AcDbBlockEnd
  0
BLOCK
  5
FF
330
FE
100
AcDbEntity
  8
0
100
AcDbBlockBegin
  2
_D_3
 70
     0
 10
0.0
 20
0.0
 30
0.0
  3
_D_3
  1
_D_3
  0
LINE
  5
101
330
FE
100
AcDbEntity
  8
치수문자_일반주서
 62
     0
370
    -2
100
AcDbLine
 10
59.68749999999992
 20
11.11250000000001
 30
0.0
 11
77.83285916901686
 21
11.11250000000008
 31
0.0
  0
LINE
  5
102
330
FE
100
AcDbEntity
  8
치수문자_일반주서
 62
     0
370
    -2
100
AcDbLine
 10
59.68749999999999
 20
-11.11249999999999
 30
0.0
 11
77.83285916901693
 21
-11.11249999999993
 31
0.0
  0
LINE
  5
103
330
FE
100
AcDbEntity
  8
치수문자_일반주서
 62
     0
370
    -2
100
AcDbLine
 10
77.83285916901686
 20
11.11250000000008
 30
0.0
 11
77.83285916901674
 21
46.59150000000012
 31
0.0
  0
LINE
  5
104
330
FE
100
AcDbEntity
  8
치수문자_일반주서
 62
     0
370
    -2
100
AcDbLine
 10
77.83285916901686
 20
11.11250000000008
 30
0.0
 11
77.83285916901693
 21
-11.11249999999993
 31
0.0
  0
LINE
  5
105
330
FE
100
AcDbEntity
  8
치수문자_일반주서
 62
     0
370
    -2
100
AcDbLine
 10
77.83285916901684
 20
14.41450000000007
 30
0.0
 11
77.83285916901683
 21
17.71650000000007
 31
0.0
  0
LINE
  5
106
330
FE
100
AcDbEntity
  8
치수문자_일반주서
 62
     0
370
    -2
100
AcDbLine
 10
77.83285916901694
 20
-14.41449999999993
 30
0.0
 11
77.83285916901696
 21
-17.71649999999993
 31
0.0
  0
SOLID
  5
107
330
FE
100
AcDbEntity
  8
치수문자_일반주서
 62
     0
100
AcDbTrace
 10
77.28252583568351
 20
14.41450000000007
 30
0.0
 11
78.38319250235017
 21
14.41450000000008
 31
0.0
 12
77.83285916901686
 22
11.11250000000008
 32
0.0
 13
77.83285916901686
 23
11.11250000000008
 33
0.0
  0
SOLID
  5
108
330
FE
100
AcDbEntity
  8
치수문자_일반주서
 62
     0
100
AcDbTrace
 10
78.38319250235027
 20
-14.41449999999993
 30
0.0
 11
77.28252583568361
 21
-14.41449999999993
 31
0.0
 12
77.83285916901693
 22
-11.11249999999993
 32
0.0
 13
77.83285916901693
 23
-11.11249999999993
 33
0.0
  0
MTEXT
  5
109
330
FE
100
AcDbEntity
  8
치수문자_일반주서
 62
     0
100
AcDbMText
 10
73.45785916901679
 20
32.15400000000011
 30
0.0
 40
3.5
 41
0.0
 71
     2
 72
     1
  1
\A1;%%c22.23 [7/8]
  7
SLDTEXTSTYLE0
 11
-3.197042680585377E-15
 21
1.0
 31
0.0
 73
     1
 44
1.0
  0
POINT
  5
10A
330
FE
100
AcDbEntity
  8
Defpoints
 62
     0
100
AcDbPoint
 10
59.62499999999992
 20
11.11250000000001
 30
0.0
  0
POINT
  5
264
330
FE
100
AcDbEntity
  8
Defpoints
 62
     0
100
AcDbPoint
 10
59.62499999999999
 20
-11.11249999999999
 30
0.0
  0
POINT
  5
265
330
FE
100
AcDbEntity
  8
Defpoints
 62
     0
100
AcDbPoint
 10
77.83285916901693
 20
-11.11249999999993
 30
0.0
  0
ENDBLK
  5
100
330
FE
100
AcDbEntity
  8
0
100
AcDbBlockEnd
  0
BLOCK
  5
118
330
117
100
AcDbEntity
  8
0
100
AcDbBlockBegin
  2
SW_DOWELSYMBOL_0
 70
     0
 10
0.0
 20
0.0
 30
0.0
  3
SW_DOWELSYMBOL_0
  1
SW_DOWELSYMBOL_0
  0
CIRCLE
  5
11A
330
117
100
AcDbEntity
  8
해칭선
 62
     0
100
AcDbCircle
 10
0.0
 20
0.0
 30
0.0
 40
3.000000000000001
  0
HATCH
  5
11B
330
117
100
AcDbEntity
  8
0
  6
Continuous
 62
     0
370
     0
100
AcDbHatch
 10
0.0
 20
0.0
 30
0.0
210
0.0
220
0.0
230
1.0
  2
SOLID
 70
     1
 71
     0
 91
        1
 92
        0
 93
        3
 72
     2
 10
0.0
 20
0.0
 40
3.000000000000001
 50
0.0
 51
90.0
 73
     1
 72
     1
 10
0.0
 20
3.000000000000001
 11
0.0
 21
0.0
 72
     1
 10
0.0
 20
0.0
 11
3.000000000000003
 21
0.0
 97
        0
 75
     0
 76
     1
 98
        1
 10
0.0
 20
0.0
  0
HATCH
  5
11C
330
117
100
AcDbEntity
  8
0
  6
Continuous
 62
     0
370
     0
100
AcDbHatch
 10
0.0
 20
0.0
 30
0.0
210
0.0
220
0.0
230
1.0
  2
SOLID
 70
     1
 71
     0
 91
        1
 92
        0
 93
        3
 72
     2
 10
0.0
 20
0.0
 40
3.000000000000001
 50
180.0
 51
270.0000000000008
 73
     1
 72
     1
 10
0.0
 20
-3.000000000000001
 11
0.0
 21
0.0
 72
     1
 10
0.0
 20
0.0
 11
-3.000000000000001
 21
0.0
 97
        0
 75
     0
 76
     1
 98
        1
 10
0.0
 20
0.0
  0
ENDBLK
  5
119
330
117
100
AcDbEntity
  8
0
100
AcDbBlockEnd
  0
BLOCK
  5
1D3
330
1D2
100
AcDbEntity
  8
0
100
AcDbBlockBegin
  2
*D8
 70
     1
 10
0.0
 20
0.0
 30
0.0
  3
*D8
  1
*D8
  0
LINE
  5
1D5
330
1D2
100
AcDbEntity
  8
치수문자_일반주서
 62
     0
370
    -2
100
AcDbLine
 10
114.8475000000001
 20
25.71649999999995
 30
0.0
 11
114.8475000000001
 21
38.0736464400139
 31
0.0
  0
LINE
  5
1D6
330
1D2
100
AcDbEntity
  8
치수문자_일반주서
 62
     0
370
    -2
100
AcDbLine
 10
73.57250000000005
 20
25.68147268430723
 30
0.0
 11
73.57250000000005
 21
38.0736464400139
 31
0.0
  0
LINE
  5
1D7
330
1D2
100
AcDbEntity
  8
치수문자_일반주서
 62
     0
370
    -2
100
AcDbLine
 10
111.5455000000001
 20
38.0736464400139
 30
0.0
 11
76.87450000000004
 21
38.0736464400139
 31
0.0
  0
SOLID
  5
1D8
330
1D2
100
AcDbEntity
  8
치수문자_일반주서
 62
     0
100
AcDbTrace
 10
111.5455000000001
 20
37.52331310668056
 30
0.0
 11
111.5455000000001
 21
38.62397977334723
 31
0.0
 12
114.8475000000001
 22
38.0736464400139
 32
0.0
 13
114.8475000000001
 23
38.0736464400139
 33
0.0
  0
SOLID
  5
1D9
330
1D2
100
AcDbEntity
  8
치수문자_일반주서
 62
     0
100
AcDbTrace
 10
76.87450000000004
 20
38.62397977334723
 30
0.0
 11
76.87450000000004
 21
37.52331310668056
 31
0.0
 12
73.57250000000005
 22
38.0736464400139
 32
0.0
 13
73.57250000000005
 23
38.0736464400139
 33
0.0
  0
MTEXT
  5
1DA
330
1D2
100
AcDbEntity
  8
치수문자_일반주서
 62
     0
100
AcDbMText
 10
93.65585944752222
 20
42.4486464400139
 30
0.0
 40
3.5
 41
0.0
 71
     2
 72
     1
  1
\A1;41.28 [1 5/8]
  7
SLDTEXTSTYLE0
 73
     1
 44
1.0
  0
POINT
  5
1DB
330
1D2
100
AcDbEntity
  8
Defpoints
 62
     0
100
AcDbPoint
 10
114.8475000000001
 20
25.65399999999995
 30
0.0
  0
POINT
  5
1DC
330
1D2
100
AcDbEntity
  8
Defpoints
 62
     0
100
AcDbPoint
 10
73.57250000000005
 20
25.61897268430723
 30
0.0
  0
POINT
  5
1DD
330
1D2
100
AcDbEntity
  8
Defpoints
 62
     0
100
AcDbPoint
 10
73.57250000000005
 20
38.0736464400139
 30
0.0
  0
ENDBLK
  5
1D4
330
1D2
100
AcDbEntity
  8
0
100
AcDbBlockEnd
  0
BLOCK
  5
1DF
330
1DE
100
AcDbEntity
  8
0
100
AcDbBlockBegin
  2
*D9
 70
     1
 10
0.0
 20
0.0
 30
0.0
  3
*D9
  1
*D9
  0
LINE
  5
1E1
330
1DE
100
AcDbEntity
  8
치수문자_일반주서
 62
     0
370
    -2
100
AcDbLine
 10
114.8475000000001
 20
25.71649999999995
 30
0.0
 11
114.8475000000001
 21
47.73814679328075
 31
0.0
  0
LINE
  5
1E2
330
1DE
100
AcDbEntity
  8
치수문자_일반주서
 62
     0
370
    -2
100
AcDbLine
 10
16.42250000000004
 20
23.81149999999996
 30
0.0
 11
16.42250000000004
 21
47.73814679328075
 31
0.0
  0
LINE
  5
1E3
330
1DE
100
AcDbEntity
  8
치수문자_일반주서
 62
     0
370
    -2
100
AcDbLine
 10
111.5455000000001
 20
47.73814679328075
 30
0.0
 11
19.72450000000004
 21
47.73814679328075
 31
0.0
  0
SOLID
  5
1E4
330
1DE
100
AcDbEntity
  8
치수문자_일반주서
 62
     0
100
AcDbTrace
 10
111.5455000000001
 20
47.18781345994741
 30
0.0
 11
111.5455000000001
 21
48.28848012661408
 31
0.0
 12
114.8475000000001
 22
47.73814679328075
 32
0.0
 13
114.8475000000001
 23
47.73814679328075
 33
0.0
  0
SOLID
  5
1E5
330
1DE
100
AcDbEntity
  8
치수문자_일반주서
 62
     0
100
AcDbTrace
 10
19.72450000000004
 20
48.28848012661408
 30
0.0
 11
19.72450000000004
 21
47.18781345994741
 31
0.0
 12
16.42250000000004
 22
47.73814679328075
 32
0.0
 13
16.42250000000004
 23
47.73814679328075
 33
0.0
  0
MTEXT
  5
1E6
330
1DE
100
AcDbEntity
  8
치수문자_일반주서
 62
     0
100
AcDbMText
 10
65.63500000000006
 20
52.11314679328075
 30
0.0
 40
3.5
 41
0.0
 71
     2
 72
     1
  1
\A1;98.43 [3 7/8]
  7
SLDTEXTSTYLE0
 73
     1
 44
1.0
  0
POINT
  5
1E7
330
1DE
100
AcDbEntity
  8
Defpoints
 62
     0
100
AcDbPoint
 10
114.8475000000001
 20
25.65399999999995
 30
0.0
  0
POINT
  5
1E8
330
1DE
100
AcDbEntity
  8
Defpoints
 62
     0
100
AcDbPoint
 10
16.42250000000004
 20
23.74899999999996
 30
0.0
  0
POINT
  5
1E9
330
1DE
100
AcDbEntity
  8
Defpoints
 62
     0
100
AcDbPoint
 10
16.42250000000004
 20
47.73814679328075
 30
0.0
  0
ENDBLK
  5
1E0
330
1DE
100
AcDbEntity
  8
0
100
AcDbBlockEnd
  0
BLOCK
  5
1EB
330
1EA
100
AcDbEntity
  8
0
100
AcDbBlockBegin
  2
*D10
 70
     1
 10
0.0
 20
0.0
 30
0.0
  3
*D10
  1
*D10
  0
LINE
  5
1ED
330
1EA
100
AcDbEntity
  8
치수문자_일반주서
 62
     0
370
    -2
100
AcDbLine
 10
18.26500000000006
 20
25.65399999999995
 30
0.0
 11
4.37500000000001
 21
25.65399999999989
 31
0.0
  0
LINE
  5
1EE
330
1EA
100
AcDbEntity
  8
치수문자_일반주서
 62
     0
370
    -2
100
AcDbLine
 10
18.26500000000006
 20
6.603999999999935
 30
0.0
 11
4.375000000000076
 21
6.603999999999882
 31
0.0
  0
LINE
  5
1EF
330
1EA
100
AcDbEntity
  8
치수문자_일반주서
 62
     0
370
    -2
100
AcDbLine
 10
4.375000000000021
 20
22.35199999999989
 30
0.0
 11
4.375000000000065
 21
9.905999999999882
 31
0.0
  0
SOLID
  5
1F0
330
1EA
100
AcDbEntity
  8
치수문자_일반주서
 62
     0
100
AcDbTrace
 10
4.925333333333355
 20
22.3519999999999
 30
0.0
 11
3.824666666666688
 21
22.35199999999989
 31
0.0
 12
4.37500000000001
 22
25.65399999999989
 32
0.0
 13
4.37500000000001
 23
25.65399999999989
 33
0.0
  0
SOLID
  5
1F1
330
1EA
100
AcDbEntity
  8
치수문자_일반주서
 62
     0
100
AcDbTrace
 10
3.824666666666732
 20
9.90599999999988
 30
0.0
 11
4.925333333333398
 21
9.905999999999883
 31
0.0
 12
4.375000000000076
 22
6.603999999999882
 32
0.0
 13
4.375000000000076
 23
6.603999999999882
 33
0.0
  0
MTEXT
  5
1F2
330
1EA
100
AcDbEntity
  8
치수문자_일반주서
 62
     0
100
AcDbMText
 10
0.0000000000000426
 20
16.12899999999993
 30
0.0
 40
3.5
 41
0.0
 71
     2
 72
     1
  1
\A1;%%c19.05 [3/4]
  7
SLDTEXTSTYLE0
 11
-3.496765431890255E-15
 21
1.0
 31
0.0
 73
     1
 44
1.0
  0
POINT
  5
1F3
330
1EA
100
AcDbEntity
  8
Defpoints
 62
     0
100
AcDbPoint
 10
18.32750000000006
 20
25.65399999999995
 30
0.0
  0
POINT
  5
1F4
330
1EA
100
AcDbEntity
  8
Defpoints
 62
     0
100
AcDbPoint
 10
18.32750000000006
 20
6.603999999999935
 30
0.0
  0
POINT
  5
1F5
330
1EA
100
AcDbEntity
  8
Defpoints
 62
     0
100
AcDbPoint
 10
4.375000000000078
 20
6.603999999999883
 30
0.0
  0
ENDBLK
  5
1EC
330
1EA
100
AcDbEntity
  8
0
100
AcDbBlockEnd
  0
BLOCK
  5
1F7
330
1F6
100
AcDbEntity
  8
0
100
AcDbBlockBegin
  2
*D11
 70
     1
 10
0.0
 20
0.0
 30
0.0
  3
*D11
  1
*D11
  0
LINE
  5
1F9
330
1F6
100
AcDbEntity
  8
치수문자_일반주서
 62
     0
370
    -2
100
AcDbLine
 10
114.9100000000001
 20
25.65399999999995
 30
0.0
 11
127.5890128562154
 21
25.65399999999999
 31
0.0
  0
LINE
  5
1FA
330
1F6
100
AcDbEntity
  8
치수문자_일반주서
 62
     0
370
    -2
100
AcDbLine
 10
114.9100000000001
 20
6.603999999999948
 30
0.0
 11
127.5890128562155
 21
6.603999999999992
 31
0.0
  0
LINE
  5
1FB
330
1F6
100
AcDbEntity
  8
치수문자_일반주서
 62
     0
370
    -2
100
AcDbLine
 10
127.5890128562154
 20
25.65399999999999
 30
0.0
 11
127.5890128562153
 21
59.82050000000001
 31
0.0
  0
LINE
  5
1FC
330
1F6
100
AcDbEntity
  8
치수문자_일반주서
 62
     0
370
    -2
100
AcDbLine
 10
127.5890128562154
 20
25.65399999999999
 30
0.0
 11
127.5890128562155
 21
6.603999999999992
 31
0.0
  0
LINE
  5
1FD
330
1F6
100
AcDbEntity
  8
치수문자_일반주서
 62
     0
370
    -2
100
AcDbLine
 10
127.5890128562154
 20
28.95599999999999
 30
0.0
 11
127.5890128562154
 21
32.258
 31
0.0
  0
LINE
  5
1FE
330
1F6
100
AcDbEntity
  8
치수문자_일반주서
 62
     0
370
    -2
100
AcDbLine
 10
127.5890128562155
 20
3.301999999999992
 30
0.0
 11
127.5890128562155
 21
-0.0000000000000071
 31
0.0
  0
SOLID
  5
1FF
330
1F6
100
AcDbEntity
  8
치수문자_일반주서
 62
     0
100
AcDbTrace
 10
127.0386795228821
 20
28.95599999999999
 30
0.0
 11
128.1393461895487
 21
28.956
 31
0.0
 12
127.5890128562154
 22
25.65399999999999
 32
0.0
 13
127.5890128562154
 23
25.65399999999999
 33
0.0
  0
SOLID
  5
200
330
1F6
100
AcDbEntity
  8
치수문자_일반주서
 62
     0
100
AcDbTrace
 10
128.1393461895488
 20
3.301999999999995
 30
0.0
 11
127.0386795228822
 21
3.30199999999999
 31
0.0
 12
127.5890128562155
 22
6.603999999999992
 32
0.0
 13
127.5890128562155
 23
6.603999999999992
 33
0.0
  0
MTEXT
  5
201
330
1F6
100
AcDbEntity
  8
치수문자_일반주서
 62
     0
100
AcDbMText
 10
123.2140128562153
 20
46.03925
 30
0.0
 40
3.5
 41
0.0
 71
     2
 72
     1
  1
\A1;%%c19.05 [3/4]
  7
SLDTEXTSTYLE0
 11
-3.729883127349608E-15
 21
1.0
 31
0.0
 73
     1
 44
1.0
  0
POINT
  5
202
330
1F6
100
AcDbEntity
  8
Defpoints
 62
     0
100
AcDbPoint
 10
114.8475000000001
 20
25.65399999999995
 30
0.0
  0
POINT
  5
203
330
1F6
100
AcDbEntity
  8
Defpoints
 62
     0
100
AcDbPoint
 10
114.8475000000001
 20
6.603999999999948
 30
0.0
  0
POINT
  5
204
330
1F6
100
AcDbEntity
  8
Defpoints
 62
     0
100
AcDbPoint
 10
127.5890128562155
 20
6.603999999999996
 30
0.0
  0
ENDBLK
  5
1F8
330
1F6
100
AcDbEntity
  8
0
100
AcDbBlockEnd
  0
BLOCK
  5
230
330
22F
100
AcDbEntity
  8
0
100
AcDbBlockBegin
  2
*D12
 70
     1
 10
0.0
 20
0.0
 30
0.0
  3
*D12
  1
*D12
  0
LINE
  5
232
330
22F
100
AcDbEntity
  8
치수문자_일반주서
 62
     0
370
    -2
100
AcDbLine
 10
226.9612117791855
 20
-20.97651963315106
 30
0.0
 11
226.9612117791855
 21
-8.619373193137115
 31
0.0
  0
LINE
  5
233
330
22F
100
AcDbEntity
  8
치수문자_일반주서
 62
     0
370
    -2
100
AcDbLine
 10
185.6862117791854
 20
-21.01154694884378
 30
0.0
 11
185.6862117791854
 21
-8.619373193137115
 31
0.0
  0
LINE
  5
234
330
22F
100
AcDbEntity
  8
치수문자_일반주서
 62
     0
370
    -2
100
AcDbLine
 10
223.6592117791855
 20
-8.619373193137115
 30
0.0
 11
188.9882117791854
 21
-8.619373193137115
 31
0.0
  0
SOLID
  5
235
330
22F
100
AcDbEntity
  8
치수문자_일반주서
 62
     0
100
AcDbTrace
 10
223.6592117791855
 20
-9.169706526470447
 30
0.0
 11
223.6592117791855
 21
-8.069039859803782
 31
0.0
 12
226.9612117791855
 22
-8.619373193137115
 32
0.0
 13
226.9612117791855
 23
-8.619373193137115
 33
0.0
  0
SOLID
  5
236
330
22F
100
AcDbEntity
  8
치수문자_일반주서
 62
     0
100
AcDbTrace
 10
188.9882117791854
 20
-8.069039859803782
 30
0.0
 11
188.9882117791854
 21
-9.169706526470447
 31
0.0
 12
185.6862117791854
 22
-8.619373193137115
 32
0.0
 13
185.6862117791854
 23
-8.619373193137115
 33
0.0
  0
MTEXT
  5
237
330
22F
100
AcDbEntity
  8
치수문자_일반주서
 62
     0
100
AcDbMText
 10
205.7695712267076
 20
-4.244373193137115
 30
0.0
 40
3.5
 41
0.0
 71
     2
 72
     1
  1
\A1;41.28 [1 5/8]
  7
SLDTEXTSTYLE0
 73
     1
 44
1.0
  0
POINT
  5
238
330
22F
100
AcDbEntity
  8
Defpoints
 62
     0
100
AcDbPoint
 10
226.9612117791855
 20
-21.03901963315106
 30
0.0
  0
POINT
  5
239
330
22F
100
AcDbEntity
  8
Defpoints
 62
     0
100
AcDbPoint
 10
185.6862117791854
 20
-21.07404694884378
 30
0.0
  0
POINT
  5
23A
330
22F
100
AcDbEntity
  8
Defpoints
 62
     0
100
AcDbPoint
 10
185.6862117791854
 20
-8.619373193137115
 30
0.0
  0
ENDBLK
  5
231
330
22F
100
AcDbEntity
  8
0
100
AcDbBlockEnd
  0
BLOCK
  5
23C
330
23B
100
AcDbEntity
  8
0
100
AcDbBlockBegin
  2
*D13
 70
     1
 10
0.0
 20
0.0
 30
0.0
  3
*D13
  1
*D13
  0
LINE
  5
23E
330
23B
100
AcDbEntity
  8
치수문자_일반주서
 62
     0
370
    -2
100
AcDbLine
 10
226.9612117791855
 20
-20.97651963315106
 30
0.0
 11
226.9612117791855
 21
1.045127160129738
 31
0.0
  0
LINE
  5
23F
330
23B
100
AcDbEntity
  8
치수문자_일반주서
 62
     0
370
    -2
100
AcDbLine
 10
128.5362117791855
 20
-22.88151963315105
 30
0.0
 11
128.5362117791855
 21
1.045127160129738
 31
0.0
  0
LINE
  5
240
330
23B
100
AcDbEntity
  8
치수문자_일반주서
 62
     0
370
    -2
100
AcDbLine
 10
223.6592117791855
 20
1.045127160129738
 30
0.0
 11
131.8382117791855
 21
1.045127160129738
 31
0.0
  0
SOLID
  5
241
330
23B
100
AcDbEntity
  8
치수문자_일반주서
 62
     0
100
AcDbTrace
 10
223.6592117791855
 20
0.4947938267964046
 30
0.0
 11
223.6592117791855
 21
1.595460493463071
 31
0.0
 12
226.9612117791855
 22
1.045127160129738
 32
0.0
 13
226.9612117791855
 23
1.045127160129738
 33
0.0
  0
SOLID
  5
242
330
23B
100
AcDbEntity
  8
치수문자_일반주서
 62
     0
100
AcDbTrace
 10
131.8382117791855
 20
1.595460493463071
 30
0.0
 11
131.8382117791855
 21
0.4947938267964046
 31
0.0
 12
128.5362117791855
 22
1.045127160129738
 32
0.0
 13
128.5362117791855
 23
1.045127160129738
 33
0.0
  0
MTEXT
  5
243
330
23B
100
AcDbEntity
  8
치수문자_일반주서
 62
     0
100
AcDbMText
 10
177.7487117791855
 20
5.420127160129738
 30
0.0
 40
3.5
 41
0.0
 71
     2
 72
     1
  1
\A1;98.43 [3 7/8]
  7
SLDTEXTSTYLE0
 73
     1
 44
1.0
  0
POINT
  5
244
330
23B
100
AcDbEntity
  8
Defpoints
 62
     0
100
AcDbPoint
 10
226.9612117791855
 20
-21.03901963315106
 30
0.0
  0
POINT
  5
245
330
23B
100
AcDbEntity
  8
Defpoints
 62
     0
100
AcDbPoint
 10
128.5362117791855
 20
-22.94401963315105
 30
0.0
  0
POINT
  5
246
330
23B
100
AcDbEntity
  8
Defpoints
 62
     0
100
AcDbPoint
 10
128.5362117791855
 20
1.045127160129738
 30
0.0
  0
ENDBLK
  5
23D
330
23B
100
AcDbEntity
  8
0
100
AcDbBlockEnd
  0
BLOCK
  5
248
330
247
100
AcDbEntity
  8
0
100
AcDbBlockBegin
  2
*D14
 70
     1
 10
0.0
 20
0.0
 30
0.0
  3
*D14
  1
*D14
  0
LINE
  5
24A
330
247
100
AcDbEntity
  8
치수문자_일반주서
 62
     0
370
    -2
100
AcDbLine
 10
130.3787117791855
 20
-21.03901963315106
 30
0.0
 11
116.4887117791854
 21
-21.03901963315112
 31
0.0
  0
LINE
  5
24B
330
247
100
AcDbEntity
  8
치수문자_일반주서
 62
     0
370
    -2
100
AcDbLine
 10
130.3787117791855
 20
-40.08901963315108
 30
0.0
 11
116.4887117791855
 21
-40.08901963315112
 31
0.0
  0
LINE
  5
24C
330
247
100
AcDbEntity
  8
치수문자_일반주서
 62
     0
370
    -2
100
AcDbLine
 10
116.4887117791854
 20
-24.34101963315112
 30
0.0
 11
116.4887117791855
 21
-36.78701963315113
 31
0.0
  0
SOLID
  5
24D
330
247
100
AcDbEntity
  8
치수문자_일반주서
 62
     0
100
AcDbTrace
 10
117.0390451125188
 20
-24.34101963315111
 30
0.0
 11
115.9383784458521
 21
-24.34101963315112
 31
0.0
 12
116.4887117791854
 22
-21.03901963315112
 32
0.0
 13
116.4887117791854
 23
-21.03901963315112
 33
0.0
  0
SOLID
  5
24E
330
247
100
AcDbEntity
  8
치수문자_일반주서
 62
     0
100
AcDbTrace
 10
115.9383784458522
 20
-36.78701963315113
 30
0.0
 11
117.0390451125188
 21
-36.78701963315113
 31
0.0
 12
116.4887117791855
 22
-40.08901963315112
 32
0.0
 13
116.4887117791855
 23
-40.08901963315112
 33
0.0
  0
MTEXT
  5
24F
330
247
100
AcDbEntity
  8
치수문자_일반주서
 62
     0
100
AcDbMText
 10
112.1137117791855
 20
-30.56401963315108
 30
0.0
 40
3.5
 41
0.0
 71
     2
 72
     1
  1
\A1;%%c19.05 [3/4]
  7
SLDTEXTSTYLE0
 11
-3.729883127349606E-15
 21
1.0
 31
0.0
 73
     1
 44
1.0
  0
POINT
  5
250
330
247
100
AcDbEntity
  8
Defpoints
 62
     0
100
AcDbPoint
 10
130.4412117791855
 20
-21.03901963315106
 30
0.0
  0
POINT
  5
251
330
247
100
AcDbEntity
  8
Defpoints
 62
     0
100
AcDbPoint
 10
130.4412117791855
 20
-40.08901963315108
 30
0.0
  0
POINT
  5
252
330
247
100
AcDbEntity
  8
Defpoints
 62
     0
100
AcDbPoint
 10
116.4887117791855
 20
-40.08901963315112
 30
0.0
  0
ENDBLK
  5
249
330
247
100
AcDbEntity
  8
0
100
AcDbBlockEnd
  0
BLOCK
  5
254
330
253
100
AcDbEntity
  8
0
100
AcDbBlockBegin
  2
*D15
 70
     1
 10
0.0
 20
0.0
 30
0.0
  3
*D15
  1
*D15
  0
LINE
  5
256
330
253
100
AcDbEntity
  8
치수문자_일반주서
 62
     0
370
    -2
100
AcDbLine
 10
227.0237117791855
 20
-21.03901963315106
 30
0.0
 11
239.7027246354008
 21
-21.03901963315102
 31
0.0
  0
LINE
  5
257
330
253
100
AcDbEntity
  8
치수문자_일반주서
 62
     0
370
    -2
100
AcDbLine
 10
227.0237117791855
 20
-40.08901963315106
 30
0.0
 11
239.7027246354009
 21
-40.08901963315102
 31
0.0
  0
LINE
  5
258
330
253
100
AcDbEntity
  8
치수문자_일반주서
 62
     0
370
    -2
100
AcDbLine
 10
239.7027246354008
 20
-21.03901963315102
 30
0.0
 11
239.7027246354007
 21
13.12748036684901
 31
0.0
  0
LINE
  5
259
330
253
100
AcDbEntity
  8
치수문자_일반주서
 62
     0
370
    -2
100
AcDbLine
 10
239.7027246354008
 20
-21.03901963315102
 30
0.0
 11
239.7027246354009
 21
-40.08901963315102
 31
0.0
  0
LINE
  5
25A
330
253
100
AcDbEntity
  8
치수문자_일반주서
 62
     0
370
    -2
100
AcDbLine
 10
239.7027246354008
 20
-17.73701963315102
 30
0.0
 11
239.7027246354008
 21
-14.43501963315102
 31
0.0
  0
LINE
  5
25B
330
253
100
AcDbEntity
  8
치수문자_일반주서
 62
     0
370
    -2
100
AcDbLine
 10
239.7027246354009
 20
-43.39101963315102
 30
0.0
 11
239.7027246354009
 21
-46.69301963315102
 31
0.0
  0
SOLID
  5
25C
330
253
100
AcDbEntity
  8
치수문자_일반주서
 62
     0
100
AcDbTrace
 10
239.1523913020675
 20
-17.73701963315102
 30
0.0
 11
240.2530579687341
 21
-17.73701963315102
 31
0.0
 12
239.7027246354008
 22
-21.03901963315102
 32
0.0
 13
239.7027246354008
 23
-21.03901963315102
 33
0.0
  0
SOLID
  5
25D
330
253
100
AcDbEntity
  8
치수문자_일반주서
 62
     0
100
AcDbTrace
 10
240.2530579687342
 20
-43.39101963315102
 30
0.0
 11
239.1523913020675
 21
-43.39101963315102
 31
0.0
 12
239.7027246354009
 22
-40.08901963315102
 32
0.0
 13
239.7027246354009
 23
-40.08901963315102
 33
0.0
  0
MTEXT
  5
25E
330
253
100
AcDbEntity
  8
치수문자_일반주서
 62
     0
100
AcDbMText
 10
235.3277246354008
 20
-0.6537696331510067
 30
0.0
 40
3.5
 41
0.0
 71
     2
 72
     1
  1
\A1;%%c19.05 [3/4]
  7
SLDTEXTSTYLE0
 11
-2.983906501879687E-15
 21
1.0
 31
0.0
 73
     1
 44
1.0
  0
POINT
  5
25F
330
253
100
AcDbEntity
  8
Defpoints
 62
     0
100
AcDbPoint
 10
226.9612117791855
 20
-21.03901963315106
 30
0.0
  0
POINT
  5
260
330
253
100
AcDbEntity
  8
Defpoints
 62
     0
100
AcDbPoint
 10
226.9612117791855
 20
-40.08901963315106
 30
0.0
  0
POINT
  5
261
330
253
100
AcDbEntity
  8
Defpoints
 62
     0
100
AcDbPoint
 10
239.7027246354009
 20
-40.08901963315101
 30
0.0
  0
ENDBLK
  5
255
330
253
100
AcDbEntity
  8
0
100
AcDbBlockEnd
  0
ENDSEC
  0
SECTION
  2
ENTITIES
  0
ARC
  5
96
330
1F
100
AcDbEntity
  8
0
  6
Continuous
 62
     1
370
    15
100
AcDbCircle
 10
48.51249999999997
 20
0.0000000000000001
 30
0.0
 40
11.11250000000002
100
AcDbArc
 50
335.5753915979038
 51
0.0
  0
ARC
  5
97
330
1F
100
AcDbEntity
  8
0
  6
Continuous
 62
     1
370
    15
100
AcDbCircle
 10
48.51249999999997
 20
0.0000000000000001
 30
0.0
 40
11.11250000000002
100
AcDbArc
 50
270.0000000000008
 51
280.6264943696379
  0
ARC
  5
98
330
1F
100
AcDbEntity
  8
0
  6
Continuous
 62
     1
370
    15
100
AcDbCircle
 10
48.51249999999997
 20
0.0000000000000001
 30
0.0
 40
11.11250000000002
100
AcDbArc
 50
79.37473157027965
 51
90.0
  0
ARC
  5
99
330
1F
100
AcDbEntity
  8
0
  6
Continuous
 62
     1
370
    15
100
AcDbCircle
 10
48.51249999999997
 20
0.0000000000000001
 30
0.0
 40
11.11250000000001
100
AcDbArc
 50
0.0
 51
24.4276019409185
  0
LINE
  5
9A
330
1F
100
AcDbEntity
  8
0
  6
Continuous
 62
     1
370
    15
100
AcDbLine
 10
43.88385696161838
 20
-11.11250000000001
 30
0.0
 11
48.51249999999997
 21
-11.11250000000001
 31
0.0
  0
LINE
  5
9B
330
1F
100
AcDbEntity
  8
0
  6
Continuous
 62
     1
370
    15
100
AcDbLine
 10
20.42587375396881
 20
11.11250000000001
 30
0.0
 11
13.65175317180677
 21
11.11250000000001
 31
0.0
  0
LINE
  5
9C
330
1F
100
AcDbEntity
  8
0
  6
Continuous
 62
     1
370
    15
100
AcDbLine
 10
13.65175317180675
 20
-11.11250000000001
 30
0.0
 11
20.4258737539689
 21
-11.11250000000001
 31
0.0
  0
LINE
  5
9D
330
1F
100
AcDbEntity
  8
0
  6
Continuous
 62
     1
370
    15
100
AcDbLine
 10
48.51249999999997
 20
11.11250000000001
 30
0.0
 11
43.88385696161822
 21
11.11250000000001
 31
0.0
  0
LINE
  5
9E
330
1F
100
AcDbEntity
  8
외형선
  6
Continuous
370
    15
100
AcDbLine
 10
-42.9275
 20
-11.1125
 30
0.0
 11
12.0
 21
-11.1125
 31
0.0
  0
LINE
  5
9F
330
1F
100
AcDbEntity
  8
외형선
  6
Continuous
370
    15
100
AcDbLine
 10
12.0
 20
11.1125
 30
0.0
 11
-11.91092499999986
 21
11.1125
 31
0.0
  0
LINE
  5
A0
330
1F
100
AcDbEntity
  8
외형선
  6
Continuous
370
    15
100
AcDbLine
 10
-44.57850000000001
 20
9.46149999999999
 30
0.0
 11
-45.15000000000001
 21
8.889999999999999
 31
0.0
  0
LINE
  5
A1
330
1F
100
AcDbEntity
  8
외형선
  6
Continuous
370
    15
100
AcDbLine
 10
-45.15000000000001
 20
-8.890000000000006
 30
0.0
 11
-42.9275
 21
-11.1125
 31
0.0
  0
SPLINE
  5
A2
330
1F
100
AcDbEntity
  8
0
  6
Continuous
 62
     1
370
    15
100
AcDbSpline
210
0.0
220
0.0
230
1.0
 70
     8
 71
     3
 72
    48
 73
    44
 74
     0
 42
0.000000001
 43
0.00000001
 40
0.0
 40
0.0
 40
0.0
 40
0.0
 40
0.0624999999999999
 40
0.0624999999999999
 40
0.1249999999999999
 40
0.1249999999999999
 40
0.1874999999999998
 40
0.1874999999999998
 40
0.2499999999999998
 40
0.2499999999999998
 40
0.3124999999999997
 40
0.3124999999999997
 40
0.3749999999999997
 40
0.3749999999999997
 40
0.4374999999999996
 40
0.4374999999999996
 40
0.4999999999999996
 40
0.4999999999999996
 40
0.5312499999999996
 40
0.5312499999999996
 40
0.5624999999999996
 40
0.5624999999999996
 40
0.6249999999999986
 40
0.6249999999999986
 40
0.6562499999999986
 40
0.6562499999999986
 40
0.6874999999999986
 40
0.6874999999999986
 40
0.7187499999999984
 40
0.7187499999999984
 40
0.7499999999999984
 40
0.7499999999999984
 40
0.8124999999999993
 40
0.8124999999999993
 40
0.8437499999999992
 40
0.8437499999999992
 40
0.8749999999999992
 40
0.8749999999999992
 40
0.9062499999999992
 40
0.9062499999999992
 40
0.9374999999999991
 40
0.9374999999999991
 40
1.0
 40
1.0
 40
1.0
 40
1.0
 10
12.00000000000001
 20
11.0716347983585
 30
0.0
 10
12.75776014682502
 20
11.10921523661144
 30
0.0
 10
13.52141980334895
 20
11.1209297918051
 30
0.0
 10
15.04450877024753
 20
11.09212308290307
 30
0.0
 10
15.8013388438454
 20
11.05175235104991
 30
0.0
 10
17.32485118892961
 20
10.91928813276492
 30
0.0
 10
18.08706931547924
 20
10.82722018550622
 30
0.0
 10
19.60385312599146
 20
10.59327236438897
 30
0.0
 10
20.3677011242429
 20
10.45088927396317
 30
0.0
 10
21.8902668582315
 20
10.11810989562737
 30
0.0
 10
22.64726767221046
 20
9.92796131676041
 30
0.0
 10
24.1711034481431
 20
9.50124698584976
 30
0.0
 10
24.93204960895862
 20
9.265165337723927
 30
0.0
 10
26.44999845712007
 20
8.751239500166664
 30
0.0
 10
27.21398436706359
 20
8.472566268878303
 30
0.0
 10
28.73592712783
 20
7.877550162702117
 30
0.0
 10
29.4932693852551
 20
7.561381149773458
 30
0.0
 10
30.63631377675991
 20
7.060702780761823
 30
0.0
 10
31.01752256025871
 20
6.889539914919441
 30
0.0
 10
31.77831951687874
 20
6.539589403244809
 30
0.0
 10
32.15692639887556
 20
6.360961435073672
 30
0.0
 10
33.29618776359759
 20
5.813697912230871
 30
0.0
 10
34.06026112473081
 20
5.433616676022692
 30
0.0
 10
35.20117626227425
 20
4.846599338061384
 30
0.0
 10
35.57966288187512
 20
4.648290386657971
 30
0.0
 10
36.33941848542597
 20
4.245985105507041
 30
0.0
 10
36.72038127104576
 20
4.042036227902398
 30
0.0
 10
37.48247253825046
 20
3.629605383313054
 30
0.0
 10
37.86359984267396
 20
3.421124051149174
 30
0.0
 10
38.62401063848759
 20
3.000737290391578
 30
0.0
 10
39.00242578969835
 20
2.78899670253419
 30
0.0
 10
40.1424126591234
 20
2.148372557520202
 30
0.0
 10
40.90652299162125
 20
1.71447083212435
 30
0.0
 10
42.04682161140131
 20
1.060228039041915
 30
0.0
 10
42.42521409212103
 20
0.8417262953716302
 30
0.0
 10
43.18542858394966
 20
0.403336240852927
 30
0.0
 10
43.56650951565171
 20
0.1835893745256594
 30
0.0
 10
44.32861240872275
 20
-0.2558510496050892
 30
0.0
 10
44.7096331928049
 20
-0.4755439285701489
 30
0.0
 10
45.46960814817307
 20
-0.9137188446469351
 30
0.0
 10
45.84802675753597
 20
-1.132099136814984
 30
0.0
 10
46.98866474954825
 20
-1.785900470908365
 30
0.0
 10
47.75276156541558
 20
-2.219292036006569
 30
0.0
 10
48.51249999999998
 20
-2.645657212767433
 30
0.0
  0
SPLINE
  5
A3
330
1F
100
AcDbEntity
  8
0
  6
Continuous
 62
     1
370
    15
100
AcDbSpline
210
0.0
220
0.0
230
1.0
 70
     8
 71
     3
 72
    60
 73
    56
 74
     0
 42
0.000000001
 43
0.00000001
 40
0.0
 40
0.0
 40
0.0
 40
0.0
 40
0.0625000000000044
 40
0.0625000000000044
 40
0.093750000000006
 40
0.093750000000006
 40
0.1250000000000076
 40
0.1250000000000076
 40
0.1875000000000096
 40
0.1875000000000096
 40
0.2187500000000106
 40
0.2187500000000106
 40
0.2500000000000115
 40
0.2500000000000115
 40
0.3125000000000124
 40
0.3125000000000124
 40
0.3750000000000133
 40
0.3750000000000133
 40
0.4062500000000134
 40
0.4062500000000134
 40
0.4375000000000134
 40
0.4375000000000134
 40
0.4687500000000134
 40
0.4687500000000134
 40
0.5000000000000134
 40
0.5000000000000134
 40
0.5312500000000135
 40
0.5312500000000135
 40
0.5468750000000134
 40
0.5468750000000134
 40
0.5625000000000133
 40
0.5625000000000133
 40
0.5781250000000132
 40
0.5781250000000132
 40
0.5937500000000131
 40
0.5937500000000131
 40
0.6250000000000122
 40
0.6250000000000122
 40
0.6562500000000114
 40
0.6562500000000114
 40
0.6875000000000107
 40
0.6875000000000107
 40
0.7187500000000099
 40
0.7187500000000099
 40
0.7500000000000091
 40
0.7500000000000091
 40
0.7812500000000083
 40
0.7812500000000083
 40
0.8125000000000077
 40
0.8125000000000077
 40
0.8750000000000051
 40
0.8750000000000051
 40
0.9375000000000027
 40
0.9375000000000027
 40
1.0
 40
1.0
 40
1.0
 40
1.0
 10
48.51249999999997
 20
-2.645657212767431
 30
0.0
 10
49.07684791694791
 20
-2.962369239447744
 30
0.0
 10
49.63847380560438
 20
-3.251068571903026
 30
0.0
 10
50.48432388960006
 20
-3.630002485790467
 30
0.0
 10
50.76672836949852
 20
-3.747461262165168
 30
0.0
 10
51.33300926467039
 20
-3.96333695188305
 30
0.0
 10
51.618461524864
 20
-4.062209057307539
 30
0.0
 10
52.46385481091383
 20
-4.324300517312629
 30
0.0
 10
53.01250625936535
 20
-4.452829733503671
 30
0.0
 10
53.81316368151752
 20
-4.579606410438761
 30
0.0
 10
54.07621155767631
 20
-4.611027377867537
 30
0.0
 10
54.5936773854879
 20
-4.653603830208323
 30
0.0
 10
54.8480850682139
 20
-4.66463525482603
 30
0.0
 10
55.58176005975542
 20
-4.670661423934151
 30
0.0
 10
56.03715935661794
 20
-4.638925206250247
 30
0.0
 10
56.87215592728882
 20
-4.533457321900373
 30
0.0
 10
57.25289725657532
 20
-4.459272373193953
 30
0.0
 10
57.73522612495928
 20
-4.355800476469218
 30
0.0
 10
57.88203750558799
 20
-4.322610200630073
 30
0.0
 10
58.14500654059075
 20
-4.266704473278034
 30
0.0
 10
58.261650771166
 20
-4.243876007466024
 30
0.0
 10
58.45755273322606
 20
-4.219266809121204
 30
0.0
 10
58.53594948444498
 20
-4.217555230585218
 30
0.0
 10
58.64967258006588
 20
-4.246517749116993
 30
0.0
 10
58.68508129441718
 20
-4.277761366323563
 30
0.0
 10
58.70414501891994
 20
-4.384838276403888
 30
0.0
 10
58.68846329744927
 20
-4.460035609112754
 30
0.0
 10
58.62249679087281
 20
-4.61491151981454
 30
0.0
 10
58.59329760016443
 20
-4.673593429217227
 30
0.0
 10
58.52196604658781
 20
-4.802540981673501
 30
0.0
 10
58.47969349924659
 20
-4.873170862395709
 30
0.0
 10
58.38185604557298
 20
-5.027152642526265
 30
0.0
 10
58.32629414561351
 20
-5.110501713359636
 30
0.0
 10
58.20126665469297
 20
-5.29058230434717
 30
0.0
 10
58.13213978788084
 20
-5.386768330686144
 30
0.0
 10
57.91065973004032
 20
-5.685775843475102
 30
0.0
 10
57.74104774642206
 20
-5.903494137974514
 30
0.0
 10
57.36764264292031
 20
-6.359945353882707
 30
0.0
 10
57.16786742667146
 20
-6.593870250952168
 30
0.0
 10
56.74279805827424
 20
-7.068486080793168
 30
0.0
 10
56.52062043796453
 20
-7.305474286784916
 30
0.0
 10
56.06667746031003
 20
-7.765466126984335
 30
0.0
 10
55.83330825488523
 20
-7.990280045038904
 30
0.0
 10
55.35189751703854
 20
-8.427303980139467
 30
0.0
 10
55.10916668232347
 20
-8.634592430362206
 30
0.0
 10
54.61870979057799
 20
-9.026238320536056
 30
0.0
 10
54.37073790156945
 20
-9.21081117428596
 30
0.0
 10
53.86704992461285
 20
-9.557196129213517
 30
0.0
 10
53.60988303974168
 20
-9.71976511954749
 30
0.0
 10
52.8381080565788
 20
-10.16362642933293
 30
0.0
 10
52.32152638094262
 20
-10.40347222753746
 30
0.0
 10
51.26522509310739
 20
-10.77645172919085
 30
0.0
 10
50.72149023183751
 20
-10.90948520901597
 30
0.0
 10
49.62831513505695
 20
-11.06022171513819
 30
0.0
 10
49.07668263389557
 20
-11.07964193413484
 30
0.0
 10
48.51249999999995
 20
-11.04332433970011
 30
0.0
  0
SPLINE
  5
A4
330
1F
100
AcDbEntity
  8
0
  6
Continuous
 62
     1
370
    15
100
AcDbSpline
210
0.0
220
0.0
230
1.0
 70
     8
 71
     3
 72
    48
 73
    44
 74
     0
 42
0.000000001
 43
0.00000001
 40
0.0
 40
0.0
 40
0.0
 40
0.0
 40
0.0624999999999996
 40
0.0624999999999996
 40
0.1249999999999992
 40
0.1249999999999992
 40
0.1874999999999992
 40
0.1874999999999992
 40
0.2499999999999993
 40
0.2499999999999993
 40
0.3124999999999993
 40
0.3124999999999993
 40
0.3749999999999993
 40
0.3749999999999993
 40
0.4374999999999994
 40
0.4374999999999994
 40
0.4999999999999994
 40
0.4999999999999994
 40
0.5312499999999999
 40
0.5312499999999999
 40
0.5625000000000003
 40
0.5625000000000003
 40
0.6250000000000004
 40
0.6250000000000004
 40
0.6562500000000004
 40
0.6562500000000004
 40
0.6875000000000004
 40
0.6875000000000004
 40
0.7187500000000004
 40
0.7187500000000004
 40
0.7500000000000004
 40
0.7500000000000004
 40
0.8125000000000007
 40
0.8125000000000007
 40
0.8437500000000007
 40
0.8437500000000007
 40
0.8750000000000007
 40
0.8750000000000007
 40
0.9062500000000007
 40
0.9062500000000007
 40
0.9375000000000008
 40
0.9375000000000008
 40
1.0
 40
1.0
 40
1.0
 40
1.0
 10
12.0
 20
4.711245172911
 30
0.0
 10
12.757760146825
 20
4.314007007100272
 30
0.0
 10
13.52141980334892
 20
3.904693060621139
 30
0.0
 10
15.04450877024752
 20
3.070416530365499
 30
0.0
 10
15.80133884384538
 20
2.645975311509239
 30
0.0
 10
17.32485118892961
 20
1.784863410735825
 30
0.0
 10
18.08706931547923
 20
1.349017200259508
 30
0.0
 10
19.60385312599142
 20
0.474518317276616
 30
0.0
 10
20.36770112424289
 20
0.0340844628575787
 30
0.0
 10
21.8902668582315
 20
-0.8439023067706694
 30
0.0
 10
22.64726767221045
 20
-1.281125727088093
 30
0.0
 10
24.17110344814311
 20
-2.14940794438473
 30
0.0
 10
24.93204960895862
 20
-2.579332022618892
 30
0.0
 10
26.44999845712006
 20
-3.424384122105671
 30
0.0
 10
27.21398436706359
 20
-3.840789785711097
 30
0.0
 10
28.73592712782995
 20
-4.652564894872126
 30
0.0
 10
29.49326938525509
 20
-5.047869120574036
 30
0.0
 10
30.63631377675987
 20
-5.622921116003337
 30
0.0
 10
31.01752256025867
 20
-5.811449879835818
 30
0.0
 10
31.77831951687877
 20
-6.181214089801606
 30
0.0
 10
32.15692639887554
 20
-6.362298486735756
 30
0.0
 10
33.2961877635976
 20
-6.894623955252458
 30
0.0
 10
34.06026112473086
 20
-7.234856395753014
 30
0.0
 10
35.20117626227424
 20
-7.71782921081512
 30
0.0
 10
35.57966288187512
 20
-7.874144829727959
 30
0.0
 10
36.33941848542599
 20
-8.177767221912143
 30
0.0
 10
36.72038127104579
 20
-8.325021778372163
 30
0.0
 10
37.48247253825047
 20
-8.609612338149285
 30
0.0
 10
37.86359984267399
 20
-8.746947896845922
 30
0.0
 10
38.6240106384876
 20
-9.010998291138
 30
0.0
 10
39.00242578969836
 20
-9.137625900438078
 30
0.0
 10
40.14241265912342
 20
-9.501781387014496
 30
0.0
 10
40.90652299162122
 20
-9.72323313950747
 30
0.0
 10
42.04682161140128
 20
-10.01993272695809
 30
0.0
 10
42.42521409212103
 20
-10.11288628060669
 30
0.0
 10
43.18542858394972
 20
-10.28713234744691
 30
0.0
 10
43.56650951565171
 20
-10.36835281971133
 30
0.0
 10
44.32861240872273
 20
-10.51853070634586
 30
0.0
 10
44.70963319280493
 20
-10.58748789097993
 30
0.0
 10
45.4696081481731
 20
-10.7128099961429
 30
0.0
 10
45.84802675753593
 20
-10.76916143042961
 30
0.0
 10
46.98866474954824
 20
-10.91947776483215
 30
0.0
 10
47.75276156541556
 20
-10.99441841689069
 30
0.0
 10
48.51249999999997
 20
-11.04332433970011
 30
0.0
  0
SPLINE
  5
A5
330
1F
100
AcDbEntity
  8
0
  6
Continuous
 62
     1
370
    15
100
AcDbSpline
210
0.0
220
0.0
230
1.0
 70
     8
 71
     3
 72
    19
 73
    15
 74
     0
 42
0.000000001
 43
0.00000001
 40
0.0
 40
0.0
 40
0.0
 40
0.0
 40
0.0916373488006001
 40
0.183249461908947
 40
0.2748452209863799
 40
0.3664335478140025
 40
0.4580233824278339
 40
0.5496236611593898
 40
0.641243294695456
 40
0.7252699502669
 40
0.8092482424356986
 40
0.8931966389232455
 40
0.9771487445831529
 40
1.0
 40
1.0
 40
1.0
 40
1.0
 10
12.00000000000001
 20
0.952133993604606
 30
0.0
 10
12.97400775563345
 20
0.3899106059633433
 30
0.0
 10
14.92175503827635
 20
-0.7343813405667818
 30
0.0
 10
17.84284916644976
 20
-2.410000453183739
 30
0.0
 10
20.76333323140987
 20
-4.028508942944055
 30
0.0
 10
23.68352990022888
 20
-5.554794536662005
 30
0.0
 10
26.6037816607238
 20
-6.953339490915082
 30
0.0
 10
29.52444626287771
 20
-8.192035757584158
 30
0.0
 10
32.36479997411153
 20
-9.213816912052346
 30
0.0
 10
35.1244818355877
 20
-10.01242883416318
 30
0.0
 10
37.80211732515366
 20
-10.59892322247896
 30
0.0
 10
40.47881994432552
 20
-10.96394531467768
 30
0.0
 10
42.50587039096395
 20
-11.12683681255185
 30
0.0
 10
43.64099076881633
 20
-11.09749491991319
 30
0.0
 10
43.88385696161837
 20
-11.09121703618051
 30
0.0
  0
SPLINE
  5
A6
330
1F
100
AcDbEntity
  8
0
  6
Continuous
 62
     1
370
    15
100
AcDbSpline
210
0.0
220
0.0
230
1.0
 70
     8
 71
     3
 72
    15
 73
    11
 74
     0
 42
0.000000001
 43
0.00000001
 40
0.0
 40
0.0
 40
0.0
 40
0.0
 40
0.0569263671160179
 40
0.2019898674444568
 40
0.3350265242792337
 40
0.4680776813767306
 40
0.6010478966131951
 40
0.7339895508291949
 40
0.866955886235107
 40
1.0
 40
1.0
 40
1.0
 40
1.0
 10
32.13289580922232
 20
-9.095124652934244
 30
0.0
 10
31.75087220017708
 20
-9.227430912718457
 30
0.0
 10
30.39535098810966
 20
-9.69688865663912
 30
0.0
 10
28.14699199821311
 20
-10.25946758506265
 30
0.0
 10
25.38763727567382
 20
-10.78214301005002
 30
0.0
 10
22.70925458475033
 20
-11.06933953658722
 30
0.0
 10
20.03203179822225
 20
-11.14682347592626
 30
0.0
 10
17.35543241665909
 20
-11.00435655125869
 30
0.0
 10
14.67828870251044
 20
-10.66339724745036
 30
0.0
 10
12.89293690619808
 20
-10.26409399542745
 30
0.0
 10
12.0
 20
-10.06438399360449
 30
0.0
  0
SPLINE
  5
A7
330
1F
100
AcDbEntity
  8
0
  6
Continuous
 62
     1
370
    15
100
AcDbSpline
210
0.0
220
0.0
230
1.0
 70
     8
 71
     3
 72
    14
 73
    10
 74
     0
 42
0.000000001
 43
0.00000001
 40
0.0
 40
0.0
 40
0.0
 40
0.0
 40
0.0190879630032259
 40
0.1826509990447175
 40
0.3461198927582038
 40
0.5095305926954797
 40
0.6729485127641334
 40
0.8364390244329567
 40
1.0
 40
1.0
 40
1.0
 40
1.0
 10
32.13289580922219
 20
9.095124652934233
 30
0.0
 10
32.23711726703552
 20
9.132796704162
 30
0.0
 10
33.23440301137003
 20
9.493277169869764
 30
0.0
 10
35.12449612372049
 20
10.00137722199539
 30
0.0
 10
37.80211687557937
 20
10.59914143906679
 30
0.0
 10
40.4788074682582
 20
10.97411323018892
 30
0.0
 10
43.15561384920467
 20
11.13814468042018
 30
0.0
 10
45.8335296117834
 20
11.10056507505658
 30
0.0
 10
47.61938161546365
 20
10.89551495829656
 30
0.0
 10
48.51249999999997
 20
10.7929678106873
 30
0.0
  0
SPLINE
  5
A8
330
1F
100
AcDbEntity
  8
0
  6
Continuous
 62
     1
370
    15
100
AcDbSpline
210
0.0
220
0.0
230
1.0
 70
     8
 71
     3
 72
    60
 73
    56
 74
     0
 42
0.000000001
 43
0.00000001
 40
0.0
 40
0.0
 40
0.0
 40
0.0
 40
0.0625000000000032
 40
0.0625000000000032
 40
0.0937500000000042
 40
0.0937500000000042
 40
0.1250000000000052
 40
0.1250000000000052
 40
0.1875000000000061
 40
0.1875000000000061
 40
0.2187500000000066
 40
0.2187500000000066
 40
0.250000000000007
 40
0.250000000000007
 40
0.3125000000000069
 40
0.3125000000000069
 40
0.3750000000000068
 40
0.3750000000000068
 40
0.4062500000000064
 40
0.4062500000000064
 40
0.4375000000000061
 40
0.4375000000000061
 40
0.4687500000000057
 40
0.4687500000000057
 40
0.5000000000000053
 40
0.5000000000000053
 40
0.531250000000005
 40
0.531250000000005
 40
0.5468750000000047
 40
0.5468750000000047
 40
0.5625000000000044
 40
0.5625000000000044
 40
0.5781250000000041
 40
0.5781250000000041
 40
0.5937500000000038
 40
0.5937500000000038
 40
0.6250000000000038
 40
0.6250000000000038
 40
0.6562500000000039
 40
0.6562500000000039
 40
0.6875000000000039
 40
0.6875000000000039
 40
0.7187500000000038
 40
0.7187500000000038
 40
0.7500000000000037
 40
0.7500000000000037
 40
0.7812500000000037
 40
0.7812500000000037
 40
0.8125000000000036
 40
0.8125000000000036
 40
0.8750000000000024
 40
0.8750000000000024
 40
0.9375000000000012
 40
0.9375000000000012
 40
1.0
 40
1.0
 40
1.0
 40
1.0
 10
48.51249999999997
 20
10.7929678106873
 30
0.0
 10
49.07684791694796
 20
10.71533286611466
 30
0.0
 10
49.63847380560437
 20
10.58599887288887
 30
0.0
 10
50.48432388960005
 20
10.32113819744652
 30
0.0
 10
50.76672836949853
 20
10.22091293409672
 30
0.0
 10
51.33300926467036
 20
9.996437383058675
 30
0.0
 10
51.61846152486395
 20
9.87139616693243
 30
0.0
 10
52.46385481091382
 20
9.465530004134791
 30
0.0
 10
53.01250625936532
 20
9.15551789569723
 30
0.0
 10
53.81316368151746
 20
8.632567756785535
 30
0.0
 10
54.07621155767637
 20
8.448455898154593
 30
0.0
 10
54.59367738548796
 20
8.059535956693107
 30
0.0
 10
54.84808506821394
 20
7.85454394971847
 30
0.0
 10
55.58176005975543
 20
7.21919654956984
 30
0.0
 10
56.03715935661791
 20
6.764953175448348
 30
0.0
 10
56.87215592728882
 20
5.785208246570127
 30
0.0
 10
57.2528972565753
 20
5.255922954389279
 30
0.0
 10
57.73522612495932
 20
4.422687228549179
 30
0.0
 10
57.88203750558801
 20
4.137491723916498
 30
0.0
 10
58.14500654059075
 20
3.549940909913119
 30
0.0
 10
58.261650771166
 20
3.246168600849366
 30
0.0
 10
58.45755273322609
 20
2.624452064262764
 30
0.0
 10
58.53594948444493
 20
2.309830471700792
 30
0.0
 10
58.64967258006585
 20
1.672557199814102
 30
0.0
 10
58.68508129441715
 20
1.346406630381688
 30
0.0
 10
58.70414501891997
 20
0.7050024192724468
 30
0.0
 10
58.68846329744924
 20
0.39033715469969
 30
0.0
 10
58.62249679087279
 20
-0.0701867530728443
 30
0.0
 10
58.59329760016443
 20
-0.2212910349051203
 30
0.0
 10
58.52196604658781
 20
-0.5100148044762686
 30
0.0
 10
58.47969349924663
 20
-0.6488081422617122
 30
0.0
 10
58.381856045573
 20
-0.9150082324463662
 30
0.0
 10
58.32629414561357
 20
-1.042417533624566
 30
0.0
 10
58.20126665469301
 20
-1.285284871527155
 30
0.0
 10
58.13213978788084
 20
-1.399753859030961
 30
0.0
 10
57.91065973004032
 20
-1.714582237208047
 30
0.0
 10
57.74104774642208
 20
-1.891408300465454
 30
0.0
 10
57.36764264292031
 20
-2.175386350357288
 30
0.0
 10
57.16786742667141
 20
-2.280362281560774
 30
0.0
 10
56.74279805827424
 20
-2.427603902996253
 30
0.0
 10
56.5206204379645
 20
-2.468258386538528
 30
0.0
 10
56.06667746031003
 20
-2.494831797003737
 30
0.0
 10
55.83330825488522
 20
-2.481103509559254
 30
0.0
 10
55.35189751703857
 20
-2.407877189215022
 30
0.0
 10
55.10916668232345
 20
-2.349391413238257
 30
0.0
 10
54.61870979057795
 20
-2.198422512411651
 30
0.0
 10
54.37073790156942
 20
-2.105817646732838
 30
0.0
 10
53.86704992461285
 20
-1.892421468278594
 30
0.0
 10
53.6098830397417
 20
-1.770802022641932
 30
0.0
 10
52.83810805657875
 20
-1.37782239112525
 30
0.0
 10
52.32152638094257
 20
-1.078053824514003
 30
0.0
 10
51.26522509310743
 20
-0.4401239582273677
 30
0.0
 10
50.72149023183754
 20
-0.0990895375672155
 30
0.0
 10
49.62831513505702
 20
0.576867664989746
 30
0.0
 10
49.07668263389557
 20
0.9140362564548211
 30
0.0
 10
48.51249999999995
 20
1.237999910415007
 30
0.0
  0
SPLINE
  5
A9
330
1F
100
AcDbEntity
  8
0
  6
Continuous
 62
     1
370
    15
100
AcDbSpline
210
0.0
220
0.0
230
1.0
 70
     8
 71
     3
 72
    17
 73
    13
 74
     0
 42
0.000000001
 43
0.00000001
 40
0.0
 40
0.0
 40
0.0
 40
0.0
 40
0.1040282890910469
 40
0.2080569709280979
 40
0.3120569472209125
 40
0.4160382989392232
 40
0.5200111540665306
 40
0.6239856614553649
 40
0.7279719658987843
 40
0.8233370320142034
 40
0.9187124923964813
 40
1.0
 40
1.0
 40
1.0
 40
1.0
 10
48.51249999999997
 20
1.237999910415003
 30
0.0
 10
47.53851008212219
 20
1.793953182381816
 30
0.0
 10
45.59052656918761
 20
2.905861825248605
 30
0.0
 10
42.66875589094072
 20
4.499043860837723
 30
0.0
 10
39.7476607319467
 20
5.990999147568288
 30
0.0
 10
36.82717277019875
 20
7.344524819964697
 30
0.0
 10
33.90697672834738
 20
8.529487751068803
 30
0.0
 10
30.98672234371697
 20
9.517896538072932
 30
0.0
 10
28.14699258207681
 20
10.26802055115453
 30
0.0
 10
25.3876396141663
 20
10.77656171813371
 30
0.0
 10
22.84060852231683
 20
11.06846684964491
 30
0.0
 10
21.18682513579561
 20
11.08939086175804
 30
0.0
 10
20.42587375396879
 20
11.09901857725005
 30
0.0
  0
SPLINE
  5
AA
330
1F
100
AcDbEntity
  8
0
  6
Continuous
 62
     1
370
    15
100
AcDbSpline
210
0.0
220
0.0
230
1.0
 70
     8
 71
     3
 72
    22
 73
    18
 74
     0
 42
0.000000001
 43
0.00000001
 40
0.0
 40
0.0
 40
0.0
 40
0.0
 40
0.003868211941751
 40
0.0618036386888317
 40
0.1219908498296833
 40
0.1722544439105412
 40
0.2239503382826151
 40
0.2750807058392763
 40
0.327325205604602
 40
0.4016744796854789
 40
0.4781535633973286
 40
0.5807641720394485
 40
0.68625304207194
 40
0.7550422381706843
 40
0.8238422123154915
 40
0.9652103536113752
 40
1.0
 40
1.0
 40
1.0
 40
1.0
 10
58.62904500708222
 20
4.594756869820305
 30
0.0
 10
58.62759889408692
 20
4.599070716144959
 30
0.0
 10
58.60449389198022
 20
4.667994395514853
 30
0.0
 10
58.47642609767249
 20
4.882565629555016
 30
0.0
 10
58.25108177678238
 20
5.225570824961291
 30
0.0
 10
57.95822801353319
 20
5.62413243248284
 30
0.0
 10
57.63434691497508
 20
6.037510741858902
 30
0.0
 10
57.26529437654283
 20
6.481426589172625
 30
0.0
 10
56.80653961987209
 20
7.002370607738809
 30
0.0
 10
56.24365721854219
 20
7.596430969510665
 30
0.0
 10
55.50405350671935
 20
8.304626271743137
 30
0.0
 10
54.63816538935004
 20
9.030238587858683
 30
0.0
 10
53.76902296442496
 20
9.632390876912645
 30
0.0
 10
52.99118970891629
 20
10.07755453731558
 30
0.0
 10
52.08529027564616
 20
10.50191571274873
 30
0.0
 10
51.27631608766902
 20
10.80125112218472
 30
0.0
 10
50.67655983993103
 20
10.88684304135669
 30
0.0
 10
50.55811314476962
 20
10.90374670846592
 30
0.0
  0
LINE
  5
AB
330
1F
100
AcDbEntity
  8
외형선
  6
Continuous
370
    15
100
AcDbLine
 10
12.0
 20
0.9521339936046054
 30
0.0
 11
12.0
 21
4.711245172911
 31
0.0
  0
LINE
  5
AC
330
1F
100
AcDbEntity
  8
0
  6
Continuous
 62
     1
370
    15
100
AcDbLine
 10
12.00000000000001
 20
-11.07163479835851
 30
0.0
 11
13.65175317180675
 21
-11.08106351206725
 31
0.0
  0
LINE
  5
AD
330
1F
100
AcDbEntity
  8
외형선
  6
Continuous
370
    15
100
AcDbLine
 10
12.0
 20
-11.07163479835851
 30
0.0
 11
12.0
 21
-10.06438399360449
 31
0.0
  0
LINE
  5
AE
330
1F
100
AcDbEntity
  8
외형선
  6
Continuous
370
    15
100
AcDbLine
 10
12.0
 20
-0.0000000000000044
 30
0.0
 11
12.0
 21
11.1125
 31
0.0
  0
LINE
  5
AF
330
1F
100
AcDbEntity
  8
외형선
  6
Continuous
370
    15
100
AcDbLine
 10
12.0
 20
-11.11250000000001
 30
0.0
 11
12.0
 21
-0.0000000000000044
 31
0.0
  0
LINE
  5
B0
330
1F
100
AcDbEntity
  8
외형선
  6
Continuous
370
    15
100
AcDbLine
 10
-42.9275
 20
-0.0000000000000044
 30
0.0
 11
-42.9275
 21
9.46149999999999
 31
0.0
  0
LINE
  5
B1
330
1F
100
AcDbEntity
  8
외형선
  6
Continuous
370
    15
100
AcDbLine
 10
-42.9275
 20
-11.11250000000001
 30
0.0
 11
-42.9275
 21
-0.0000000000000044
 31
0.0
  0
LINE
  5
B2
330
1F
100
AcDbEntity
  8
외형선
  6
Continuous
370
    15
100
AcDbLine
 10
-45.15000000000001
 20
-0.0000000000000044
 30
0.0
 11
-45.15000000000001
 21
8.88999999999999
 31
0.0
  0
LINE
  5
B3
330
1F
100
AcDbEntity
  8
외형선
  6
Continuous
370
    15
100
AcDbLine
 10
-45.15000000000001
 20
-8.88999999999999
 30
0.0
 11
-45.15000000000001
 21
-0.0000000000000044
 31
0.0
  0
LINE
  5
B4
330
1F
100
AcDbEntity
  8
중심선
100
AcDbLine
 10
-48.15000000000002
 20
-0.0000000000000044
 30
0.0
 11
62.62499999999996
 21
0.0000000000000057
 31
0.0
  0
LINE
  5
B5
330
1F
100
AcDbEntity
  8
참조1
100
AcDbLine
 10
70.41176131403115
 20
0.0010749287238892
 30
0.0
 11
70.41176131403115
 21
1.655200094750598
 31
0.0
  0
LINE
  5
B6
330
1F
100
AcDbEntity
  8
참조1
100
AcDbLine
 10
18.02426131403116
 20
0.0010749287238892
 30
0.0
 11
18.02426131403116
 21
-39.99892507127611
 31
0.0
  0
LINE
  5
B7
330
1F
100
AcDbEntity
  8
참조1
100
AcDbLine
 10
18.02426131403116
 20
-39.99892507127611
 30
0.0
 11
-20.1533455002775
 21
-39.9989250712761
 31
0.0
  0
CIRCLE
  5
B8
330
1F
100
AcDbEntity
  8
해칭선
100
AcDbCircle
 10
0.0
 20
0.0
 30
0.0
 40
3.000000000000001
  0
INSERT
  5
B9
330
1F
100
AcDbEntity
  8
0
  6
Continuous
 62
     7
100
AcDbBlockReference
 66
     1
  2
블럭10
 10
-6.702772932125234
 20
-52.04717430164393
 30
0.0
  0
ATTRIB
  5
BA
330
B9
100
AcDbEntity
  8
FORMAT
 62
     2
100
AcDbText
 10
-15.88406822086651
 20
-49.97180738881175
 30
0.0
 40
4.233333333333333
  1
E2020056 [ 4 FLUTE ]
 41
0.75
  7
SLDTEXTSTYLE0
 11
-15.88406822086651
 21
-52.08847405547841
 31
0.0
100
AcDbAttribute
  2
AUTOATTR0
 70
     0
 74
     1
  0
SEQEND
  5
BB
330
B9
100
AcDbEntity
  8
0
  6
Continuous
 62
     7
  0
HATCH
  5
BC
330
1F
100
AcDbEntity
  8
중심선
100
AcDbHatch
 10
0.0
 20
0.0
 30
0.0
210
0.0
220
0.0
230
1.0
  2
SOLID
 70
     1
 71
     0
 91
        1
 92
        0
 93
        4
 72
     1
 10
-0.9878636277443835
 20
-35.8
 11
-4.434138871581665
 21
-35.8
 72
     1
 10
-4.434138871581665
 20
-35.8
 11
-6.562368730785716
 21
-38.33632558057257
 72
     1
 10
-6.562368730785716
 20
-38.33632558057257
 11
-3.116060401835257
 21
-38.33628615127008
 72
     1
 10
-3.116060401835257
 20
-38.33628615127008
 11
-0.9878636277443835
 21
-35.8
 97
        0
 75
     0
 76
     1
 98
        1
 10
-10.78676131403119
 20
-0.0010749287238975
  0
HATCH
  5
BD
330
1F
100
AcDbEntity
  8
중심선
100
AcDbHatch
 10
0.0
 20
0.0
 30
0.0
210
0.0
220
0.0
230
1.0
  2
SOLID
 70
     1
 71
     0
 91
        1
 92
        0
 93
        4
 72
     1
 10
4.024900363291623
 20
-35.79999999999998
 11
0.5786251194543688
 21
-35.79999999999998
 72
     1
 10
0.5786251194543688
 20
-35.79999999999998
 11
-3.952512888903103
 21
-41.20000000000002
 72
     1
 10
-3.952512888903103
 20
-41.20000000000002
 11
-0.5062376450658199
 21
-41.20000000000002
 72
     1
 10
-0.5062376450658199
 20
-41.20000000000002
 11
4.024900363291623
 21
-35.79999999999998
 97
        0
 75
     0
 76
     1
 98
        1
 10
-10.78676131403119
 20
-0.0010749287238975
  0
HATCH
  5
BE
330
1F
100
AcDbEntity
  8
중심선
100
AcDbHatch
 10
0.0
 20
0.0
 30
0.0
210
0.0
220
0.0
230
1.0
  2
SOLID
 70
     1
 71
     0
 91
        1
 92
        0
 93
        4
 72
     1
 10
9.037664354327465
 20
-35.79999999999998
 11
5.591389110490375
 21
-35.79999999999998
 72
     1
 10
5.591389110490375
 20
-35.79999999999998
 11
-1.457047791398901
 21
-44.20000000000002
 72
     1
 10
-1.457047791398901
 20
-44.20000000000002
 11
1.989227452438382
 21
-44.20000000000002
 72
     1
 10
1.989227452438382
 20
-44.20000000000002
 11
9.037664354327465
 21
-35.79999999999998
 97
        0
 75
     0
 76
     1
 98
        1
 10
-10.78676131403119
 20
-0.0010749287238975
  0
HATCH
  5
BF
330
1F
100
AcDbEntity
  8
중심선
100
AcDbHatch
 10
0.0
 20
0.0
 30
0.0
210
0.0
220
0.0
230
1.0
  2
SOLID
 70
     1
 71
     0
 91
        1
 92
        0
 93
        6
 72
     3
 10
13.83755478533966
 20
-40.00000000005127
 11
3.960054785062283
 21
1.540882976769353E-10
 40
0.3939339440162628
 50
17.09539180608437
 51
320.0019657685079
 73
     0
 72
     1
 10
15.52055444104026
 20
-38.5878940046383
 11
17.82585631474132
 21
-36.65356729459035
 72
     3
 10
13.83755478528682
 20
-40.00000000000015
 11
6.600054785286829
 21
-1.278976924368180E-13
 40
0.636358354079598
 50
39.99873849337413
 51
368.4976242363725
 73
     1
 72
     1
 10
20.26288727718742
 20
-39.03999999993002
 11
12.51762209212274
 21
-39.03999999993
 72
     1
 10
12.51762209212274
 20
-39.03999999993
 11
12.51759704767681
 21
-40.95999999992991
 72
     1
 10
12.51759704767681
 20
-40.95999999992991
 11
16.95897681714884
 21
-40.95999999992988
 97
        0
 75
     0
 76
     1
 98
        1
 10
-10.78676131403119
 20
-0.0010749287238975
  0
DIMENSION
  5
C0
330
1F
100
AcDbEntity
  8
치수문자_일반주서
100
AcDbDimension
  2
_D
 10
11.99999999999998
 20
20.24147519829781
 30
0.0
 11
36.68584570637861
 21
20.24147519829781
 31
0.0
 70
   160
  1
<>
 71
     2
 42
47.62499999999993
  3
SLDDIMSTYLE1
100
AcDbAlignedDimension
 13
59.62499999999992
 23
11.11250000000001
 33
0.0
 14
11.99999999999999
 24
11.07163479835851
 34
0.0
 50
0.0000000000000043
100
AcDbRotatedDimension
1001
ACAD
1000
DSTYLE
1002
{
1070
   171
1070
     6
1070
   273
1070
     7
1002
}
  0
DIMENSION
  5
D5
330
1F
100
AcDbEntity
  8
치수문자_일반주서
100
AcDbDimension
  2
_D_1
 10
-45.15000000000001
 20
31.6091467932808
 30
0.0
 11
7.237499999999955
 21
31.6091467932808
 31
0.0
 70
   160
  1
<>
 71
     2
 42
104.7749999999999
  3
SLDDIMSTYLE1
100
AcDbAlignedDimension
 13
59.62499999999992
 23
11.11250000000001
 33
0.0
 14
-45.15000000000002
 24
8.890000000000006
 34
0.0
 50
0.0000000000000039
100
AcDbRotatedDimension
1001
ACAD
1000
DSTYLE
1002
{
1070
   171
1070
     6
1070
   273
1070
     7
1002
}
  0
DIMENSION
  5
E8
330
1F
100
AcDbEntity
  8
치수문자_일반주서
100
AcDbDimension
  2
_D_2
 10
-56.87999999999998
 20
-11.11250000000005
 30
0.0
 11
-56.88000000000002
 21
-0.0000000000000052
 31
0.0
 70
   160
  1
%%c<>
 71
     2
 42
22.22499999999999
 52
-270.0
  3
SLDDIMSTYLE1
100
AcDbAlignedDimension
 13
-45.15000000000002
 23
11.11249999999999
 33
0.0
 14
-42.92750000000002
 24
-11.1125
 34
0.0
 50
90.0000000000002
100
AcDbRotatedDimension
1001
ACAD
1000
DSTYLE
1002
{
1070
   171
1070
     6
1070
   273
1070
     7
1002
}
  0
DIMENSION
  5
FD
330
1F
100
AcDbEntity
  8
치수문자_일반주서
100
AcDbDimension
  2
_D_3
 10
77.83285916901693
 20
-11.11249999999993
 30
0.0
 11
77.83285916901679
 21
32.15400000000012
 31
0.0
 70
   160
  1
%%c<>
 71
     2
 42
22.225
 52
-270.0
  3
SLDDIMSTYLE1
100
AcDbAlignedDimension
 13
59.62499999999992
 23
11.11250000000001
 33
0.0
 14
59.62499999999999
 24
-11.11249999999999
 34
0.0
 50
90.0000000000002
100
AcDbRotatedDimension
1001
ACAD
1000
DSTYLE
1002
{
1070
   171
1070
     6
1070
   273
1070
     7
1002
}
  0
LINE
  5
110
330
1F
100
AcDbEntity
  8
참조1
100
AcDbLine
 10
77.81899512937676
 20
7.441074928723896
 30
0.0
 11
77.81899512937676
 21
-7.438925071276109
 31
0.0
  0
LINE
  5
111
330
1F
100
AcDbEntity
  8
참조1
100
AcDbLine
 10
90.51899512937676
 20
5.441074928723896
 30
0.0
 11
77.81899512937676
 21
5.441074928723896
 31
0.0
  0
SOLID
  5
112
330
1F
100
AcDbEntity
  8
참조1
100
AcDbTrace
 10
77.81899512937676
 20
5.441074928723896
 30
0.0
 11
84.16899512937675
 21
4.425074928723896
 31
0.0
 12
84.16899512937675
 22
6.457074928723896
 32
0.0
 13
84.16899512937675
 23
6.457074928723896
 33
0.0
  0
LINE
  5
113
330
1F
100
AcDbEntity
  8
참조1
100
AcDbLine
 10
90.51899512937676
 20
-5.438925071276109
 30
0.0
 11
77.81899512937676
 21
-5.438925071276109
 31
0.0
  0
SOLID
  5
114
330
1F
100
AcDbEntity
  8
참조1
100
AcDbTrace
 10
77.81899512937676
 20
-5.438925071276109
 30
0.0
 11
84.16899512937675
 21
-6.454925071276109
 31
0.0
 12
84.16899512937675
 22
-4.422925071276109
 32
0.0
 13
84.16899512937675
 23
-4.422925071276109
 33
0.0
  0
MTEXT
  5
115
330
1F
100
AcDbEntity
  8
참조1
100
AcDbMText
 10
87.21648522184704
 20
10.98929157337383
 30
0.0
 40
3.5
 41
0.0
 71
     1
 72
     1
  1
A
  7
SLDTEXTSTYLE0
 73
     1
 44
1.0
  0
MTEXT
  5
116
330
1F
100
AcDbEntity
  8
참조1
100
AcDbMText
 10
87.21648522184704
 20
0.1092915733738259
 30
0.0
 40
3.5
 41
0.0
 71
     1
 72
     1
  1
A
  7
SLDTEXTSTYLE0
 73
     1
 44
1.0
  0
INSERT
  5
11D
330
1F
100
AcDbEntity
  8
해칭선
100
AcDbBlockReference
  2
SW_DOWELSYMBOL_0
 10
0.0
 20
0.0
 30
0.0
  0
LINE
  5
29E
330
1F
100
AcDbEntity
  8
외형선
  6
Continuous
370
    15
100
AcDbLine
 10
-25.14432500000002
 20
9.461499999999992
 30
0.0
 11
-13.56192500000001
 21
9.461499999999992
 31
0.0
  0
LINE
  5
29F
330
1F
100
AcDbEntity
  8
외형선
  6
Continuous
370
    15
100
AcDbLine
 10
-25.14432500000002
 20
9.461499999999992
 30
0.0
 11
-26.79532500000003
 21
11.11249999999997
 31
0.0
  0
LINE
  5
2A0
330
1F
100
AcDbEntity
  8
외형선
  6
Continuous
370
    15
100
AcDbLine
 10
-13.56192500000001
 20
9.461499999999992
 30
0.0
 11
-11.91092499999989
 21
11.11249999999997
 31
0.0
  0
LINE
  5
2A2
330
1F
100
AcDbEntity
  8
외형선
  6
Continuous
370
    15
100
AcDbLine
 10
-44.57850000000001
 20
9.461499999999992
 30
0.0
 11
-32.45000000000002
 21
9.461499999999992
 31
0.0
  0
LINE
  5
2A3
330
1F
100
AcDbEntity
  8
외형선
  6
Continuous
370
    15
100
AcDbLine
 10
-32.45000000000002
 20
9.461499999999992
 30
0.0
 11
-30.79900000000001
 21
11.11249999999997
 31
0.0
  0
LINE
  5
2A5
330
1F
100
AcDbEntity
  8
외형선
  6
Continuous
370
    15
100
AcDbLine
 10
-26.79532500000005
 20
11.1125
 30
0.0
 11
-30.79899999999999
 21
11.1125
 31
0.0
  0
ENDSEC
  0
SECTION
  2
OBJECTS
  0
DICTIONARY
  5
C
330
0
100
AcDbDictionary
281
     1
  3
ACAD_GROUP
350
D
  3
ACAD_IMAGE_VARS
350
141
  3
ACAD_LAYOUT
350
1A
  3
ACAD_MLINESTYLE
350
17
  3
ACAD_PLOTSETTINGS
350
19
  3
ACAD_PLOTSTYLENAME
350
E
  3
ACAD_SCALELIST
350
47
  3
APPDATA
350
13F
  3
DWGPROPS
350
2A8
  0
DICTIONARY
  5
1CE
330
2
100
AcDbDictionary
280
     1
281
     1
  3
ACAD_LAYERSTATES
360
1CF
  0
DICTIONARY
  5
D
102
{ACAD_REACTORS
330
C
102
}
330
C
100
AcDbDictionary
281
     1
  0
RASTERVARIABLES
  5
141
102
{ACAD_REACTORS
330
C
102
}
330
C
100
AcDbRasterVariables
 90
        0
 70
     1
 71
     1
 72
     1
  0
DICTIONARY
  5
1A
102
{ACAD_REACTORS
330
C
102
}
330
C
100
AcDbDictionary
281
     1
  3
Layout1
350
1E
  3
Layout2
350
26
  3
Model
350
22
  0
DICTIONARY
  5
17
102
{ACAD_REACTORS
330
C
102
}
330
C
100
AcDbDictionary
281
     1
  3
Standard
350
18
  0
DICTIONARY
  5
19
102
{ACAD_REACTORS
330
C
102
}
330
C
100
AcDbDictionary
281
     1
  0
ACDBDICTIONARYWDFLT
  5
E
102
{ACAD_REACTORS
330
C
102
}
330
C
100
AcDbDictionary
281
     1
  3
Normal
350
F
100
AcDbDictionaryWithDefault
340
F
  0
DICTIONARY
  5
47
102
{ACAD_REACTORS
330
C
102
}
330
C
100
AcDbDictionary
281
     1
  3
A0
350
48
  3
A1
350
49
  3
A2
350
4A
  3
A3
350
4B
  3
A4
350
4C
  3
A5
350
4D
  3
A6
350
4E
  3
A7
350
4F
  3
A8
350
50
  3
A9
350
51
  3
B0
350
52
  3
B1
350
53
  3
B2
350
54
  3
B3
350
55
  3
B4
350
56
  3
B5
350
57
  3
B6
350
58
  3
B7
350
59
  3
B8
350
5A
  3
B9
350
5B
  3
C0
350
5C
  3
C1
350
5D
  3
C2
350
5E
  3
C3
350
5F
  3
C4
350
60
  3
C5
350
61
  3
C6
350
62
  3
C7
350
63
  3
C8
350
64
  3
C9
350
65
  3
D0
350
66
  3
D1
350
67
  3
D2
350
68
  0
DICTIONARY
  5
13F
102
{ACAD_REACTORS
330
C
102
}
330
C
100
AcDbDictionary
281
     1
  0
XRECORD
  5
2A8
102
{ACAD_REACTORS
330
C
102
}
330
C
100
AcDbXrecord
280
     1
  1
DWGPROPS COOKIE
  2

  3

  4

  6

  7

  8
12017012
  9

300
=
301
=
302
=
303
=
304
=
305
=
306
=
307
=
308
=
309
=
 40
0.0
 41
2458323.302435903
 42
2458324.101510116
  1

 90
        0
  0
DICTIONARY
  5
1CF
102
{ACAD_REACTORS
330
1CE
102
}
330
1CE
100
AcDbDictionary
281
     1
  0
LAYOUT
  5
1E
102
{ACAD_REACTORS
330
1A
102
}
330
1A
100
AcDbPlotSettings
  1

  2
none_device
  4

  6

 40
0.0
 41
0.0
 42
0.0
 43
0.0
 44
0.0
 45
0.0
 46
0.0
 47
0.0
 48
0.0
 49
0.0
140
0.0
141
0.0
142
1.0
143
1.0
 70
   688
 72
     1
 73
     0
 74
     5
  7

 75
    16
147
1.0
148
0.0
149
0.0
100
AcDbLayout
  1
Layout1
 70
     1
 71
     1
 10
0.0
 20
0.0
 11
420.0
 21
297.0
 12
0.0
 22
0.0
 32
0.0
 14
1.000000000000000E+20
 24
1.000000000000000E+20
 34
1.000000000000000E+20
 15
-1.000000000000000E+20
 25
-1.000000000000000E+20
 35
-1.000000000000000E+20
146
0.0
 13
0.0
 23
0.0
 33
0.0
 16
1.0
 26
0.0
 36
0.0
 17
0.0
 27
1.0
 37
0.0
 76
     0
330
1B
  0
LAYOUT
  5
26
102
{ACAD_REACTORS
330
1A
102
}
330
1A
100
AcDbPlotSettings
  1

  2
none_device
  4

  6

 40
0.0
 41
0.0
 42
0.0
 43
0.0
 44
0.0
 45
0.0
 46
0.0
 47
0.0
 48
0.0
 49
0.0
140
0.0
141
0.0
142
1.0
143
1.0
 70
   688
 72
     1
 73
     0
 74
     5
  7

 75
    16
147
1.0
148
0.0
149
0.0
100
AcDbLayout
  1
Layout2
 70
     1
 71
     2
 10
0.0
 20
0.0
 11
0.0
 21
0.0
 12
0.0
 22
0.0
 32
0.0
 14
0.0
 24
0.0
 34
0.0
 15
0.0
 25
0.0
 35
0.0
146
0.0
 13
0.0
 23
0.0
 33
0.0
 16
1.0
 26
0.0
 36
0.0
 17
0.0
 27
1.0
 37
0.0
 76
     0
330
23
  0
LAYOUT
  5
22
102
{ACAD_REACTORS
330
1A
102
}
330
1A
100
AcDbPlotSettings
  1

  2
none_device
  4
ANSI_A_(11.00_x_8.50_Inches)
  6

 40
6.35
 41
19.05
 42
6.35000508
 43
19.05000254
 44
279.4
 45
215.9
 46
102.1686113293859
 47
48.73140913010863
 48
0.0
 49
0.0
140
0.0
141
0.0
142
0.051781033070936
143
1.0
 70
  1696
 72
     0
 73
     0
 74
     0
  7

 75
     0
147
0.0235690232323232
148
0.0
149
0.0
100
AcDbLayout
  1
Model
 70
     1
 71
     0
 10
0.0
 20
0.0
 11
420.0
 21
297.0
 12
0.0
 22
0.0
 32
0.0
 14
1.000000000000000E+20
 24
1.000000000000000E+20
 34
1.000000000000000E+20
 15
-1.000000000000000E+20
 25
-1.000000000000000E+20
 35
-1.000000000000000E+20
146
0.0
 13
0.0
 23
0.0
 33
0.0
 16
1.0
 26
0.0
 36
0.0
 17
0.0
 27
1.0
 37
0.0
 76
     0
330
1F
331
29
  0
MLINESTYLE
  5
18
102
{ACAD_REACTORS
330
17
102
}
330
17
100
AcDbMlineStyle
  2
Standard
 70
     0
  3

 62
   256
 51
90.0
 52
90.0
 71
     2
 49
0.5
 62
   256
  6
BYLAYER
 49
-0.5
 62
   256
  6
BYLAYER
  0
ACDBPLACEHOLDER
  5
F
102
{ACAD_REACTORS
330
E
102
}
330
E
  0
SCALE
  5
48
102
{ACAD_REACTORS
330
47
102
}
330
47
100
AcDbScale
 70
     0
300
1:1
140
1.0
141
1.0
290
     1
  0
SCALE
  5
49
102
{ACAD_REACTORS
330
47
102
}
330
47
100
AcDbScale
 70
     0
300
1:2
140
1.0
141
2.0
290
     0
  0
SCALE
  5
4A
102
{ACAD_REACTORS
330
47
102
}
330
47
100
AcDbScale
 70
     0
300
1:4
140
1.0
141
4.0
290
     0
  0
SCALE
  5
4B
102
{ACAD_REACTORS
330
47
102
}
330
47
100
AcDbScale
 70
     0
300
1:5
140
1.0
141
5.0
290
     0
  0
SCALE
  5
4C
102
{ACAD_REACTORS
330
47
102
}
330
47
100
AcDbScale
 70
     0
300
1:8
140
1.0
141
8.0
290
     0
  0
SCALE
  5
4D
102
{ACAD_REACTORS
330
47
102
}
330
47
100
AcDbScale
 70
     0
300
1:10
140
1.0
141
10.0
290
     0
  0
SCALE
  5
4E
102
{ACAD_REACTORS
330
47
102
}
330
47
100
AcDbScale
 70
     0
300
1:16
140
1.0
141
16.0
290
     0
  0
SCALE
  5
4F
102
{ACAD_REACTORS
330
47
102
}
330
47
100
AcDbScale
 70
     0
300
1:20
140
1.0
141
20.0
290
     0
  0
SCALE
  5
50
102
{ACAD_REACTORS
330
47
102
}
330
47
100
AcDbScale
 70
     0
300
1:30
140
1.0
141
30.0
290
     0
  0
SCALE
  5
51
102
{ACAD_REACTORS
330
47
102
}
330
47
100
AcDbScale
 70
     0
300
1:40
140
1.0
141
40.0
290
     0
  0
SCALE
  5
52
102
{ACAD_REACTORS
330
47
102
}
330
47
100
AcDbScale
 70
     0
300
1:50
140
1.0
141
50.0
290
     0
  0
SCALE
  5
53
102
{ACAD_REACTORS
330
47
102
}
330
47
100
AcDbScale
 70
     0
300
1:100
140
1.0
141
100.0
290
     0
  0
SCALE
  5
54
102
{ACAD_REACTORS
330
47
102
}
330
47
100
AcDbScale
 70
     0
300
2:1
140
2.0
141
1.0
290
     0
  0
SCALE
  5
55
102
{ACAD_REACTORS
330
47
102
}
330
47
100
AcDbScale
 70
     0
300
4:1
140
4.0
141
1.0
290
     0
  0
SCALE
  5
56
102
{ACAD_REACTORS
330
47
102
}
330
47
100
AcDbScale
 70
     0
300
8:1
140
8.0
141
1.0
290
     0
  0
SCALE
  5
57
102
{ACAD_REACTORS
330
47
102
}
330
47
100
AcDbScale
 70
     0
300
10:1
140
10.0
141
1.0
290
     0
  0
SCALE
  5
58
102
{ACAD_REACTORS
330
47
102
}
330
47
100
AcDbScale
 70
     0
300
100:1
140
100.0
141
1.0
290
     0
  0
SCALE
  5
59
102
{ACAD_REACTORS
330
47
102
}
330
47
100
AcDbScale
 70
     0
300
1/128" = 1'-0"
140
0.0078125
141
12.0
290
     0
  0
SCALE
  5
5A
102
{ACAD_REACTORS
330
47
102
}
330
47
100
AcDbScale
 70
     0
300
1/64" = 1'-0"
140
0.015625
141
12.0
290
     0
  0
SCALE
  5
5B
102
{ACAD_REACTORS
330
47
102
}
330
47
100
AcDbScale
 70
     0
300
1/32" = 1'-0"
140
0.03125
141
12.0
290
     0
  0
SCALE
  5
5C
102
{ACAD_REACTORS
330
47
102
}
330
47
100
AcDbScale
 70
     0
300
1/16" = 1'-0"
140
0.0625
141
12.0
290
     0
  0
SCALE
  5
5D
102
{ACAD_REACTORS
330
47
102
}
330
47
100
AcDbScale
 70
     0
300
3/32" = 1'-0"
140
0.09375
141
12.0
290
     0
  0
SCALE
  5
5E
102
{ACAD_REACTORS
330
47
102
}
330
47
100
AcDbScale
 70
     0
300
1/8" = 1'-0"
140
0.125
141
12.0
290
     0
  0
SCALE
  5
5F
102
{ACAD_REACTORS
330
47
102
}
330
47
100
AcDbScale
 70
     0
300
3/16" = 1'-0"
140
0.1875
141
12.0
290
     0
  0
SCALE
  5
60
102
{ACAD_REACTORS
330
47
102
}
330
47
100
AcDbScale
 70
     0
300
1/4" = 1'-0"
140
0.25
141
12.0
290
     0
  0
SCALE
  5
61
102
{ACAD_REACTORS
330
47
102
}
330
47
100
AcDbScale
 70
     0
300
3/8" = 1'-0"
140
0.375
141
12.0
290
     0
  0
SCALE
  5
62
102
{ACAD_REACTORS
330
47
102
}
330
47
100
AcDbScale
 70
     0
300
1/2" = 1'-0"
140
0.5
141
12.0
290
     0
  0
SCALE
  5
63
102
{ACAD_REACTORS
330
47
102
}
330
47
100
AcDbScale
 70
     0
300
3/4" = 1'-0"
140
0.75
141
12.0
290
     0
  0
SCALE
  5
64
102
{ACAD_REACTORS
330
47
102
}
330
47
100
AcDbScale
 70
     0
300
1" = 1'-0"
140
1.0
141
12.0
290
     0
  0
SCALE
  5
65
102
{ACAD_REACTORS
330
47
102
}
330
47
100
AcDbScale
 70
     0
300
1-1/2" = 1'-0"
140
1.5
141
12.0
290
     0
  0
SCALE
  5
66
102
{ACAD_REACTORS
330
47
102
}
330
47
100
AcDbScale
 70
     0
300
3" = 1'-0"
140
3.0
141
12.0
290
     0
  0
SCALE
  5
67
102
{ACAD_REACTORS
330
47
102
}
330
47
100
AcDbScale
 70
     0
300
6" = 1'-0"
140
6.0
141
12.0
290
     0
  0
SCALE
  5
68
102
{ACAD_REACTORS
330
47
102
}
330
47
100
AcDbScale
 70
     0
300
1'-0" = 1'-0"
140
12.0
141
12.0
290
     0
  0
ENDSEC
  0
EOF
