  0
SECTION
  2
HEADER
  9
$ACADVER
  1
AC1015
  9
$ACADMAINTVER
 70
     6
  9
$DWGCODEPAGE
  3
ANSI_949
  9
$INSBASE
 10
0.0
 20
0.0
 30
0.0
  9
$EXTMIN
 10
1.000000000000000E+20
 20
1.000000000000000E+20
 30
1.000000000000000E+20
  9
$EXTMAX
 10
-1.000000000000000E+20
 20
-1.000000000000000E+20
 30
-1.000000000000000E+20
  9
$LIMMIN
 10
0.0
 20
0.0
  9
$LIMMAX
 10
420.0
 20
297.0
  9
$ORTHOMODE
 70
     1
  9
$REGENMODE
 70
     1
  9
$FILLMODE
 70
     1
  9
$QTEXTMODE
 70
     0
  9
$MIRRTEXT
 70
     1
  9
$LTSCALE
 40
1.0
  9
$ATTMODE
 70
     1
  9
$TEXTSIZE
 40
3.5
  9
$TRACEWID
 40
1.0
  9
$TEXTSTYLE
  7
Standard
  9
$CLAYER
  8
0
  9
$CELTYPE
  6
ByLayer
  9
$CECOLOR
 62
   256
  9
$CELTSCALE
 40
1.0
  9
$DISPSILH
 70
     0
  9
$DIMSCALE
 40
1.0
  9
$DIMASZ
 40
3.302
  9
$DIMEXO
 40
1.0
  9
$DIMDLI
 40
3.75
  9
$DIMRND
 40
0.0
  9
$DIMDLE
 40
0.0
  9
$DIMEXE
 40
1.0
  9
$DIMTP
 40
0.0
  9
$DIMTM
 40
0.0
  9
$DIMTXT
 40
3.5
  9
$DIMCEN
 40
2.5
  9
$DIMTSZ
 40
0.0
  9
$DIMTOL
 70
     0
  9
$DIMLIM
 70
     0
  9
$DIMTIH
 70
     1
  9
$DIMTOH
 70
     1
  9
$DIMSE1
 70
     0
  9
$DIMSE2
 70
     0
  9
$DIMTAD
 70
     1
  9
$DIMZIN
 70
     0
  9
$DIMBLK
  1

  9
$DIMASO
 70
     1
  9
$DIMSHO
 70
     1
  9
$DIMPOST
  1

  9
$DIMAPOST
  1

  9
$DIMALT
 70
     0
  9
$DIMALTD
 70
     3
  9
$DIMALTF
 40
0.0393700787401575
  9
$DIMLFAC
 40
1.0
  9
$DIMTOFL
 70
     1
  9
$DIMTVP
 40
0.0
  9
$DIMTIX
 70
     0
  9
$DIMSOXD
 70
     0
  9
$DIMSAH
 70
     0
  9
$DIMBLK1
  1

  9
$DIMBLK2
  1

  9
$DIMSTYLE
  2
ISO-25
  9
$DIMCLRD
 70
     0
  9
$DIMCLRE
 70
     0
  9
$DIMCLRT
 70
     0
  9
$DIMTFAC
 40
1.0
  9
$DIMGAP
 40
1.524
  9
$DIMJUST
 70
     0
  9
$DIMSD1
 70
     0
  9
$DIMSD2
 70
     0
  9
$DIMTOLJ
 70
     0
  9
$DIMTZIN
 70
     0
  9
$DIMALTZ
 70
     0
  9
$DIMALTTZ
 70
     0
  9
$DIMUPT
 70
     0
  9
$DIMDEC
 70
     2
  9
$DIMTDEC
 70
     2
  9
$DIMALTU
 70
     2
  9
$DIMALTTD
 70
     3
  9
$DIMTXSTY
  7
Standard
  9
$DIMAUNIT
 70
     0
  9
$DIMADEC
 70
     2
  9
$DIMALTRND
 40
0.0
  9
$DIMAZIN
 70
     0
  9
$DIMDSEP
 70
    44
  9
$DIMATFIT
 70
     3
  9
$DIMFRAC
 70
     0
  9
$DIMLDRBLK
  1

  9
$DIMLUNIT
 70
     2
  9
$DIMLWD
 70
    -2
  9
$DIMLWE
 70
    -2
  9
$DIMTMOVE
 70
     0
  9
$LUNITS
 70
     2
  9
$LUPREC
 70
     2
  9
$SKETCHINC
 40
1.0
  9
$FILLETRAD
 40
10.0
  9
$AUNITS
 70
     0
  9
$AUPREC
 70
     2
  9
$MENU
  1
.
  9
$ELEVATION
 40
0.0
  9
$PELEVATION
 40
0.0
  9
$THICKNESS
 40
0.0
  9
$LIMCHECK
 70
     0
  9
$CHAMFERA
 40
0.0
  9
$CHAMFERB
 40
0.0
  9
$CHAMFERC
 40
0.0
  9
$CHAMFERD
 40
0.0
  9
$SKPOLY
 70
     0
  9
$TDCREATE
 40
2458323.690091979
  9
$TDUCREATE
 40
2458323.315091979
  9
$TDUPDATE
 40
2458324.482962106
  9
$TDUUPDATE
 40
2458324.107962106
  9
$TDINDWG
 40
0.0014496644
  9
$TDUSRTIMER
 40
2458324.106329167
  9
$USRTIMER
 70
     1
  9
$ANGBASE
 50
0.0
  9
$ANGDIR
 70
     0
  9
$PDMODE
 70
     0
  9
$PDSIZE
 40
-1.0
  9
$PLINEWID
 40
0.0
  9
$SPLFRAME
 70
     0
  9
$SPLINETYPE
 70
     6
  9
$SPLINESEGS
 70
     8
  9
$HANDSEED
  5
24E
  9
$SURFTAB1
 70
     6
  9
$SURFTAB2
 70
     6
  9
$SURFTYPE
 70
     6
  9
$SURFU
 70
     6
  9
$SURFV
 70
     6
  9
$UCSBASE
  2

  9
$UCSNAME
  2

  9
$UCSORG
 10
0.0
 20
0.0
 30
0.0
  9
$UCSXDIR
 10
1.0
 20
0.0
 30
0.0
  9
$UCSYDIR
 10
0.0
 20
1.0
 30
0.0
  9
$UCSORTHOREF
  2

  9
$UCSORTHOVIEW
 70
     0
  9
$UCSORGTOP
 10
0.0
 20
0.0
 30
0.0
  9
$UCSORGBOTTOM
 10
0.0
 20
0.0
 30
0.0
  9
$UCSORGLEFT
 10
0.0
 20
0.0
 30
0.0
  9
$UCSORGRIGHT
 10
0.0
 20
0.0
 30
0.0
  9
$UCSORGFRONT
 10
0.0
 20
0.0
 30
0.0
  9
$UCSORGBACK
 10
0.0
 20
0.0
 30
0.0
  9
$PUCSBASE
  2

  9
$PUCSNAME
  2

  9
$PUCSORG
 10
0.0
 20
0.0
 30
0.0
  9
$PUCSXDIR
 10
1.0
 20
0.0
 30
0.0
  9
$PUCSYDIR
 10
0.0
 20
1.0
 30
0.0
  9
$PUCSORTHOREF
  2

  9
$PUCSORTHOVIEW
 70
     0
  9
$PUCSORGTOP
 10
0.0
 20
0.0
 30
0.0
  9
$PUCSORGBOTTOM
 10
0.0
 20
0.0
 30
0.0
  9
$PUCSORGLEFT
 10
0.0
 20
0.0
 30
0.0
  9
$PUCSORGRIGHT
 10
0.0
 20
0.0
 30
0.0
  9
$PUCSORGFRONT
 10
0.0
 20
0.0
 30
0.0
  9
$PUCSORGBACK
 10
0.0
 20
0.0
 30
0.0
  9
$USERI1
 70
     0
  9
$USERI2
 70
     0
  9
$USERI3
 70
     0
  9
$USERI4
 70
     0
  9
$USERI5
 70
     0
  9
$USERR1
 40
0.0
  9
$USERR2
 40
0.0
  9
$USERR3
 40
0.0
  9
$USERR4
 40
0.0
  9
$USERR5
 40
0.0
  9
$WORLDVIEW
 70
     1
  9
$SHADEDGE
 70
     3
  9
$SHADEDIF
 70
    70
  9
$TILEMODE
 70
     1
  9
$MAXACTVP
 70
    64
  9
$PINSBASE
 10
0.0
 20
0.0
 30
0.0
  9
$PLIMCHECK
 70
     0
  9
$PEXTMIN
 10
1.000000000000000E+20
 20
1.000000000000000E+20
 30
1.000000000000000E+20
  9
$PEXTMAX
 10
-1.000000000000000E+20
 20
-1.000000000000000E+20
 30
-1.000000000000000E+20
  9
$PLIMMIN
 10
0.0
 20
0.0
  9
$PLIMMAX
 10
0.0
 20
0.0
  9
$UNITMODE
 70
     0
  9
$VISRETAIN
 70
     1
  9
$PLINEGEN
 70
     0
  9
$PSLTSCALE
 70
     1
  9
$TREEDEPTH
 70
  3020
  9
$CMLSTYLE
  2
Standard
  9
$CMLJUST
 70
     0
  9
$CMLSCALE
 40
20.0
  9
$PROXYGRAPHICS
 70
     1
  9
$MEASUREMENT
 70
     1
  9
$CELWEIGHT
370
    -1
  9
$ENDCAPS
280
     0
  9
$JOINSTYLE
280
     0
  9
$LWDISPLAY
290
     1
  9
$INSUNITS
 70
     4
  9
$HYPERLINKBASE
  1

  9
$STYLESHEET
  1

  9
$XEDIT
290
     1
  9
$CEPSNTYPE
380
     0
  9
$PSTYLEMODE
290
     1
  9
$FINGERPRINTGUID
  2
{E31355D1-36A4-4BF1-8946-88F2106C36AE}
  9
$VERSIONGUID
  2
{FAEB1C32-E019-11D5-929B-00C0DF256EC4}
  9
$EXTNAMES
290
     1
  9
$PSVPSCALE
 40
0.0
  9
$OLESTARTUP
290
     0
  0
ENDSEC
  0
SECTION
  2
CLASSES
  0
CLASS
  1
ACDBDICTIONARYWDFLT
  2
AcDbDictionaryWithDefault
  3
ObjectDBX Classes
 90
        0
280
     0
281
     0
  0
CLASS
  1
VISUALSTYLE
  2
AcDbVisualStyle
  3
ObjectDBX Classes
 90
     4095
280
     0
281
     0
  0
CLASS
  1
MATERIAL
  2
AcDbMaterial
  3
ObjectDBX Classes
 90
     1153
280
     0
281
     0
  0
CLASS
  1
SCALE
  2
AcDbScale
  3
ObjectDBX Classes
 90
     1153
280
     0
281
     0
  0
CLASS
  1
SUN
  2
AcDbSun
  3
SCENEOE
 90
     1153
280
     0
281
     0
  0
CLASS
  1
ACDBPLACEHOLDER
  2
AcDbPlaceHolder
  3
ObjectDBX Classes
 90
        0
280
     0
281
     0
  0
CLASS
  1
LAYOUT
  2
AcDbLayout
  3
ObjectDBX Classes
 90
        0
280
     0
281
     0
  0
CLASS
  1
TABLESTYLE
  2
AcDbTableStyle
  3
ObjectDBX Classes
 90
     4095
280
     0
281
     0
  0
CLASS
  1
MLEADERSTYLE
  2
AcDbMLeaderStyle
  3
ACDB_MLEADERSTYLE_CLASS
 90
     4095
280
     0
281
     0
  0
CLASS
  1
RASTERVARIABLES
  2
AcDbRasterVariables
  3
ISM
 90
        0
280
     0
281
     0
  0
ENDSEC
  0
SECTION
  2
TABLES
  0
TABLE
  2
VPORT
  5
8
330
0
100
AcDbSymbolTable
 70
     1
  0
VPORT
  5
29
330
8
100
AcDbSymbolTableRecord
100
AcDbViewportTableRecord
  2
*Active
 70
     0
 10
0.0
 20
0.0
 11
1.0
 21
1.0
 12
2.223400814076566
 22
4.223149674768159
 13
0.0
 23
0.0
 14
10.0
 24
10.0
 15
10.0
 25
10.0
 16
0.0
 26
0.0
 36
1.0
 17
0.0
 27
0.0
 37
0.0
 40
180.2348228507734
 41
1.782051282051282
 42
50.0
 43
0.0
 44
0.0
 50
0.0
 51
0.0
 71
    16
 72
  2000
 73
     1
 74
     3
 75
     0
 76
     0
 77
     0
 78
     0
281
     0
 65
     1
110
0.0
120
0.0
130
0.0
111
1.0
121
0.0
131
0.0
112
0.0
122
1.0
132
0.0
 79
     0
146
0.0
  0
ENDTAB
  0
TABLE
  2
LTYPE
  5
5
330
0
100
AcDbSymbolTable
 70
     6
  0
LTYPE
  5
14
330
5
100
AcDbSymbolTableRecord
100
AcDbLinetypeTableRecord
  2
ByBlock
 70
     0
  3

 72
    65
 73
     0
 40
0.0
  0
LTYPE
  5
15
330
5
100
AcDbSymbolTableRecord
100
AcDbLinetypeTableRecord
  2
ByLayer
 70
     0
  3

 72
    65
 73
     0
 40
0.0
  0
LTYPE
  5
16
330
5
100
AcDbSymbolTableRecord
100
AcDbLinetypeTableRecord
  2
Continuous
 70
     0
  3
Solid line
 72
    65
 73
     0
 40
0.0
  0
LTYPE
  5
6A
330
5
100
AcDbSymbolTableRecord
100
AcDbLinetypeTableRecord
  2
HIDDEN
 70
     0
  3
Hidden __ __ __ __ __ __ __ __ __ __ __ __ __ __
 72
    65
 73
     2
 40
1.905
 49
1.27
 74
     0
 49
-0.635
 74
     0
  0
LTYPE
  5
6B
330
5
100
AcDbSymbolTableRecord
100
AcDbLinetypeTableRecord
  2
PHANTOM
 70
     0
  3
Phantom ______  __  __  ______  __  __  ______
 72
    65
 73
     6
 40
12.7
 49
6.35
 74
     0
 49
-1.27
 74
     0
 49
1.27
 74
     0
 49
-1.27
 74
     0
 49
1.27
 74
     0
 49
-1.27
 74
     0
  0
LTYPE
  5
6C
330
5
100
AcDbSymbolTableRecord
100
AcDbLinetypeTableRecord
  2
CENTER
 70
     0
  3
Center ____ _ ____ _ ____ _ ____ _ ____ _ ____
 72
    65
 73
     4
 40
10.16
 49
6.35
 74
     0
 49
-1.27
 74
     0
 49
1.27
 74
     0
 49
-1.27
 74
     0
  0
LTYPE
  5
6D
330
5
100
AcDbSymbolTableRecord
100
AcDbLinetypeTableRecord
  2
CENTERX2
 70
     0
  3
Center (2x) ________  __  ________  __  _____
 72
    65
 73
     4
 40
20.32
 49
12.7
 74
     0
 49
-2.54
 74
     0
 49
2.54
 74
     0
 49
-2.54
 74
     0
  0
LTYPE
  5
6E
330
5
100
AcDbSymbolTableRecord
100
AcDbLinetypeTableRecord
  2
DOT2
 70
     0
  3
Dot (.5x) ........................................
 72
    65
 73
     2
 40
0.635
 49
0.0
 74
     0
 49
-0.635
 74
     0
  0
ENDTAB
  0
TABLE
  2
LAYER
  5
2
102
{ACAD_XDICTIONARY
360
1BA
102
}
330
0
100
AcDbSymbolTable
 70
    18
  0
LAYER
  5
10
330
2
100
AcDbSymbolTableRecord
100
AcDbLayerTableRecord
  2
0
 70
     0
 62
     7
  6
Continuous
370
    -3
390
F
  0
LAYER
  5
6F
330
2
100
AcDbSymbolTableRecord
100
AcDbLayerTableRecord
  2
FORMAT
 70
     0
 62
     2
  6
Continuous
370
    -3
390
F
  0
LAYER
  5
70
330
2
100
AcDbSymbolTableRecord
100
AcDbLayerTableRecord
  2
외형선
 70
     0
 62
     4
  6
Continuous
370
    30
390
F
  0
LAYER
  5
71
330
2
100
AcDbSymbolTableRecord
100
AcDbLayerTableRecord
  2
숨은선
 70
     0
 62
     2
  6
HIDDEN
370
    15
390
F
  0
LAYER
  5
72
330
2
100
AcDbSymbolTableRecord
100
AcDbLayerTableRecord
  2
중심선
 70
     0
 62
     1
  6
CENTERX2
370
    -3
390
F
  0
LAYER
  5
73
330
2
100
AcDbSymbolTableRecord
100
AcDbLayerTableRecord
  2
파단선
 70
     0
 62
     4
  6
Continuous
370
    -3
390
F
  0
LAYER
  5
74
330
2
100
AcDbSymbolTableRecord
100
AcDbLayerTableRecord
  2
해칭선
 70
     0
 62
   100
  6
Continuous
370
    -3
390
F
  0
LAYER
  5
75
330
2
100
AcDbSymbolTableRecord
100
AcDbLayerTableRecord
  2
가는실선
 70
     0
 62
     4
  6
Continuous
370
    -3
390
F
  0
LAYER
  5
76
330
2
100
AcDbSymbolTableRecord
100
AcDbLayerTableRecord
  2
치수_보조선
 70
     0
 62
     4
  6
Continuous
370
    -3
390
F
  0
LAYER
  5
77
330
2
100
AcDbSymbolTableRecord
100
AcDbLayerTableRecord
  2
치수문자_일반주서
 70
     0
 62
     7
  6
Continuous
370
    15
390
F
  0
LAYER
  5
78
330
2
100
AcDbSymbolTableRecord
100
AcDbLayerTableRecord
  2
개별주서
 70
     0
 62
   100
  6
Continuous
370
    30
390
F
  0
LAYER
  5
79
330
2
100
AcDbSymbolTableRecord
100
AcDbLayerTableRecord
  2
중간선
 70
     0
 62
     2
  6
Continuous
370
    15
390
F
  0
LAYER
  5
7A
330
2
100
AcDbSymbolTableRecord
100
AcDbLayerTableRecord
  2
윤곽선
 70
     0
 62
     3
  6
Continuous
370
    40
390
F
  0
LAYER
  5
7B
330
2
100
AcDbSymbolTableRecord
100
AcDbLayerTableRecord
  2
중심마크
 70
     0
 62
   100
  6
Continuous
370
    30
390
F
  0
LAYER
  5
7C
330
2
100
AcDbSymbolTableRecord
100
AcDbLayerTableRecord
  2
가상선
 70
     0
 62
     4
  6
PHANTOM
370
    -3
390
F
  0
LAYER
  5
7D
330
2
100
AcDbSymbolTableRecord
100
AcDbLayerTableRecord
  2
특수지정선
 70
     0
 62
     5
  6
CENTERX2
370
    60
390
F
  0
LAYER
  5
7E
330
2
100
AcDbSymbolTableRecord
100
AcDbLayerTableRecord
  2
참조1
 70
     0
 62
    -4
  6
Continuous
370
    -3
390
F
  0
LAYER
  5
12D
330
2
100
AcDbSymbolTableRecord
100
AcDbLayerTableRecord
  2
Defpoints
 70
     0
 62
     7
  6
Continuous
290
     0
370
    -3
390
F
  0
ENDTAB
  0
TABLE
  2
STYLE
  5
3
330
0
100
AcDbSymbolTable
 70
     2
  0
STYLE
  5
11
330
3
100
AcDbSymbolTableRecord
100
AcDbTextStyleTableRecord
  2
Standard
 70
     0
 40
0.0
 41
1.0
 50
0.0
 71
     0
 42
3.5
  3
txt
  4

  0
STYLE
  5
94
330
3
100
AcDbSymbolTableRecord
100
AcDbTextStyleTableRecord
  2
SLDTEXTSTYLE0
 70
     0
 40
0.0
 41
0.75
 50
0.0
 71
     0
 42
3.5
  3
TXT
  4

  0
ENDTAB
  0
TABLE
  2
VIEW
  5
6
330
0
100
AcDbSymbolTable
 70
     0
  0
ENDTAB
  0
TABLE
  2
UCS
  5
7
330
0
100
AcDbSymbolTable
 70
     0
  0
ENDTAB
  0
TABLE
  2
APPID
  5
9
330
0
100
AcDbSymbolTable
 70
     1
  0
APPID
  5
12
330
9
100
AcDbSymbolTableRecord
100
AcDbRegAppTableRecord
  2
ACAD
 70
     0
  0
ENDTAB
  0
TABLE
  2
DIMSTYLE
  5
A
330
0
100
AcDbSymbolTable
 70
     4
100
AcDbDimStyleTable
  0
DIMSTYLE
105
27
330
A
100
AcDbSymbolTableRecord
100
AcDbDimStyleTableRecord
  2
ISO-25
 70
     0
 41
2.5
 42
0.625
 43
3.75
 44
1.25
 73
     0
 74
     0
 77
     1
 78
     8
140
2.5
141
2.5
143
0.03937007874016
147
0.625
171
     3
172
     1
178
     0
271
     2
272
     2
274
     3
278
    44
283
     0
284
     8
340
11
  0
DIMSTYLE
105
A9
330
A
100
AcDbSymbolTableRecord
100
AcDbDimStyleTableRecord
  2
SLDDIMSTYLE0
 70
     0
 41
3.302
 44
0.0
 45
0.000000001
 73
     0
 74
     0
 77
     1
 78
     4
 79
     1
140
3.5
143
0.0393700787401575
147
0.875
148
0.000000001
170
     1
172
     1
173
     1
178
     0
271
     2
272
     2
276
     2
284
    12
289
     0
340
94
  0
DIMSTYLE
105
BF
102
{ACAD_REACTORS
330
173
330
180
330
18D
330
19A
330
20D
330
20E
330
20F
330
210
102
}
330
A
100
AcDbSymbolTableRecord
100
AcDbDimStyleTableRecord
  2
SLDDIMSTYLE1
 70
     0
 41
3.302
 44
0.0
 45
0.000000001
 73
     0
 74
     0
 77
     1
 78
    12
 79
     3
140
3.5
143
0.0393700787401575
147
0.875
148
0.000000001
170
     1
173
     1
178
     0
271
     2
272
     2
276
     2
284
    12
340
94
  0
DIMSTYLE
105
E6
330
A
100
AcDbSymbolTableRecord
100
AcDbDimStyleTableRecord
  2
SLDDIMSTYLE2
 70
     0
 41
3.302
 44
0.0
 45
0.000000001
 73
     0
 74
     0
 77
     1
 78
    12
 79
     3
140
3.5
143
0.0393700787401575
147
0.875
148
0.000000001
170
     1
172
     1
173
     1
178
     0
271
     2
272
     2
276
     2
284
    12
289
     0
340
94
  0
ENDTAB
  0
TABLE
  2
BLOCK_RECORD
  5
1
330
0
100
AcDbSymbolTable
 70
    16
  0
BLOCK_RECORD
  5
1F
330
1
100
AcDbSymbolTableRecord
100
AcDbBlockTableRecord
  2
*Model_Space
340
22
  0
BLOCK_RECORD
  5
1B
330
1
100
AcDbSymbolTableRecord
100
AcDbBlockTableRecord
  2
*Paper_Space
340
1E
  0
BLOCK_RECORD
  5
23
330
1
100
AcDbSymbolTableRecord
100
AcDbBlockTableRecord
  2
*Paper_Space0
340
26
  0
BLOCK_RECORD
  5
7F
330
1
100
AcDbSymbolTableRecord
100
AcDbBlockTableRecord
  2
블럭10
340
0
102
{BLKREFS
331
A1
102
}
  0
BLOCK_RECORD
  5
AA
330
1
100
AcDbSymbolTableRecord
100
AcDbBlockTableRecord
  2
_D
340
0
  0
BLOCK_RECORD
  5
C0
330
1
100
AcDbSymbolTableRecord
100
AcDbBlockTableRecord
  2
_D_1
340
0
  0
BLOCK_RECORD
  5
D3
330
1
100
AcDbSymbolTableRecord
100
AcDbBlockTableRecord
  2
_D_2
340
0
  0
BLOCK_RECORD
  5
E7
330
1
100
AcDbSymbolTableRecord
100
AcDbBlockTableRecord
  2
_D_3
340
0
  0
BLOCK_RECORD
  5
101
330
1
100
AcDbSymbolTableRecord
100
AcDbBlockTableRecord
  2
SW_DOWELSYMBOL_0
340
0
102
{BLKREFS
331
0
331
1AA
331
211
102
}
  0
BLOCK_RECORD
  5
1BE
330
1
100
AcDbSymbolTableRecord
100
AcDbBlockTableRecord
  2
*D8
340
0
  0
BLOCK_RECORD
  5
1CA
330
1
100
AcDbSymbolTableRecord
100
AcDbBlockTableRecord
  2
*D9
340
0
  0
BLOCK_RECORD
  5
1D6
330
1
100
AcDbSymbolTableRecord
100
AcDbBlockTableRecord
  2
*D10
340
0
  0
BLOCK_RECORD
  5
1E2
330
1
100
AcDbSymbolTableRecord
100
AcDbBlockTableRecord
  2
*D11
340
0
  0
BLOCK_RECORD
  5
21B
330
1
100
AcDbSymbolTableRecord
100
AcDbBlockTableRecord
  2
*D12
340
0
  0
BLOCK_RECORD
  5
227
330
1
100
AcDbSymbolTableRecord
100
AcDbBlockTableRecord
  2
*D13
340
0
  0
BLOCK_RECORD
  5
233
330
1
100
AcDbSymbolTableRecord
100
AcDbBlockTableRecord
  2
*D14
340
0
  0
BLOCK_RECORD
  5
23F
330
1
100
AcDbSymbolTableRecord
100
AcDbBlockTableRecord
  2
*D15
340
0
  0
ENDTAB
  0
ENDSEC
  0
SECTION
  2
BLOCKS
  0
BLOCK
  5
20
330
1F
100
AcDbEntity
  8
0
100
AcDbBlockBegin
  2
*Model_Space
 70
     0
 10
0.0
 20
0.0
 30
0.0
  3
*Model_Space
  1
*Model_Space
  0
ENDBLK
  5
21
330
1F
100
AcDbEntity
  8
0
100
AcDbBlockEnd
  0
BLOCK
  5
1C
330
1B
100
AcDbEntity
 67
     1
  8
0
100
AcDbBlockBegin
  2
*Paper_Space
 70
     0
 10
0.0
 20
0.0
 30
0.0
  3
*Paper_Space
  1
*Paper_Space
  0
ENDBLK
  5
1D
330
1B
100
AcDbEntity
 67
     1
  8
0
100
AcDbBlockEnd
  0
BLOCK
  5
24
330
23
100
AcDbEntity
  8
0
100
AcDbBlockBegin
  2
*Paper_Space0
 70
     0
 10
0.0
 20
0.0
 30
0.0
  3
*Paper_Space0
  1
*Paper_Space0
  0
ENDBLK
  5
25
330
23
100
AcDbEntity
  8
0
100
AcDbBlockEnd
  0
BLOCK
  5
80
330
7F
100
AcDbEntity
  8
0
100
AcDbBlockBegin
  2
블럭10
 70
     2
 10
0.0
 20
0.0
 30
0.0
  3
블럭10
  1
블럭10
  0
ELLIPSE
  5
82
330
7F
100
AcDbEntity
  8
중심선
100
AcDbEllipse
 10
20.54032771741204
 20
12.0471743016438
 30
0.0
 11
6.600054785286829
 21
-1.261213355974178E-13
 31
0.0
210
0.0
220
0.0
230
1.0
 40
0.636358354079598
 41
0.9219305317359503
 42
6.513795318482858
  0
ELLIPSE
  5
83
330
7F
100
AcDbEntity
  8
중심선
100
AcDbEllipse
 10
20.54032771746488
 20
12.04717430159265
 30
0.0
 11
3.960054785062283
 21
1.540847449632565E-10
 31
0.0
210
0.0
220
0.0
230
1.0
 40
0.3939339440162632
 41
1.131841032648279
 42
5.62031148352944
  0
LINE
  5
84
330
7F
100
AcDbEntity
  8
중심선
100
AcDbLine
 10
2.268634060543552
 20
16.24717430164393
 30
0.0
 11
5.714909304380834
 21
16.24717430164393
 31
0.0
  0
LINE
  5
85
330
7F
100
AcDbEntity
  8
중심선
100
AcDbLine
 10
5.245725140726316
 20
7.84717430164391
 30
0.0
 11
8.692000384563599
 21
7.84717430164391
 31
0.0
  0
LINE
  5
86
330
7F
100
AcDbEntity
  8
중심선
100
AcDbLine
 10
15.74043728645272
 20
16.24717430164393
 30
0.0
 11
8.692000384563599
 21
7.84717430164391
 31
0.0
  0
LINE
  5
87
330
7F
100
AcDbEntity
  8
중심선
100
AcDbLine
 10
0.1404042013395286
 20
13.71084872107135
 30
0.0
 11
3.58671253028996
 21
13.71088815037384
 31
0.0
  0
LINE
  5
88
330
7F
100
AcDbEntity
  8
중심선
100
AcDbLine
 10
2.750260043222114
 20
10.84717430164391
 30
0.0
 11
6.196535287059397
 21
10.84717430164391
 31
0.0
  0
LINE
  5
89
330
7F
100
AcDbEntity
  8
중심선
100
AcDbLine
 10
12.29416204261559
 20
16.24717430164393
 30
0.0
 11
5.245725140726316
 21
7.84717430164391
 31
0.0
  0
LINE
  5
8A
330
7F
100
AcDbEntity
  8
중심선
100
AcDbLine
 10
10.72767329541681
 20
16.24717430164393
 30
0.0
 11
6.196535287059397
 21
10.84717430164391
 31
0.0
  0
LINE
  5
8B
330
7F
100
AcDbEntity
  8
중심선
100
AcDbLine
 10
7.28139805157953
 20
16.24717430164393
 30
0.0
 11
2.750260043222114
 21
10.84717430164391
 31
0.0
  0
LINE
  5
8C
330
7F
100
AcDbEntity
  8
중심선
100
AcDbLine
 10
5.714909304380834
 20
16.24717430164393
 30
0.0
 11
3.58671253028996
 21
13.71088815037384
 31
0.0
  0
LINE
  5
8D
330
7F
100
AcDbEntity
  8
중심선
100
AcDbLine
 10
2.268634060543552
 20
16.24717430164393
 30
0.0
 11
0.1404042013395286
 21
13.71084872107135
 31
0.0
  0
LINE
  5
8E
330
7F
100
AcDbEntity
  8
중심선
100
AcDbLine
 10
7.28139805157953
 20
16.24717430164393
 30
0.0
 11
10.72767329541681
 21
16.24717430164393
 31
0.0
  0
LINE
  5
8F
330
7F
100
AcDbEntity
  8
중심선
100
AcDbLine
 10
12.29416204261559
 20
16.24717430164393
 30
0.0
 11
15.74043728645272
 21
16.24717430164393
 31
0.0
  0
LINE
  5
90
330
7F
100
AcDbEntity
  8
중심선
100
AcDbLine
 10
19.22036997980202
 20
11.08717430171403
 30
0.0
 11
23.66174974927406
 21
11.08717430171406
 31
0.0
  0
LINE
  5
91
330
7F
100
AcDbEntity
  8
중심선
100
AcDbLine
 10
19.22039502424796
 20
13.00717430171391
 30
0.0
 11
19.22036997980202
 21
11.08717430171403
 31
0.0
  0
LINE
  5
92
330
7F
100
AcDbEntity
  8
중심선
100
AcDbLine
 10
19.22039502424796
 20
13.00717430171391
 30
0.0
 11
26.96566020931264
 21
13.00717430171391
 31
0.0
  0
LINE
  5
93
330
7F
100
AcDbEntity
  8
중심선
100
AcDbLine
 10
22.22332737316547
 20
13.45928029700563
 30
0.0
 11
24.52862924686651
 21
15.39360700705356
 31
0.0
  0
ATTDEF
  5
95
330
7F
100
AcDbEntity
  8
FORMAT
 62
     2
100
AcDbText
 10
4.408487351596664
 20
2.075366912832191
 30
0.0
 40
4.233333333333333
  1
E2020108
 41
0.75
  7
SLDTEXTSTYLE0
 11
4.408487351596664
 21
-0.0412997538344756
 31
0.0
100
AcDbAttributeDefinition
  3

  2
AUTOATTR0
 70
     0
 74
     1
  0
ENDBLK
  5
81
330
7F
100
AcDbEntity
  8
0
100
AcDbBlockEnd
  0
BLOCK
  5
AB
330
AA
100
AcDbEntity
  8
0
100
AcDbBlockBegin
  2
_D
 70
     0
 10
0.0
 20
0.0
 30
0.0
  3
_D
  1
_D
  0
SOLID
  5
AD
330
AA
100
AcDbEntity
  8
치수문자_일반주서
100
AcDbTrace
 10
31.36231532850778
 20
15.5905321960223
 30
0.0
 11
34.66431532850778
 21
15.0825321960223
 31
0.0
 12
34.66431532850778
 22
16.0985321960223
 32
0.0
 13
34.66431532850778
 23
16.0985321960223
 33
0.0
  0
SOLID
  5
AE
330
AA
100
AcDbEntity
  8
치수문자_일반주서
100
AcDbTrace
 10
5.962315328507771
 20
15.5905321960223
 30
0.0
 11
2.660315328507772
 21
16.0985321960223
 31
0.0
 12
2.660315328507772
 22
15.0825321960223
 32
0.0
 13
2.660315328507772
 23
15.0825321960223
 33
0.0
  0
LINE
  5
AF
330
AA
100
AcDbEntity
  8
치수문자_일반주서
100
AcDbLine
 10
13.72994157423881
 20
26.38341391206504
 30
0.0
 11
13.01900408867431
 21
26.38341391206504
 31
0.0
  0
LINE
  5
B0
330
AA
100
AcDbEntity
  8
치수문자_일반주서
100
AcDbLine
 10
13.01900408867431
 20
26.38341391206504
 30
0.0
 11
13.01900408867427
 21
20.82716392100574
 31
0.0
  0
LINE
  5
B1
330
AA
100
AcDbEntity
  8
치수문자_일반주서
100
AcDbLine
 10
13.01900408867427
 20
20.82716392100574
 30
0.0
 11
13.72994157423877
 21
20.82716392100573
 31
0.0
  0
LINE
  5
B2
330
AA
100
AcDbEntity
  8
치수문자_일반주서
100
AcDbLine
 10
24.55867443637607
 20
26.38341391206496
 30
0.0
 11
25.26961192194057
 21
26.38341391206496
 31
0.0
  0
LINE
  5
B3
330
AA
100
AcDbEntity
  8
치수문자_일반주서
100
AcDbLine
 10
25.26961192194057
 20
26.38341391206496
 30
0.0
 11
25.26961192194053
 21
20.82716392100565
 31
0.0
  0
LINE
  5
B4
330
AA
100
AcDbEntity
  8
치수문자_일반주서
100
AcDbLine
 10
25.26961192194053
 20
20.82716392100565
 30
0.0
 11
24.55867443637603
 21
20.82716392100566
 31
0.0
  0
LINE
  5
B5
330
AA
100
AcDbEntity
  8
치수문자_일반주서
100
AcDbLine
 10
31.36231532850778
 20
5.778273824452533
 30
0.0
 11
31.36231532850778
 21
16.5905321960223
 31
0.0
  0
LINE
  5
B6
330
AA
100
AcDbEntity
  8
치수문자_일반주서
100
AcDbLine
 10
5.962315328507772
 20
6.536892327903137
 30
0.0
 11
5.962315328507771
 21
16.5905321960223
 31
0.0
  0
LINE
  5
B7
330
AA
100
AcDbEntity
  8
치수문자_일반주서
100
AcDbLine
 10
31.36231532850778
 20
15.5905321960223
 30
0.0
 11
37.71231532850778
 21
15.5905321960223
 31
0.0
  0
LINE
  5
B8
330
AA
100
AcDbEntity
  8
치수문자_일반주서
100
AcDbLine
 10
31.36231532850778
 20
15.5905321960223
 30
0.0
 11
5.962315328507771
 21
15.5905321960223
 31
0.0
  0
LINE
  5
B9
330
AA
100
AcDbEntity
  8
치수문자_일반주서
100
AcDbLine
 10
5.962315328507771
 20
15.5905321960223
 30
0.0
 11
-0.3876846714922282
 21
15.5905321960223
 31
0.0
  0
MTEXT
  5
BA
330
AA
100
AcDbEntity
  8
치수문자_일반주서
100
AcDbMText
 10
12.50524536318757
 20
20.15574146188402
 30
0.0
 40
3.5
 41
0.0
 71
     1
 72
     1
  1

  7
SLDTEXTSTYLE0
 73
     1
 44
1.0
  0
MTEXT
  5
BB
330
AA
100
AcDbEntity
  8
치수문자_일반주서
100
AcDbMText
 10
14.61861347485018
 20
25.33890083558462
 30
0.0
 40
3.5
 41
0.0
 71
     1
 72
     1
  1
2.00
  7
SLDTEXTSTYLE0
 73
     1
 44
1.0
  0
MTEXT
  5
BC
330
AA
100
AcDbEntity
  8
치수문자_일반주서
100
AcDbMText
 10
13.32555776167341
 20
20.10226928522416
 30
0.0
 40
3.5
 41
0.0
 71
     1
 72
     1
  1
50.80
  7
SLDTEXTSTYLE0
 73
     1
 44
1.0
  0
MTEXT
  5
BD
330
AA
100
AcDbEntity
  8
치수문자_일반주서
100
AcDbMText
 10
27.11531516708114
 20
20.15574146188391
 30
0.0
 40
3.5
 41
0.0
 71
     1
 72
     1
  1

  7
SLDTEXTSTYLE0
 73
     1
 44
1.0
  0
ENDBLK
  5
AC
330
AA
100
AcDbEntity
  8
0
100
AcDbBlockEnd
  0
BLOCK
  5
C1
330
C0
100
AcDbEntity
  8
0
100
AcDbBlockBegin
  2
_D_1
 70
     0
 10
0.0
 20
0.0
 30
0.0
  3
_D_1
  1
_D_1
  0
SOLID
  5
C3
330
C0
100
AcDbEntity
  8
치수문자_일반주서
100
AcDbTrace
 10
31.36231532850778
 20
27.59053219602237
 30
0.0
 11
28.06031532850778
 21
28.09853219602237
 31
0.0
 12
28.06031532850778
 22
27.08253219602237
 32
0.0
 13
28.06031532850778
 23
27.08253219602237
 33
0.0
  0
SOLID
  5
C4
330
C0
100
AcDbEntity
  8
치수문자_일반주서
100
AcDbTrace
 10
-36.90018467149223
 20
27.59053219602236
 30
0.0
 11
-33.59818467149223
 21
27.08253219602236
 31
0.0
 12
-33.59818467149223
 22
28.09853219602236
 32
0.0
 13
-33.59818467149223
 23
28.09853219602236
 33
0.0
  0
LINE
  5
C5
330
C0
100
AcDbEntity
  8
치수문자_일반주서
100
AcDbLine
 10
-8.183300753314892
 20
38.38341391206509
 30
0.0
 11
-8.894238238879392
 21
38.3834139120651
 31
0.0
  0
LINE
  5
C6
330
C0
100
AcDbEntity
  8
치수문자_일반주서
100
AcDbLine
 10
-8.894238238879392
 20
38.3834139120651
 30
0.0
 11
-8.894238238879433
 21
32.8271639210058
 31
0.0
  0
LINE
  5
C7
330
C0
100
AcDbEntity
  8
치수문자_일반주서
100
AcDbLine
 10
-8.894238238879433
 20
32.8271639210058
 30
0.0
 11
-8.183300753314933
 21
32.82716392100579
 31
0.0
  0
LINE
  5
C8
330
C0
100
AcDbEntity
  8
치수문자_일반주서
100
AcDbLine
 10
2.645432108822366
 20
38.38341391206502
 30
0.0
 11
3.356369594386866
 21
38.38341391206501
 31
0.0
  0
LINE
  5
C9
330
C0
100
AcDbEntity
  8
치수문자_일반주서
100
AcDbLine
 10
3.356369594386866
 20
38.38341391206501
 30
0.0
 11
3.356369594386826
 21
32.82716392100571
 31
0.0
  0
LINE
  5
CA
330
C0
100
AcDbEntity
  8
치수문자_일반주서
100
AcDbLine
 10
3.356369594386826
 20
32.82716392100571
 30
0.0
 11
2.645432108822326
 21
32.82716392100571
 31
0.0
  0
LINE
  5
CB
330
C0
100
AcDbEntity
  8
치수문자_일반주서
100
AcDbLine
 10
31.36231532850778
 20
5.778273824452533
 30
0.0
 11
31.36231532850778
 21
28.59053219602237
 31
0.0
  0
LINE
  5
CC
330
C0
100
AcDbEntity
  8
치수문자_일반주서
100
AcDbLine
 10
-36.90018467149223
 20
4.811074928723901
 30
0.0
 11
-36.90018467149223
 21
28.59053219602236
 31
0.0
  0
LINE
  5
CD
330
C0
100
AcDbEntity
  8
치수문자_일반주서
100
AcDbLine
 10
31.36231532850778
 20
27.59053219602237
 30
0.0
 11
-36.90018467149223
 21
27.59053219602236
 31
0.0
  0
MTEXT
  5
CE
330
C0
100
AcDbEntity
  8
치수문자_일반주서
100
AcDbMText
 10
-9.407996964366134
 20
32.15574146188408
 30
0.0
 40
3.5
 41
0.0
 71
     1
 72
     1
  1

  7
SLDTEXTSTYLE0
 73
     1
 44
1.0
  0
MTEXT
  5
CF
330
C0
100
AcDbEntity
  8
치수문자_일반주서
100
AcDbMText
 10
-7.294628852703529
 20
37.33890083558469
 30
0.0
 40
3.5
 41
0.0
 71
     1
 72
     1
  1
3.69
  7
SLDTEXTSTYLE0
 73
     1
 44
1.0
  0
MTEXT
  5
D0
330
C0
100
AcDbEntity
  8
치수문자_일반주서
100
AcDbMText
 10
-8.587684565880291
 20
32.10226928522422
 30
0.0
 40
3.5
 41
0.0
 71
     1
 72
     1
  1
93.66
  7
SLDTEXTSTYLE0
 73
     1
 44
1.0
  0
MTEXT
  5
D1
330
C0
100
AcDbEntity
  8
치수문자_일반주서
100
AcDbMText
 10
5.202072839527434
 20
32.15574146188398
 30
0.0
 40
3.5
 41
0.0
 71
     1
 72
     1
  1

  7
SLDTEXTSTYLE0
 73
     1
 44
1.0
  0
ENDBLK
  5
C2
330
C0
100
AcDbEntity
  8
0
100
AcDbBlockEnd
  0
BLOCK
  5
D4
330
D3
100
AcDbEntity
  8
0
100
AcDbBlockBegin
  2
_D_2
 70
     0
 10
0.0
 20
0.0
 30
0.0
  3
_D_2
  1
_D_2
  0
SOLID
  5
D6
330
D3
100
AcDbEntity
  8
치수문자_일반주서
100
AcDbTrace
 10
76.27542336633579
 20
5.55732492872388
 30
0.0
 11
75.76742336633579
 21
2.255324928723881
 31
0.0
 12
76.78342336633578
 22
2.255324928723881
 32
0.0
 13
76.78342336633578
 23
2.255324928723881
 33
0.0
  0
SOLID
  5
D7
330
D3
100
AcDbEntity
  8
치수문자_일반주서
100
AcDbTrace
 10
76.27542336633579
 20
-5.555175071276098
 30
0.0
 11
76.78342336633578
 21
-2.253175071276099
 31
0.0
 12
75.76742336633579
 22
-2.253175071276099
 32
0.0
 13
75.76742336633579
 23
-2.253175071276099
 33
0.0
  0
LINE
  5
D8
330
D3
100
AcDbEntity
  8
치수문자_일반주서
100
AcDbLine
 10
65.48254165029307
 20
10.17616576495354
 30
0.0
 11
65.48254165029307
 21
9.465228279389038
 31
0.0
  0
LINE
  5
D9
330
D3
100
AcDbEntity
  8
치수문자_일반주서
100
AcDbLine
 10
65.48254165029307
 20
9.465228279389038
 30
0.0
 11
71.03879164135238
 21
9.465228279389077
 31
0.0
  0
LINE
  5
DA
330
D3
100
AcDbEntity
  8
치수문자_일반주서
100
AcDbLine
 10
71.03879164135238
 20
9.465228279389077
 30
0.0
 11
71.03879164135238
 21
10.17616576495358
 31
0.0
  0
LINE
  5
DB
330
D3
100
AcDbEntity
  8
치수문자_일반주서
100
AcDbLine
 10
65.48254165029299
 20
21.0048986270908
 30
0.0
 11
65.48254165029299
 21
21.7158361126553
 31
0.0
  0
LINE
  5
DC
330
D3
100
AcDbEntity
  8
치수문자_일반주서
100
AcDbLine
 10
65.48254165029299
 20
21.7158361126553
 30
0.0
 11
71.03879164135229
 21
21.71583611265534
 31
0.0
  0
LINE
  5
DD
330
D3
100
AcDbEntity
  8
치수문자_일반주서
100
AcDbLine
 10
71.03879164135229
 20
21.71583611265534
 30
0.0
 11
71.03879164135229
 21
21.00489862709084
 31
0.0
  0
LINE
  5
DE
330
D3
100
AcDbEntity
  8
치수문자_일반주서
100
AcDbLine
 10
52.20606532850784
 20
5.557324928723882
 30
0.0
 11
77.27542336633579
 21
5.55732492872388
 31
0.0
  0
LINE
  5
DF
330
D3
100
AcDbEntity
  8
치수문자_일반주서
100
AcDbLine
 10
52.20606532850784
 20
-5.555175071276096
 30
0.0
 11
77.27542336633579
 21
-5.555175071276098
 31
0.0
  0
LINE
  5
E0
330
D3
100
AcDbEntity
  8
치수문자_일반주서
100
AcDbLine
 10
76.27542336633579
 20
5.55732492872388
 30
0.0
 11
76.27542336633579
 21
24.04850113884327
 31
0.0
  0
LINE
  5
E1
330
D3
100
AcDbEntity
  8
치수문자_일반주서
100
AcDbLine
 10
76.27542336633579
 20
5.55732492872388
 30
0.0
 11
76.27542336633579
 21
-5.555175071276098
 31
0.0
  0
MTEXT
  5
E2
330
D3
100
AcDbEntity
  8
치수문자_일반주서
100
AcDbMText
 10
66.52705472677346
 20
11.06483766556492
 30
0.0
 40
3.5
 41
0.0
 71
     1
 72
     1
  1
0.44
  7
SLDTEXTSTYLE0
 11
-7.044195017643634E-15
 21
1.0
 31
0.0
 73
     1
 44
1.0
  0
MTEXT
  5
E3
330
D3
100
AcDbEntity
  8
치수문자_일반주서
100
AcDbMText
 10
71.76368627713396
 20
7.132563253201183
 30
0.0
 40
3.5
 41
0.0
 71
     1
 72
     1
  1
%%c
  7
SLDTEXTSTYLE0
 11
-7.044195017643634E-15
 21
1.0
 31
0.0
 73
     1
 44
1.0
  0
MTEXT
  5
E4
330
D3
100
AcDbEntity
  8
치수문자_일반주서
100
AcDbMText
 10
71.76368627713391
 20
12.41100065157526
 30
0.0
 40
3.5
 41
0.0
 71
     1
 72
     1
  1
11.11
  7
SLDTEXTSTYLE0
 11
-7.044195017643634E-15
 21
1.0
 31
0.0
 73
     1
 44
1.0
  0
ENDBLK
  5
D5
330
D3
100
AcDbEntity
  8
0
100
AcDbBlockEnd
  0
BLOCK
  5
E8
330
E7
100
AcDbEntity
  8
0
100
AcDbBlockBegin
  2
_D_3
 70
     0
 10
0.0
 20
0.0
 30
0.0
  3
_D_3
  1
_D_3
  0
SOLID
  5
EA
330
E7
100
AcDbEntity
  8
치수문자_일반주서
100
AcDbTrace
 10
-48.73747769446511
 20
4.763574928723895
 30
0.0
 11
-48.22947769446511
 21
8.065574928723894
 31
0.0
 12
-49.24547769446512
 22
8.065574928723894
 32
0.0
 13
-49.24547769446512
 23
8.065574928723894
 33
0.0
  0
SOLID
  5
EB
330
E7
100
AcDbEntity
  8
치수문자_일반주서
100
AcDbTrace
 10
-48.73747769446511
 20
-4.76142507127611
 30
0.0
 11
-49.24547769446512
 21
-8.06342507127611
 31
0.0
 12
-48.22947769446511
 22
-8.06342507127611
 32
0.0
 13
-48.22947769446511
 23
-8.06342507127611
 33
0.0
  0
LINE
  5
EC
330
E7
100
AcDbEntity
  8
치수문자_일반주서
100
AcDbLine
 10
-59.53035941050783
 20
-5.413291502344828
 30
0.0
 11
-59.53035941050782
 21
-6.124228987909328
 31
0.0
  0
LINE
  5
ED
330
E7
100
AcDbEntity
  8
치수문자_일반주서
100
AcDbLine
 10
-59.53035941050782
 20
-6.124228987909328
 30
0.0
 11
-53.97410941944852
 21
-6.124228987909289
 31
0.0
  0
LINE
  5
EE
330
E7
100
AcDbEntity
  8
치수문자_일반주서
100
AcDbLine
 10
-53.97410941944852
 20
-6.124228987909289
 30
0.0
 11
-53.97410941944852
 21
-5.413291502344789
 31
0.0
  0
LINE
  5
EF
330
E7
100
AcDbEntity
  8
치수문자_일반주서
100
AcDbLine
 10
-59.5303594105079
 20
5.41544135979243
 30
0.0
 11
-59.53035941050791
 21
6.12637884535693
 31
0.0
  0
LINE
  5
F0
330
E7
100
AcDbEntity
  8
치수문자_일반주서
100
AcDbLine
 10
-59.53035941050791
 20
6.12637884535693
 30
0.0
 11
-53.9741094194486
 21
6.126378845356969
 31
0.0
  0
LINE
  5
F1
330
E7
100
AcDbEntity
  8
치수문자_일반주서
100
AcDbLine
 10
-53.9741094194486
 20
6.126378845356969
 30
0.0
 11
-53.9741094194486
 21
5.415441359792469
 31
0.0
  0
LINE
  5
F2
330
E7
100
AcDbEntity
  8
치수문자_일반주서
100
AcDbLine
 10
-36.94768467149223
 20
4.763574928723896
 30
0.0
 11
-49.73747769446511
 21
4.763574928723895
 31
0.0
  0
LINE
  5
F3
330
E7
100
AcDbEntity
  8
치수문자_일반주서
100
AcDbLine
 10
-36.94768467149223
 20
-4.761425071276109
 30
0.0
 11
-49.73747769446511
 21
-4.76142507127611
 31
0.0
  0
LINE
  5
F4
330
E7
100
AcDbEntity
  8
치수문자_일반주서
100
AcDbLine
 10
-48.73747769446511
 20
4.763574928723895
 30
0.0
 11
-48.73747769446511
 21
11.11357492872389
 31
0.0
  0
LINE
  5
F5
330
E7
100
AcDbEntity
  8
치수문자_일반주서
100
AcDbLine
 10
-48.73747769446511
 20
4.763574928723895
 30
0.0
 11
-48.73747769446511
 21
-4.76142507127611
 31
0.0
  0
LINE
  5
F6
330
E7
100
AcDbEntity
  8
치수문자_일반주서
100
AcDbLine
 10
-48.73747769446511
 20
-4.76142507127611
 30
0.0
 11
-48.73747769446511
 21
-11.11142507127611
 31
0.0
  0
MTEXT
  5
F7
330
E7
100
AcDbEntity
  8
치수문자_일반주서
100
AcDbMText
 10
-58.48584633402742
 20
-4.52461960173345
 30
0.0
 40
3.5
 41
0.0
 71
     1
 72
     1
  1
0.38
  7
SLDTEXTSTYLE0
 11
-7.044195017643634E-15
 21
1.0
 31
0.0
 73
     1
 44
1.0
  0
MTEXT
  5
F8
330
E7
100
AcDbEntity
  8
치수문자_일반주서
100
AcDbMText
 10
-53.24921478366694
 20
-7.163838766581741
 30
0.0
 40
3.5
 41
0.0
 71
     1
 72
     1
  1
%%c
  7
SLDTEXTSTYLE0
 11
-7.044195017643634E-15
 21
1.0
 31
0.0
 73
     1
 44
1.0
  0
MTEXT
  5
F9
330
E7
100
AcDbEntity
  8
치수문자_일반주서
100
AcDbMText
 10
-53.24921478366696
 20
-1.88540136820766
 30
0.0
 40
3.5
 41
0.0
 71
     1
 72
     1
  1
9.53
  7
SLDTEXTSTYLE0
 11
-7.044195017643634E-15
 21
1.0
 31
0.0
 73
     1
 44
1.0
  0
ENDBLK
  5
E9
330
E7
100
AcDbEntity
  8
0
100
AcDbBlockEnd
  0
BLOCK
  5
102
330
101
100
AcDbEntity
  8
0
100
AcDbBlockBegin
  2
SW_DOWELSYMBOL_0
 70
     0
 10
0.0
 20
0.0
 30
0.0
  3
SW_DOWELSYMBOL_0
  1
SW_DOWELSYMBOL_0
  0
CIRCLE
  5
104
330
101
100
AcDbEntity
  8
해칭선
 62
     0
100
AcDbCircle
 10
0.0
 20
0.0
 30
0.0
 40
3.000000000000001
  0
HATCH
  5
105
330
101
100
AcDbEntity
  8
0
  6
Continuous
 62
     0
370
     0
100
AcDbHatch
 10
0.0
 20
0.0
 30
0.0
210
0.0
220
0.0
230
1.0
  2
SOLID
 70
     1
 71
     0
 91
        1
 92
        0
 93
        3
 72
     2
 10
0.0000000000000069
 20
0.0
 40
3.000000000000001
 50
0.0
 51
90.0
 73
     1
 72
     1
 10
0.0000000000000069
 20
3.000000000000001
 11
0.0000000000000069
 21
0.0
 72
     1
 10
0.0000000000000069
 20
0.0
 11
3.000000000000008
 21
0.0
 97
        0
 75
     0
 76
     1
 98
        1
 10
0.0
 20
0.0
  0
HATCH
  5
106
330
101
100
AcDbEntity
  8
0
  6
Continuous
 62
     0
370
     0
100
AcDbHatch
 10
0.0
 20
0.0
 30
0.0
210
0.0
220
0.0
230
1.0
  2
SOLID
 70
     1
 71
     0
 91
        1
 92
        0
 93
        3
 72
     2
 10
0.0000000000000069
 20
0.0
 40
3.000000000000001
 50
180.0
 51
270.0000000000008
 73
     1
 72
     1
 10
0.0000000000000069
 20
-3.000000000000001
 11
0.0000000000000069
 21
0.0
 72
     1
 10
0.0000000000000069
 20
0.0
 11
-2.999999999999994
 21
0.0
 97
        0
 75
     0
 76
     1
 98
        1
 10
0.0
 20
0.0
  0
ENDBLK
  5
103
330
101
100
AcDbEntity
  8
0
100
AcDbBlockEnd
  0
BLOCK
  5
1BF
330
1BE
100
AcDbEntity
  8
0
100
AcDbBlockBegin
  2
*D8
 70
     1
 10
0.0
 20
0.0
 30
0.0
  3
*D8
  1
*D8
  0
LINE
  5
1C1
330
1BE
100
AcDbEntity
  8
치수문자_일반주서
 62
     0
370
    -2
100
AcDbLine
 10
130.0875000000001
 20
32.06649999999992
 30
0.0
 11
130.0875000000001
 21
40.96919864395652
 31
0.0
  0
LINE
  5
1C2
330
1BE
100
AcDbEntity
  8
치수문자_일반주서
 62
     0
370
    -2
100
AcDbLine
 10
79.28750000000005
 20
32.01979691240962
 30
0.0
 11
79.28750000000005
 21
40.96919864395652
 31
0.0
  0
LINE
  5
1C3
330
1BE
100
AcDbEntity
  8
치수문자_일반주서
 62
     0
370
    -2
100
AcDbLine
 10
126.7855000000001
 20
40.96919864395652
 30
0.0
 11
82.58950000000004
 21
40.96919864395652
 31
0.0
  0
SOLID
  5
1C4
330
1BE
100
AcDbEntity
  8
치수문자_일반주서
 62
     0
100
AcDbTrace
 10
126.7855000000001
 20
40.41886531062318
 30
0.0
 11
126.7855000000001
 21
41.51953197728985
 31
0.0
 12
130.0875000000001
 22
40.96919864395652
 32
0.0
 13
130.0875000000001
 23
40.96919864395652
 33
0.0
  0
SOLID
  5
1C5
330
1BE
100
AcDbEntity
  8
치수문자_일반주서
 62
     0
100
AcDbTrace
 10
82.58950000000004
 20
41.51953197728985
 30
0.0
 11
82.58950000000004
 21
40.41886531062318
 31
0.0
 12
79.28750000000005
 22
40.96919864395652
 32
0.0
 13
79.28750000000005
 23
40.96919864395652
 33
0.0
  0
MTEXT
  5
1C6
330
1BE
100
AcDbEntity
  8
치수문자_일반주서
 62
     0
100
AcDbMText
 10
105.8376400924131
 20
45.34419864395652
 30
0.0
 40
3.5
 41
0.0
 71
     2
 72
     1
  1
\A1;50.8 [2]
  7
SLDTEXTSTYLE0
 73
     1
 44
1.0
  0
POINT
  5
1C7
330
1BE
100
AcDbEntity
  8
Defpoints
 62
     0
100
AcDbPoint
 10
130.0875000000001
 20
32.00399999999992
 30
0.0
  0
POINT
  5
1C8
330
1BE
100
AcDbEntity
  8
Defpoints
 62
     0
100
AcDbPoint
 10
79.28750000000005
 20
31.95729691240962
 30
0.0
  0
POINT
  5
1C9
330
1BE
100
AcDbEntity
  8
Defpoints
 62
     0
100
AcDbPoint
 10
79.28750000000005
 20
40.96919864395652
 30
0.0
  0
ENDBLK
  5
1C0
330
1BE
100
AcDbEntity
  8
0
100
AcDbBlockEnd
  0
BLOCK
  5
1CB
330
1CA
100
AcDbEntity
  8
0
100
AcDbBlockBegin
  2
*D9
 70
     1
 10
0.0
 20
0.0
 30
0.0
  3
*D9
  1
*D9
  0
LINE
  5
1CD
330
1CA
100
AcDbEntity
  8
치수문자_일반주서
 62
     0
370
    -2
100
AcDbLine
 10
130.0875000000001
 20
32.06649999999992
 30
0.0
 11
130.0875000000001
 21
50.91314679328071
 31
0.0
  0
LINE
  5
1CE
330
1CA
100
AcDbEntity
  8
치수문자_일반주서
 62
     0
370
    -2
100
AcDbLine
 10
15.78750000000005
 20
29.52649999999991
 30
0.0
 11
15.78750000000005
 21
50.91314679328071
 31
0.0
  0
LINE
  5
1CF
330
1CA
100
AcDbEntity
  8
치수문자_일반주서
 62
     0
370
    -2
100
AcDbLine
 10
126.7855000000001
 20
50.91314679328071
 30
0.0
 11
19.08950000000005
 21
50.91314679328071
 31
0.0
  0
SOLID
  5
1D0
330
1CA
100
AcDbEntity
  8
치수문자_일반주서
 62
     0
100
AcDbTrace
 10
126.7855000000001
 20
50.36281345994738
 30
0.0
 11
126.7855000000001
 21
51.46348012661404
 31
0.0
 12
130.0875000000001
 22
50.91314679328071
 32
0.0
 13
130.0875000000001
 23
50.91314679328071
 33
0.0
  0
SOLID
  5
1D1
330
1CA
100
AcDbEntity
  8
치수문자_일반주서
 62
     0
100
AcDbTrace
 10
19.08950000000005
 20
51.46348012661404
 30
0.0
 11
19.08950000000005
 21
50.36281345994738
 31
0.0
 12
15.78750000000005
 22
50.91314679328071
 32
0.0
 13
15.78750000000005
 23
50.91314679328071
 33
0.0
  0
MTEXT
  5
1D2
330
1CA
100
AcDbEntity
  8
치수문자_일반주서
 62
     0
100
AcDbMText
 10
72.93750000000006
 20
55.28814679328071
 30
0.0
 40
3.5
 41
0.0
 71
     2
 72
     1
  1
\A1;114.3 [4 1/2]
  7
SLDTEXTSTYLE0
 73
     1
 44
1.0
  0
POINT
  5
1D3
330
1CA
100
AcDbEntity
  8
Defpoints
 62
     0
100
AcDbPoint
 10
130.0875000000001
 20
32.00399999999992
 30
0.0
  0
POINT
  5
1D4
330
1CA
100
AcDbEntity
  8
Defpoints
 62
     0
100
AcDbPoint
 10
15.78750000000005
 20
29.46399999999991
 30
0.0
  0
POINT
  5
1D5
330
1CA
100
AcDbEntity
  8
Defpoints
 62
     0
100
AcDbPoint
 10
15.78750000000005
 20
50.91314679328071
 30
0.0
  0
ENDBLK
  5
1CC
330
1CA
100
AcDbEntity
  8
0
100
AcDbBlockEnd
  0
BLOCK
  5
1D7
330
1D6
100
AcDbEntity
  8
0
100
AcDbBlockBegin
  2
*D10
 70
     1
 10
0.0
 20
0.0
 30
0.0
  3
*D10
  1
*D10
  0
LINE
  5
1D9
330
1D6
100
AcDbEntity
  8
치수문자_일반주서
 62
     0
370
    -2
100
AcDbLine
 10
15.72500000000005
 20
32.00399999999988
 30
0.0
 11
4.374999999999998
 21
32.00399999999984
 31
0.0
  0
LINE
  5
1DA
330
1D6
100
AcDbEntity
  8
치수문자_일반주서
 62
     0
370
    -2
100
AcDbLine
 10
18.26500000000005
 20
6.603999999999917
 30
0.0
 11
4.375000000000087
 21
6.603999999999866
 31
0.0
  0
LINE
  5
1DB
330
1D6
100
AcDbEntity
  8
치수문자_일반주서
 62
     0
370
    -2
100
AcDbLine
 10
4.37500000000001
 20
28.70199999999984
 30
0.0
 11
4.375000000000075
 21
9.905999999999866
 31
0.0
  0
SOLID
  5
1DC
330
1D6
100
AcDbEntity
  8
치수문자_일반주서
 62
     0
100
AcDbTrace
 10
4.925333333333343
 20
28.70199999999985
 30
0.0
 11
3.824666666666677
 21
28.70199999999984
 31
0.0
 12
4.374999999999998
 22
32.00399999999984
 32
0.0
 13
4.374999999999998
 23
32.00399999999984
 33
0.0
  0
SOLID
  5
1DD
330
1D6
100
AcDbEntity
  8
치수문자_일반주서
 62
     0
100
AcDbTrace
 10
3.824666666666742
 20
9.905999999999864
 30
0.0
 11
4.925333333333409
 21
9.905999999999867
 31
0.0
 12
4.375000000000087
 22
6.603999999999866
 32
0.0
 13
4.375000000000087
 23
6.603999999999866
 33
0.0
  0
MTEXT
  5
1DE
330
1D6
100
AcDbEntity
  8
치수문자_일반주서
 62
     0
100
AcDbMText
 10
0.0000000000000426
 20
19.30399999999988
 30
0.0
 40
3.5
 41
0.0
 71
     2
 72
     1
  1
\A1;%%c25.4 [1]
  7
SLDTEXTSTYLE0
 11
-3.496765431890260E-15
 21
1.0
 31
0.0
 73
     1
 44
1.0
  0
POINT
  5
1DF
330
1D6
100
AcDbEntity
  8
Defpoints
 62
     0
100
AcDbPoint
 10
15.78750000000005
 20
32.00399999999988
 30
0.0
  0
POINT
  5
1E0
330
1D6
100
AcDbEntity
  8
Defpoints
 62
     0
100
AcDbPoint
 10
18.32750000000005
 20
6.603999999999917
 30
0.0
  0
POINT
  5
1E1
330
1D6
100
AcDbEntity
  8
Defpoints
 62
     0
100
AcDbPoint
 10
4.375000000000085
 20
6.603999999999865
 30
0.0
  0
ENDBLK
  5
1D8
330
1D6
100
AcDbEntity
  8
0
100
AcDbBlockEnd
  0
BLOCK
  5
1E3
330
1E2
100
AcDbEntity
  8
0
100
AcDbBlockBegin
  2
*D11
 70
     1
 10
0.0
 20
0.0
 30
0.0
  3
*D11
  1
*D11
  0
LINE
  5
1E5
330
1E2
100
AcDbEntity
  8
치수문자_일반주서
 62
     0
370
    -2
100
AcDbLine
 10
130.1500000000001
 20
32.00399999999992
 30
0.0
 11
151.0287575006283
 21
32.004
 31
0.0
  0
LINE
  5
1E6
330
1E2
100
AcDbEntity
  8
치수문자_일반주서
 62
     0
370
    -2
100
AcDbLine
 10
130.1500000000001
 20
6.603999999999921
 30
0.0
 11
151.0287575006284
 21
6.603999999999999
 31
0.0
  0
LINE
  5
1E7
330
1E2
100
AcDbEntity
  8
치수문자_일반주서
 62
     0
370
    -2
100
AcDbLine
 10
151.0287575006283
 20
32.004
 30
0.0
 11
151.0287575006282
 21
59.82675000000003
 31
0.0
  0
LINE
  5
1E8
330
1E2
100
AcDbEntity
  8
치수문자_일반주서
 62
     0
370
    -2
100
AcDbLine
 10
151.0287575006283
 20
28.702
 30
0.0
 11
151.0287575006284
 21
9.905999999999999
 31
0.0
  0
SOLID
  5
1E9
330
1E2
100
AcDbEntity
  8
치수문자_일반주서
 62
     0
100
AcDbTrace
 10
151.5790908339616
 20
28.702
 30
0.0
 11
150.4784241672949
 21
28.70199999999999
 31
0.0
 12
151.0287575006283
 22
32.004
 32
0.0
 13
151.0287575006283
 23
32.004
 33
0.0
  0
SOLID
  5
1EA
330
1E2
100
AcDbEntity
  8
치수문자_일반주서
 62
     0
100
AcDbTrace
 10
150.478424167295
 20
9.905999999999997
 30
0.0
 11
151.5790908339617
 21
9.906
 31
0.0
 12
151.0287575006284
 22
6.603999999999999
 32
0.0
 13
151.0287575006284
 23
6.603999999999999
 33
0.0
  0
MTEXT
  5
1EB
330
1E2
100
AcDbEntity
  8
치수문자_일반주서
 62
     0
100
AcDbMText
 10
146.6537575006282
 20
49.76425000000001
 30
0.0
 40
3.5
 41
0.0
 71
     2
 72
     1
  1
\A1;%%c25.4 [1]
  7
SLDTEXTSTYLE0
 11
-3.356894814614647E-15
 21
1.0
 31
0.0
 73
     1
 44
1.0
  0
POINT
  5
1EC
330
1E2
100
AcDbEntity
  8
Defpoints
 62
     0
100
AcDbPoint
 10
130.0875000000001
 20
32.00399999999992
 30
0.0
  0
POINT
  5
1ED
330
1E2
100
AcDbEntity
  8
Defpoints
 62
     0
100
AcDbPoint
 10
130.0875000000001
 20
6.603999999999921
 30
0.0
  0
POINT
  5
1EE
330
1E2
100
AcDbEntity
  8
Defpoints
 62
     0
100
AcDbPoint
 10
151.0287575006283
 20
6.603999999999999
 30
0.0
  0
ENDBLK
  5
1E4
330
1E2
100
AcDbEntity
  8
0
100
AcDbBlockEnd
  0
BLOCK
  5
21C
330
21B
100
AcDbEntity
  8
0
100
AcDbBlockBegin
  2
*D12
 70
     1
 10
0.0
 20
0.0
 30
0.0
  3
*D12
  1
*D12
  0
LINE
  5
21E
330
21B
100
AcDbEntity
  8
치수문자_일반주서
 62
     0
370
    -2
100
AcDbLine
 10
52.80000000000007
 20
14.35000000000001
 30
0.0
 11
52.80000000000007
 21
24.37334847445118
 31
0.0
  0
LINE
  5
21F
330
21B
100
AcDbEntity
  8
치수문자_일반주서
 62
     0
370
    -2
100
AcDbLine
 10
2.000000000000028
 20
14.30329691240971
 30
0.0
 11
2.000000000000028
 21
24.37334847445118
 31
0.0
  0
LINE
  5
220
330
21B
100
AcDbEntity
  8
치수문자_일반주서
 62
     0
370
    -2
100
AcDbLine
 10
49.49800000000007
 20
24.37334847445118
 30
0.0
 11
5.302000000000028
 21
24.37334847445118
 31
0.0
  0
SOLID
  5
221
330
21B
100
AcDbEntity
  8
치수문자_일반주서
 62
     0
100
AcDbTrace
 10
49.49800000000007
 20
23.82301514111785
 30
0.0
 11
49.49800000000007
 21
24.92368180778452
 31
0.0
 12
52.80000000000007
 22
24.37334847445118
 32
0.0
 13
52.80000000000007
 23
24.37334847445118
 33
0.0
  0
SOLID
  5
222
330
21B
100
AcDbEntity
  8
치수문자_일반주서
 62
     0
100
AcDbTrace
 10
5.302000000000028
 20
24.92368180778452
 30
0.0
 11
5.302000000000028
 21
23.82301514111785
 31
0.0
 12
2.000000000000028
 22
24.37334847445118
 32
0.0
 13
2.000000000000028
 23
24.37334847445118
 33
0.0
  0
MTEXT
  5
223
330
21B
100
AcDbEntity
  8
치수문자_일반주서
 62
     0
100
AcDbMText
 10
25.51890760396475
 20
28.74834847445118
 30
0.0
 40
3.5
 41
0.0
 71
     2
 72
     1
  1
\A1;50.8 [2]
  7
SLDTEXTSTYLE0
 73
     1
 44
1.0
  0
POINT
  5
224
330
21B
100
AcDbEntity
  8
Defpoints
 62
     0
100
AcDbPoint
 10
52.80000000000007
 20
14.28750000000001
 30
0.0
  0
POINT
  5
225
330
21B
100
AcDbEntity
  8
Defpoints
 62
     0
100
AcDbPoint
 10
2.000000000000028
 20
14.24079691240971
 30
0.0
  0
POINT
  5
226
330
21B
100
AcDbEntity
  8
Defpoints
 62
     0
100
AcDbPoint
 10
2.000000000000028
 20
24.37334847445118
 30
0.0
  0
ENDBLK
  5
21D
330
21B
100
AcDbEntity
  8
0
100
AcDbBlockEnd
  0
BLOCK
  5
228
330
227
100
AcDbEntity
  8
0
100
AcDbBlockBegin
  2
*D13
 70
     1
 10
0.0
 20
0.0
 30
0.0
  3
*D13
  1
*D13
  0
LINE
  5
22A
330
227
100
AcDbEntity
  8
치수문자_일반주서
 62
     0
370
    -2
100
AcDbLine
 10
52.80000000000007
 20
14.35000000000001
 30
0.0
 11
52.80000000000007
 21
35.56029014244091
 31
0.0
  0
LINE
  5
22B
330
227
100
AcDbEntity
  8
치수문자_일반주서
 62
     0
370
    -2
100
AcDbLine
 10
-61.49999999999999
 20
10.2225
 30
0.0
 11
-61.49999999999999
 21
35.56029014244091
 31
0.0
  0
LINE
  5
22C
330
227
100
AcDbEntity
  8
치수문자_일반주서
 62
     0
370
    -2
100
AcDbLine
 10
49.49800000000007
 20
35.56029014244091
 30
0.0
 11
-58.19799999999999
 21
35.56029014244091
 31
0.0
  0
SOLID
  5
22D
330
227
100
AcDbEntity
  8
치수문자_일반주서
 62
     0
100
AcDbTrace
 10
49.49800000000007
 20
35.00995680910757
 30
0.0
 11
49.49800000000007
 21
36.11062347577424
 31
0.0
 12
52.80000000000007
 22
35.56029014244091
 32
0.0
 13
52.80000000000007
 23
35.56029014244091
 33
0.0
  0
SOLID
  5
22E
330
227
100
AcDbEntity
  8
치수문자_일반주서
 62
     0
100
AcDbTrace
 10
-58.19799999999999
 20
36.11062347577424
 30
0.0
 11
-58.19799999999999
 21
35.00995680910757
 31
0.0
 12
-61.49999999999999
 22
35.56029014244091
 32
0.0
 13
-61.49999999999999
 23
35.56029014244091
 33
0.0
  0
MTEXT
  5
22F
330
227
100
AcDbEntity
  8
치수문자_일반주서
 62
     0
100
AcDbMText
 10
-11.49374999999998
 20
39.93529014244091
 30
0.0
 40
3.5
 41
0.0
 71
     2
 72
     1
  1
\A1;114.3 [4 1/2]
  7
SLDTEXTSTYLE0
 73
     1
 44
1.0
  0
POINT
  5
230
330
227
100
AcDbEntity
  8
Defpoints
 62
     0
100
AcDbPoint
 10
52.80000000000007
 20
14.28750000000001
 30
0.0
  0
POINT
  5
231
330
227
100
AcDbEntity
  8
Defpoints
 62
     0
100
AcDbPoint
 10
-61.49999999999999
 20
10.16
 30
0.0
  0
POINT
  5
232
330
227
100
AcDbEntity
  8
Defpoints
 62
     0
100
AcDbPoint
 10
-61.49999999999999
 20
35.56029014244091
 30
0.0
  0
ENDBLK
  5
229
330
227
100
AcDbEntity
  8
0
100
AcDbBlockEnd
  0
BLOCK
  5
234
330
233
100
AcDbEntity
  8
0
100
AcDbBlockBegin
  2
*D14
 70
     1
 10
0.0
 20
0.0
 30
0.0
  3
*D14
  1
*D14
  0
LINE
  5
236
330
233
100
AcDbEntity
  8
치수문자_일반주서
 62
     0
370
    -2
100
AcDbLine
 10
-61.5625
 20
12.69999999999997
 30
0.0
 11
-72.91250000000005
 21
12.69999999999993
 31
0.0
  0
LINE
  5
237
330
233
100
AcDbEntity
  8
치수문자_일반주서
 62
     0
370
    -2
100
AcDbLine
 10
-59.02250000000001
 20
-12.69999999999999
 30
0.0
 11
-72.91249999999997
 21
-12.70000000000004
 31
0.0
  0
LINE
  5
238
330
233
100
AcDbEntity
  8
치수문자_일반주서
 62
     0
370
    -2
100
AcDbLine
 10
-72.91250000000004
 20
9.397999999999932
 30
0.0
 11
-72.91249999999998
 21
-9.398000000000044
 31
0.0
  0
SOLID
  5
239
330
233
100
AcDbEntity
  8
치수문자_일반주서
 62
     0
100
AcDbTrace
 10
-72.36216666666671
 20
9.397999999999934
 30
0.0
 11
-73.46283333333336
 21
9.39799999999993
 31
0.0
 12
-72.91250000000005
 22
12.69999999999993
 32
0.0
 13
-72.91250000000005
 23
12.69999999999993
 33
0.0
  0
SOLID
  5
23A
330
233
100
AcDbEntity
  8
치수문자_일반주서
 62
     0
100
AcDbTrace
 10
-73.46283333333331
 20
-9.398000000000046
 30
0.0
 11
-72.36216666666665
 21
-9.398000000000042
 31
0.0
 12
-72.91249999999997
 22
-12.70000000000004
 32
0.0
 13
-72.91249999999997
 23
-12.70000000000004
 33
0.0
  0
MTEXT
  5
23B
330
233
100
AcDbEntity
  8
치수문자_일반주서
 62
     0
100
AcDbMText
 10
-77.28750000000001
 20
-0.0000000000000301
 30
0.0
 40
3.5
 41
0.0
 71
     2
 72
     1
  1
\A1;%%c25.4 [1]
  7
SLDTEXTSTYLE0
 11
-3.356894814614650E-15
 21
1.0
 31
0.0
 73
     1
 44
1.0
  0
POINT
  5
23C
330
233
100
AcDbEntity
  8
Defpoints
 62
     0
100
AcDbPoint
 10
-61.5
 20
12.69999999999997
 30
0.0
  0
POINT
  5
23D
330
233
100
AcDbEntity
  8
Defpoints
 62
     0
100
AcDbPoint
 10
-58.96000000000001
 20
-12.69999999999999
 30
0.0
  0
POINT
  5
23E
330
233
100
AcDbEntity
  8
Defpoints
 62
     0
100
AcDbPoint
 10
-72.91249999999997
 20
-12.70000000000005
 30
0.0
  0
ENDBLK
  5
235
330
233
100
AcDbEntity
  8
0
100
AcDbBlockEnd
  0
BLOCK
  5
240
330
23F
100
AcDbEntity
  8
0
100
AcDbBlockBegin
  2
*D15
 70
     1
 10
0.0
 20
0.0
 30
0.0
  3
*D15
  1
*D15
  0
LINE
  5
242
330
23F
100
AcDbEntity
  8
치수문자_일반주서
 62
     0
370
    -2
100
AcDbLine
 10
52.86250000000007
 20
14.28750000000001
 30
0.0
 11
76.35891468820678
 21
14.2875000000001
 31
0.0
  0
LINE
  5
243
330
23F
100
AcDbEntity
  8
치수문자_일반주서
 62
     0
370
    -2
100
AcDbLine
 10
52.86250000000001
 20
-14.28749999999999
 30
0.0
 11
76.35891468820688
 21
-14.2874999999999
 31
0.0
  0
LINE
  5
244
330
23F
100
AcDbEntity
  8
치수문자_일반주서
 62
     0
370
    -2
100
AcDbLine
 10
76.35891468820678
 20
14.2875000000001
 30
0.0
 11
76.35891468820665
 21
50.45528125000013
 31
0.0
  0
LINE
  5
245
330
23F
100
AcDbEntity
  8
치수문자_일반주서
 62
     0
370
    -2
100
AcDbLine
 10
76.3589146882068
 20
10.9855000000001
 30
0.0
 11
76.35891468820687
 21
-10.9854999999999
 31
0.0
  0
SOLID
  5
246
330
23F
100
AcDbEntity
  8
치수문자_일반주서
 62
     0
100
AcDbTrace
 10
76.90924802154012
 20
10.9855000000001
 30
0.0
 11
75.80858135487347
 21
10.9855000000001
 31
0.0
 12
76.35891468820678
 22
14.2875000000001
 32
0.0
 13
76.35891468820678
 23
14.2875000000001
 33
0.0
  0
SOLID
  5
247
330
23F
100
AcDbEntity
  8
치수문자_일반주서
 62
     0
100
AcDbTrace
 10
75.80858135487354
 20
-10.9854999999999
 30
0.0
 11
76.9092480215402
 21
-10.9854999999999
 31
0.0
 12
76.35891468820688
 22
-14.2874999999999
 32
0.0
 13
76.35891468820688
 23
-14.2874999999999
 33
0.0
  0
MTEXT
  5
248
330
23F
100
AcDbEntity
  8
치수문자_일반주서
 62
     0
100
AcDbMText
 10
71.98391468820671
 20
34.26778125000011
 30
0.0
 40
3.5
 41
0.0
 71
     2
 72
     1
  1
\A1;%%c28.58 [1 1/8]
  7
SLDTEXTSTYLE0
 11
-3.481224252192967E-15
 21
1.0
 31
0.0
 73
     1
 44
1.0
  0
POINT
  5
249
330
23F
100
AcDbEntity
  8
Defpoints
 62
     0
100
AcDbPoint
 10
52.80000000000007
 20
14.28750000000001
 30
0.0
  0
POINT
  5
24A
330
23F
100
AcDbEntity
  8
Defpoints
 62
     0
100
AcDbPoint
 10
52.80000000000001
 20
-14.28749999999999
 30
0.0
  0
POINT
  5
24B
330
23F
100
AcDbEntity
  8
Defpoints
 62
     0
100
AcDbPoint
 10
76.35891468820688
 20
-14.2874999999999
 30
0.0
  0
ENDBLK
  5
241
330
23F
100
AcDbEntity
  8
0
100
AcDbBlockEnd
  0
ENDSEC
  0
SECTION
  2
ENTITIES
  0
LINE
  5
9C
330
1F
100
AcDbEntity
  8
참조1
100
AcDbLine
 10
56.76231532850781
 20
0.0010749287238892
 30
0.0
 11
56.76231532850781
 21
4.77827382445253
 31
0.0
  0
LINE
  5
9E
330
1F
100
AcDbEntity
  8
참조1
100
AcDbLine
 10
9.931065328507794
 20
0.0010749287238892
 30
0.0
 11
9.931065328507799
 21
-39.99892507127611
 31
0.0
  0
LINE
  5
9F
330
1F
100
AcDbEntity
  8
참조1
100
AcDbLine
 10
9.931065328507799
 20
-39.99892507127611
 30
0.0
 11
-17.9277914858009
 21
-39.9989250712761
 31
0.0
  0
INSERT
  5
A1
330
1F
100
AcDbEntity
  8
0
  6
Continuous
 62
     7
100
AcDbBlockReference
 66
     1
  2
블럭10
 10
-17.48830760314105
 20
-52.04609937292004
 30
0.0
  0
ATTRIB
  5
A2
330
A1
100
AcDbEntity
  8
FORMAT
 62
     2
100
AcDbText
 10
-26.66960289188233
 20
-49.97073246008785
 30
0.0
 40
4.233333333333333
  1
E2020108 [ 4 FLUTE ]
 41
0.75
  7
SLDTEXTSTYLE0
 11
-26.66960289188233
 21
-52.08739912675452
 31
0.0
100
AcDbAttribute
  2
AUTOATTR0
 70
     0
 74
     1
  0
SEQEND
  5
A3
330
A1
100
AcDbEntity
  8
0
  6
Continuous
 62
     7
  0
HATCH
  5
A4
330
1F
100
AcDbEntity
  8
중심선
100
AcDbHatch
 10
0.0
 20
0.0
 30
0.0
210
0.0
220
0.0
230
1.0
  2
SOLID
 70
     1
 71
     0
 91
        1
 92
        0
 93
        4
 72
     1
 10
-11.77339829876022
 20
-35.7989250712761
 11
-15.2196735425975
 21
-35.7989250712761
 72
     1
 10
-15.2196735425975
 20
-35.7989250712761
 11
-17.34790340180152
 21
-38.3352506518487
 72
     1
 10
-17.34790340180152
 20
-38.3352506518487
 11
-13.90159507285109
 21
-38.33521122254621
 72
     1
 10
-13.90159507285109
 20
-38.33521122254621
 11
-11.77339829876022
 21
-35.7989250712761
 97
        0
 75
     0
 76
     1
 98
        1
 10
-13.47909999952364
 20
0.0
  0
HATCH
  5
A5
330
1F
100
AcDbEntity
  8
중심선
100
AcDbHatch
 10
0.0
 20
0.0
 30
0.0
210
0.0
220
0.0
230
1.0
  2
SOLID
 70
     1
 71
     0
 91
        1
 92
        0
 93
        4
 72
     1
 10
-6.760634307724266
 20
-35.79892507127613
 11
-10.20690955156155
 21
-35.7989250712761
 72
     1
 10
-10.20690955156155
 20
-35.7989250712761
 11
-14.73804755991894
 21
-41.19892507127612
 72
     1
 10
-14.73804755991894
 20
-41.19892507127612
 11
-11.29177231608165
 21
-41.19892507127612
 72
     1
 10
-11.29177231608165
 20
-41.19892507127612
 11
-6.760634307724267
 21
-35.79892507127613
 97
        0
 75
     0
 76
     1
 98
        1
 10
-13.47909999952364
 20
0.0
  0
HATCH
  5
A6
330
1F
100
AcDbEntity
  8
중심선
100
AcDbHatch
 10
0.0
 20
0.0
 30
0.0
210
0.0
220
0.0
230
1.0
  2
SOLID
 70
     1
 71
     0
 91
        1
 92
        0
 93
        4
 72
     1
 10
-1.747870316688315
 20
-35.79892507127608
 11
-5.194145560525431
 21
-35.79892507127608
 72
     1
 10
-5.194145560525431
 20
-35.79892507127608
 11
-12.24258246241473
 21
-44.19892507127612
 72
     1
 10
-12.24258246241473
 20
-44.19892507127612
 11
-8.796307218577452
 21
-44.19892507127612
 72
     1
 10
-8.796307218577454
 20
-44.19892507127612
 11
-1.747870316688316
 21
-35.79892507127608
 97
        0
 75
     0
 76
     1
 98
        1
 10
-13.47909999952364
 20
0.0
  0
HATCH
  5
A7
330
1F
100
AcDbEntity
  8
중심선
100
AcDbHatch
 10
0.0
 20
0.0
 30
0.0
210
0.0
220
0.0
230
1.0
  2
SOLID
 70
     1
 71
     0
 91
        1
 92
        0
 93
        6
 72
     3
 10
3.052020114323827
 20
-39.99892507132738
 11
3.960054785062283
 21
1.540882976769353E-10
 40
0.3939339440162628
 50
17.09539180608437
 51
320.0019657685075
 73
     0
 72
     1
 10
4.735019770024426
 20
-38.58681907591438
 11
7.040321643725463
 21
-36.65249236586649
 72
     3
 10
3.052020114270981
 20
-39.99892507127625
 11
6.600054785286829
 21
-1.278976924368180E-13
 40
0.636358354079598
 50
39.99873849337408
 51
368.4976242363725
 73
     1
 72
     1
 10
9.477352606171593
 20
-39.03892507120613
 11
1.732087421106904
 21
-39.03892507120613
 72
     1
 10
1.732087421106904
 20
-39.03892507120613
 11
1.732062376660972
 21
-40.95892507120602
 72
     1
 10
1.732062376660972
 20
-40.95892507120602
 11
6.173442146133009
 21
-40.95892507120599
 97
        0
 75
     0
 76
     1
 98
        1
 10
-13.47909999952364
 20
0.0
  0
LINE
  5
FA
330
1F
100
AcDbEntity
  8
참조1
100
AcDbLine
 10
80.04454914385336
 20
7.441074928723896
 30
0.0
 11
80.04454914385336
 21
-7.438925071276109
 31
0.0
  0
LINE
  5
FB
330
1F
100
AcDbEntity
  8
참조1
100
AcDbLine
 10
92.74454914385336
 20
5.441074928723896
 30
0.0
 11
80.04454914385336
 21
5.441074928723896
 31
0.0
  0
SOLID
  5
FC
330
1F
100
AcDbEntity
  8
참조1
100
AcDbTrace
 10
80.04454914385336
 20
5.441074928723896
 30
0.0
 11
86.39454914385335
 21
4.425074928723896
 31
0.0
 12
86.39454914385335
 22
6.457074928723896
 32
0.0
 13
86.39454914385335
 23
6.457074928723896
 33
0.0
  0
LINE
  5
FD
330
1F
100
AcDbEntity
  8
참조1
100
AcDbLine
 10
92.74454914385336
 20
-5.438925071276109
 30
0.0
 11
80.04454914385336
 21
-5.438925071276109
 31
0.0
  0
SOLID
  5
FE
330
1F
100
AcDbEntity
  8
참조1
100
AcDbTrace
 10
80.04454914385336
 20
-5.438925071276109
 30
0.0
 11
86.39454914385335
 21
-6.454925071276109
 31
0.0
 12
86.39454914385335
 22
-4.422925071276109
 32
0.0
 13
86.39454914385335
 23
-4.422925071276109
 33
0.0
  0
MTEXT
  5
FF
330
1F
100
AcDbEntity
  8
참조1
100
AcDbMText
 10
89.64466395441593
 20
11.06679249473997
 30
0.0
 40
3.5
 41
0.0
 71
     1
 72
     1
  1
A
  7
SLDTEXTSTYLE0
 73
     1
 44
1.0
  0
MTEXT
  5
100
330
1F
100
AcDbEntity
  8
참조1
100
AcDbMText
 10
89.64466395441593
 20
0.1867924947399659
 30
0.0
 40
3.5
 41
0.0
 71
     1
 72
     1
  1
A
  7
SLDTEXTSTYLE0
 73
     1
 44
1.0
  0
ARC
  5
1F0
330
1F
100
AcDbEntity
  8
0
  6
Continuous
 62
     1
370
    15
100
AcDbCircle
 10
38.51250000000005
 20
0.0000000000000022
 30
0.0
 40
14.28749999999999
100
AcDbArc
 50
332.8866719154548
 51
0.0
  0
ARC
  5
1F1
330
1F
100
AcDbEntity
  8
0
  6
Continuous
 62
     1
370
    15
100
AcDbCircle
 10
38.51250000000005
 20
0.0000000000000022
 30
0.0
 40
14.2875
100
AcDbArc
 50
270.0000000000007
 51
295.8912616936076
  0
ARC
  5
1F2
330
1F
100
AcDbEntity
  8
0
  6
Continuous
 62
     1
370
    15
100
AcDbCircle
 10
38.51250000000005
 20
0.0000000000000022
 30
0.0
 40
14.28749999999999
100
AcDbArc
 50
64.08935623227144
 51
90.0
  0
ARC
  5
1F3
330
1F
100
AcDbEntity
  8
0
  6
Continuous
 62
     1
370
    15
100
AcDbCircle
 10
38.51250000000005
 20
0.0000000000000022
 30
0.0
 40
14.28749999999999
100
AcDbArc
 50
0.0
 51
27.10638281304887
  0
LINE
  5
1F4
330
1F
100
AcDbEntity
  8
0
  6
Continuous
 62
     1
370
    15
100
AcDbLine
 10
36.64500081780429
 20
-14.28750000000001
 30
0.0
 11
38.51250000000005
 21
-14.28750000000001
 31
0.0
  0
LINE
  5
1F5
330
1F
100
AcDbEntity
  8
0
  6
Continuous
 62
     1
370
    15
100
AcDbLine
 10
6.485887478338157
 20
14.28749999999999
 30
0.0
 11
2.000000000000028
 21
14.28749999999999
 31
0.0
  0
LINE
  5
1F6
330
1F
100
AcDbEntity
  8
0
  6
Continuous
 62
     1
370
    15
100
AcDbLine
 10
2.000000000000028
 20
-14.28750000000001
 30
0.0
 11
6.485887478338299
 21
-14.28750000000001
 31
0.0
  0
LINE
  5
1F7
330
1F
100
AcDbEntity
  8
0
  6
Continuous
 62
     1
370
    15
100
AcDbLine
 10
38.51250000000005
 20
14.28749999999999
 30
0.0
 11
36.64500081780417
 21
14.28749999999999
 31
0.0
  0
LINE
  5
1F8
330
1F
100
AcDbEntity
  8
외형선
  6
Continuous
370
    15
100
AcDbLine
 10
-58.95999999999998
 20
-12.7
 30
0.0
 11
2.000000000000028
 21
-12.7
 31
0.0
  0
LINE
  5
1F9
330
1F
100
AcDbEntity
  8
외형선
  6
Continuous
370
    15
100
AcDbLine
 10
-61.49999999999999
 20
-10.16000000000001
 30
0.0
 11
-58.95999999999998
 21
-12.7
 31
0.0
  0
SPLINE
  5
1FB
330
1F
100
AcDbEntity
  8
0
  6
Continuous
 62
     1
370
    15
100
AcDbSpline
210
0.0
220
0.0
230
1.0
 70
     8
 71
     3
 72
    14
 73
    10
 74
     0
 42
0.000000001
 43
0.00000001
 40
0.0
 40
0.0
 40
0.0
 40
0.0
 40
0.0092076834844942
 40
0.1412950264104016
 40
0.2733748808169392
 40
0.4186824096911412
 40
0.563996117541187
 40
0.7093185765543433
 40
0.7553614944587043
 40
0.7553614944587043
 40
0.7553614944587043
 40
0.7553614944587043
 10
21.60536213410063
 20
-11.69494229593301
 30
0.0
 10
21.52570056884144
 20
-11.72365556211812
 30
0.0
 10
20.30326682791787
 20
-12.16427037156356
 30
0.0
 10
17.93827904520685
 20
-12.8103024280042
 30
0.0
 10
14.39594065230375
 20
-13.61603532976742
 30
0.0
 10
10.73871780877371
 20
-14.13007920776096
 30
0.0
 10
6.967017204477742
 20
-14.34150730895233
 30
0.0
 10
4.054071735703786
 20
-14.2419975528142
 30
0.0
 10
2.398367081703441
 20
-14.0965760962043
 30
0.0
 10
1.999999999999972
 20
-14.05595361946555
 30
0.0
  0
SPLINE
  5
1FC
330
1F
100
AcDbEntity
  8
0
  6
Continuous
 62
     1
370
    15
100
AcDbSpline
210
0.0
220
0.0
230
1.0
 70
     8
 71
     3
 72
    40
 73
    36
 74
     0
 42
0.000000001
 43
0.00000001
 40
0.1481392100204283
 40
0.1481392100204283
 40
0.1481392100204283
 40
0.1481392100204283
 40
0.1874999999999998
 40
0.1874999999999998
 40
0.2499999999999997
 40
0.2499999999999997
 40
0.3124999999999997
 40
0.3124999999999997
 40
0.3749999999999996
 40
0.3749999999999996
 40
0.4374999999999995
 40
0.4374999999999995
 40
0.4999999999999994
 40
0.4999999999999994
 40
0.5624999999999993
 40
0.5624999999999993
 40
0.6249999999999993
 40
0.6249999999999993
 40
0.6874999999999992
 40
0.6874999999999992
 40
0.7499999999999991
 40
0.7499999999999991
 40
0.7812499999999994
 40
0.7812499999999994
 40
0.8124999999999998
 40
0.8124999999999998
 40
0.8437500000000001
 40
0.8437500000000001
 40
0.8750000000000003
 40
0.8750000000000003
 40
0.9375000000000002
 40
0.9375000000000002
 40
0.96875
 40
0.96875
 40
1.0
 40
1.0
 40
1.0
 40
1.0
 10
2.000000000000057
 20
14.07958141774136
 30
0.0
 10
2.563299754366625
 20
14.02435682049652
 30
0.0
 10
3.126353274165211
 20
13.95823431568802
 30
0.0
 10
4.577754279057046
 20
13.7595184123051
 30
0.0
 10
5.472212095562497
 20
13.61029416860273
 30
0.0
 10
7.260693526926474
 20
13.25923695508747
 30
0.0
 10
8.149766908449408
 20
13.05781915108218
 30
0.0
 10
9.936884280126606
 20
12.60415314919287
 30
0.0
 10
10.83316033989993
 20
12.35194690795649
 30
0.0
 10
12.61543950619952
 20
11.80134077389769
 30
0.0
 10
13.50861016297171
 20
11.50224558150489
 30
0.0
 10
15.29735741177734
 20
10.85998938086675
 30
0.0
 10
16.18676904213177
 20
10.51762101487404
 30
0.0
 10
17.97324312497125
 20
9.792222332858707
 30
0.0
 10
18.86962926254654
 20
9.409203383596461
 30
0.0
 10
20.65298563929764
 20
8.609306778511344
 30
0.0
 10
21.54503752567035
 20
8.191714493462088
 30
0.0
 10
23.33395606545943
 20
7.325393196558725
 30
0.0
 10
24.22387499468488
 20
6.87780973820818
 30
0.0
 10
26.00961166239247
 20
5.956587331706958
 30
0.0
 10
26.90606026068627
 20
5.482794150564622
 30
0.0
 10
28.24431526723549
 20
4.758574985932944
 30
0.0
 10
28.68880247576772
 20
4.51502022401651
 30
0.0
 10
29.58146882709926
 20
4.023070693822403
 30
0.0
 10
30.02875078980105
 20
3.774836157131352
 30
0.0
 10
30.9232484268687
 20
3.274930349223566
 30
0.0
 10
31.3704631407613
 20
3.023259615292862
 30
0.0
 10
32.26286147985414
 20
2.51759524588508
 30
0.0
 10
32.70731874830804
 20
2.263741750218511
 30
0.0
 10
34.04599769027891
 20
1.498233415459865
 30
0.0
 10
34.94246112111512
 20
0.9832002687975091
 30
0.0
 10
36.28138353826381
 20
0.2103814520158455
 30
0.0
 10
36.72585893938694
 20
-0.0471005420922537
 30
0.0
 10
37.618086112578
 20
-0.5623978147139926
 30
0.0
 10
38.06525564041905
 20
-0.820100802079082
 30
0.0
 10
38.51250000000005
 20
-1.077291325593515
 30
0.0
  0
SPLINE
  5
1FD
330
1F
100
AcDbEntity
  8
0
  6
Continuous
 62
     1
370
    15
100
AcDbSpline
210
0.0
220
0.0
230
1.0
 70
     8
 71
     3
 72
    66
 73
    62
 74
     0
 42
0.000000001
 43
0.00000001
 40
0.0
 40
0.0
 40
0.0
 40
0.0
 40
0.0624999999999985
 40
0.0624999999999985
 40
0.0937499999999983
 40
0.0937499999999983
 40
0.1249999999999981
 40
0.1249999999999981
 40
0.1874999999999978
 40
0.1874999999999978
 40
0.2187499999999976
 40
0.2187499999999976
 40
0.2499999999999975
 40
0.2499999999999975
 40
0.3124999999999981
 40
0.3124999999999981
 40
0.3749999999999986
 40
0.3749999999999986
 40
0.4062499999999988
 40
0.4062499999999988
 40
0.4374999999999991
 40
0.4374999999999991
 40
0.4687499999999994
 40
0.4687499999999994
 40
0.4843749999999994
 40
0.4843749999999994
 40
0.4999999999999994
 40
0.4999999999999994
 40
0.5312499999999994
 40
0.5312499999999994
 40
0.5468749999999994
 40
0.5468749999999994
 40
0.5624999999999994
 40
0.5624999999999994
 40
0.5781249999999994
 40
0.5781249999999994
 40
0.5937499999999993
 40
0.5937499999999993
 40
0.6093749999999993
 40
0.6093749999999993
 40
0.6249999999999993
 40
0.6249999999999993
 40
0.65625
 40
0.65625
 40
0.671875
 40
0.671875
 40
0.6875
 40
0.6875
 40
0.71875
 40
0.71875
 40
0.75
 40
0.75
 40
0.7812500000000001
 40
0.7812500000000001
 40
0.8125000000000001
 40
0.8125000000000001
 40
0.8750000000000001
 40
0.8750000000000001
 40
0.9375000000000001
 40
0.9375000000000001
 40
1.0
 40
1.0
 40
1.0
 40
1.0
 10
38.51249999999999
 20
-1.077291325593495
 30
0.0
 10
39.23835338015041
 20
-1.494697620019431
 30
0.0
 10
39.96095940097317
 20
-1.886944711426339
 30
0.0
 10
41.04751226933456
 20
-2.424943617556371
 30
0.0
 10
41.41038328804498
 20
-2.595357265638467
 30
0.0
 10
42.13822434961506
 20
-2.916679885728688
 30
0.0
 10
42.50522518759286
 20
-3.068333394131714
 30
0.0
 10
43.59266827790276
 20
-3.485461773048646
 30
0.0
 10
44.298300523194
 20
-3.713408520637299
 30
0.0
 10
45.32725447819661
 20
-3.9857867462346
 30
0.0
 10
45.66535855998237
 20
-4.064720076186921
 30
0.0
 10
46.33055968771944
 20
-4.200953204238528
 30
0.0
 10
46.65772763304784
 20
-4.258147988175262
 30
0.0
 10
47.6012893264664
 20
-4.399362860178938
 30
0.0
 10
48.18704778825352
 20
-4.454194893400066
 30
0.0
 10
49.26032409172316
 20
-4.528143184152873
 30
0.0
 10
49.74981030654493
 20
-4.546113065305915
 30
0.0
 10
50.37001953001871
 20
-4.590832286471523
 30
0.0
 10
50.55880074235267
 20
-4.608923066802282
 30
0.0
 10
50.89694256270616
 20
-4.661984858313494
 30
0.0
 10
51.04690842020986
 20
-4.697101734456792
 30
0.0
 10
51.29887853619601
 20
-4.797068568377282
 30
0.0
 10
51.39970433751148
 20
-4.861288337855109
 30
0.0
 10
51.50939687128587
 20
-4.989700274638432
 30
0.0
 10
51.53900889269477
 20
-5.037877803989348
 30
0.0
 10
51.58317244236827
 20
-5.147311284960074
 30
0.0
 10
51.5976411929424
 20
-5.208757945388255
 30
0.0
 10
51.61605286522186
 20
-5.412171019529415
 30
0.0
 10
51.59589951802758
 20
-5.573968078432694
 30
0.0
 10
51.51113374574274
 20
-5.867538293331085
 30
0.0
 10
51.47359718178879
 20
-5.973875366460978
 30
0.0
 10
51.381899203535
 20
-6.198368177729895
 30
0.0
 10
51.32755794592896
 20
-6.317238043848542
 30
0.0
 10
51.20179645442465
 20
-6.568686805101608
 30
0.0
 10
51.13038005675605
 20
-6.701262651798087
 30
0.0
 10
50.96968923879564
 20
-6.98083779762416
 30
0.0
 10
50.88080563393424
 20
-7.127010741529295
 30
0.0
 10
50.69097868096648
 20
-7.424123116196929
 30
0.0
 10
50.58943931207139
 20
-7.576114447050903
 30
0.0
 10
50.3733402462899
 20
-7.886451374150495
 30
0.0
 10
50.25803263981345
 20
-8.045776929249362
 30
0.0
 10
49.89793715995057
 20
-8.524980795612302
 30
0.0
 10
49.64108930487828
 20
-8.843839379071424
 30
0.0
 10
49.23124977280338
 20
-9.318619425149139
 30
0.0
 10
49.0906152771887
 20
-9.476085182541647
 30
0.0
 10
48.8068913447286
 20
-9.783032543411215
 30
0.0
 10
48.66306224770435
 20
-9.933381387913395
 30
0.0
 10
48.22535977660976
 20
-10.37515174202826
 30
0.0
 10
47.92531673016134
 20
-10.65735039137793
 30
0.0
 10
47.30638960792209
 20
-11.19605879389764
 30
0.0
 10
46.9940685155768
 20
-11.4467877465998
 30
0.0
 10
46.36342957601403
 20
-11.91166130029699
 30
0.0
 10
46.04464627709723
 20
-12.12618369007506
 30
0.0
 10
45.39726244084244
 20
-12.52035583232106
 30
0.0
 10
45.06678686373789
 20
-12.70079891834116
 30
0.0
 10
44.07504061786233
 20
-13.1805647708655
 30
0.0
 10
43.4102852068994
 20
-13.42176385765199
 30
0.0
 10
42.05179217301986
 20
-13.76040519053273
 30
0.0
 10
41.35284691015883
 20
-13.85712319096898
 30
0.0
 10
39.94824417817756
 20
-13.90513487343575
 30
0.0
 10
39.23827554917386
 20
-13.85889006489221
 30
0.0
 10
38.51250000000005
 20
-13.74460777339627
 30
0.0
  0
SPLINE
  5
1FE
330
1F
100
AcDbEntity
  8
0
  6
Continuous
 62
     1
370
    15
100
AcDbSpline
210
0.0
220
0.0
230
1.0
 70
     8
 71
     3
 72
    40
 73
    36
 74
     0
 42
0.000000001
 43
0.00000001
 40
0.1481392100204265
 40
0.1481392100204265
 40
0.1481392100204265
 40
0.1481392100204265
 40
0.1875
 40
0.1875
 40
0.25
 40
0.25
 40
0.3125
 40
0.3125
 40
0.375
 40
0.375
 40
0.4375
 40
0.4375
 40
0.5
 40
0.5
 40
0.5625
 40
0.5625
 40
0.625
 40
0.625
 40
0.6875
 40
0.6875
 40
0.75
 40
0.75
 40
0.78125
 40
0.78125
 40
0.8125
 40
0.8125
 40
0.84375
 40
0.84375
 40
0.875
 40
0.875
 40
0.9375
 40
0.9375
 40
0.96875
 40
0.96875
 40
1.0
 40
1.0
 40
1.0
 40
1.0
 10
2.0
 20
2.575054880093593
 30
0.0
 10
2.563299754366568
 20
2.25551074010838
 30
0.0
 10
3.126353274165268
 20
1.934018373093427
 30
0.0
 10
4.577754279057075
 20
1.099893063190804
 30
0.0
 10
5.472212095562497
 20
0.584193264205583
 30
0.0
 10
7.260693526926445
 20
-0.4473985972730446
 30
0.0
 10
8.14976690844938
 20
-0.9623341309528556
 30
0.0
 10
9.936884280126662
 20
-1.988162970280379
 30
0.0
 10
10.83316033989996
 20
-2.498702301238656
 30
0.0
 10
12.61543950619946
 20
-3.506104487884465
 30
0.0
 10
13.50861016297168
 20
-4.004325103763085
 30
0.0
 10
15.29735741177728
 20
-4.983617894259895
 30
0.0
 10
16.18676904213177
 20
-5.463581997378794
 30
0.0
 10
17.9732431249713
 20
-6.401696347836408
 30
0.0
 10
18.86962926254662
 20
-6.859677844924315
 30
0.0
 10
20.65298563929775
 20
-7.745504963506514
 30
0.0
 10
21.54503752567035
 20
-8.174224968048625
 30
0.0
 10
23.33395606545943
 20
-8.99881489348258
 30
0.0
 10
24.22387499468485
 20
-9.393636729048536
 30
0.0
 10
26.00961166239247
 20
-10.14598020339458
 30
0.0
 10
26.9060602606863
 20
-10.5035159523802
 30
0.0
 10
28.24431526723549
 20
-11.00718746132274
 30
0.0
 10
28.68880247576774
 20
-11.16959595076577
 30
0.0
 10
29.58146882709917
 20
-11.48380346885929
 30
0.0
 10
30.02875078980105
 20
-11.63548504049515
 30
0.0
 10
30.92324842686878
 20
-11.92731428246739
 30
0.0
 10
31.37046314076133
 20
-12.06746164113538
 30
0.0
 10
32.26286147985419
 20
-12.33563370356057
 30
0.0
 10
32.70731874830804
 20
-12.46359901232375
 30
0.0
 10
34.04599769027897
 20
-12.82957713409576
 30
0.0
 10
34.94246112111512
 20
-13.04928256466003
 30
0.0
 10
36.28138353826381
 20
-13.33952463188395
 30
0.0
 10
36.72585893938694
 20
-13.42968470345458
 30
0.0
 10
37.61808611257803
 20
-13.59703970070878
 30
0.0
 10
38.06525564041902
 20
-13.67418364526228
 30
0.0
 10
38.51250000000005
 20
-13.74460777339629
 30
0.0
  0
SPLINE
  5
1FF
330
1F
100
AcDbEntity
  8
0
  6
Continuous
 62
     1
370
    15
100
AcDbSpline
210
0.0
220
0.0
230
1.0
 70
     8
 71
     3
 72
    12
 73
     8
 74
     0
 42
0.000000001
 43
0.00000001
 40
0.0
 40
0.0
 40
0.0
 40
0.0
 40
0.1077034643406833
 40
0.3307895782728125
 40
0.55386506833076
 40
0.7769338889810683
 40
1.0
 40
1.0
 40
1.0
 40
1.0
 10
21.60536213410043
 20
11.69494229593299
 30
0.0
 10
22.21236197954448
 20
11.901952538214
 30
0.0
 10
24.07664020044723
 20
12.53774295741245
 30
0.0
 10
27.19808087304065
 20
13.30223488190055
 30
0.0
 10
30.96966636092452
 20
13.96578863659268
 30
0.0
 10
34.74111324919576
 20
14.3146894202507
 30
0.0
 10
37.25537617324852
 20
14.2694481850143
 30
0.0
 10
38.51250000000005
 20
14.246827704784
 30
0.0
  0
SPLINE
  5
200
330
1F
100
AcDbEntity
  8
0
  6
Continuous
 62
     1
370
    15
100
AcDbSpline
210
0.0
220
0.0
230
1.0
 70
     8
 71
     3
 72
    66
 73
    62
 74
     0
 42
0.000000001
 43
0.00000001
 40
0.0
 40
0.0
 40
0.0
 40
0.0
 40
0.062500000000001
 40
0.062500000000001
 40
0.0937500000000009
 40
0.0937500000000009
 40
0.1250000000000009
 40
0.1250000000000009
 40
0.1875000000000009
 40
0.1875000000000009
 40
0.2187500000000009
 40
0.2187500000000009
 40
0.2500000000000009
 40
0.2500000000000009
 40
0.3125000000000017
 40
0.3125000000000017
 40
0.3750000000000025
 40
0.3750000000000025
 40
0.4062500000000029
 40
0.4062500000000029
 40
0.4375000000000032
 40
0.4375000000000032
 40
0.4687500000000036
 40
0.4687500000000036
 40
0.4843750000000039
 40
0.4843750000000039
 40
0.5000000000000042
 40
0.5000000000000042
 40
0.5312500000000048
 40
0.5312500000000048
 40
0.5468750000000052
 40
0.5468750000000052
 40
0.5625000000000056
 40
0.5625000000000056
 40
0.5781250000000059
 40
0.5781250000000059
 40
0.5937500000000062
 40
0.5937500000000062
 40
0.6093750000000066
 40
0.6093750000000066
 40
0.6250000000000069
 40
0.6250000000000069
 40
0.656250000000007
 40
0.656250000000007
 40
0.6718750000000067
 40
0.6718750000000067
 40
0.6875000000000063
 40
0.6875000000000063
 40
0.7187500000000058
 40
0.7187500000000058
 40
0.7500000000000051
 40
0.7500000000000051
 40
0.7812500000000044
 40
0.7812500000000044
 40
0.8125000000000039
 40
0.8125000000000039
 40
0.8750000000000026
 40
0.8750000000000026
 40
0.9375000000000013
 40
0.9375000000000013
 40
1.0
 40
1.0
 40
1.0
 40
1.0
 10
38.51249999999999
 20
14.24682770478399
 30
0.0
 10
39.2383533801505
 20
14.21526501661572
 30
0.0
 10
39.96095940097322
 20
14.11228326868181
 30
0.0
 10
41.04751226933453
 20
13.85628510613276
 30
0.0
 10
41.41038328804493
 20
13.75396629121061
 30
0.0
 10
42.13822434961506
 20
13.51489167592493
 30
0.0
 10
42.5052251875928
 20
13.37723056784453
 30
0.0
 10
43.59266827790276
 20
12.91792418976945
 30
0.0
 10
44.298300523194
 20
12.55194774473767
 30
0.0
 10
45.32725447819664
 20
11.91537612849173
 30
0.0
 10
45.66535855998234
 20
11.68850705200313
 30
0.0
 10
46.33055968771944
 20
11.2043057293458
 30
0.0
 10
46.65772763304787
 20
10.94664976225493
 30
0.0
 10
47.60128932646646
 20
10.14220588713126
 30
0.0
 10
48.18704778825358
 20
9.559562846597968
 30
0.0
 10
49.26032409172319
 20
8.294707075649708
 30
0.0
 10
49.74981030654499
 20
7.60771620662163
 30
0.0
 10
50.37001953001882
 20
6.529042035579943
 30
0.0
 10
50.55880074235273
 20
6.160328674470138
 30
0.0
 10
50.89694256270619
 20
5.403393598498633
 30
0.0
 10
51.04690842020986
 20
5.013421686183117
 30
0.0
 10
51.29887853619607
 20
4.219622403882516
 30
0.0
 10
51.39970433751154
 20
3.820211473014384
 30
0.0
 10
51.50939687128587
 20
3.218633092433235
 30
0.0
 10
51.53900889269477
 20
3.017695978224748
 30
0.0
 10
51.58317244236827
 20
2.615213979087793
 30
0.0
 10
51.5976411929424
 20
2.413361408353451
 30
0.0
 10
51.61605286522186
 20
1.820139844777808
 30
0.0
 10
51.59589951802755
 20
1.436934002182794
 30
0.0
 10
51.5111337457428
 20
0.8856172488253321
 30
0.0
 10
51.47359718178888
 20
0.7063046239788168
 30
0.0
 10
51.381899203535
 20
0.3672728481595997
 30
0.0
 10
51.32755794592896
 20
0.2061286368812873
 30
0.0
 10
51.20179645442465
 20
-0.0990193078006399
 30
0.0
 10
51.13038005675605
 20
-0.2430268671077527
 30
0.0
 10
50.9696892387957
 20
-0.5130499247604302
 30
0.0
 10
50.88080563393419
 20
-0.6379909179496203
 30
0.0
 10
50.69097868096648
 20
-0.8621784899104604
 30
0.0
 10
50.58943931207139
 20
-0.9624739043616014
 30
0.0
 10
50.37334024628996
 20
-1.14047474938958
 30
0.0
 10
50.25803263981345
 20
-1.218550910181919
 30
0.0
 10
49.89793715995054
 20
-1.416429735897617
 30
0.0
 10
49.64108930487825
 20
-1.500119230788199
 30
0.0
 10
49.23124977280332
 20
-1.564789331275369
 30
0.0
 10
49.0906152771887
 20
-1.575952029518207
 30
0.0
 10
48.80689134472863
 20
-1.579278031175897
 30
0.0
 10
48.66306224770435
 20
-1.571591967198644
 30
0.0
 10
48.22535977660976
 20
-1.523855883708746
 30
0.0
 10
47.92531673016128
 20
-1.459189743013558
 30
0.0
 10
47.30638960792211
 20
-1.274850545589947
 30
0.0
 10
46.9940685155768
 20
-1.157112068769636
 30
0.0
 10
46.36342957601403
 20
-0.8832283958856465
 30
0.0
 10
46.04464627709731
 20
-0.7268395996452824
 30
0.0
 10
45.3972624408425
 20
-0.3828709885519284
 30
0.0
 10
45.06678686373789
 20
-0.1940556151954982
 30
0.0
 10
44.0750406178623
 20
0.3992412779863045
 30
0.0
 10
43.4102852068994
 20
0.8290085188767747
 30
0.0
 10
42.05179217301986
 20
1.715797194958061
 30
0.0
 10
41.3528469101588
 20
2.176591210541444
 30
0.0
 10
39.94824417817753
 20
3.067710189039249
 30
0.0
 10
39.23827554917386
 20
3.498429513606491
 30
0.0
 10
38.51250000000005
 20
3.901078492608781
 30
0.0
  0
SPLINE
  5
201
330
1F
100
AcDbEntity
  8
0
  6
Continuous
 62
     1
370
    15
100
AcDbSpline
210
0.0
220
0.0
230
1.0
 70
     8
 71
     3
 72
    17
 73
    13
 74
     0
 42
0.000000001
 43
0.00000001
 40
0.0
 40
0.0
 40
0.0
 40
0.0
 40
0.107040326733085
 40
0.2140964110318083
 40
0.3211867947399832
 40
0.428296860400914
 40
0.5353670599783007
 40
0.6424126133129157
 40
0.7494520978397108
 40
0.8672114871004187
 40
0.9849758838953354
 40
1.0
 40
1.0
 40
1.0
 40
1.0
 10
38.51250000000005
 20
3.901078492608768
 30
0.0
 10
37.36985396017766
 20
4.528641415643568
 30
0.0
 10
35.08439366991061
 20
5.783859646184078
 30
0.0
 10
31.65566387701045
 20
7.535866470017369
 30
0.0
 10
28.22594007015402
 20
9.148802954626765
 30
0.0
 10
24.79583506866149
 20
10.58456019403936
 30
0.0
 10
21.3666247701014
 20
11.81864222522709
 30
0.0
 10
17.93826460281144
 20
12.82387094921236
 30
0.0
 10
14.39594590259679
 20
13.61649935524447
 30
0.0
 10
10.73871237527888
 20
14.11105137211569
 30
0.0
 10
8.063934835700138
 20
14.32770328089557
 30
0.0
 10
6.646284914439434
 20
14.27501380391476
 30
0.0
 10
6.485887478338157
 20
14.26905234834629
 30
0.0
  0
SPLINE
  5
202
330
1F
100
AcDbEntity
  8
0
  6
Continuous
 62
     1
370
    15
100
AcDbSpline
210
0.0
220
0.0
230
1.0
 70
     8
 71
     3
 72
    17
 73
    13
 74
     0
 42
0.000000001
 43
0.00000001
 40
0.0
 40
0.0
 40
0.0
 40
0.0
 40
0.0680188342789567
 40
0.1469222129045823
 40
0.2280745358531827
 40
0.3083252970200278
 40
0.3903276919903235
 40
0.5074742417533579
 40
0.6279703188420243
 40
0.7887948457439037
 40
0.9541388085943295
 40
1.0
 40
1.0
 40
1.0
 40
1.0
 10
51.22509971316777
 20
6.507400835134478
 30
0.0
 10
51.15315868233083
 20
6.646744779546744
 30
0.0
 10
50.99776443658624
 20
6.947730835613821
 30
0.0
 10
50.65344686428534
 20
7.487709179817021
 30
0.0
 10
50.23861537865875
 20
8.080072244294382
 30
0.0
 10
49.7633791280565
 20
8.69538849968542
 30
0.0
 10
49.17258882391911
 20
9.396250460769688
 30
0.0
 10
48.44662157556556
 20
10.16972095356593
 30
0.0
 10
47.49388142140722
 20
11.05891677988061
 30
0.0
 10
46.379113078687
 20
11.92284233250513
 30
0.0
 10
45.42558600862256
 20
12.52847027917889
 30
0.0
 10
44.87122665754552
 20
12.78661380496077
 30
0.0
 10
44.75085279452682
 20
12.84266721751936
 30
0.0
  0
LINE
  5
203
330
1F
100
AcDbEntity
  8
외형선
  6
Continuous
370
    15
100
AcDbLine
 10
2.000000000000028
 20
1.088153135548124
 30
0.0
 11
2.0
 21
5.384280197612563
 31
0.0
  0
LINE
  5
205
330
1F
100
AcDbEntity
  8
외형선
  6
Continuous
370
    15
100
AcDbLine
 10
2.000000000000028
 20
-12.65329691240971
 30
0.0
 11
2.0
 21
-11.50215313554797
 31
0.0
  0
LINE
  5
206
330
1F
100
AcDbEntity
  8
외형선
  6
Continuous
370
    15
100
AcDbLine
 10
2.000000000000028
 20
-0.0000000000000049
 30
0.0
 11
2.000000000000028
 21
14.28749999999999
 31
0.0
  0
LINE
  5
207
330
1F
100
AcDbEntity
  8
외형선
  6
Continuous
370
    15
100
AcDbLine
 10
2.000000000000028
 20
-14.28750000000001
 30
0.0
 11
2.000000000000028
 21
-0.0000000000000049
 31
0.0
  0
LINE
  5
208
330
1F
100
AcDbEntity
  8
외형선
  6
Continuous
370
    15
100
AcDbLine
 10
-58.95999999999998
 20
-12.7
 30
0.0
 11
-58.95999999999998
 21
-0.0000000000000049
 31
0.0
  0
LINE
  5
209
330
1F
100
AcDbEntity
  8
외형선
  6
Continuous
370
    15
100
AcDbLine
 10
-61.49999999999999
 20
-0.0000000000000049
 30
0.0
 11
-61.49999999999999
 21
10.16
 31
0.0
  0
LINE
  5
20A
330
1F
100
AcDbEntity
  8
외형선
  6
Continuous
370
    15
100
AcDbLine
 10
-61.49999999999999
 20
-10.16000000000001
 30
0.0
 11
-61.49999999999999
 21
-0.0000000000000049
 31
0.0
  0
LINE
  5
20B
330
1F
100
AcDbEntity
  8
중심선
100
AcDbLine
 10
-64.5
 20
-0.0000000000000049
 30
0.0
 11
55.79999999999998
 21
0.0000000000000057
 31
0.0
  0
CIRCLE
  5
20C
330
1F
100
AcDbEntity
  8
해칭선
100
AcDbCircle
 10
0.0
 20
0.0
 30
0.0
 40
3.000000000000001
  0
DIMENSION
  5
20D
330
1F
100
AcDbEntity
  8
치수문자_일반주서
100
AcDbDimension
  2
*D12
 10
2.000000000000028
 20
24.37334847445118
 30
0.0
 11
25.51890760396475
 21
24.37334847445118
 31
0.0
 70
   160
  1
<>
 71
     2
 42
50.80000000000004
  3
SLDDIMSTYLE1
100
AcDbAlignedDimension
 13
52.80000000000007
 23
14.28750000000001
 33
0.0
 14
2.000000000000028
 24
14.24079691240971
 34
0.0
 50
0.000000000000004
100
AcDbRotatedDimension
1001
ACAD
1000
DSTYLE
1002
{
1070
   171
1070
     6
1070
   273
1070
     7
1002
}
  0
DIMENSION
  5
20E
330
1F
100
AcDbEntity
  8
치수문자_일반주서
100
AcDbDimension
  2
*D13
 10
-61.49999999999999
 20
35.56029014244091
 30
0.0
 11
-11.49374999999998
 21
35.56029014244091
 31
0.0
 70
   160
  1
<>
 71
     2
 42
114.3000000000001
  3
SLDDIMSTYLE1
100
AcDbAlignedDimension
 13
52.80000000000007
 23
14.28750000000001
 33
0.0
 14
-61.49999999999999
 24
10.16
 34
0.0
 50
0.0000000000000036
100
AcDbRotatedDimension
1001
ACAD
1000
DSTYLE
1002
{
1070
   171
1070
     6
1070
   273
1070
     7
1002
}
  0
DIMENSION
  5
20F
330
1F
100
AcDbEntity
  8
치수문자_일반주서
100
AcDbDimension
  2
*D14
 10
-72.91249999999997
 20
-12.70000000000004
 30
0.0
 11
-72.91250000000001
 21
-0.0000000000000156
 31
0.0
 70
   160
  1
%%c<>
 71
     2
 42
25.39999999999997
 52
-270.0
  3
SLDDIMSTYLE1
100
AcDbAlignedDimension
 13
-61.5
 23
12.69999999999997
 33
0.0
 14
-58.96000000000001
 24
-12.69999999999999
 34
0.0
 50
90.0000000000002
100
AcDbRotatedDimension
1001
ACAD
1000
DSTYLE
1002
{
1070
   171
1070
     6
1070
   273
1070
     7
1002
}
  0
DIMENSION
  5
210
330
1F
100
AcDbEntity
  8
치수문자_일반주서
100
AcDbDimension
  2
*D15
 10
76.35891468820688
 20
-14.2874999999999
 30
0.0
 11
76.35891468820671
 21
34.26778125000013
 31
0.0
 70
   160
  1
%%c<>
 71
     2
 42
28.575
 52
-270.0
  3
SLDDIMSTYLE1
100
AcDbAlignedDimension
 13
52.80000000000007
 23
14.28750000000001
 33
0.0
 14
52.80000000000001
 24
-14.28749999999999
 34
0.0
 50
90.0000000000002
100
AcDbRotatedDimension
1001
ACAD
1000
DSTYLE
1002
{
1070
   171
1070
     6
1070
   273
1070
     7
1002
}
  0
INSERT
  5
211
330
1F
100
AcDbEntity
  8
해칭선
100
AcDbBlockReference
  2
SW_DOWELSYMBOL_0
 10
0.0
 20
0.0
 30
0.0
  0
LINE
  5
212
330
1F
100
AcDbEntity
  8
외형선
  6
Continuous
370
    15
100
AcDbLine
 10
-39.08132499999991
 20
10.795
 30
0.0
 11
-25.97492500000001
 21
10.795
 31
0.0
  0
LINE
  5
213
330
1F
100
AcDbEntity
  8
외형선
  6
Continuous
370
    15
100
AcDbLine
 10
-39.08132499999991
 20
10.79500000000001
 30
0.0
 11
-40.98632499999988
 21
12.7
 31
0.0
  0
LINE
  5
214
330
1F
100
AcDbEntity
  8
외형선
  6
Continuous
370
    15
100
AcDbLine
 10
-25.97492500000001
 20
10.79500000000001
 30
0.0
 11
-24.06992499999998
 21
12.7
 31
0.0
  0
LINE
  5
215
330
1F
100
AcDbEntity
  8
외형선
  6
Continuous
370
    15
100
AcDbLine
 10
-48.79999999999997
 20
10.79500000000001
 30
0.0
 11
-46.895
 21
12.69999999999999
 31
0.0
  0
LINE
  5
216
330
1F
100
AcDbEntity
  8
외형선
  6
Continuous
370
    15
100
AcDbLine
 10
-58.95999999999998
 20
-0.0000000000000049
 30
0.0
 11
-58.95999999999998
 21
10.795
 31
0.0
  0
LINE
  5
217
330
1F
100
AcDbEntity
  8
외형선
  6
Continuous
370
    15
100
AcDbLine
 10
-60.86499999999999
 20
10.795
 30
0.0
 11
-61.49999999999999
 21
10.16
 31
0.0
  0
LINE
  5
218
330
1F
100
AcDbEntity
  8
외형선
  6
Continuous
370
    15
100
AcDbLine
 10
-40.98632499999985
 20
12.69999999999999
 30
0.0
 11
-46.895
 21
12.69999999999999
 31
0.0
  0
LINE
  5
219
330
1F
100
AcDbEntity
  8
외형선
  6
Continuous
370
    15
100
AcDbLine
 10
-60.86499999999999
 20
10.795
 30
0.0
 11
-48.79999999999997
 21
10.795
 31
0.0
  0
LINE
  5
21A
330
1F
100
AcDbEntity
  8
외형선
  6
Continuous
370
    15
100
AcDbLine
 10
2.000000000000028
 20
12.69999999999999
 30
0.0
 11
-24.06992499999998
 21
12.69999999999999
 31
0.0
  0
SPLINE
  5
24C
330
1F
100
AcDbEntity
  8
0
  6
Continuous
 62
     1
370
    15
100
AcDbSpline
210
0.0
220
0.0
230
1.0
 70
     8
 71
     3
 72
    18
 73
    14
 74
     0
 42
0.000000001
 43
0.00000001
 40
0.1548948762181793
 40
0.1548948762181793
 40
0.1548948762181793
 40
0.1548948762181793
 40
0.1673142792258853
 40
0.2509405083827946
 40
0.3345654752142058
 40
0.4182037058076467
 40
0.5018696814189814
 40
0.5855473243737152
 40
0.6775574802462606
 40
0.769561627272631
 40
0.8615613928497711
 40
0.9535584078605481
 40
1.0
 40
1.0
 40
1.0
 40
1.0
 10
1.999999999999915
 20
-2.428112486237486
 30
0.0
 10
2.169702767998388
 20
-2.524709666564165
 30
0.0
 10
3.482097581368777
 20
-3.270412116444658
 30
0.0
 10
5.937124705243434
 20
-4.643275312244109
 30
0.0
 10
9.365276249406179
 20
-6.471789592852373
 30
0.0
 10
12.79406467897215
 20
-8.176270134589904
 30
0.0
 10
16.22386345692544
 20
-9.723909339058098
 30
0.0
 10
19.76818083995079
 20
-11.13063393989427
 30
0.0
 10
23.42627888192729
 20
-12.3439049291949
 30
0.0
 10
27.19808421605683
 20
-13.3131773781632
 30
0.0
 10
30.96966534064026
 20
-13.95657337310935
 30
0.0
 10
34.11861296840854
 20
-14.2772203938501
 30
0.0
 10
36.01037647978168
 20
-14.25386997562222
 30
0.0
 10
36.64500081780429
 20
-14.24603667953561
 30
0.0
  0
ENDSEC
  0
SECTION
  2
OBJECTS
  0
DICTIONARY
  5
C
330
0
100
AcDbDictionary
281
     1
  3
ACAD_GROUP
350
D
  3
ACAD_IMAGE_VARS
350
12B
  3
ACAD_LAYOUT
350
1A
  3
ACAD_MLINESTYLE
350
17
  3
ACAD_PLOTSETTINGS
350
19
  3
ACAD_PLOTSTYLENAME
350
E
  3
ACAD_SCALELIST
350
47
  3
APPDATA
350
129
  3
DWGPROPS
350
24D
  0
DICTIONARY
  5
1BA
330
2
100
AcDbDictionary
280
     1
281
     1
  3
ACAD_LAYERSTATES
360
1BB
  0
DICTIONARY
  5
D
102
{ACAD_REACTORS
330
C
102
}
330
C
100
AcDbDictionary
281
     1
  0
RASTERVARIABLES
  5
12B
102
{ACAD_REACTORS
330
C
102
}
330
C
100
AcDbRasterVariables
 90
        0
 70
     1
 71
     1
 72
     1
  0
DICTIONARY
  5
1A
102
{ACAD_REACTORS
330
C
102
}
330
C
100
AcDbDictionary
281
     1
  3
Layout1
350
1E
  3
Layout2
350
26
  3
Model
350
22
  0
DICTIONARY
  5
17
102
{ACAD_REACTORS
330
C
102
}
330
C
100
AcDbDictionary
281
     1
  3
Standard
350
18
  0
DICTIONARY
  5
19
102
{ACAD_REACTORS
330
C
102
}
330
C
100
AcDbDictionary
281
     1
  0
ACDBDICTIONARYWDFLT
  5
E
102
{ACAD_REACTORS
330
C
102
}
330
C
100
AcDbDictionary
281
     1
  3
Normal
350
F
100
AcDbDictionaryWithDefault
340
F
  0
DICTIONARY
  5
47
102
{ACAD_REACTORS
330
C
102
}
330
C
100
AcDbDictionary
281
     1
  3
A0
350
48
  3
A1
350
49
  3
A2
350
4A
  3
A3
350
4B
  3
A4
350
4C
  3
A5
350
4D
  3
A6
350
4E
  3
A7
350
4F
  3
A8
350
50
  3
A9
350
51
  3
B0
350
52
  3
B1
350
53
  3
B2
350
54
  3
B3
350
55
  3
B4
350
56
  3
B5
350
57
  3
B6
350
58
  3
B7
350
59
  3
B8
350
5A
  3
B9
350
5B
  3
C0
350
5C
  3
C1
350
5D
  3
C2
350
5E
  3
C3
350
5F
  3
C4
350
60
  3
C5
350
61
  3
C6
350
62
  3
C7
350
63
  3
C8
350
64
  3
C9
350
65
  3
D0
350
66
  3
D1
350
67
  3
D2
350
68
  0
DICTIONARY
  5
129
102
{ACAD_REACTORS
330
C
102
}
330
C
100
AcDbDictionary
281
     1
  0
XRECORD
  5
24D
102
{ACAD_REACTORS
330
C
102
}
330
C
100
AcDbXrecord
280
     1
  1
DWGPROPS COOKIE
  2

  3

  4

  6

  7

  8
12017012
  9

300
=
301
=
302
=
303
=
304
=
305
=
306
=
307
=
308
=
309
=
 40
0.0
 41
2458323.315091979
 42
2458324.107962106
  1

 90
        0
  0
DICTIONARY
  5
1BB
102
{ACAD_REACTORS
330
1BA
102
}
330
1BA
100
AcDbDictionary
281
     1
  0
LAYOUT
  5
1E
102
{ACAD_REACTORS
330
1A
102
}
330
1A
100
AcDbPlotSettings
  1

  2
none_device
  4

  6

 40
0.0
 41
0.0
 42
0.0
 43
0.0
 44
0.0
 45
0.0
 46
0.0
 47
0.0
 48
0.0
 49
0.0
140
0.0
141
0.0
142
1.0
143
1.0
 70
   688
 72
     1
 73
     0
 74
     5
  7

 75
    16
147
1.0
148
0.0
149
0.0
100
AcDbLayout
  1
Layout1
 70
     1
 71
     1
 10
0.0
 20
0.0
 11
420.0
 21
297.0
 12
0.0
 22
0.0
 32
0.0
 14
1.000000000000000E+20
 24
1.000000000000000E+20
 34
1.000000000000000E+20
 15
-1.000000000000000E+20
 25
-1.000000000000000E+20
 35
-1.000000000000000E+20
146
0.0
 13
0.0
 23
0.0
 33
0.0
 16
1.0
 26
0.0
 36
0.0
 17
0.0
 27
1.0
 37
0.0
 76
     0
330
1B
  0
LAYOUT
  5
26
102
{ACAD_REACTORS
330
1A
102
}
330
1A
100
AcDbPlotSettings
  1

  2
none_device
  4

  6

 40
0.0
 41
0.0
 42
0.0
 43
0.0
 44
0.0
 45
0.0
 46
0.0
 47
0.0
 48
0.0
 49
0.0
140
0.0
141
0.0
142
1.0
143
1.0
 70
   688
 72
     1
 73
     0
 74
     5
  7

 75
    16
147
1.0
148
0.0
149
0.0
100
AcDbLayout
  1
Layout2
 70
     1
 71
     2
 10
0.0
 20
0.0
 11
0.0
 21
0.0
 12
0.0
 22
0.0
 32
0.0
 14
0.0
 24
0.0
 34
0.0
 15
0.0
 25
0.0
 35
0.0
146
0.0
 13
0.0
 23
0.0
 33
0.0
 16
1.0
 26
0.0
 36
0.0
 17
0.0
 27
1.0
 37
0.0
 76
     0
330
23
  0
LAYOUT
  5
22
102
{ACAD_REACTORS
330
1A
102
}
330
1A
100
AcDbPlotSettings
  1

  2
none_device
  4
ANSI_A_(11.00_x_8.50_Inches)
  6

 40
6.35
 41
19.05
 42
6.35000508
 43
19.05000254
 44
279.4
 45
215.9
 46
103.183359198313
 47
100.0998321548452
 48
0.0
 49
0.0
140
0.0
141
0.0
142
0.0715153934642642
143
1.0
 70
  1696
 72
     0
 73
     0
 74
     0
  7

 75
     0
147
0.0235690232323232
148
0.0
149
0.0
100
AcDbLayout
  1
Model
 70
     1
 71
     0
 10
0.0
 20
0.0
 11
420.0
 21
297.0
 12
0.0
 22
0.0
 32
0.0
 14
1.000000000000000E+20
 24
1.000000000000000E+20
 34
1.000000000000000E+20
 15
-1.000000000000000E+20
 25
-1.000000000000000E+20
 35
-1.000000000000000E+20
146
0.0
 13
0.0
 23
0.0
 33
0.0
 16
1.0
 26
0.0
 36
0.0
 17
0.0
 27
1.0
 37
0.0
 76
     0
330
1F
331
29
  0
MLINESTYLE
  5
18
102
{ACAD_REACTORS
330
17
102
}
330
17
100
AcDbMlineStyle
  2
Standard
 70
     0
  3

 62
   256
 51
90.0
 52
90.0
 71
     2
 49
0.5
 62
   256
  6
BYLAYER
 49
-0.5
 62
   256
  6
BYLAYER
  0
ACDBPLACEHOLDER
  5
F
102
{ACAD_REACTORS
330
E
102
}
330
E
  0
SCALE
  5
48
102
{ACAD_REACTORS
330
47
102
}
330
47
100
AcDbScale
 70
     0
300
1:1
140
1.0
141
1.0
290
     1
  0
SCALE
  5
49
102
{ACAD_REACTORS
330
47
102
}
330
47
100
AcDbScale
 70
     0
300
1:2
140
1.0
141
2.0
290
     0
  0
SCALE
  5
4A
102
{ACAD_REACTORS
330
47
102
}
330
47
100
AcDbScale
 70
     0
300
1:4
140
1.0
141
4.0
290
     0
  0
SCALE
  5
4B
102
{ACAD_REACTORS
330
47
102
}
330
47
100
AcDbScale
 70
     0
300
1:5
140
1.0
141
5.0
290
     0
  0
SCALE
  5
4C
102
{ACAD_REACTORS
330
47
102
}
330
47
100
AcDbScale
 70
     0
300
1:8
140
1.0
141
8.0
290
     0
  0
SCALE
  5
4D
102
{ACAD_REACTORS
330
47
102
}
330
47
100
AcDbScale
 70
     0
300
1:10
140
1.0
141
10.0
290
     0
  0
SCALE
  5
4E
102
{ACAD_REACTORS
330
47
102
}
330
47
100
AcDbScale
 70
     0
300
1:16
140
1.0
141
16.0
290
     0
  0
SCALE
  5
4F
102
{ACAD_REACTORS
330
47
102
}
330
47
100
AcDbScale
 70
     0
300
1:20
140
1.0
141
20.0
290
     0
  0
SCALE
  5
50
102
{ACAD_REACTORS
330
47
102
}
330
47
100
AcDbScale
 70
     0
300
1:30
140
1.0
141
30.0
290
     0
  0
SCALE
  5
51
102
{ACAD_REACTORS
330
47
102
}
330
47
100
AcDbScale
 70
     0
300
1:40
140
1.0
141
40.0
290
     0
  0
SCALE
  5
52
102
{ACAD_REACTORS
330
47
102
}
330
47
100
AcDbScale
 70
     0
300
1:50
140
1.0
141
50.0
290
     0
  0
SCALE
  5
53
102
{ACAD_REACTORS
330
47
102
}
330
47
100
AcDbScale
 70
     0
300
1:100
140
1.0
141
100.0
290
     0
  0
SCALE
  5
54
102
{ACAD_REACTORS
330
47
102
}
330
47
100
AcDbScale
 70
     0
300
2:1
140
2.0
141
1.0
290
     0
  0
SCALE
  5
55
102
{ACAD_REACTORS
330
47
102
}
330
47
100
AcDbScale
 70
     0
300
4:1
140
4.0
141
1.0
290
     0
  0
SCALE
  5
56
102
{ACAD_REACTORS
330
47
102
}
330
47
100
AcDbScale
 70
     0
300
8:1
140
8.0
141
1.0
290
     0
  0
SCALE
  5
57
102
{ACAD_REACTORS
330
47
102
}
330
47
100
AcDbScale
 70
     0
300
10:1
140
10.0
141
1.0
290
     0
  0
SCALE
  5
58
102
{ACAD_REACTORS
330
47
102
}
330
47
100
AcDbScale
 70
     0
300
100:1
140
100.0
141
1.0
290
     0
  0
SCALE
  5
59
102
{ACAD_REACTORS
330
47
102
}
330
47
100
AcDbScale
 70
     0
300
1/128" = 1'-0"
140
0.0078125
141
12.0
290
     0
  0
SCALE
  5
5A
102
{ACAD_REACTORS
330
47
102
}
330
47
100
AcDbScale
 70
     0
300
1/64" = 1'-0"
140
0.015625
141
12.0
290
     0
  0
SCALE
  5
5B
102
{ACAD_REACTORS
330
47
102
}
330
47
100
AcDbScale
 70
     0
300
1/32" = 1'-0"
140
0.03125
141
12.0
290
     0
  0
SCALE
  5
5C
102
{ACAD_REACTORS
330
47
102
}
330
47
100
AcDbScale
 70
     0
300
1/16" = 1'-0"
140
0.0625
141
12.0
290
     0
  0
SCALE
  5
5D
102
{ACAD_REACTORS
330
47
102
}
330
47
100
AcDbScale
 70
     0
300
3/32" = 1'-0"
140
0.09375
141
12.0
290
     0
  0
SCALE
  5
5E
102
{ACAD_REACTORS
330
47
102
}
330
47
100
AcDbScale
 70
     0
300
1/8" = 1'-0"
140
0.125
141
12.0
290
     0
  0
SCALE
  5
5F
102
{ACAD_REACTORS
330
47
102
}
330
47
100
AcDbScale
 70
     0
300
3/16" = 1'-0"
140
0.1875
141
12.0
290
     0
  0
SCALE
  5
60
102
{ACAD_REACTORS
330
47
102
}
330
47
100
AcDbScale
 70
     0
300
1/4" = 1'-0"
140
0.25
141
12.0
290
     0
  0
SCALE
  5
61
102
{ACAD_REACTORS
330
47
102
}
330
47
100
AcDbScale
 70
     0
300
3/8" = 1'-0"
140
0.375
141
12.0
290
     0
  0
SCALE
  5
62
102
{ACAD_REACTORS
330
47
102
}
330
47
100
AcDbScale
 70
     0
300
1/2" = 1'-0"
140
0.5
141
12.0
290
     0
  0
SCALE
  5
63
102
{ACAD_REACTORS
330
47
102
}
330
47
100
AcDbScale
 70
     0
300
3/4" = 1'-0"
140
0.75
141
12.0
290
     0
  0
SCALE
  5
64
102
{ACAD_REACTORS
330
47
102
}
330
47
100
AcDbScale
 70
     0
300
1" = 1'-0"
140
1.0
141
12.0
290
     0
  0
SCALE
  5
65
102
{ACAD_REACTORS
330
47
102
}
330
47
100
AcDbScale
 70
     0
300
1-1/2" = 1'-0"
140
1.5
141
12.0
290
     0
  0
SCALE
  5
66
102
{ACAD_REACTORS
330
47
102
}
330
47
100
AcDbScale
 70
     0
300
3" = 1'-0"
140
3.0
141
12.0
290
     0
  0
SCALE
  5
67
102
{ACAD_REACTORS
330
47
102
}
330
47
100
AcDbScale
 70
     0
300
6" = 1'-0"
140
6.0
141
12.0
290
     0
  0
SCALE
  5
68
102
{ACAD_REACTORS
330
47
102
}
330
47
100
AcDbScale
 70
     0
300
1'-0" = 1'-0"
140
12.0
141
12.0
290
     0
  0
ENDSEC
  0
EOF
