  0
SECTION
  2
HEADER
  9
$ACADVER
  1
AC1015
  9
$ACADMAINTVER
 70
     6
  9
$DWGCODEPAGE
  3
ANSI_949
  9
$INSBASE
 10
0.0
 20
0.0
 30
0.0
  9
$EXTMIN
 10
1.000000000000000E+20
 20
1.000000000000000E+20
 30
1.000000000000000E+20
  9
$EXTMAX
 10
-1.000000000000000E+20
 20
-1.000000000000000E+20
 30
-1.000000000000000E+20
  9
$LIMMIN
 10
0.0
 20
0.0
  9
$LIMMAX
 10
420.0
 20
297.0
  9
$ORTHOMODE
 70
     1
  9
$REGENMODE
 70
     1
  9
$FILLMODE
 70
     1
  9
$QTEXTMODE
 70
     0
  9
$MIRRTEXT
 70
     1
  9
$LTSCALE
 40
1.0
  9
$ATTMODE
 70
     1
  9
$TEXTSIZE
 40
3.5
  9
$TRACEWID
 40
1.0
  9
$TEXTSTYLE
  7
Standard
  9
$CLAYER
  8
0
  9
$CELTYPE
  6
ByLayer
  9
$CECOLOR
 62
   256
  9
$CELTSCALE
 40
1.0
  9
$DISPSILH
 70
     0
  9
$DIMSCALE
 40
1.0
  9
$DIMASZ
 40
3.302
  9
$DIMEXO
 40
1.0
  9
$DIMDLI
 40
3.75
  9
$DIMRND
 40
0.0
  9
$DIMDLE
 40
0.0
  9
$DIMEXE
 40
1.0
  9
$DIMTP
 40
0.0
  9
$DIMTM
 40
0.0
  9
$DIMTXT
 40
3.5
  9
$DIMCEN
 40
2.5
  9
$DIMTSZ
 40
0.0
  9
$DIMTOL
 70
     0
  9
$DIMLIM
 70
     0
  9
$DIMTIH
 70
     1
  9
$DIMTOH
 70
     1
  9
$DIMSE1
 70
     0
  9
$DIMSE2
 70
     0
  9
$DIMTAD
 70
     1
  9
$DIMZIN
 70
     0
  9
$DIMBLK
  1

  9
$DIMASO
 70
     1
  9
$DIMSHO
 70
     1
  9
$DIMPOST
  1

  9
$DIMAPOST
  1

  9
$DIMALT
 70
     0
  9
$DIMALTD
 70
     3
  9
$DIMALTF
 40
0.0393700787401575
  9
$DIMLFAC
 40
1.0
  9
$DIMTOFL
 70
     1
  9
$DIMTVP
 40
0.0
  9
$DIMTIX
 70
     0
  9
$DIMSOXD
 70
     0
  9
$DIMSAH
 70
     0
  9
$DIMBLK1
  1

  9
$DIMBLK2
  1

  9
$DIMSTYLE
  2
ISO-25
  9
$DIMCLRD
 70
     0
  9
$DIMCLRE
 70
     0
  9
$DIMCLRT
 70
     0
  9
$DIMTFAC
 40
1.0
  9
$DIMGAP
 40
1.524
  9
$DIMJUST
 70
     0
  9
$DIMSD1
 70
     0
  9
$DIMSD2
 70
     0
  9
$DIMTOLJ
 70
     0
  9
$DIMTZIN
 70
     0
  9
$DIMALTZ
 70
     0
  9
$DIMALTTZ
 70
     0
  9
$DIMUPT
 70
     0
  9
$DIMDEC
 70
     2
  9
$DIMTDEC
 70
     2
  9
$DIMALTU
 70
     2
  9
$DIMALTTD
 70
     3
  9
$DIMTXSTY
  7
Standard
  9
$DIMAUNIT
 70
     0
  9
$DIMADEC
 70
     2
  9
$DIMALTRND
 40
0.0
  9
$DIMAZIN
 70
     0
  9
$DIMDSEP
 70
    44
  9
$DIMATFIT
 70
     3
  9
$DIMFRAC
 70
     0
  9
$DIMLDRBLK
  1

  9
$DIMLUNIT
 70
     2
  9
$DIMLWD
 70
    -2
  9
$DIMLWE
 70
    -2
  9
$DIMTMOVE
 70
     0
  9
$LUNITS
 70
     2
  9
$LUPREC
 70
     2
  9
$SKETCHINC
 40
1.0
  9
$FILLETRAD
 40
10.0
  9
$AUNITS
 70
     0
  9
$AUPREC
 70
     2
  9
$MENU
  1
.
  9
$ELEVATION
 40
0.0
  9
$PELEVATION
 40
0.0
  9
$THICKNESS
 40
0.0
  9
$LIMCHECK
 70
     0
  9
$CHAMFERA
 40
0.0
  9
$CHAMFERB
 40
0.0
  9
$CHAMFERC
 40
0.0
  9
$CHAMFERD
 40
0.0
  9
$SKPOLY
 70
     0
  9
$TDCREATE
 40
2458323.677860035
  9
$TDUCREATE
 40
2458323.302860035
  9
$TDUPDATE
 40
2458324.486694769
  9
$TDUUPDATE
 40
2458324.111694769
  9
$TDINDWG
 40
0.0006873611
  9
$TDUSRTIMER
 40
2458324.111007974
  9
$USRTIMER
 70
     1
  9
$ANGBASE
 50
0.0
  9
$ANGDIR
 70
     0
  9
$PDMODE
 70
     0
  9
$PDSIZE
 40
-1.0
  9
$PLINEWID
 40
0.0
  9
$SPLFRAME
 70
     0
  9
$SPLINETYPE
 70
     6
  9
$SPLINESEGS
 70
     8
  9
$HANDSEED
  5
2A0
  9
$SURFTAB1
 70
     6
  9
$SURFTAB2
 70
     6
  9
$SURFTYPE
 70
     6
  9
$SURFU
 70
     6
  9
$SURFV
 70
     6
  9
$UCSBASE
  2

  9
$UCSNAME
  2

  9
$UCSORG
 10
0.0
 20
0.0
 30
0.0
  9
$UCSXDIR
 10
1.0
 20
0.0
 30
0.0
  9
$UCSYDIR
 10
0.0
 20
1.0
 30
0.0
  9
$UCSORTHOREF
  2

  9
$UCSORTHOVIEW
 70
     0
  9
$UCSORGTOP
 10
0.0
 20
0.0
 30
0.0
  9
$UCSORGBOTTOM
 10
0.0
 20
0.0
 30
0.0
  9
$UCSORGLEFT
 10
0.0
 20
0.0
 30
0.0
  9
$UCSORGRIGHT
 10
0.0
 20
0.0
 30
0.0
  9
$UCSORGFRONT
 10
0.0
 20
0.0
 30
0.0
  9
$UCSORGBACK
 10
0.0
 20
0.0
 30
0.0
  9
$PUCSBASE
  2

  9
$PUCSNAME
  2

  9
$PUCSORG
 10
0.0
 20
0.0
 30
0.0
  9
$PUCSXDIR
 10
1.0
 20
0.0
 30
0.0
  9
$PUCSYDIR
 10
0.0
 20
1.0
 30
0.0
  9
$PUCSORTHOREF
  2

  9
$PUCSORTHOVIEW
 70
     0
  9
$PUCSORGTOP
 10
0.0
 20
0.0
 30
0.0
  9
$PUCSORGBOTTOM
 10
0.0
 20
0.0
 30
0.0
  9
$PUCSORGLEFT
 10
0.0
 20
0.0
 30
0.0
  9
$PUCSORGRIGHT
 10
0.0
 20
0.0
 30
0.0
  9
$PUCSORGFRONT
 10
0.0
 20
0.0
 30
0.0
  9
$PUCSORGBACK
 10
0.0
 20
0.0
 30
0.0
  9
$USERI1
 70
     0
  9
$USERI2
 70
     0
  9
$USERI3
 70
     0
  9
$USERI4
 70
     0
  9
$USERI5
 70
     0
  9
$USERR1
 40
0.0
  9
$USERR2
 40
0.0
  9
$USERR3
 40
0.0
  9
$USERR4
 40
0.0
  9
$USERR5
 40
0.0
  9
$WORLDVIEW
 70
     1
  9
$SHADEDGE
 70
     3
  9
$SHADEDIF
 70
    70
  9
$TILEMODE
 70
     1
  9
$MAXACTVP
 70
    64
  9
$PINSBASE
 10
0.0
 20
0.0
 30
0.0
  9
$PLIMCHECK
 70
     0
  9
$PEXTMIN
 10
1.000000000000000E+20
 20
1.000000000000000E+20
 30
1.000000000000000E+20
  9
$PEXTMAX
 10
-1.000000000000000E+20
 20
-1.000000000000000E+20
 30
-1.000000000000000E+20
  9
$PLIMMIN
 10
0.0
 20
0.0
  9
$PLIMMAX
 10
0.0
 20
0.0
  9
$UNITMODE
 70
     0
  9
$VISRETAIN
 70
     1
  9
$PLINEGEN
 70
     0
  9
$PSLTSCALE
 70
     1
  9
$TREEDEPTH
 70
  3020
  9
$CMLSTYLE
  2
Standard
  9
$CMLJUST
 70
     0
  9
$CMLSCALE
 40
20.0
  9
$PROXYGRAPHICS
 70
     1
  9
$MEASUREMENT
 70
     1
  9
$CELWEIGHT
370
    -1
  9
$ENDCAPS
280
     0
  9
$JOINSTYLE
280
     0
  9
$LWDISPLAY
290
     1
  9
$INSUNITS
 70
     4
  9
$HYPERLINKBASE
  1

  9
$STYLESHEET
  1

  9
$XEDIT
290
     1
  9
$CEPSNTYPE
380
     0
  9
$PSTYLEMODE
290
     1
  9
$FINGERPRINTGUID
  2
{AA7EA473-3366-475E-9C74-D1396944CD7C}
  9
$VERSIONGUID
  2
{FAEB1C32-E019-11D5-929B-00C0DF256EC4}
  9
$EXTNAMES
290
     1
  9
$PSVPSCALE
 40
0.0
  9
$OLESTARTUP
290
     0
  0
ENDSEC
  0
SECTION
  2
CLASSES
  0
CLASS
  1
ACDBDICTIONARYWDFLT
  2
AcDbDictionaryWithDefault
  3
ObjectDBX Classes
 90
        0
280
     0
281
     0
  0
CLASS
  1
VISUALSTYLE
  2
AcDbVisualStyle
  3
ObjectDBX Classes
 90
     4095
280
     0
281
     0
  0
CLASS
  1
MATERIAL
  2
AcDbMaterial
  3
ObjectDBX Classes
 90
     1153
280
     0
281
     0
  0
CLASS
  1
SCALE
  2
AcDbScale
  3
ObjectDBX Classes
 90
     1153
280
     0
281
     0
  0
CLASS
  1
SUN
  2
AcDbSun
  3
SCENEOE
 90
     1153
280
     0
281
     0
  0
CLASS
  1
ACDBPLACEHOLDER
  2
AcDbPlaceHolder
  3
ObjectDBX Classes
 90
        0
280
     0
281
     0
  0
CLASS
  1
LAYOUT
  2
AcDbLayout
  3
ObjectDBX Classes
 90
        0
280
     0
281
     0
  0
CLASS
  1
TABLESTYLE
  2
AcDbTableStyle
  3
ObjectDBX Classes
 90
     4095
280
     0
281
     0
  0
CLASS
  1
MLEADERSTYLE
  2
AcDbMLeaderStyle
  3
ACDB_MLEADERSTYLE_CLASS
 90
     4095
280
     0
281
     0
  0
CLASS
  1
RASTERVARIABLES
  2
AcDbRasterVariables
  3
ISM
 90
        0
280
     0
281
     0
  0
ENDSEC
  0
SECTION
  2
TABLES
  0
TABLE
  2
VPORT
  5
8
330
0
100
AcDbSymbolTable
 70
     1
  0
VPORT
  5
29
330
8
100
AcDbSymbolTableRecord
100
AcDbViewportTableRecord
  2
*Active
 70
     0
 10
0.0
 20
0.0
 11
1.0
 21
1.0
 12
22.12955624464554
 22
-9.019451060872015
 13
0.0
 23
0.0
 14
10.0
 24
10.0
 15
10.0
 25
10.0
 16
0.0
 26
0.0
 36
1.0
 17
0.0
 27
0.0
 37
0.0
 40
145.7754974866119
 41
1.625730994152047
 42
50.0
 43
0.0
 44
0.0
 50
0.0
 51
0.0
 71
    16
 72
  2000
 73
     1
 74
     3
 75
     0
 76
     0
 77
     0
 78
     0
281
     0
 65
     1
110
0.0
120
0.0
130
0.0
111
1.0
121
0.0
131
0.0
112
0.0
122
1.0
132
0.0
 79
     0
146
0.0
  0
ENDTAB
  0
TABLE
  2
LTYPE
  5
5
330
0
100
AcDbSymbolTable
 70
     6
  0
LTYPE
  5
14
330
5
100
AcDbSymbolTableRecord
100
AcDbLinetypeTableRecord
  2
ByBlock
 70
     0
  3

 72
    65
 73
     0
 40
0.0
  0
LTYPE
  5
15
330
5
100
AcDbSymbolTableRecord
100
AcDbLinetypeTableRecord
  2
ByLayer
 70
     0
  3

 72
    65
 73
     0
 40
0.0
  0
LTYPE
  5
16
330
5
100
AcDbSymbolTableRecord
100
AcDbLinetypeTableRecord
  2
Continuous
 70
     0
  3
Solid line
 72
    65
 73
     0
 40
0.0
  0
LTYPE
  5
6A
330
5
100
AcDbSymbolTableRecord
100
AcDbLinetypeTableRecord
  2
HIDDEN
 70
     0
  3
Hidden __ __ __ __ __ __ __ __ __ __ __ __ __ __
 72
    65
 73
     2
 40
1.905
 49
1.27
 74
     0
 49
-0.635
 74
     0
  0
LTYPE
  5
6B
330
5
100
AcDbSymbolTableRecord
100
AcDbLinetypeTableRecord
  2
PHANTOM
 70
     0
  3
Phantom ______  __  __  ______  __  __  ______
 72
    65
 73
     6
 40
12.7
 49
6.35
 74
     0
 49
-1.27
 74
     0
 49
1.27
 74
     0
 49
-1.27
 74
     0
 49
1.27
 74
     0
 49
-1.27
 74
     0
  0
LTYPE
  5
6C
330
5
100
AcDbSymbolTableRecord
100
AcDbLinetypeTableRecord
  2
CENTER
 70
     0
  3
Center ____ _ ____ _ ____ _ ____ _ ____ _ ____
 72
    65
 73
     4
 40
10.16
 49
6.35
 74
     0
 49
-1.27
 74
     0
 49
1.27
 74
     0
 49
-1.27
 74
     0
  0
LTYPE
  5
6D
330
5
100
AcDbSymbolTableRecord
100
AcDbLinetypeTableRecord
  2
CENTERX2
 70
     0
  3
Center (2x) ________  __  ________  __  _____
 72
    65
 73
     4
 40
20.32
 49
12.7
 74
     0
 49
-2.54
 74
     0
 49
2.54
 74
     0
 49
-2.54
 74
     0
  0
LTYPE
  5
6E
330
5
100
AcDbSymbolTableRecord
100
AcDbLinetypeTableRecord
  2
DOT2
 70
     0
  3
Dot (.5x) ........................................
 72
    65
 73
     2
 40
0.635
 49
0.0
 74
     0
 49
-0.635
 74
     0
  0
ENDTAB
  0
TABLE
  2
LAYER
  5
2
102
{ACAD_XDICTIONARY
360
1C9
102
}
330
0
100
AcDbSymbolTable
 70
    18
  0
LAYER
  5
10
330
2
100
AcDbSymbolTableRecord
100
AcDbLayerTableRecord
  2
0
 70
     0
 62
     7
  6
Continuous
370
    -3
390
F
  0
LAYER
  5
6F
330
2
100
AcDbSymbolTableRecord
100
AcDbLayerTableRecord
  2
FORMAT
 70
     0
 62
     2
  6
Continuous
370
    -3
390
F
  0
LAYER
  5
70
330
2
100
AcDbSymbolTableRecord
100
AcDbLayerTableRecord
  2
외형선
 70
     0
 62
     4
  6
Continuous
370
    30
390
F
  0
LAYER
  5
71
330
2
100
AcDbSymbolTableRecord
100
AcDbLayerTableRecord
  2
숨은선
 70
     0
 62
     2
  6
HIDDEN
370
    15
390
F
  0
LAYER
  5
72
330
2
100
AcDbSymbolTableRecord
100
AcDbLayerTableRecord
  2
중심선
 70
     0
 62
     1
  6
CENTERX2
370
    -3
390
F
  0
LAYER
  5
73
330
2
100
AcDbSymbolTableRecord
100
AcDbLayerTableRecord
  2
파단선
 70
     0
 62
     4
  6
Continuous
370
    -3
390
F
  0
LAYER
  5
74
330
2
100
AcDbSymbolTableRecord
100
AcDbLayerTableRecord
  2
해칭선
 70
     0
 62
   100
  6
Continuous
370
    -3
390
F
  0
LAYER
  5
75
330
2
100
AcDbSymbolTableRecord
100
AcDbLayerTableRecord
  2
가는실선
 70
     0
 62
     4
  6
Continuous
370
    -3
390
F
  0
LAYER
  5
76
330
2
100
AcDbSymbolTableRecord
100
AcDbLayerTableRecord
  2
치수_보조선
 70
     0
 62
     4
  6
Continuous
370
    -3
390
F
  0
LAYER
  5
77
330
2
100
AcDbSymbolTableRecord
100
AcDbLayerTableRecord
  2
치수문자_일반주서
 70
     0
 62
     7
  6
Continuous
370
    15
390
F
  0
LAYER
  5
78
330
2
100
AcDbSymbolTableRecord
100
AcDbLayerTableRecord
  2
개별주서
 70
     0
 62
   100
  6
Continuous
370
    30
390
F
  0
LAYER
  5
79
330
2
100
AcDbSymbolTableRecord
100
AcDbLayerTableRecord
  2
중간선
 70
     0
 62
     2
  6
Continuous
370
    15
390
F
  0
LAYER
  5
7A
330
2
100
AcDbSymbolTableRecord
100
AcDbLayerTableRecord
  2
윤곽선
 70
     0
 62
     3
  6
Continuous
370
    40
390
F
  0
LAYER
  5
7B
330
2
100
AcDbSymbolTableRecord
100
AcDbLayerTableRecord
  2
중심마크
 70
     0
 62
   100
  6
Continuous
370
    30
390
F
  0
LAYER
  5
7C
330
2
100
AcDbSymbolTableRecord
100
AcDbLayerTableRecord
  2
가상선
 70
     0
 62
     4
  6
PHANTOM
370
    -3
390
F
  0
LAYER
  5
7D
330
2
100
AcDbSymbolTableRecord
100
AcDbLayerTableRecord
  2
특수지정선
 70
     0
 62
     5
  6
CENTERX2
370
    60
390
F
  0
LAYER
  5
7E
330
2
100
AcDbSymbolTableRecord
100
AcDbLayerTableRecord
  2
참조1
 70
     0
 62
    -4
  6
Continuous
370
    -3
390
F
  0
LAYER
  5
13C
330
2
100
AcDbSymbolTableRecord
100
AcDbLayerTableRecord
  2
Defpoints
 70
     0
 62
     7
  6
Continuous
290
     0
370
    -3
390
F
  0
ENDTAB
  0
TABLE
  2
STYLE
  5
3
330
0
100
AcDbSymbolTable
 70
     2
  0
STYLE
  5
11
330
3
100
AcDbSymbolTableRecord
100
AcDbTextStyleTableRecord
  2
Standard
 70
     0
 40
0.0
 41
1.0
 50
0.0
 71
     0
 42
3.5
  3
txt
  4

  0
STYLE
  5
94
330
3
100
AcDbSymbolTableRecord
100
AcDbTextStyleTableRecord
  2
SLDTEXTSTYLE0
 70
     0
 40
0.0
 41
0.75
 50
0.0
 71
     0
 42
3.5
  3
TXT
  4

  0
ENDTAB
  0
TABLE
  2
VIEW
  5
6
330
0
100
AcDbSymbolTable
 70
     0
  0
ENDTAB
  0
TABLE
  2
UCS
  5
7
330
0
100
AcDbSymbolTable
 70
     0
  0
ENDTAB
  0
TABLE
  2
APPID
  5
9
330
0
100
AcDbSymbolTable
 70
     1
  0
APPID
  5
12
330
9
100
AcDbSymbolTableRecord
100
AcDbRegAppTableRecord
  2
ACAD
 70
     0
  0
ENDTAB
  0
TABLE
  2
DIMSTYLE
  5
A
330
0
100
AcDbSymbolTable
 70
     3
100
AcDbDimStyleTable
  0
DIMSTYLE
105
27
330
A
100
AcDbSymbolTableRecord
100
AcDbDimStyleTableRecord
  2
ISO-25
 70
     0
 41
2.5
 42
0.625
 43
3.75
 44
1.25
 73
     0
 74
     0
 77
     1
 78
     8
140
2.5
141
2.5
143
0.03937007874016
147
0.625
171
     3
172
     1
178
     0
271
     2
272
     2
274
     3
278
    44
283
     0
284
     8
340
11
  0
DIMSTYLE
105
BD
330
A
100
AcDbSymbolTableRecord
100
AcDbDimStyleTableRecord
  2
SLDDIMSTYLE0
 70
     0
 41
3.302
 44
0.0
 45
0.000000001
 73
     0
 74
     0
 77
     1
 78
     4
 79
     1
140
3.5
143
0.0393700787401575
147
0.875
148
0.000000001
170
     1
173
     1
178
     0
271
     2
272
     2
276
     2
284
    12
340
94
  0
DIMSTYLE
105
E4
102
{ACAD_REACTORS
330
E3
330
185
330
192
330
19F
330
1AC
330
D0
330
F6
330
BC
102
}
330
A
100
AcDbSymbolTableRecord
100
AcDbDimStyleTableRecord
  2
SLDDIMSTYLE1
 70
     0
 41
3.302
 44
0.0
 45
0.000000001
 73
     0
 74
     0
 77
     1
 78
    12
 79
     3
140
3.5
143
0.0393700787401575
147
0.875
148
0.000000001
170
     1
173
     1
178
     0
271
     2
272
     2
276
     2
284
    12
340
94
  0
ENDTAB
  0
TABLE
  2
BLOCK_RECORD
  5
1
330
0
100
AcDbSymbolTable
 70
    17
  0
BLOCK_RECORD
  5
1F
330
1
100
AcDbSymbolTableRecord
100
AcDbBlockTableRecord
  2
*Model_Space
340
22
  0
BLOCK_RECORD
  5
1B
330
1
100
AcDbSymbolTableRecord
100
AcDbBlockTableRecord
  2
*Paper_Space
340
1E
  0
BLOCK_RECORD
  5
23
330
1
100
AcDbSymbolTableRecord
100
AcDbBlockTableRecord
  2
*Paper_Space0
340
26
  0
BLOCK_RECORD
  5
7F
330
1
100
AcDbSymbolTableRecord
100
AcDbBlockTableRecord
  2
블럭10
340
0
102
{BLKREFS
331
B5
102
}
  0
BLOCK_RECORD
  5
BE
330
1
100
AcDbSymbolTableRecord
100
AcDbBlockTableRecord
  2
_D
340
0
  0
BLOCK_RECORD
  5
D1
330
1
100
AcDbSymbolTableRecord
100
AcDbBlockTableRecord
  2
_D_1
340
0
  0
BLOCK_RECORD
  5
E5
330
1
100
AcDbSymbolTableRecord
100
AcDbBlockTableRecord
  2
_D_2
340
0
  0
BLOCK_RECORD
  5
F7
330
1
100
AcDbSymbolTableRecord
100
AcDbBlockTableRecord
  2
_D_3
340
0
  0
BLOCK_RECORD
  5
110
330
1
100
AcDbSymbolTableRecord
100
AcDbBlockTableRecord
  2
SW_DOWELSYMBOL_0
340
0
102
{BLKREFS
331
116
331
1BC
331
0
102
}
  0
BLOCK_RECORD
  5
1CD
330
1
100
AcDbSymbolTableRecord
100
AcDbBlockTableRecord
  2
*D8
340
0
  0
BLOCK_RECORD
  5
1D9
330
1
100
AcDbSymbolTableRecord
100
AcDbBlockTableRecord
  2
*D9
340
0
  0
BLOCK_RECORD
  5
1E5
330
1
100
AcDbSymbolTableRecord
100
AcDbBlockTableRecord
  2
*D10
340
0
  0
BLOCK_RECORD
  5
1F1
330
1
100
AcDbSymbolTableRecord
100
AcDbBlockTableRecord
  2
*D11
340
0
  0
BLOCK_RECORD
  5
22A
330
1
100
AcDbSymbolTableRecord
100
AcDbBlockTableRecord
  2
*D12
340
0
  0
BLOCK_RECORD
  5
236
330
1
100
AcDbSymbolTableRecord
100
AcDbBlockTableRecord
  2
*D13
340
0
  0
BLOCK_RECORD
  5
242
330
1
100
AcDbSymbolTableRecord
100
AcDbBlockTableRecord
  2
*D14
340
0
  0
BLOCK_RECORD
  5
24E
330
1
100
AcDbSymbolTableRecord
100
AcDbBlockTableRecord
  2
*D15
340
0
  0
ENDTAB
  0
ENDSEC
  0
SECTION
  2
BLOCKS
  0
BLOCK
  5
20
330
1F
100
AcDbEntity
  8
0
100
AcDbBlockBegin
  2
*Model_Space
 70
     0
 10
0.0
 20
0.0
 30
0.0
  3
*Model_Space
  1
*Model_Space
  0
ENDBLK
  5
21
330
1F
100
AcDbEntity
  8
0
100
AcDbBlockEnd
  0
BLOCK
  5
1C
330
1B
100
AcDbEntity
 67
     1
  8
0
100
AcDbBlockBegin
  2
*Paper_Space
 70
     0
 10
0.0
 20
0.0
 30
0.0
  3
*Paper_Space
  1
*Paper_Space
  0
ENDBLK
  5
1D
330
1B
100
AcDbEntity
 67
     1
  8
0
100
AcDbBlockEnd
  0
BLOCK
  5
24
330
23
100
AcDbEntity
  8
0
100
AcDbBlockBegin
  2
*Paper_Space0
 70
     0
 10
0.0
 20
0.0
 30
0.0
  3
*Paper_Space0
  1
*Paper_Space0
  0
ENDBLK
  5
25
330
23
100
AcDbEntity
  8
0
100
AcDbBlockEnd
  0
BLOCK
  5
80
330
7F
100
AcDbEntity
  8
0
100
AcDbBlockBegin
  2
블럭10
 70
     2
 10
0.0
 20
0.0
 30
0.0
  3
블럭10
  1
블럭10
  0
ELLIPSE
  5
82
330
7F
100
AcDbEntity
  8
중심선
100
AcDbEllipse
 10
20.54032771741204
 20
12.0471743016438
 30
0.0
 11
6.600054785286829
 21
-1.261213355974178E-13
 31
0.0
210
0.0
220
0.0
230
1.0
 40
0.636358354079598
 41
0.9219305317359503
 42
6.513795318482858
  0
ELLIPSE
  5
83
330
7F
100
AcDbEntity
  8
중심선
100
AcDbEllipse
 10
20.54032771746488
 20
12.04717430159265
 30
0.0
 11
3.960054785062283
 21
1.540847449632565E-10
 31
0.0
210
0.0
220
0.0
230
1.0
 40
0.3939339440162632
 41
1.131841032648279
 42
5.62031148352944
  0
LINE
  5
84
330
7F
100
AcDbEntity
  8
중심선
100
AcDbLine
 10
2.268634060543552
 20
16.24717430164393
 30
0.0
 11
5.714909304380834
 21
16.24717430164393
 31
0.0
  0
LINE
  5
85
330
7F
100
AcDbEntity
  8
중심선
100
AcDbLine
 10
5.245725140726316
 20
7.84717430164391
 30
0.0
 11
8.692000384563599
 21
7.84717430164391
 31
0.0
  0
LINE
  5
86
330
7F
100
AcDbEntity
  8
중심선
100
AcDbLine
 10
15.74043728645272
 20
16.24717430164393
 30
0.0
 11
8.692000384563599
 21
7.84717430164391
 31
0.0
  0
LINE
  5
87
330
7F
100
AcDbEntity
  8
중심선
100
AcDbLine
 10
0.1404042013395286
 20
13.71084872107135
 30
0.0
 11
3.58671253028996
 21
13.71088815037384
 31
0.0
  0
LINE
  5
88
330
7F
100
AcDbEntity
  8
중심선
100
AcDbLine
 10
2.750260043222114
 20
10.84717430164391
 30
0.0
 11
6.196535287059397
 21
10.84717430164391
 31
0.0
  0
LINE
  5
89
330
7F
100
AcDbEntity
  8
중심선
100
AcDbLine
 10
12.29416204261559
 20
16.24717430164393
 30
0.0
 11
5.245725140726316
 21
7.84717430164391
 31
0.0
  0
LINE
  5
8A
330
7F
100
AcDbEntity
  8
중심선
100
AcDbLine
 10
10.72767329541681
 20
16.24717430164393
 30
0.0
 11
6.196535287059397
 21
10.84717430164391
 31
0.0
  0
LINE
  5
8B
330
7F
100
AcDbEntity
  8
중심선
100
AcDbLine
 10
7.28139805157953
 20
16.24717430164393
 30
0.0
 11
2.750260043222114
 21
10.84717430164391
 31
0.0
  0
LINE
  5
8C
330
7F
100
AcDbEntity
  8
중심선
100
AcDbLine
 10
5.714909304380834
 20
16.24717430164393
 30
0.0
 11
3.58671253028996
 21
13.71088815037384
 31
0.0
  0
LINE
  5
8D
330
7F
100
AcDbEntity
  8
중심선
100
AcDbLine
 10
2.268634060543552
 20
16.24717430164393
 30
0.0
 11
0.1404042013395286
 21
13.71084872107135
 31
0.0
  0
LINE
  5
8E
330
7F
100
AcDbEntity
  8
중심선
100
AcDbLine
 10
7.28139805157953
 20
16.24717430164393
 30
0.0
 11
10.72767329541681
 21
16.24717430164393
 31
0.0
  0
LINE
  5
8F
330
7F
100
AcDbEntity
  8
중심선
100
AcDbLine
 10
12.29416204261559
 20
16.24717430164393
 30
0.0
 11
15.74043728645272
 21
16.24717430164393
 31
0.0
  0
LINE
  5
90
330
7F
100
AcDbEntity
  8
중심선
100
AcDbLine
 10
19.22036997980202
 20
11.08717430171403
 30
0.0
 11
23.66174974927406
 21
11.08717430171406
 31
0.0
  0
LINE
  5
91
330
7F
100
AcDbEntity
  8
중심선
100
AcDbLine
 10
19.22039502424796
 20
13.00717430171391
 30
0.0
 11
19.22036997980202
 21
11.08717430171403
 31
0.0
  0
LINE
  5
92
330
7F
100
AcDbEntity
  8
중심선
100
AcDbLine
 10
19.22039502424796
 20
13.00717430171391
 30
0.0
 11
26.96566020931264
 21
13.00717430171391
 31
0.0
  0
LINE
  5
93
330
7F
100
AcDbEntity
  8
중심선
100
AcDbLine
 10
22.22332737316547
 20
13.45928029700563
 30
0.0
 11
24.52862924686651
 21
15.39360700705356
 31
0.0
  0
ATTDEF
  5
95
330
7F
100
AcDbEntity
  8
FORMAT
 62
     2
100
AcDbText
 10
4.408487351596664
 20
2.075366912832191
 30
0.0
 40
4.233333333333333
  1
E2020116
 41
0.75
  7
SLDTEXTSTYLE0
 11
4.408487351596664
 21
-0.0412997538344756
 31
0.0
100
AcDbAttributeDefinition
  3

  2
AUTOATTR0
 70
     0
 74
     1
  0
ENDBLK
  5
81
330
7F
100
AcDbEntity
  8
0
100
AcDbBlockEnd
  0
BLOCK
  5
BF
330
BE
100
AcDbEntity
  8
0
100
AcDbBlockBegin
  2
_D
 70
     0
 10
0.0
 20
0.0
 30
0.0
  3
_D
  1
_D
  0
LINE
  5
C1
330
BE
100
AcDbEntity
  8
치수문자_일반주서
 62
     0
370
    -2
100
AcDbLine
 10
62.80000000000005
 20
15.93750000000001
 30
0.0
 11
62.80000000000005
 21
23.97335081297293
 31
0.0
  0
LINE
  5
C2
330
BE
100
AcDbEntity
  8
치수문자_일반주서
 62
     0
370
    -2
100
AcDbLine
 10
12.0
 20
15.87912114051213
 30
0.0
 11
12.0
 21
23.97335081297293
 31
0.0
  0
LINE
  5
C3
330
BE
100
AcDbEntity
  8
치수문자_일반주서
 62
     0
370
    -2
100
AcDbLine
 10
59.49800000000005
 20
23.97335081297293
 30
0.0
 11
15.302
 21
23.97335081297293
 31
0.0
  0
SOLID
  5
C4
330
BE
100
AcDbEntity
  8
치수문자_일반주서
 62
     0
100
AcDbTrace
 10
59.49800000000005
 20
23.4230174796396
 30
0.0
 11
59.49800000000005
 21
24.52368414630627
 31
0.0
 12
62.80000000000005
 22
23.97335081297293
 32
0.0
 13
62.80000000000005
 23
23.97335081297293
 33
0.0
  0
SOLID
  5
C5
330
BE
100
AcDbEntity
  8
치수문자_일반주서
 62
     0
100
AcDbTrace
 10
15.302
 20
24.52368414630627
 30
0.0
 11
15.302
 21
23.4230174796396
 31
0.0
 12
12.0
 22
23.97335081297293
 32
0.0
 13
12.0
 23
23.97335081297293
 33
0.0
  0
MTEXT
  5
C6
330
BE
100
AcDbEntity
  8
치수문자_일반주서
 62
     0
100
AcDbMText
 10
37.188345789472
 20
28.34835081297293
 30
0.0
 40
3.5
 41
0.0
 71
     2
 72
     1
  1
\A1;50.8 [2]
  7
SLDTEXTSTYLE0
 73
     1
 44
1.0
  0
POINT
  5
C7
330
BE
100
AcDbEntity
  8
Defpoints
 62
     0
100
AcDbPoint
 10
62.80000000000005
 20
15.87500000000001
 30
0.0
  0
POINT
  5
C8
330
BE
100
AcDbEntity
  8
Defpoints
 62
     0
100
AcDbPoint
 10
12.0
 20
15.81662114051213
 30
0.0
  0
POINT
  5
C9
330
BE
100
AcDbEntity
  8
Defpoints
 62
     0
100
AcDbPoint
 10
12.0
 20
23.97335081297293
 30
0.0
  0
ENDBLK
  5
C0
330
BE
100
AcDbEntity
  8
0
100
AcDbBlockEnd
  0
BLOCK
  5
D2
330
D1
100
AcDbEntity
  8
0
100
AcDbBlockBegin
  2
_D_1
 70
     0
 10
0.0
 20
0.0
 30
0.0
  3
_D_1
  1
_D_1
  0
LINE
  5
D4
330
D1
100
AcDbEntity
  8
치수문자_일반주서
 62
     0
370
    -2
100
AcDbLine
 10
62.80000000000005
 20
15.93750000000001
 30
0.0
 11
62.80000000000006
 21
39.33723575977243
 31
0.0
  0
LINE
  5
D5
330
D1
100
AcDbEntity
  8
치수문자_일반주서
 62
     0
370
    -2
100
AcDbLine
 10
-51.50000000000001
 20
12.76250000000001
 30
0.0
 11
-51.5
 21
39.33723575977243
 31
0.0
  0
LINE
  5
D6
330
D1
100
AcDbEntity
  8
치수문자_일반주서
 62
     0
370
    -2
100
AcDbLine
 10
59.49800000000006
 20
39.33723575977243
 30
0.0
 11
-48.198
 21
39.33723575977243
 31
0.0
  0
SOLID
  5
D7
330
D1
100
AcDbEntity
  8
치수문자_일반주서
 62
     0
100
AcDbTrace
 10
59.49800000000006
 20
38.78690242643909
 30
0.0
 11
59.49800000000006
 21
39.88756909310576
 31
0.0
 12
62.80000000000006
 22
39.33723575977243
 32
0.0
 13
62.80000000000006
 23
39.33723575977243
 33
0.0
  0
SOLID
  5
D8
330
D1
100
AcDbEntity
  8
치수문자_일반주서
 62
     0
100
AcDbTrace
 10
-48.198
 20
39.88756909310576
 30
0.0
 11
-48.198
 21
38.78690242643909
 31
0.0
 12
-51.5
 22
39.33723575977243
 32
0.0
 13
-51.5
 23
39.33723575977243
 33
0.0
  0
MTEXT
  5
D9
330
D1
100
AcDbEntity
  8
치수문자_일반주서
 62
     0
100
AcDbMText
 10
7.740899641439619
 20
43.71223575977243
 30
0.0
 40
3.5
 41
0.0
 71
     2
 72
     1
  1
\A1;114.3 [4 1/2]
  7
SLDTEXTSTYLE0
 73
     1
 44
1.0
  0
POINT
  5
DA
330
D1
100
AcDbEntity
  8
Defpoints
 62
     0
100
AcDbPoint
 10
62.80000000000005
 20
15.87500000000001
 30
0.0
  0
POINT
  5
DB
330
D1
100
AcDbEntity
  8
Defpoints
 62
     0
100
AcDbPoint
 10
-51.50000000000001
 20
12.70000000000001
 30
0.0
  0
POINT
  5
DC
330
D1
100
AcDbEntity
  8
Defpoints
 62
     0
100
AcDbPoint
 10
-51.50000000000001
 20
39.33723575977243
 30
0.0
  0
ENDBLK
  5
D3
330
D1
100
AcDbEntity
  8
0
100
AcDbBlockEnd
  0
BLOCK
  5
E6
330
E5
100
AcDbEntity
  8
0
100
AcDbBlockBegin
  2
_D_2
 70
     0
 10
0.0
 20
0.0
 30
0.0
  3
_D_2
  1
_D_2
  0
LINE
  5
E8
330
E5
100
AcDbEntity
  8
치수문자_일반주서
 62
     0
370
    -2
100
AcDbLine
 10
-51.56250000000001
 20
15.87499999999999
 30
0.0
 11
-62.27750000000007
 21
15.87499999999995
 31
0.0
  0
LINE
  5
E9
330
E5
100
AcDbEntity
  8
치수문자_일반주서
 62
     0
370
    -2
100
AcDbLine
 10
-48.3875
 20
-15.87500000000001
 30
0.0
 11
-62.27749999999995
 21
-15.87500000000006
 31
0.0
  0
LINE
  5
EA
330
E5
100
AcDbEntity
  8
치수문자_일반주서
 62
     0
370
    -2
100
AcDbLine
 10
-62.27750000000005
 20
12.57299999999995
 30
0.0
 11
-62.27749999999997
 21
-12.57300000000006
 31
0.0
  0
SOLID
  5
EB
330
E5
100
AcDbEntity
  8
치수문자_일반주서
 62
     0
100
AcDbTrace
 10
-61.72716666666672
 20
12.57299999999996
 30
0.0
 11
-62.82783333333339
 21
12.57299999999995
 31
0.0
 12
-62.27750000000007
 22
15.87499999999995
 32
0.0
 13
-62.27750000000007
 23
15.87499999999995
 33
0.0
  0
SOLID
  5
EC
330
E5
100
AcDbEntity
  8
치수문자_일반주서
 62
     0
100
AcDbTrace
 10
-62.8278333333333
 20
-12.57300000000006
 30
0.0
 11
-61.72716666666663
 21
-12.57300000000006
 31
0.0
 12
-62.27749999999995
 22
-15.87500000000006
 32
0.0
 13
-62.27749999999995
 23
-15.87500000000006
 33
0.0
  0
MTEXT
  5
ED
330
E5
100
AcDbEntity
  8
치수문자_일반주서
 62
     0
100
AcDbMText
 10
-66.6525
 20
-0.0000000000000215
 30
0.0
 40
3.5
 41
0.0
 71
     2
 72
     1
  1
\A1;%%c31.75 [1 1/4]
  7
SLDTEXTSTYLE0
 11
-3.580687802255622E-15
 21
1.0
 31
0.0
 73
     1
 44
1.0
  0
POINT
  5
EE
330
E5
100
AcDbEntity
  8
Defpoints
 62
     0
100
AcDbPoint
 10
-51.50000000000001
 20
15.87499999999999
 30
0.0
  0
POINT
  5
EF
330
E5
100
AcDbEntity
  8
Defpoints
 62
     0
100
AcDbPoint
 10
-48.325
 20
-15.87500000000001
 30
0.0
  0
POINT
  5
F0
330
E5
100
AcDbEntity
  8
Defpoints
 62
     0
100
AcDbPoint
 10
-62.27749999999995
 20
-15.87500000000006
 30
0.0
  0
ENDBLK
  5
E7
330
E5
100
AcDbEntity
  8
0
100
AcDbBlockEnd
  0
BLOCK
  5
F8
330
F7
100
AcDbEntity
  8
0
100
AcDbBlockBegin
  2
_D_3
 70
     0
 10
0.0
 20
0.0
 30
0.0
  3
_D_3
  1
_D_3
  0
LINE
  5
FA
330
F7
100
AcDbEntity
  8
치수문자_일반주서
 62
     0
370
    -2
100
AcDbLine
 10
62.86250000000005
 20
15.87500000000001
 30
0.0
 11
78.48246508600133
 21
15.87500000000006
 31
0.0
  0
LINE
  5
FB
330
F7
100
AcDbEntity
  8
치수문자_일반주서
 62
     0
370
    -2
100
AcDbLine
 10
62.86250000000003
 20
-15.875
 30
0.0
 11
78.48246508600144
 21
-15.87499999999994
 31
0.0
  0
LINE
  5
FC
330
F7
100
AcDbEntity
  8
치수문자_일반주서
 62
     0
370
    -2
100
AcDbLine
 10
78.48246508600133
 20
15.87500000000006
 30
0.0
 11
78.4824650860012
 21
50.67700000000006
 31
0.0
  0
LINE
  5
FD
330
F7
100
AcDbEntity
  8
치수문자_일반주서
 62
     0
370
    -2
100
AcDbLine
 10
78.48246508600134
 20
12.57300000000006
 30
0.0
 11
78.48246508600143
 21
-12.57299999999994
 31
0.0
  0
SOLID
  5
FE
330
F7
100
AcDbEntity
  8
치수문자_일반주서
 62
     0
100
AcDbTrace
 10
79.03279841933467
 20
12.57300000000006
 30
0.0
 11
77.93213175266801
 21
12.57300000000006
 31
0.0
 12
78.48246508600133
 22
15.87500000000006
 32
0.0
 13
78.48246508600133
 23
15.87500000000006
 33
0.0
  0
SOLID
  5
FF
330
F7
100
AcDbEntity
  8
치수문자_일반주서
 62
     0
100
AcDbTrace
 10
77.9321317526681
 20
-12.57299999999995
 30
0.0
 11
79.03279841933475
 21
-12.57299999999994
 31
0.0
 12
78.48246508600144
 22
-15.87499999999994
 32
0.0
 13
78.48246508600144
 23
-15.87499999999994
 33
0.0
  0
MTEXT
  5
100
330
F7
100
AcDbEntity
  8
치수문자_일반주서
 62
     0
100
AcDbMText
 10
74.10746508600126
 20
34.92700000000005
 30
0.0
 40
3.5
 41
0.0
 71
     2
 72
     1
  1
\A1;%%c31.75 [1 1/4]
  7
SLDTEXTSTYLE0
 11
-3.580687802255623E-15
 21
1.0
 31
0.0
 73
     1
 44
1.0
  0
POINT
  5
101
330
F7
100
AcDbEntity
  8
Defpoints
 62
     0
100
AcDbPoint
 10
62.80000000000005
 20
15.87500000000001
 30
0.0
  0
POINT
  5
102
330
F7
100
AcDbEntity
  8
Defpoints
 62
     0
100
AcDbPoint
 10
62.80000000000003
 20
-15.875
 30
0.0
  0
POINT
  5
103
330
F7
100
AcDbEntity
  8
Defpoints
 62
     0
100
AcDbPoint
 10
78.48246508600144
 20
-15.87499999999994
 30
0.0
  0
ENDBLK
  5
F9
330
F7
100
AcDbEntity
  8
0
100
AcDbBlockEnd
  0
BLOCK
  5
111
330
110
100
AcDbEntity
  8
0
100
AcDbBlockBegin
  2
SW_DOWELSYMBOL_0
 70
     0
 10
0.0
 20
0.0
 30
0.0
  3
SW_DOWELSYMBOL_0
  1
SW_DOWELSYMBOL_0
  0
CIRCLE
  5
113
330
110
100
AcDbEntity
  8
해칭선
 62
     0
100
AcDbCircle
 10
0.0
 20
0.0
 30
0.0
 40
3.000000000000001
  0
HATCH
  5
114
330
110
100
AcDbEntity
  8
0
  6
Continuous
 62
     0
370
     0
100
AcDbHatch
 10
0.0
 20
0.0
 30
0.0
210
0.0
220
0.0
230
1.0
  2
SOLID
 70
     1
 71
     0
 91
        1
 92
        0
 93
        3
 72
     2
 10
0.0
 20
0.0
 40
3.000000000000001
 50
0.0
 51
90.0
 73
     1
 72
     1
 10
0.0
 20
3.000000000000001
 11
0.0
 21
0.0
 72
     1
 10
0.0
 20
0.0
 11
3.000000000000003
 21
0.0
 97
        0
 75
     0
 76
     1
 98
        1
 10
0.0
 20
0.0
  0
HATCH
  5
115
330
110
100
AcDbEntity
  8
0
  6
Continuous
 62
     0
370
     0
100
AcDbHatch
 10
0.0
 20
0.0
 30
0.0
210
0.0
220
0.0
230
1.0
  2
SOLID
 70
     1
 71
     0
 91
        1
 92
        0
 93
        3
 72
     2
 10
0.0
 20
0.0
 40
3.000000000000001
 50
180.0
 51
270.0000000000008
 73
     1
 72
     1
 10
0.0
 20
-3.000000000000001
 11
0.0
 21
0.0
 72
     1
 10
0.0
 20
0.0
 11
-3.000000000000001
 21
0.0
 97
        0
 75
     0
 76
     1
 98
        1
 10
0.0
 20
0.0
  0
ENDBLK
  5
112
330
110
100
AcDbEntity
  8
0
100
AcDbBlockEnd
  0
BLOCK
  5
1CE
330
1CD
100
AcDbEntity
  8
0
100
AcDbBlockBegin
  2
*D8
 70
     1
 10
0.0
 20
0.0
 30
0.0
  3
*D8
  1
*D8
  0
LINE
  5
1D0
330
1CD
100
AcDbEntity
  8
치수문자_일반주서
 62
     0
370
    -2
100
AcDbLine
 10
130.0875000000001
 20
32.06649999999992
 30
0.0
 11
130.0875000000001
 21
40.96919864395652
 31
0.0
  0
LINE
  5
1D1
330
1CD
100
AcDbEntity
  8
치수문자_일반주서
 62
     0
370
    -2
100
AcDbLine
 10
79.28750000000005
 20
32.01979691240962
 30
0.0
 11
79.28750000000005
 21
40.96919864395652
 31
0.0
  0
LINE
  5
1D2
330
1CD
100
AcDbEntity
  8
치수문자_일반주서
 62
     0
370
    -2
100
AcDbLine
 10
126.7855000000001
 20
40.96919864395652
 30
0.0
 11
82.58950000000004
 21
40.96919864395652
 31
0.0
  0
SOLID
  5
1D3
330
1CD
100
AcDbEntity
  8
치수문자_일반주서
 62
     0
100
AcDbTrace
 10
126.7855000000001
 20
40.41886531062319
 30
0.0
 11
126.7855000000001
 21
41.51953197728986
 31
0.0
 12
130.0875000000001
 22
40.96919864395652
 32
0.0
 13
130.0875000000001
 23
40.96919864395652
 33
0.0
  0
SOLID
  5
1D4
330
1CD
100
AcDbEntity
  8
치수문자_일반주서
 62
     0
100
AcDbTrace
 10
82.58950000000004
 20
41.51953197728986
 30
0.0
 11
82.58950000000004
 21
40.41886531062319
 31
0.0
 12
79.28750000000005
 22
40.96919864395652
 32
0.0
 13
79.28750000000005
 23
40.96919864395652
 33
0.0
  0
MTEXT
  5
1D5
330
1CD
100
AcDbEntity
  8
치수문자_일반주서
 62
     0
100
AcDbMText
 10
105.8376400924131
 20
45.34419864395652
 30
0.0
 40
3.5
 41
0.0
 71
     2
 72
     1
  1
\A1;50.8 [2]
  7
SLDTEXTSTYLE0
 73
     1
 44
1.0
  0
POINT
  5
1D6
330
1CD
100
AcDbEntity
  8
Defpoints
 62
     0
100
AcDbPoint
 10
130.0875000000001
 20
32.00399999999992
 30
0.0
  0
POINT
  5
1D7
330
1CD
100
AcDbEntity
  8
Defpoints
 62
     0
100
AcDbPoint
 10
79.28750000000005
 20
31.95729691240962
 30
0.0
  0
POINT
  5
1D8
330
1CD
100
AcDbEntity
  8
Defpoints
 62
     0
100
AcDbPoint
 10
79.28750000000005
 20
40.96919864395652
 30
0.0
  0
ENDBLK
  5
1CF
330
1CD
100
AcDbEntity
  8
0
100
AcDbBlockEnd
  0
BLOCK
  5
1DA
330
1D9
100
AcDbEntity
  8
0
100
AcDbBlockBegin
  2
*D9
 70
     1
 10
0.0
 20
0.0
 30
0.0
  3
*D9
  1
*D9
  0
LINE
  5
1DC
330
1D9
100
AcDbEntity
  8
치수문자_일반주서
 62
     0
370
    -2
100
AcDbLine
 10
130.0875000000001
 20
32.06649999999992
 30
0.0
 11
130.0875000000001
 21
50.91314679328072
 31
0.0
  0
LINE
  5
1DD
330
1D9
100
AcDbEntity
  8
치수문자_일반주서
 62
     0
370
    -2
100
AcDbLine
 10
15.78750000000005
 20
29.52649999999991
 30
0.0
 11
15.78750000000005
 21
50.91314679328072
 31
0.0
  0
LINE
  5
1DE
330
1D9
100
AcDbEntity
  8
치수문자_일반주서
 62
     0
370
    -2
100
AcDbLine
 10
126.7855000000001
 20
50.91314679328072
 30
0.0
 11
19.08950000000005
 21
50.91314679328072
 31
0.0
  0
SOLID
  5
1DF
330
1D9
100
AcDbEntity
  8
치수문자_일반주서
 62
     0
100
AcDbTrace
 10
126.7855000000001
 20
50.36281345994738
 30
0.0
 11
126.7855000000001
 21
51.46348012661405
 31
0.0
 12
130.0875000000001
 22
50.91314679328072
 32
0.0
 13
130.0875000000001
 23
50.91314679328072
 33
0.0
  0
SOLID
  5
1E0
330
1D9
100
AcDbEntity
  8
치수문자_일반주서
 62
     0
100
AcDbTrace
 10
19.08950000000005
 20
51.46348012661405
 30
0.0
 11
19.08950000000005
 21
50.36281345994738
 31
0.0
 12
15.78750000000005
 22
50.91314679328072
 32
0.0
 13
15.78750000000005
 23
50.91314679328072
 33
0.0
  0
MTEXT
  5
1E1
330
1D9
100
AcDbEntity
  8
치수문자_일반주서
 62
     0
100
AcDbMText
 10
72.93750000000006
 20
55.28814679328072
 30
0.0
 40
3.5
 41
0.0
 71
     2
 72
     1
  1
\A1;114.3 [4 1/2]
  7
SLDTEXTSTYLE0
 73
     1
 44
1.0
  0
POINT
  5
1E2
330
1D9
100
AcDbEntity
  8
Defpoints
 62
     0
100
AcDbPoint
 10
130.0875000000001
 20
32.00399999999992
 30
0.0
  0
POINT
  5
1E3
330
1D9
100
AcDbEntity
  8
Defpoints
 62
     0
100
AcDbPoint
 10
15.78750000000005
 20
29.46399999999991
 30
0.0
  0
POINT
  5
1E4
330
1D9
100
AcDbEntity
  8
Defpoints
 62
     0
100
AcDbPoint
 10
15.78750000000005
 20
50.91314679328072
 30
0.0
  0
ENDBLK
  5
1DB
330
1D9
100
AcDbEntity
  8
0
100
AcDbBlockEnd
  0
BLOCK
  5
1E6
330
1E5
100
AcDbEntity
  8
0
100
AcDbBlockBegin
  2
*D10
 70
     1
 10
0.0
 20
0.0
 30
0.0
  3
*D10
  1
*D10
  0
LINE
  5
1E8
330
1E5
100
AcDbEntity
  8
치수문자_일반주서
 62
     0
370
    -2
100
AcDbLine
 10
15.72500000000005
 20
32.00399999999989
 30
0.0
 11
4.374999999999998
 21
32.00399999999985
 31
0.0
  0
LINE
  5
1E9
330
1E5
100
AcDbEntity
  8
치수문자_일반주서
 62
     0
370
    -2
100
AcDbLine
 10
18.26500000000005
 20
6.603999999999923
 30
0.0
 11
4.375000000000087
 21
6.603999999999871
 31
0.0
  0
LINE
  5
1EA
330
1E5
100
AcDbEntity
  8
치수문자_일반주서
 62
     0
370
    -2
100
AcDbLine
 10
4.37500000000001
 20
28.70199999999985
 30
0.0
 11
4.375000000000075
 21
9.905999999999871
 31
0.0
  0
SOLID
  5
1EB
330
1E5
100
AcDbEntity
  8
치수문자_일반주서
 62
     0
100
AcDbTrace
 10
4.925333333333343
 20
28.70199999999985
 30
0.0
 11
3.824666666666677
 21
28.70199999999985
 31
0.0
 12
4.374999999999998
 22
32.00399999999985
 32
0.0
 13
4.374999999999998
 23
32.00399999999985
 33
0.0
  0
SOLID
  5
1EC
330
1E5
100
AcDbEntity
  8
치수문자_일반주서
 62
     0
100
AcDbTrace
 10
3.824666666666742
 20
9.90599999999987
 30
0.0
 11
4.925333333333409
 21
9.905999999999873
 31
0.0
 12
4.375000000000087
 22
6.603999999999871
 32
0.0
 13
4.375000000000087
 23
6.603999999999871
 33
0.0
  0
MTEXT
  5
1ED
330
1E5
100
AcDbEntity
  8
치수문자_일반주서
 62
     0
100
AcDbMText
 10
0.0000000000000426
 20
19.30399999999988
 30
0.0
 40
3.5
 41
0.0
 71
     2
 72
     1
  1
\A1;%%c25.4 [1]
  7
SLDTEXTSTYLE0
 11
-3.496765431890260E-15
 21
1.0
 31
0.0
 73
     1
 44
1.0
  0
POINT
  5
1EE
330
1E5
100
AcDbEntity
  8
Defpoints
 62
     0
100
AcDbPoint
 10
15.78750000000005
 20
32.00399999999989
 30
0.0
  0
POINT
  5
1EF
330
1E5
100
AcDbEntity
  8
Defpoints
 62
     0
100
AcDbPoint
 10
18.32750000000005
 20
6.603999999999923
 30
0.0
  0
POINT
  5
1F0
330
1E5
100
AcDbEntity
  8
Defpoints
 62
     0
100
AcDbPoint
 10
4.375000000000078
 20
6.60399999999987
 30
0.0
  0
ENDBLK
  5
1E7
330
1E5
100
AcDbEntity
  8
0
100
AcDbBlockEnd
  0
BLOCK
  5
1F2
330
1F1
100
AcDbEntity
  8
0
100
AcDbBlockBegin
  2
*D11
 70
     1
 10
0.0
 20
0.0
 30
0.0
  3
*D11
  1
*D11
  0
LINE
  5
1F4
330
1F1
100
AcDbEntity
  8
치수문자_일반주서
 62
     0
370
    -2
100
AcDbLine
 10
130.1500000000001
 20
32.00399999999992
 30
0.0
 11
151.0287575006283
 21
32.004
 31
0.0
  0
LINE
  5
1F5
330
1F1
100
AcDbEntity
  8
치수문자_일반주서
 62
     0
370
    -2
100
AcDbLine
 10
130.1500000000001
 20
6.603999999999923
 30
0.0
 11
151.0287575006284
 21
6.603999999999999
 31
0.0
  0
LINE
  5
1F6
330
1F1
100
AcDbEntity
  8
치수문자_일반주서
 62
     0
370
    -2
100
AcDbLine
 10
151.0287575006283
 20
32.004
 30
0.0
 11
151.0287575006282
 21
59.82675000000003
 31
0.0
  0
LINE
  5
1F7
330
1F1
100
AcDbEntity
  8
치수문자_일반주서
 62
     0
370
    -2
100
AcDbLine
 10
151.0287575006283
 20
28.702
 30
0.0
 11
151.0287575006284
 21
9.905999999999999
 31
0.0
  0
SOLID
  5
1F8
330
1F1
100
AcDbEntity
  8
치수문자_일반주서
 62
     0
100
AcDbTrace
 10
151.5790908339616
 20
28.702
 30
0.0
 11
150.4784241672949
 21
28.70199999999999
 31
0.0
 12
151.0287575006283
 22
32.004
 32
0.0
 13
151.0287575006283
 23
32.004
 33
0.0
  0
SOLID
  5
1F9
330
1F1
100
AcDbEntity
  8
치수문자_일반주서
 62
     0
100
AcDbTrace
 10
150.478424167295
 20
9.905999999999997
 30
0.0
 11
151.5790908339617
 21
9.906
 31
0.0
 12
151.0287575006284
 22
6.603999999999999
 32
0.0
 13
151.0287575006284
 23
6.603999999999999
 33
0.0
  0
MTEXT
  5
1FA
330
1F1
100
AcDbEntity
  8
치수문자_일반주서
 62
     0
100
AcDbMText
 10
146.6537575006282
 20
49.76425000000002
 30
0.0
 40
3.5
 41
0.0
 71
     2
 72
     1
  1
\A1;%%c25.4 [1]
  7
SLDTEXTSTYLE0
 11
-3.356894814614647E-15
 21
1.0
 31
0.0
 73
     1
 44
1.0
  0
POINT
  5
1FB
330
1F1
100
AcDbEntity
  8
Defpoints
 62
     0
100
AcDbPoint
 10
130.0875000000001
 20
32.00399999999992
 30
0.0
  0
POINT
  5
1FC
330
1F1
100
AcDbEntity
  8
Defpoints
 62
     0
100
AcDbPoint
 10
130.0875000000001
 20
6.603999999999923
 30
0.0
  0
POINT
  5
1FD
330
1F1
100
AcDbEntity
  8
Defpoints
 62
     0
100
AcDbPoint
 10
151.0287575006283
 20
6.604000000000001
 30
0.0
  0
ENDBLK
  5
1F3
330
1F1
100
AcDbEntity
  8
0
100
AcDbBlockEnd
  0
BLOCK
  5
22B
330
22A
100
AcDbEntity
  8
0
100
AcDbBlockBegin
  2
*D12
 70
     1
 10
0.0
 20
0.0
 30
0.0
  3
*D12
  1
*D12
  0
LINE
  5
22D
330
22A
100
AcDbEntity
  8
치수문자_일반주서
 62
     0
370
    -2
100
AcDbLine
 10
260.8233205352882
 20
-35.21478432734008
 30
0.0
 11
260.8233205352882
 21
-26.31208568338348
 31
0.0
  0
LINE
  5
22E
330
22A
100
AcDbEntity
  8
치수문자_일반주서
 62
     0
370
    -2
100
AcDbLine
 10
210.0233205352882
 20
-35.26148741493038
 30
0.0
 11
210.0233205352882
 21
-26.31208568338348
 31
0.0
  0
LINE
  5
22F
330
22A
100
AcDbEntity
  8
치수문자_일반주서
 62
     0
370
    -2
100
AcDbLine
 10
257.5213205352882
 20
-26.31208568338348
 30
0.0
 11
213.3253205352882
 21
-26.31208568338348
 31
0.0
  0
SOLID
  5
230
330
22A
100
AcDbEntity
  8
치수문자_일반주서
 62
     0
100
AcDbTrace
 10
257.5213205352882
 20
-26.86241901671681
 30
0.0
 11
257.5213205352882
 21
-25.76175235005014
 31
0.0
 12
260.8233205352882
 22
-26.31208568338348
 32
0.0
 13
260.8233205352882
 23
-26.31208568338348
 33
0.0
  0
SOLID
  5
231
330
22A
100
AcDbEntity
  8
치수문자_일반주서
 62
     0
100
AcDbTrace
 10
213.3253205352882
 20
-25.76175235005014
 30
0.0
 11
213.3253205352882
 21
-26.86241901671681
 31
0.0
 12
210.0233205352882
 22
-26.31208568338348
 32
0.0
 13
210.0233205352882
 23
-26.31208568338348
 33
0.0
  0
MTEXT
  5
232
330
22A
100
AcDbEntity
  8
치수문자_일반주서
 62
     0
100
AcDbMText
 10
236.5734606277013
 20
-21.93708568338348
 30
0.0
 40
3.5
 41
0.0
 71
     2
 72
     1
  1
\A1;50.8 [2]
  7
SLDTEXTSTYLE0
 73
     1
 44
1.0
  0
POINT
  5
233
330
22A
100
AcDbEntity
  8
Defpoints
 62
     0
100
AcDbPoint
 10
260.8233205352882
 20
-35.27728432734008
 30
0.0
  0
POINT
  5
234
330
22A
100
AcDbEntity
  8
Defpoints
 62
     0
100
AcDbPoint
 10
210.0233205352882
 20
-35.32398741493038
 30
0.0
  0
POINT
  5
235
330
22A
100
AcDbEntity
  8
Defpoints
 62
     0
100
AcDbPoint
 10
210.0233205352882
 20
-26.31208568338348
 30
0.0
  0
ENDBLK
  5
22C
330
22A
100
AcDbEntity
  8
0
100
AcDbBlockEnd
  0
BLOCK
  5
237
330
236
100
AcDbEntity
  8
0
100
AcDbBlockBegin
  2
*D13
 70
     1
 10
0.0
 20
0.0
 30
0.0
  3
*D13
  1
*D13
  0
LINE
  5
239
330
236
100
AcDbEntity
  8
치수문자_일반주서
 62
     0
370
    -2
100
AcDbLine
 10
260.8233205352882
 20
-35.21478432734008
 30
0.0
 11
260.8233205352882
 21
-16.36813753405929
 31
0.0
  0
LINE
  5
23A
330
236
100
AcDbEntity
  8
치수문자_일반주서
 62
     0
370
    -2
100
AcDbLine
 10
146.5233205352882
 20
-37.75478432734009
 30
0.0
 11
146.5233205352882
 21
-16.36813753405929
 31
0.0
  0
LINE
  5
23B
330
236
100
AcDbEntity
  8
치수문자_일반주서
 62
     0
370
    -2
100
AcDbLine
 10
257.5213205352882
 20
-16.36813753405929
 30
0.0
 11
149.8253205352882
 21
-16.36813753405929
 31
0.0
  0
SOLID
  5
23C
330
236
100
AcDbEntity
  8
치수문자_일반주서
 62
     0
100
AcDbTrace
 10
257.5213205352882
 20
-16.91847086739262
 30
0.0
 11
257.5213205352882
 21
-15.81780420072595
 31
0.0
 12
260.8233205352882
 22
-16.36813753405929
 32
0.0
 13
260.8233205352882
 23
-16.36813753405929
 33
0.0
  0
SOLID
  5
23D
330
236
100
AcDbEntity
  8
치수문자_일반주서
 62
     0
100
AcDbTrace
 10
149.8253205352882
 20
-15.81780420072595
 30
0.0
 11
149.8253205352882
 21
-16.91847086739262
 31
0.0
 12
146.5233205352882
 22
-16.36813753405929
 32
0.0
 13
146.5233205352882
 23
-16.36813753405929
 33
0.0
  0
MTEXT
  5
23E
330
236
100
AcDbEntity
  8
치수문자_일반주서
 62
     0
100
AcDbMText
 10
203.6733205352882
 20
-11.99313753405929
 30
0.0
 40
3.5
 41
0.0
 71
     2
 72
     1
  1
\A1;114.3 [4 1/2]
  7
SLDTEXTSTYLE0
 73
     1
 44
1.0
  0
POINT
  5
23F
330
236
100
AcDbEntity
  8
Defpoints
 62
     0
100
AcDbPoint
 10
260.8233205352882
 20
-35.27728432734008
 30
0.0
  0
POINT
  5
240
330
236
100
AcDbEntity
  8
Defpoints
 62
     0
100
AcDbPoint
 10
146.5233205352882
 20
-37.81728432734009
 30
0.0
  0
POINT
  5
241
330
236
100
AcDbEntity
  8
Defpoints
 62
     0
100
AcDbPoint
 10
146.5233205352882
 20
-16.36813753405929
 30
0.0
  0
ENDBLK
  5
238
330
236
100
AcDbEntity
  8
0
100
AcDbBlockEnd
  0
BLOCK
  5
243
330
242
100
AcDbEntity
  8
0
100
AcDbBlockBegin
  2
*D14
 70
     1
 10
0.0
 20
0.0
 30
0.0
  3
*D14
  1
*D14
  0
LINE
  5
245
330
242
100
AcDbEntity
  8
치수문자_일반주서
 62
     0
370
    -2
100
AcDbLine
 10
146.4608205352882
 20
-35.27728432734011
 30
0.0
 11
135.1108205352882
 21
-35.27728432734015
 31
0.0
  0
LINE
  5
246
330
242
100
AcDbEntity
  8
치수문자_일반주서
 62
     0
370
    -2
100
AcDbLine
 10
149.0008205352882
 20
-60.67728432734008
 30
0.0
 11
135.1108205352883
 21
-60.67728432734013
 31
0.0
  0
LINE
  5
247
330
242
100
AcDbEntity
  8
치수문자_일반주서
 62
     0
370
    -2
100
AcDbLine
 10
135.1108205352882
 20
-38.57928432734015
 30
0.0
 11
135.1108205352883
 21
-57.37528432734013
 31
0.0
  0
SOLID
  5
248
330
242
100
AcDbEntity
  8
치수문자_일반주서
 62
     0
100
AcDbTrace
 10
135.6611538686215
 20
-38.57928432734015
 30
0.0
 11
134.5604872019549
 21
-38.57928432734015
 31
0.0
 12
135.1108205352882
 22
-35.27728432734015
 32
0.0
 13
135.1108205352882
 23
-35.27728432734015
 33
0.0
  0
SOLID
  5
249
330
242
100
AcDbEntity
  8
치수문자_일반주서
 62
     0
100
AcDbTrace
 10
134.5604872019549
 20
-57.37528432734013
 30
0.0
 11
135.6611538686216
 21
-57.37528432734013
 31
0.0
 12
135.1108205352883
 22
-60.67728432734013
 32
0.0
 13
135.1108205352883
 23
-60.67728432734013
 33
0.0
  0
MTEXT
  5
24A
330
242
100
AcDbEntity
  8
치수문자_일반주서
 62
     0
100
AcDbMText
 10
130.7358205352882
 20
-47.97728432734012
 30
0.0
 40
3.5
 41
0.0
 71
     2
 72
     1
  1
\A1;%%c25.4 [1]
  7
SLDTEXTSTYLE0
 11
-3.356894814614650E-15
 21
1.0
 31
0.0
 73
     1
 44
1.0
  0
POINT
  5
24B
330
242
100
AcDbEntity
  8
Defpoints
 62
     0
100
AcDbPoint
 10
146.5233205352882
 20
-35.27728432734011
 30
0.0
  0
POINT
  5
24C
330
242
100
AcDbEntity
  8
Defpoints
 62
     0
100
AcDbPoint
 10
149.0633205352882
 20
-60.67728432734008
 30
0.0
  0
POINT
  5
24D
330
242
100
AcDbEntity
  8
Defpoints
 62
     0
100
AcDbPoint
 10
135.1108205352882
 20
-60.67728432734013
 30
0.0
  0
ENDBLK
  5
244
330
242
100
AcDbEntity
  8
0
100
AcDbBlockEnd
  0
BLOCK
  5
24F
330
24E
100
AcDbEntity
  8
0
100
AcDbBlockBegin
  2
*D15
 70
     1
 10
0.0
 20
0.0
 30
0.0
  3
*D15
  1
*D15
  0
LINE
  5
251
330
24E
100
AcDbEntity
  8
치수문자_일반주서
 62
     0
370
    -2
100
AcDbLine
 10
260.8858205352882
 20
-35.27728432734008
 30
0.0
 11
281.7645780359164
 21
-35.27728432734001
 31
0.0
  0
LINE
  5
252
330
24E
100
AcDbEntity
  8
치수문자_일반주서
 62
     0
370
    -2
100
AcDbLine
 10
260.8858205352882
 20
-60.67728432734008
 30
0.0
 11
281.7645780359165
 21
-60.67728432734
 31
0.0
  0
LINE
  5
253
330
24E
100
AcDbEntity
  8
치수문자_일반주서
 62
     0
370
    -2
100
AcDbLine
 10
281.7645780359164
 20
-35.27728432734001
 30
0.0
 11
281.7645780359163
 21
-7.454534327339971
 31
0.0
  0
LINE
  5
254
330
24E
100
AcDbEntity
  8
치수문자_일반주서
 62
     0
370
    -2
100
AcDbLine
 10
281.7645780359164
 20
-38.57928432734001
 30
0.0
 11
281.7645780359165
 21
-57.37528432734
 31
0.0
  0
SOLID
  5
255
330
24E
100
AcDbEntity
  8
치수문자_일반주서
 62
     0
100
AcDbTrace
 10
282.3149113692498
 20
-38.57928432734001
 30
0.0
 11
281.2142447025831
 21
-38.57928432734001
 31
0.0
 12
281.7645780359164
 22
-35.27728432734001
 32
0.0
 13
281.7645780359164
 23
-35.27728432734001
 33
0.0
  0
SOLID
  5
256
330
24E
100
AcDbEntity
  8
치수문자_일반주서
 62
     0
100
AcDbTrace
 10
281.2142447025832
 20
-57.37528432734
 30
0.0
 11
282.3149113692499
 21
-57.37528432734
 31
0.0
 12
281.7645780359165
 22
-60.67728432734
 32
0.0
 13
281.7645780359165
 23
-60.67728432734
 33
0.0
  0
MTEXT
  5
257
330
24E
100
AcDbEntity
  8
치수문자_일반주서
 62
     0
100
AcDbMText
 10
277.3895780359164
 20
-17.51703432733999
 30
0.0
 40
3.5
 41
0.0
 71
     2
 72
     1
  1
\A1;%%c25.4 [1]
  7
SLDTEXTSTYLE0
 11
-4.475859752819529E-15
 21
1.0
 31
0.0
 73
     1
 44
1.0
  0
POINT
  5
258
330
24E
100
AcDbEntity
  8
Defpoints
 62
     0
100
AcDbPoint
 10
260.8233205352882
 20
-35.27728432734008
 30
0.0
  0
POINT
  5
259
330
24E
100
AcDbEntity
  8
Defpoints
 62
     0
100
AcDbPoint
 10
260.8233205352882
 20
-60.67728432734008
 30
0.0
  0
POINT
  5
25A
330
24E
100
AcDbEntity
  8
Defpoints
 62
     0
100
AcDbPoint
 10
281.7645780359165
 20
-60.67728432734
 30
0.0
  0
ENDBLK
  5
250
330
24E
100
AcDbEntity
  8
0
100
AcDbBlockEnd
  0
ENDSEC
  0
SECTION
  2
ENTITIES
  0
ARC
  5
96
330
1F
100
AcDbEntity
  8
0
  6
Continuous
 62
     1
370
    15
100
AcDbCircle
 10
46.92500000000004
 20
0.0
 30
0.0
 40
15.87499999999999
100
AcDbArc
 50
315.2119058963305
 51
0.0
  0
ARC
  5
97
330
1F
100
AcDbEntity
  8
0
  6
Continuous
 62
     1
370
    15
100
AcDbCircle
 10
46.92500000000004
 20
0.0
 30
0.0
 40
15.87499999999999
100
AcDbArc
 50
0.0
 51
44.80665831573829
  0
LINE
  5
98
330
1F
100
AcDbEntity
  8
0
  6
Continuous
 62
     1
370
    15
100
AcDbLine
 10
24.03829915075438
 20
15.87499999999999
 30
0.0
 11
14.35950952880185
 21
15.87499999999999
 31
0.0
  0
LINE
  5
99
330
1F
100
AcDbEntity
  8
0
  6
Continuous
 62
     1
370
    15
100
AcDbLine
 10
14.3595095288019
 20
-15.875
 30
0.0
 11
24.03829915075456
 21
-15.875
 31
0.0
  0
LINE
  5
9A
330
1F
100
AcDbEntity
  8
외형선
  6
Continuous
370
    15
100
AcDbLine
 10
-50.7126
 20
13.48739999999999
 30
0.0
 11
-51.49999999999999
 21
12.7
 31
0.0
  0
LINE
  5
9B
330
1F
100
AcDbEntity
  8
외형선
  6
Continuous
370
    15
100
AcDbLine
 10
-51.49999999999999
 20
-12.70000000000001
 30
0.0
 11
-48.32499999999999
 21
-15.87500000000001
 31
0.0
  0
LINE
  5
9C
330
1F
100
AcDbEntity
  8
외형선
  6
Continuous
370
    15
100
AcDbLine
 10
-48.32499999999999
 20
-15.87500000000001
 30
0.0
 11
12.00000000000001
 21
-15.87500000000001
 31
0.0
  0
LINE
  5
9D
330
1F
100
AcDbEntity
  8
외형선
  6
Continuous
370
    15
100
AcDbLine
 10
12.00000000000001
 20
15.87499999999999
 30
0.0
 11
-13.58732499999998
 21
15.87499999999999
 31
0.0
  0
SPLINE
  5
9E
330
1F
100
AcDbEntity
  8
0
  6
Continuous
 62
     1
370
    15
100
AcDbSpline
210
0.0
220
0.0
230
1.0
 70
     8
 71
     3
 72
    30
 73
    26
 74
     0
 42
0.000000001
 43
0.00000001
 40
0.0
 40
0.0
 40
0.0
 40
0.0
 40
0.1249999999999996
 40
0.1249999999999996
 40
0.2499999999999991
 40
0.2499999999999991
 40
0.3749999999999987
 40
0.3749999999999987
 40
0.4999999999999982
 40
0.4999999999999982
 40
0.5624999999999983
 40
0.5624999999999983
 40
0.6249999999999986
 40
0.6249999999999986
 40
0.6874999999999988
 40
0.6874999999999988
 40
0.749999999999999
 40
0.749999999999999
 40
0.8124999999999993
 40
0.8124999999999993
 40
0.8749999999999996
 40
0.8749999999999996
 40
0.9374999999999998
 40
0.9374999999999998
 40
1.0
 40
1.0
 40
1.0
 40
1.0
 10
12.00000000000002
 20
15.81662114051212
 30
0.0
 10
13.45075852895224
 20
15.88853540975243
 30
0.0
 10
14.9145491841528
 20
15.89394414895641
 30
0.0
 10
17.81663996099446
 20
15.77152550581079
 30
0.0
 10
19.27987218835815
 20
15.64336799299362
 30
0.0
 10
22.18252428445665
 20
15.25774726388877
 30
0.0
 10
23.64521028898285
 20
14.99928015931706
 30
0.0
 10
26.54841129662286
 20
14.360125556262
 30
0.0
 10
28.01056329113061
 20
13.97788134086502
 30
0.0
 10
30.18836641883567
 20
13.3204016535906
 30
0.0
 10
30.91740874539056
 20
13.08670696762598
 30
0.0
 10
32.37483607835046
 20
12.5923477699395
 30
0.0
 10
33.10199639377165
 20
12.33183920451918
 30
0.0
 10
34.55412718192932
 20
11.78579018359481
 30
0.0
 10
35.28322760782645
 20
11.49971720009576
 30
0.0
 10
36.74062348091608
 20
10.90408599358599
 30
0.0
 10
37.46750652391563
 20
10.59473824677707
 30
0.0
 10
38.91989313304496
 20
9.954685295174249
 30
0.0
 10
39.649048507044
 20
9.623428754449614
 30
0.0
 10
41.1064066292852
 20
8.941512134390218
 30
0.0
 10
41.83302786010589
 20
8.591116026302977
 30
0.0
 10
43.285664071159
 20
7.873151414488321
 30
0.0
 10
44.01487124122591
 20
7.505043351776602
 30
0.0
 10
45.4721853221839
 20
6.753998678630247
 30
0.0
 10
46.19856020482402
 20
6.371374785004741
 30
0.0
 10
46.92500000000003
 20
5.982463929968739
 30
0.0
  0
SPLINE
  5
9F
330
1F
100
AcDbEntity
  8
0
  6
Continuous
 62
     1
370
    15
100
AcDbSpline
210
0.0
220
0.0
230
1.0
 70
     8
 71
     3
 72
    66
 73
    62
 74
     0
 42
0.000000001
 43
0.00000001
 40
0.0
 40
0.0
 40
0.0
 40
0.0
 40
0.0625000000000024
 40
0.0625000000000024
 40
0.0937500000000031
 40
0.0937500000000031
 40
0.1250000000000038
 40
0.1250000000000038
 40
0.1875000000000053
 40
0.1875000000000053
 40
0.2187500000000056
 40
0.2187500000000056
 40
0.2500000000000059
 40
0.2500000000000059
 40
0.3125000000000058
 40
0.3125000000000058
 40
0.3750000000000058
 40
0.3750000000000058
 40
0.4062500000000058
 40
0.4062500000000058
 40
0.4375000000000058
 40
0.4375000000000058
 40
0.4687500000000059
 40
0.4687500000000059
 40
0.4843750000000058
 40
0.4843750000000058
 40
0.5000000000000058
 40
0.5000000000000058
 40
0.5312500000000058
 40
0.5312500000000058
 40
0.5468750000000058
 40
0.5468750000000058
 40
0.5625000000000058
 40
0.5625000000000058
 40
0.5781250000000059
 40
0.5781250000000059
 40
0.5937500000000059
 40
0.5937500000000059
 40
0.6093750000000059
 40
0.6093750000000059
 40
0.6250000000000059
 40
0.6250000000000059
 40
0.656250000000006
 40
0.656250000000006
 40
0.6718750000000057
 40
0.6718750000000057
 40
0.6875000000000054
 40
0.6875000000000054
 40
0.7187500000000048
 40
0.7187500000000048
 40
0.7500000000000042
 40
0.7500000000000042
 40
0.7812500000000037
 40
0.7812500000000037
 40
0.812500000000003
 40
0.812500000000003
 40
0.8750000000000019
 40
0.8750000000000019
 40
0.937500000000001
 40
0.937500000000001
 40
1.0
 40
1.0
 40
1.0
 40
1.0
 10
46.92500000000005
 20
5.982463929968733
 30
0.0
 10
47.73123234293315
 20
5.550834892118684
 30
0.0
 10
48.53439239024345
 20
5.109794493224072
 30
0.0
 10
49.74276310690745
 20
4.449256017450856
 30
0.0
 10
50.14610751752312
 20
4.229149032438427
 30
0.0
 10
50.95470762746454
 20
3.790500537359606
 30
0.0
 10
51.36228380170652
 20
3.570851688363842
 30
0.0
 10
52.57027147617214
 20
2.927941054043984
 30
0.0
 10
53.3546503420971
 20
2.52087156534352
 30
0.0
 10
54.49831375021374
 20
1.935579798764456
 30
0.0
 10
54.87394949876017
 20
1.744567431549261
 30
0.0
 10
55.61282508938945
 20
1.368502720497635
 30
0.0
 10
55.97623341282653
 20
1.183819997611157
 30
0.0
 10
57.02442238876162
 20
0.6447836622731593
 30
0.0
 10
57.67530869715085
 20
0.3020755334059864
 30
0.0
 10
58.86804986144871
 20
-0.3968587040384407
 30
0.0
 10
59.41172746190213
 20
-0.7552521035567599
 30
0.0
 10
60.10059030189416
 20
-1.334184356761228
 30
0.0
 10
60.3102841116584
 20
-1.534815278951814
 30
0.0
 10
60.68589338992038
 20
-1.962486734822237
 30
0.0
 10
60.85248945395367
 20
-2.190555291494438
 30
0.0
 10
61.1323494555559
 20
-2.683043822416463
 30
0.0
 10
61.24433394911424
 20
-2.944691792387807
 30
0.0
 10
61.36614784891421
 20
-3.37031444498635
 30
0.0
 10
61.3990278402978
 20
-3.517740373990617
 30
0.0
 10
61.44805155260462
 20
-3.825911519380262
 30
0.0
 10
61.46410033260777
 20
-3.986975674241632
 30
0.0
 10
61.48447985994616
 20
-4.483031201364873
 30
0.0
 10
61.4620396881963
 20
-4.833721032696824
 30
0.0
 10
61.36777081728248
 20
-5.398765085742518
 30
0.0
 10
61.32604211177079
 20
-5.593301190283889
 30
0.0
 10
61.22411399609197
 20
-5.984446968266438
 30
0.0
 10
61.16371436029392
 20
-6.182467526650361
 30
0.0
 10
61.02393407402209
 20
-6.58366917184792
 30
0.0
 10
60.94455774192657
 20
-6.786849101239191
 30
0.0
 10
60.76595157493792
 20
-7.198662228461335
 30
0.0
 10
60.66717839405115
 20
-7.405893419689486
 30
0.0
 10
60.45622110058383
 20
-7.81239957418238
 30
0.0
 10
60.34337840748813
 20
-8.013229882595615
 30
0.0
 10
60.10321758669129
 20
-8.410029289779144
 30
0.0
 10
59.9750623758563
 20
-8.607164184117536
 30
0.0
 10
59.57490687400424
 20
-9.181688768445188
 30
0.0
 10
59.28948047799065
 20
-9.540191039138303
 30
0.0
 10
58.83405492651653
 20
-10.04442049551057
 30
0.0
 10
58.67781100035934
 20
-10.20654241041762
 30
0.0
 10
58.36254990962925
 20
-10.51353194757122
 30
0.0
 10
58.20272070646111
 20
-10.65932000435175
 30
0.0
 10
57.71633245714835
 20
-11.07519272086855
 30
0.0
 10
57.38290885380961
 20
-11.32391701976069
 30
0.0
 10
56.69512201178915
 20
-11.76849574689231
 30
0.0
 10
56.34814994811715
 20
-11.95950059059661
 30
0.0
 10
55.64755603481524
 20
-12.28600560821942
 30
0.0
 10
55.29349828778835
 20
-12.42165586154815
 30
0.0
 10
54.57430325315224
 20
-12.6430772691223
 30
0.0
 10
54.20707407668618
 20
-12.72908977384388
 30
0.0
 10
53.10471837622616
 20
-12.9132278950105
 30
0.0
 10
52.3660540673835
 20
-12.94047617055571
 30
0.0
 10
50.85711509000036
 20
-12.83756655179129
 30
0.0
 10
50.08117754228367
 20
-12.70480636035795
 30
0.0
 10
48.51969114780935
 20
-12.31273055929454
 30
0.0
 10
47.73086399535853
 20
-12.0536383989407
 30
0.0
 10
46.92500000000001
 20
-11.74011972110435
 30
0.0
  0
SPLINE
  5
A0
330
1F
100
AcDbEntity
  8
0
  6
Continuous
 62
     1
370
    15
100
AcDbSpline
210
0.0
220
0.0
230
1.0
 70
     8
 71
     3
 72
    30
 73
    26
 74
     0
 42
0.000000001
 43
0.00000001
 40
0.0
 40
0.0
 40
0.0
 40
0.0
 40
0.125
 40
0.125
 40
0.25
 40
0.25
 40
0.375
 40
0.375
 40
0.5
 40
0.5
 40
0.5625
 40
0.5625
 40
0.625
 40
0.625
 40
0.6875
 40
0.6875
 40
0.75
 40
0.75
 40
0.8125
 40
0.8125
 40
0.875
 40
0.875
 40
0.9375
 40
0.9375
 40
1.0
 40
1.0
 40
1.0
 40
1.0
 10
12.0
 20
6.730350247015702
 30
0.0
 10
13.45075852895222
 20
5.970191671525732
 30
0.0
 10
14.91454918415283
 20
5.1793878828528
 30
0.0
 10
17.81663996099443
 20
3.565565841291665
 30
0.0
 10
19.27987218835815
 20
2.737975434957301
 30
0.0
 10
22.1825242844567
 20
1.071238767606527
 30
0.0
 10
23.64521028898281
 20
0.2276851372999398
 30
0.0
 10
26.54841129662287
 20
-1.450039135616937
 30
0.0
 10
28.01056329113059
 20
-2.28833633461027
 30
0.0
 10
30.18836641883571
 20
-3.523213601084694
 30
0.0
 10
30.91740874539056
 20
-3.932157647028504
 30
0.0
 10
32.37483607835044
 20
-4.740793086501032
 30
0.0
 10
33.10199639377169
 20
-5.140261062330715
 30
0.0
 10
34.55412718192935
 20
-5.92718767657016
 30
0.0
 10
35.2832276078265
 20
-6.315385130318136
 30
0.0
 10
36.74062348091607
 20
-7.077538024385507
 30
0.0
 10
37.46750652391556
 20
-7.451254932276471
 30
0.0
 10
38.91989313304494
 20
-8.18205385901949
 30
0.0
 10
39.64904850704397
 20
-8.539736774049098
 30
0.0
 10
41.1064066292852
 20
-9.236233499857445
 30
0.0
 10
41.83302786010587
 20
-9.574808300868181
 30
0.0
 10
43.28566407115901
 20
-10.23108667834974
 30
0.0
 10
44.01487124122595
 20
-10.54925442867735
 30
0.0
 10
45.47218532218393
 20
-11.16257367524435
 30
0.0
 10
46.19856020482405
 20
-11.45750076130095
 30
0.0
 10
46.92500000000005
 20
-11.7401197211044
 30
0.0
  0
SPLINE
  5
A1
330
1F
100
AcDbEntity
  8
0
  6
Continuous
 62
     1
370
    15
100
AcDbSpline
210
0.0
220
0.0
230
1.0
 70
     8
 71
     3
 72
    30
 73
    26
 74
     0
 42
0.000000001
 43
0.00000001
 40
0.0
 40
0.0
 40
0.0
 40
0.0
 40
0.125
 40
0.125
 40
0.25
 40
0.25
 40
0.375
 40
0.375
 40
0.5
 40
0.5
 40
0.5625
 40
0.5625
 40
0.625
 40
0.625
 40
0.6875
 40
0.6875
 40
0.75
 40
0.75
 40
0.8125
 40
0.8125
 40
0.875
 40
0.875
 40
0.9375
 40
0.9375
 40
1.0
 40
1.0
 40
1.0
 40
1.0
 10
12.00000000000002
 20
1.360191419435158
 30
0.0
 10
13.45075852895222
 20
0.5239556257677572
 30
0.0
 10
14.91454918415282
 20
-0.3204982378139667
 30
0.0
 10
17.81663996099444
 20
-1.994783935704974
 30
0.0
 10
19.27987218835814
 20
-2.82936535734108
 30
0.0
 10
22.18252428445669
 20
-4.463341676460894
 30
0.0
 10
23.64521028898284
 20
-5.267063123101258
 30
0.0
 10
26.54841129662287
 20
-6.819615329973263
 30
0.0
 10
28.01056329113064
 20
-7.572270412681522
 30
0.0
 10
30.18836641883568
 20
-8.646313088972512
 30
0.0
 10
30.91740874539055
 20
-8.996131404649974
 30
0.0
 10
32.37483607835047
 20
-9.67600419321631
 30
0.0
 10
33.10199639377169
 20
-10.00587793560521
 30
0.0
 10
34.55412718192934
 20
-10.64363665185108
 30
0.0
 10
35.28322760782647
 20
-10.95211309665491
 30
0.0
 10
36.74062348091611
 20
-11.5452668054307
 30
0.0
 10
37.46750652391562
 20
-11.82976726696684
 30
0.0
 10
38.91989313304496
 20
-12.37320139585397
 30
0.0
 10
39.64904850704399
 20
-12.63257269607552
 30
0.0
 10
41.1064066292852
 20
-13.12408605062284
 30
0.0
 10
41.83302786010593
 20
-13.35607044410036
 30
0.0
 10
43.28566407115901
 20
-13.79149662254651
 30
0.0
 10
44.01487124122595
 20
-13.99523471195608
 30
0.0
 10
45.47218532218396
 20
-14.37274407355281
 30
0.0
 10
46.19856020482409
 20
-14.5463911437732
 30
0.0
 10
46.92500000000007
 20
-14.70461663310612
 30
0.0
  0
SPLINE
  5
A2
330
1F
100
AcDbEntity
  8
0
  6
Continuous
 62
     1
370
    15
100
AcDbSpline
210
0.0
220
0.0
230
1.0
 70
     8
 71
     3
 72
    18
 73
    14
 74
     0
 42
0.000000001
 43
0.00000001
 40
0.0
 40
0.0
 40
0.0
 40
0.0
 40
0.0917461708622012
 40
0.1834884585057991
 40
0.277930033667231
 40
0.3723671712080369
 40
0.4632131498875617
 40
0.5540603870023113
 40
0.6476928820782641
 40
0.7413295119279676
 40
0.8301881850637147
 40
0.9190511473297327
 40
0.9999999999999999
 40
0.9999999999999999
 40
0.9999999999999999
 40
0.9999999999999999
 10
46.92500000000005
 20
-14.70461663310611
 30
0.0
 10
47.28918988778935
 20
-14.77406371196498
 30
0.0
 10
48.01755424878512
 20
-14.91295493028824
 30
0.0
 10
49.13117661820431
 20
-14.99255083459561
 30
0.0
 10
50.25754389349572
 20
-14.97006439884225
 30
0.0
 10
51.37693047668488
 20
-14.83405881306223
 30
0.0
 10
52.47213784225855
 20
-14.5901209309982
 30
0.0
 10
53.5463950316236
 20
-14.24230807178084
 30
0.0
 10
54.60402817349441
 20
-13.78584007230991
 30
0.0
 10
55.61736618539452
 20
-13.23362259351719
 30
0.0
 10
56.56676977667944
 20
-12.59839699793725
 30
0.0
 10
57.42823074637151
 20
-11.92196851051769
 30
0.0
 10
57.94285763620354
 20
-11.4197549495826
 30
0.0
 10
58.18817894262023
 20
-11.18035104492261
 30
0.0
  0
SPLINE
  5
A3
330
1F
100
AcDbEntity
  8
0
  6
Continuous
 62
     1
370
    15
100
AcDbSpline
210
0.0
220
0.0
230
1.0
 70
     8
 71
     3
 72
    15
 73
    11
 74
     0
 42
0.000000001
 43
0.00000001
 40
0.0
 40
0.0
 40
0.0
 40
0.0
 40
0.0586932875849727
 40
0.1945452836281771
 40
0.3303918893461313
 40
0.4662369957939608
 40
0.5996572077598008
 40
0.7330869567838283
 40
0.8665324819964081
 40
1.0
 40
1.0
 40
1.0
 40
1.0
 10
40.79113947023222
 20
-12.98603234405748
 30
0.0
 10
40.22785148534751
 20
-13.1796519844677
 30
0.0
 10
38.36077221116157
 20
-13.8214253355525
 30
0.0
 10
35.19001364703231
 20
-14.62665864364195
 30
0.0
 10
31.2788550361205
 20
-15.38217091165906
 30
0.0
 10
27.39102427179245
 20
-15.80851409255107
 30
0.0
 10
23.52645451491707
 20
-15.92504796381932
 30
0.0
 10
19.68483249143024
 20
-15.72404212677614
 30
0.0
 10
15.84268322344859
 20
-15.23693304198667
 30
0.0
 10
13.2809647669838
 20
-14.66412102625199
 30
0.0
 10
12.0
 20
-14.37769141943496
 30
0.0
  0
LINE
  5
A4
330
1F
100
AcDbEntity
  8
외형선
  6
Continuous
370
    15
100
AcDbLine
 10
12.00000000000001
 20
1.360191419435156
 30
0.0
 11
12.0
 21
6.730350247015702
 31
0.0
  0
SPLINE
  5
A5
330
1F
100
AcDbEntity
  8
0
  6
Continuous
 62
     1
370
    15
100
AcDbSpline
210
0.0
220
0.0
230
1.0
 70
     8
 71
     3
 72
    66
 73
    62
 74
     0
 42
0.000000001
 43
0.00000001
 40
0.0
 40
0.0
 40
0.0
 40
0.0
 40
0.0625000000000015
 40
0.0625000000000015
 40
0.0937500000000026
 40
0.0937500000000026
 40
0.1250000000000037
 40
0.1250000000000037
 40
0.1875000000000053
 40
0.1875000000000053
 40
0.2187500000000057
 40
0.2187500000000057
 40
0.2500000000000061
 40
0.2500000000000061
 40
0.3125000000000061
 40
0.3125000000000061
 40
0.3750000000000061
 40
0.3750000000000061
 40
0.4062500000000061
 40
0.4062500000000061
 40
0.4375000000000061
 40
0.4375000000000061
 40
0.4687500000000061
 40
0.4687500000000061
 40
0.4843750000000061
 40
0.4843750000000061
 40
0.500000000000006
 40
0.500000000000006
 40
0.5312500000000061
 40
0.5312500000000061
 40
0.5468750000000061
 40
0.5468750000000061
 40
0.5625000000000061
 40
0.5625000000000061
 40
0.5781250000000061
 40
0.5781250000000061
 40
0.5937500000000062
 40
0.5937500000000062
 40
0.6093750000000062
 40
0.6093750000000062
 40
0.6250000000000062
 40
0.6250000000000062
 40
0.6562500000000063
 40
0.6562500000000063
 40
0.671875000000006
 40
0.671875000000006
 40
0.6875000000000057
 40
0.6875000000000057
 40
0.7187500000000051
 40
0.7187500000000051
 40
0.7500000000000044
 40
0.7500000000000044
 40
0.7812500000000039
 40
0.7812500000000039
 40
0.8125000000000033
 40
0.8125000000000033
 40
0.8750000000000022
 40
0.8750000000000022
 40
0.9375000000000011
 40
0.9375000000000011
 40
1.0
 40
1.0
 40
1.0
 40
1.0
 10
46.92500000000005
 20
14.70461663310614
 30
0.0
 10
47.73123234293315
 20
14.88022169745385
 30
0.0
 10
48.53439239024348
 20
14.97192078522077
 30
0.0
 10
49.74276310690745
 20
14.98301336919409
 30
0.0
 10
50.14610751752306
 20
14.96554357131039
 30
0.0
 10
50.95470762746451
 20
14.88698396842824
 30
0.0
 10
51.36228380170652
 20
14.82532209329003
 30
0.0
 10
52.57027147617214
 20
14.5751080302085
 30
0.0
 10
53.35465034209707
 20
14.32356664469661
 30
0.0
 10
54.49831375021375
 20
13.82480046989289
 30
0.0
 10
54.87394949876018
 20
13.63821860069615
 30
0.0
 10
55.61282508938947
 20
13.22419055283163
 30
0.0
 10
55.97623341282656
 20
12.99626783495653
 30
0.0
 10
57.02442238876161
 20
12.26604994750939
 30
0.0
 10
57.67530869715083
 20
11.71350996784789
 30
0.0
 10
58.86804986144872
 20
10.49155687468597
 30
0.0
 10
59.41172746190213
 20
9.817196365826238
 30
0.0
 10
60.10059030189417
 20
8.766528348328205
 30
0.0
 10
60.31028411165845
 20
8.408753115484634
 30
0.0
 10
60.68589338992044
 20
7.682127086581114
 30
0.0
 10
60.85248945395367
 20
7.311583940353752
 30
0.0
 10
61.1323494555559
 20
6.571548674903982
 30
0.0
 10
61.24433394911426
 20
6.206070448611207
 30
0.0
 10
61.36614784891418
 20
5.671279337645263
 30
0.0
 10
61.39902784029782
 20
5.4952657315619
 30
0.0
 10
61.44805155260467
 20
5.149106657203714
 30
0.0
 10
61.46410033260779
 20
4.978774795592625
 30
0.0
 10
61.48447985994611
 20
4.489493328966909
 30
0.0
 10
61.4620396881963
 20
4.188468852629307
 30
0.0
 10
61.36777081728252
 20
3.785477345106683
 30
0.0
 10
61.32604211177076
 20
3.659810000030065
 30
0.0
 10
61.224113996092
 20
3.43379888131477
 30
0.0
 10
61.16371436029392
 20
3.33239647848102
 30
0.0
 10
61.02393407402211
 20
3.153429221332979
 30
0.0
 10
60.94455774192657
 20
3.075858978632586
 30
0.0
 10
60.76595157493796
 20
2.945768164568566
 30
0.0
 10
60.66717839405118
 20
2.893920091926458
 30
0.0
 10
60.45622110058379
 20
2.818149441852392
 30
0.0
 10
60.34337840748815
 20
2.793708908623878
 30
0.0
 10
60.10321758669124
 20
2.77047474034144
 30
0.0
 10
59.9750623758563
 20
2.771799701577994
 30
0.0
 10
59.57490687400421
 20
2.812593110544592
 30
0.0
 10
59.28948047799067
 20
2.887587499315141
 30
0.0
 10
58.83405492651653
 20
3.058462431778062
 30
0.0
 10
58.67781100035934
 20
3.125295291717472
 30
0.0
 10
58.36254990962924
 20
3.273781162263737
 30
0.0
 10
58.20272070646109
 20
3.35572605177978
 30
0.0
 10
57.71633245714835
 20
3.62164513525938
 30
0.0
 10
57.38290885380958
 20
3.825570345955177
 30
0.0
 10
56.69512201178917
 20
4.275648075671914
 30
0.0
 10
56.34814994811715
 20
4.516947319149111
 30
0.0
 10
55.64755603481524
 20
5.019890917087612
 30
0.0
 10
55.29349828778837
 20
5.282062906909929
 30
0.0
 10
54.57430325315225
 20
5.819814721820714
 30
0.0
 10
54.20707407668618
 20
6.096884030342562
 30
0.0
 10
53.10471837622615
 20
6.923441915371718
 30
0.0
 10
52.3660540673835
 20
7.470095966943094
 30
0.0
 10
50.85711509000035
 20
8.520486053481438
 30
0.0
 10
50.08117754228364
 20
9.027533981232084
 30
0.0
 10
48.51969114780933
 20
9.935972898122262
 30
0.0
 10
47.73086399535852
 20
10.34129434574702
 30
0.0
 10
46.92500000000003
 20
10.68574816913331
 30
0.0
  0
SPLINE
  5
A6
330
1F
100
AcDbEntity
  8
0
  6
Continuous
 62
     1
370
    15
100
AcDbSpline
210
0.0
220
0.0
230
1.0
 70
     8
 71
     3
 72
     9
 73
     5
 74
     0
 42
0.000000001
 43
0.00000001
 40
0.0
 40
0.0
 40
0.0
 40
0.0
 40
0.3736054492374736
 40
1.0
 40
1.0
 40
1.0
 40
1.0
 10
40.791139470232
 20
12.98603234405748
 30
0.0
 10
41.55500476166569
 20
13.24333286956481
 30
0.0
 10
43.59958225108064
 20
13.93202872780908
 30
0.0
 10
45.6442384800137
 20
14.40705977420237
 30
0.0
 10
46.92500000000003
 20
14.70461663310615
 30
0.0
  0
SPLINE
  5
A7
330
1F
100
AcDbEntity
  8
0
  6
Continuous
 62
     1
370
    15
100
AcDbSpline
210
0.0
220
0.0
230
1.0
 70
     8
 71
     3
 72
    13
 73
     9
 74
     0
 42
0.000000001
 43
0.00000001
 40
0.0
 40
0.0
 40
0.0
 40
0.0
 40
0.1709275502910318
 40
0.3418385562310562
 40
0.5127378934432029
 40
0.6836304497243414
 40
0.8545211199509631
 40
1.0
 40
1.0
 40
1.0
 40
1.0
 10
46.92500000000005
 20
10.68574816913334
 30
0.0
 10
45.62096505198626
 20
11.22167086916888
 30
0.0
 10
43.01302137558727
 20
12.29346439642458
 30
0.0
 10
39.10136023743191
 20
13.59442489894677
 30
0.0
 10
35.190011234654
 20
14.63839724864765
 30
0.0
 10
31.27885490884098
 20
15.37414009390376
 30
0.0
 10
27.56161774184711
 20
15.80878328967632
 30
0.0
 10
25.14811875613392
 20
15.84189865894371
 30
0.0
 10
24.03829915075438
 20
15.8571263786444
 30
0.0
  0
LINE
  5
A8
330
1F
100
AcDbEntity
  8
0
  6
Continuous
 62
     1
370
    15
100
AcDbLine
 10
12.00000000000002
 20
-15.81662114051213
 30
0.0
 11
14.35950952880191
 21
-15.8365570936186
 31
0.0
  0
LINE
  5
A9
330
1F
100
AcDbEntity
  8
외형선
  6
Continuous
370
    15
100
AcDbLine
 10
12.00000000000001
 20
-15.81662114051213
 30
0.0
 11
12.0
 21
-14.37769141943496
 31
0.0
  0
LINE
  5
AA
330
1F
100
AcDbEntity
  8
외형선
  6
Continuous
370
    15
100
AcDbLine
 10
-48.32499999999999
 20
-0.0000000000000051
 30
0.0
 11
-48.32499999999999
 21
13.48739999999999
 31
0.0
  0
LINE
  5
AB
330
1F
100
AcDbEntity
  8
외형선
  6
Continuous
370
    15
100
AcDbLine
 10
-48.32499999999999
 20
-15.87500000000001
 30
0.0
 11
-48.32499999999999
 21
-0.0000000000000051
 31
0.0
  0
LINE
  5
AC
330
1F
100
AcDbEntity
  8
외형선
  6
Continuous
370
    15
100
AcDbLine
 10
-51.49999999999999
 20
-0.0000000000000051
 30
0.0
 11
-51.49999999999999
 21
12.7
 31
0.0
  0
LINE
  5
AD
330
1F
100
AcDbEntity
  8
외형선
  6
Continuous
370
    15
100
AcDbLine
 10
-51.49999999999999
 20
-12.70000000000001
 30
0.0
 11
-51.49999999999999
 21
-0.0000000000000051
 31
0.0
  0
LINE
  5
AE
330
1F
100
AcDbEntity
  8
외형선
  6
Continuous
370
    15
100
AcDbLine
 10
12.00000000000001
 20
-0.0000000000000051
 30
0.0
 11
12.00000000000001
 21
15.87499999999999
 31
0.0
  0
LINE
  5
AF
330
1F
100
AcDbEntity
  8
외형선
  6
Continuous
370
    15
100
AcDbLine
 10
12.00000000000001
 20
-15.87500000000001
 30
0.0
 11
12.00000000000001
 21
-0.0000000000000051
 31
0.0
  0
LINE
  5
B0
330
1F
100
AcDbEntity
  8
중심선
100
AcDbLine
 10
-54.50000000000001
 20
-0.0000000000000051
 30
0.0
 11
65.8
 21
0.0000000000000062
 31
0.0
  0
LINE
  5
B1
330
1F
100
AcDbEntity
  8
참조1
100
AcDbLine
 10
79.93676131403119
 20
0.0010749287238931
 30
0.0
 11
79.93676131403117
 21
1.655200094750598
 31
0.0
  0
LINE
  5
B2
330
1F
100
AcDbEntity
  8
참조1
100
AcDbLine
 10
22.78676131403117
 20
0.0010749287238892
 30
0.0
 11
22.78676131403118
 21
-39.99892507127611
 31
0.0
  0
LINE
  5
B3
330
1F
100
AcDbEntity
  8
참조1
100
AcDbLine
 10
22.78676131403118
 20
-39.99892507127611
 30
0.0
 11
-20.1533455002775
 21
-39.9989250712761
 31
0.0
  0
CIRCLE
  5
B4
330
1F
100
AcDbEntity
  8
해칭선
100
AcDbCircle
 10
0.0
 20
0.0
 30
0.0
 40
3.000000000000001
  0
INSERT
  5
B5
330
1F
100
AcDbEntity
  8
0
  6
Continuous
 62
     7
100
AcDbBlockReference
 66
     1
  2
블럭10
 10
-7.803673520347816
 20
-52.04609937292004
 30
0.0
  0
ATTRIB
  5
B6
330
B5
100
AcDbEntity
  8
FORMAT
 62
     2
100
AcDbText
 10
-16.9849688090891
 20
-49.97073246008785
 30
0.0
 40
4.233333333333333
  1
E2020116 [ 4 FLUTE ]
 41
0.75
  7
SLDTEXTSTYLE0
 11
-16.9849688090891
 21
-52.08739912675452
 31
0.0
100
AcDbAttribute
  2
AUTOATTR0
 70
     0
 74
     1
  0
SEQEND
  5
B7
330
B5
100
AcDbEntity
  8
0
  6
Continuous
 62
     7
  0
HATCH
  5
B8
330
1F
100
AcDbEntity
  8
중심선
100
AcDbHatch
 10
0.0
 20
0.0
 30
0.0
210
0.0
220
0.0
230
1.0
  2
SOLID
 70
     1
 71
     0
 91
        1
 92
        0
 93
        4
 72
     1
 10
-2.088764215966977
 20
-35.7989250712761
 11
-5.535039459804258
 21
-35.7989250712761
 72
     1
 10
-5.535039459804258
 20
-35.7989250712761
 11
-7.663269319008281
 21
-38.33525065184867
 72
     1
 10
-7.663269319008281
 20
-38.33525065184867
 11
-4.216960990057849
 21
-38.33521122254619
 72
     1
 10
-4.216960990057849
 20
-38.33521122254619
 11
-2.088764215966977
 21
-35.7989250712761
 97
        0
 75
     0
 76
     1
 98
        1
 10
-16.65016190225379
 20
0.0
  0
HATCH
  5
B9
330
1F
100
AcDbEntity
  8
중심선
100
AcDbHatch
 10
0.0
 20
0.0
 30
0.0
210
0.0
220
0.0
230
1.0
  2
SOLID
 70
     1
 71
     0
 91
        1
 92
        0
 93
        4
 72
     1
 10
2.923999775069056
 20
-35.79892507127608
 11
-0.5222754687682531
 21
-35.79892507127608
 72
     1
 10
-0.5222754687682531
 20
-35.79892507127608
 11
-5.053413477125696
 21
-41.19892507127612
 72
     1
 10
-5.053413477125696
 20
-41.19892507127612
 11
-1.607138233288413
 21
-41.19892507127612
 72
     1
 10
-1.607138233288413
 20
-41.19892507127612
 11
2.923999775069056
 21
-35.79892507127608
 97
        0
 75
     0
 76
     1
 98
        1
 10
-16.65016190225379
 20
0.0
  0
HATCH
  5
BA
330
1F
100
AcDbEntity
  8
중심선
100
AcDbHatch
 10
0.0
 20
0.0
 30
0.0
210
0.0
220
0.0
230
1.0
  2
SOLID
 70
     1
 71
     0
 91
        1
 92
        0
 93
        4
 72
     1
 10
7.936763766104924
 20
-35.79892507127608
 11
4.49048852226781
 21
-35.79892507127608
 72
     1
 10
4.49048852226781
 20
-35.79892507127608
 11
-2.557948379621495
 21
-44.19892507127612
 72
     1
 10
-2.557948379621495
 20
-44.19892507127612
 11
0.888326864215788
 21
-44.19892507127612
 72
     1
 10
0.888326864215788
 20
-44.19892507127612
 11
7.936763766104924
 21
-35.79892507127608
 97
        0
 75
     0
 76
     1
 98
        1
 10
-16.65016190225379
 20
0.0
  0
HATCH
  5
BB
330
1F
100
AcDbEntity
  8
중심선
100
AcDbHatch
 10
0.0
 20
0.0
 30
0.0
210
0.0
220
0.0
230
1.0
  2
SOLID
 70
     1
 71
     0
 91
        1
 92
        0
 93
        6
 72
     3
 10
12.73665419711707
 20
-39.99892507132738
 11
3.960054785062283
 21
1.540882976769353E-10
 40
0.3939339440162628
 50
17.09539180608436
 51
320.0019657685077
 73
     0
 72
     1
 10
14.41965385281764
 20
-38.58681907591441
 11
16.72495572651867
 21
-36.65249236586646
 72
     3
 10
12.73665419706422
 20
-39.99892507127625
 11
6.600054785286833
 21
-1.278976924368180E-13
 40
0.6363583540795976
 50
39.99873849337452
 51
368.4976242363725
 73
     1
 72
     1
 10
19.1619866889648
 20
-39.03892507120613
 11
11.41672150390015
 21
-39.03892507120613
 72
     1
 10
11.41672150390015
 20
-39.03892507120613
 11
11.41669645945421
 21
-40.95892507120602
 72
     1
 10
11.41669645945421
 20
-40.95892507120602
 11
15.85807622892625
 21
-40.95892507120599
 97
        0
 75
     0
 76
     1
 98
        1
 10
-16.65016190225379
 20
0.0
  0
DIMENSION
  5
BC
330
1F
100
AcDbEntity
  8
치수문자_일반주서
100
AcDbDimension
  2
_D
 10
12.0
 20
23.97335081297293
 30
0.0
 11
37.188345789472
 21
23.97335081297293
 31
0.0
 70
   160
  1
<>
 71
     2
 42
50.80000000000005
  3
SLDDIMSTYLE1
100
AcDbAlignedDimension
 13
62.80000000000005
 23
15.87500000000001
 33
0.0
 14
12.0
 24
15.81662114051213
 34
0.0
 50
0.000000000000004
100
AcDbRotatedDimension
1001
ACAD
1000
DSTYLE
1002
{
1070
   171
1070
     6
1070
   273
1070
     7
1002
}
  0
DIMENSION
  5
D0
330
1F
100
AcDbEntity
  8
치수문자_일반주서
100
AcDbDimension
  2
_D_1
 10
-51.5
 20
39.33723575977243
 30
0.0
 11
7.740899641439619
 21
39.33723575977243
 31
0.0
 70
   160
  1
<>
 71
     2
 42
114.3000000000001
  3
SLDDIMSTYLE1
100
AcDbAlignedDimension
 13
62.80000000000005
 23
15.87500000000001
 33
0.0
 14
-51.50000000000001
 24
12.70000000000001
 34
0.0
 50
0.0000000000000036
100
AcDbRotatedDimension
1001
ACAD
1000
DSTYLE
1002
{
1070
   171
1070
     6
1070
   273
1070
     7
1002
}
  0
DIMENSION
  5
E3
330
1F
100
AcDbEntity
  8
치수문자_일반주서
100
AcDbDimension
  2
_D_2
 10
-62.27749999999995
 20
-15.87500000000006
 30
0.0
 11
-62.27750000000001
 21
-0.000000000000006
 31
0.0
 70
   160
  1
%%c<>
 71
     2
 42
31.75000000000001
 52
-270.0
  3
SLDDIMSTYLE1
100
AcDbAlignedDimension
 13
-51.50000000000001
 23
15.87499999999999
 33
0.0
 14
-48.325
 24
-15.87500000000001
 34
0.0
 50
90.0000000000002
100
AcDbRotatedDimension
1001
ACAD
1000
DSTYLE
1002
{
1070
   171
1070
     6
1070
   273
1070
     7
1002
}
  0
DIMENSION
  5
F6
330
1F
100
AcDbEntity
  8
치수문자_일반주서
100
AcDbDimension
  2
_D_3
 10
78.48246508600144
 20
-15.87499999999994
 30
0.0
 11
78.48246508600126
 21
34.92700000000006
 31
0.0
 70
   160
  1
%%c<>
 71
     2
 42
31.75
 52
-270.0
  3
SLDDIMSTYLE1
100
AcDbAlignedDimension
 13
62.80000000000005
 23
15.87500000000001
 33
0.0
 14
62.80000000000003
 24
-15.875
 34
0.0
 50
90.0000000000002
100
AcDbRotatedDimension
1001
ACAD
1000
DSTYLE
1002
{
1070
   171
1070
     6
1070
   273
1070
     7
1002
}
  0
LINE
  5
109
330
1F
100
AcDbEntity
  8
참조1
100
AcDbLine
 10
77.81899512937676
 20
7.441074928723896
 30
0.0
 11
77.81899512937676
 21
-7.438925071276109
 31
0.0
  0
LINE
  5
10A
330
1F
100
AcDbEntity
  8
참조1
100
AcDbLine
 10
90.51899512937676
 20
5.441074928723896
 30
0.0
 11
77.81899512937676
 21
5.441074928723896
 31
0.0
  0
SOLID
  5
10B
330
1F
100
AcDbEntity
  8
참조1
100
AcDbTrace
 10
77.81899512937676
 20
5.441074928723896
 30
0.0
 11
84.16899512937675
 21
4.425074928723896
 31
0.0
 12
84.16899512937675
 22
6.457074928723896
 32
0.0
 13
84.16899512937675
 23
6.457074928723896
 33
0.0
  0
LINE
  5
10C
330
1F
100
AcDbEntity
  8
참조1
100
AcDbLine
 10
90.51899512937676
 20
-5.438925071276109
 30
0.0
 11
77.81899512937676
 21
-5.438925071276109
 31
0.0
  0
SOLID
  5
10D
330
1F
100
AcDbEntity
  8
참조1
100
AcDbTrace
 10
77.81899512937676
 20
-5.438925071276109
 30
0.0
 11
84.16899512937675
 21
-6.454925071276109
 31
0.0
 12
84.16899512937675
 22
-4.422925071276109
 32
0.0
 13
84.16899512937675
 23
-4.422925071276109
 33
0.0
  0
MTEXT
  5
10E
330
1F
100
AcDbEntity
  8
참조1
100
AcDbMText
 10
87.21648522184704
 20
10.98929157337383
 30
0.0
 40
3.5
 41
0.0
 71
     1
 72
     1
  1
A
  7
SLDTEXTSTYLE0
 73
     1
 44
1.0
  0
MTEXT
  5
10F
330
1F
100
AcDbEntity
  8
참조1
100
AcDbMText
 10
87.21648522184704
 20
0.1092915733738259
 30
0.0
 40
3.5
 41
0.0
 71
     1
 72
     1
  1
A
  7
SLDTEXTSTYLE0
 73
     1
 44
1.0
  0
INSERT
  5
116
330
1F
100
AcDbEntity
  8
해칭선
100
AcDbBlockReference
  2
SW_DOWELSYMBOL_0
 10
0.0
 20
0.0
 30
0.0
  0
LINE
  5
295
330
1F
100
AcDbEntity
  8
외형선
  6
Continuous
370
    15
100
AcDbLine
 10
-29.08132499999999
 20
13.48739999999999
 30
0.0
 11
-15.97492499999998
 21
13.48739999999999
 31
0.0
  0
LINE
  5
296
330
1F
100
AcDbEntity
  8
외형선
  6
Continuous
370
    15
100
AcDbLine
 10
-15.97492499999998
 20
13.48739999999999
 30
0.0
 11
-13.58732499999996
 21
15.87500000000001
 31
0.0
  0
LINE
  5
297
330
1F
100
AcDbEntity
  8
외형선
  6
Continuous
370
    15
100
AcDbLine
 10
-29.08132499999999
 20
13.48739999999999
 30
0.0
 11
-31.46892500000001
 21
15.87500000000001
 31
0.0
  0
LINE
  5
299
330
1F
100
AcDbEntity
  8
외형선
  6
Continuous
370
    15
100
AcDbLine
 10
-50.7126
 20
13.48739999999999
 30
0.0
 11
-38.8
 21
13.48739999999999
 31
0.0
  0
LINE
  5
29A
330
1F
100
AcDbEntity
  8
외형선
  6
Continuous
370
    15
100
AcDbLine
 10
-38.8
 20
13.48739999999999
 30
0.0
 11
-36.4124000000001
 21
15.87499999999998
 31
0.0
  0
LINE
  5
29C
330
1F
100
AcDbEntity
  8
외형선
  6
Continuous
370
    15
100
AcDbLine
 10
-31.46892499999999
 20
15.87499999999999
 30
0.0
 11
-36.41240000000009
 21
15.87499999999999
 31
0.0
  0
ENDSEC
  0
SECTION
  2
OBJECTS
  0
DICTIONARY
  5
C
330
0
100
AcDbDictionary
281
     1
  3
ACAD_GROUP
350
D
  3
ACAD_IMAGE_VARS
350
13A
  3
ACAD_LAYOUT
350
1A
  3
ACAD_MLINESTYLE
350
17
  3
ACAD_PLOTSETTINGS
350
19
  3
ACAD_PLOTSTYLENAME
350
E
  3
ACAD_SCALELIST
350
47
  3
APPDATA
350
138
  3
DWGPROPS
350
29F
  0
DICTIONARY
  5
1C9
330
2
100
AcDbDictionary
280
     1
281
     1
  3
ACAD_LAYERSTATES
360
1CA
  0
DICTIONARY
  5
D
102
{ACAD_REACTORS
330
C
102
}
330
C
100
AcDbDictionary
281
     1
  0
RASTERVARIABLES
  5
13A
102
{ACAD_REACTORS
330
C
102
}
330
C
100
AcDbRasterVariables
 90
        0
 70
     1
 71
     1
 72
     1
  0
DICTIONARY
  5
1A
102
{ACAD_REACTORS
330
C
102
}
330
C
100
AcDbDictionary
281
     1
  3
Layout1
350
1E
  3
Layout2
350
26
  3
Model
350
22
  0
DICTIONARY
  5
17
102
{ACAD_REACTORS
330
C
102
}
330
C
100
AcDbDictionary
281
     1
  3
Standard
350
18
  0
DICTIONARY
  5
19
102
{ACAD_REACTORS
330
C
102
}
330
C
100
AcDbDictionary
281
     1
  0
ACDBDICTIONARYWDFLT
  5
E
102
{ACAD_REACTORS
330
C
102
}
330
C
100
AcDbDictionary
281
     1
  3
Normal
350
F
100
AcDbDictionaryWithDefault
340
F
  0
DICTIONARY
  5
47
102
{ACAD_REACTORS
330
C
102
}
330
C
100
AcDbDictionary
281
     1
  3
A0
350
48
  3
A1
350
49
  3
A2
350
4A
  3
A3
350
4B
  3
A4
350
4C
  3
A5
350
4D
  3
A6
350
4E
  3
A7
350
4F
  3
A8
350
50
  3
A9
350
51
  3
B0
350
52
  3
B1
350
53
  3
B2
350
54
  3
B3
350
55
  3
B4
350
56
  3
B5
350
57
  3
B6
350
58
  3
B7
350
59
  3
B8
350
5A
  3
B9
350
5B
  3
C0
350
5C
  3
C1
350
5D
  3
C2
350
5E
  3
C3
350
5F
  3
C4
350
60
  3
C5
350
61
  3
C6
350
62
  3
C7
350
63
  3
C8
350
64
  3
C9
350
65
  3
D0
350
66
  3
D1
350
67
  3
D2
350
68
  0
DICTIONARY
  5
138
102
{ACAD_REACTORS
330
C
102
}
330
C
100
AcDbDictionary
281
     1
  0
XRECORD
  5
29F
102
{ACAD_REACTORS
330
C
102
}
330
C
100
AcDbXrecord
280
     1
  1
DWGPROPS COOKIE
  2

  3

  4

  6

  7

  8
12017012
  9

300
=
301
=
302
=
303
=
304
=
305
=
306
=
307
=
308
=
309
=
 40
0.0
 41
2458323.302860035
 42
2458324.111694769
  1

 90
        0
  0
DICTIONARY
  5
1CA
102
{ACAD_REACTORS
330
1C9
102
}
330
1C9
100
AcDbDictionary
281
     1
  0
LAYOUT
  5
1E
102
{ACAD_REACTORS
330
1A
102
}
330
1A
100
AcDbPlotSettings
  1

  2
none_device
  4

  6

 40
0.0
 41
0.0
 42
0.0
 43
0.0
 44
0.0
 45
0.0
 46
0.0
 47
0.0
 48
0.0
 49
0.0
140
0.0
141
0.0
142
1.0
143
1.0
 70
   688
 72
     1
 73
     0
 74
     5
  7

 75
    16
147
1.0
148
0.0
149
0.0
100
AcDbLayout
  1
Layout1
 70
     1
 71
     1
 10
0.0
 20
0.0
 11
420.0
 21
297.0
 12
0.0
 22
0.0
 32
0.0
 14
1.000000000000000E+20
 24
1.000000000000000E+20
 34
1.000000000000000E+20
 15
-1.000000000000000E+20
 25
-1.000000000000000E+20
 35
-1.000000000000000E+20
146
0.0
 13
0.0
 23
0.0
 33
0.0
 16
1.0
 26
0.0
 36
0.0
 17
0.0
 27
1.0
 37
0.0
 76
     0
330
1B
  0
LAYOUT
  5
26
102
{ACAD_REACTORS
330
1A
102
}
330
1A
100
AcDbPlotSettings
  1

  2
none_device
  4

  6

 40
0.0
 41
0.0
 42
0.0
 43
0.0
 44
0.0
 45
0.0
 46
0.0
 47
0.0
 48
0.0
 49
0.0
140
0.0
141
0.0
142
1.0
143
1.0
 70
   688
 72
     1
 73
     0
 74
     5
  7

 75
    16
147
1.0
148
0.0
149
0.0
100
AcDbLayout
  1
Layout2
 70
     1
 71
     2
 10
0.0
 20
0.0
 11
0.0
 21
0.0
 12
0.0
 22
0.0
 32
0.0
 14
0.0
 24
0.0
 34
0.0
 15
0.0
 25
0.0
 35
0.0
146
0.0
 13
0.0
 23
0.0
 33
0.0
 16
1.0
 26
0.0
 36
0.0
 17
0.0
 27
1.0
 37
0.0
 76
     0
330
23
  0
LAYOUT
  5
22
102
{ACAD_REACTORS
330
1A
102
}
330
1A
100
AcDbPlotSettings
  1

  2
none_device
  4
ANSI_A_(11.00_x_8.50_Inches)
  6

 40
6.35
 41
19.05
 42
6.35000508
 43
19.05000254
 44
279.4
 45
215.9
 46
99.40585850130608
 47
43.17679658125459
 48
0.0
 49
0.0
140
0.0
141
0.0
142
0.0474689590334287
143
1.0
 70
  1696
 72
     0
 73
     0
 74
     0
  7

 75
     0
147
0.0235690232323232
148
0.0
149
0.0
100
AcDbLayout
  1
Model
 70
     1
 71
     0
 10
0.0
 20
0.0
 11
420.0
 21
297.0
 12
0.0
 22
0.0
 32
0.0
 14
1.000000000000000E+20
 24
1.000000000000000E+20
 34
1.000000000000000E+20
 15
-1.000000000000000E+20
 25
-1.000000000000000E+20
 35
-1.000000000000000E+20
146
0.0
 13
0.0
 23
0.0
 33
0.0
 16
1.0
 26
0.0
 36
0.0
 17
0.0
 27
1.0
 37
0.0
 76
     0
330
1F
331
29
  0
MLINESTYLE
  5
18
102
{ACAD_REACTORS
330
17
102
}
330
17
100
AcDbMlineStyle
  2
Standard
 70
     0
  3

 62
   256
 51
90.0
 52
90.0
 71
     2
 49
0.5
 62
   256
  6
BYLAYER
 49
-0.5
 62
   256
  6
BYLAYER
  0
ACDBPLACEHOLDER
  5
F
102
{ACAD_REACTORS
330
E
102
}
330
E
  0
SCALE
  5
48
102
{ACAD_REACTORS
330
47
102
}
330
47
100
AcDbScale
 70
     0
300
1:1
140
1.0
141
1.0
290
     1
  0
SCALE
  5
49
102
{ACAD_REACTORS
330
47
102
}
330
47
100
AcDbScale
 70
     0
300
1:2
140
1.0
141
2.0
290
     0
  0
SCALE
  5
4A
102
{ACAD_REACTORS
330
47
102
}
330
47
100
AcDbScale
 70
     0
300
1:4
140
1.0
141
4.0
290
     0
  0
SCALE
  5
4B
102
{ACAD_REACTORS
330
47
102
}
330
47
100
AcDbScale
 70
     0
300
1:5
140
1.0
141
5.0
290
     0
  0
SCALE
  5
4C
102
{ACAD_REACTORS
330
47
102
}
330
47
100
AcDbScale
 70
     0
300
1:8
140
1.0
141
8.0
290
     0
  0
SCALE
  5
4D
102
{ACAD_REACTORS
330
47
102
}
330
47
100
AcDbScale
 70
     0
300
1:10
140
1.0
141
10.0
290
     0
  0
SCALE
  5
4E
102
{ACAD_REACTORS
330
47
102
}
330
47
100
AcDbScale
 70
     0
300
1:16
140
1.0
141
16.0
290
     0
  0
SCALE
  5
4F
102
{ACAD_REACTORS
330
47
102
}
330
47
100
AcDbScale
 70
     0
300
1:20
140
1.0
141
20.0
290
     0
  0
SCALE
  5
50
102
{ACAD_REACTORS
330
47
102
}
330
47
100
AcDbScale
 70
     0
300
1:30
140
1.0
141
30.0
290
     0
  0
SCALE
  5
51
102
{ACAD_REACTORS
330
47
102
}
330
47
100
AcDbScale
 70
     0
300
1:40
140
1.0
141
40.0
290
     0
  0
SCALE
  5
52
102
{ACAD_REACTORS
330
47
102
}
330
47
100
AcDbScale
 70
     0
300
1:50
140
1.0
141
50.0
290
     0
  0
SCALE
  5
53
102
{ACAD_REACTORS
330
47
102
}
330
47
100
AcDbScale
 70
     0
300
1:100
140
1.0
141
100.0
290
     0
  0
SCALE
  5
54
102
{ACAD_REACTORS
330
47
102
}
330
47
100
AcDbScale
 70
     0
300
2:1
140
2.0
141
1.0
290
     0
  0
SCALE
  5
55
102
{ACAD_REACTORS
330
47
102
}
330
47
100
AcDbScale
 70
     0
300
4:1
140
4.0
141
1.0
290
     0
  0
SCALE
  5
56
102
{ACAD_REACTORS
330
47
102
}
330
47
100
AcDbScale
 70
     0
300
8:1
140
8.0
141
1.0
290
     0
  0
SCALE
  5
57
102
{ACAD_REACTORS
330
47
102
}
330
47
100
AcDbScale
 70
     0
300
10:1
140
10.0
141
1.0
290
     0
  0
SCALE
  5
58
102
{ACAD_REACTORS
330
47
102
}
330
47
100
AcDbScale
 70
     0
300
100:1
140
100.0
141
1.0
290
     0
  0
SCALE
  5
59
102
{ACAD_REACTORS
330
47
102
}
330
47
100
AcDbScale
 70
     0
300
1/128" = 1'-0"
140
0.0078125
141
12.0
290
     0
  0
SCALE
  5
5A
102
{ACAD_REACTORS
330
47
102
}
330
47
100
AcDbScale
 70
     0
300
1/64" = 1'-0"
140
0.015625
141
12.0
290
     0
  0
SCALE
  5
5B
102
{ACAD_REACTORS
330
47
102
}
330
47
100
AcDbScale
 70
     0
300
1/32" = 1'-0"
140
0.03125
141
12.0
290
     0
  0
SCALE
  5
5C
102
{ACAD_REACTORS
330
47
102
}
330
47
100
AcDbScale
 70
     0
300
1/16" = 1'-0"
140
0.0625
141
12.0
290
     0
  0
SCALE
  5
5D
102
{ACAD_REACTORS
330
47
102
}
330
47
100
AcDbScale
 70
     0
300
3/32" = 1'-0"
140
0.09375
141
12.0
290
     0
  0
SCALE
  5
5E
102
{ACAD_REACTORS
330
47
102
}
330
47
100
AcDbScale
 70
     0
300
1/8" = 1'-0"
140
0.125
141
12.0
290
     0
  0
SCALE
  5
5F
102
{ACAD_REACTORS
330
47
102
}
330
47
100
AcDbScale
 70
     0
300
3/16" = 1'-0"
140
0.1875
141
12.0
290
     0
  0
SCALE
  5
60
102
{ACAD_REACTORS
330
47
102
}
330
47
100
AcDbScale
 70
     0
300
1/4" = 1'-0"
140
0.25
141
12.0
290
     0
  0
SCALE
  5
61
102
{ACAD_REACTORS
330
47
102
}
330
47
100
AcDbScale
 70
     0
300
3/8" = 1'-0"
140
0.375
141
12.0
290
     0
  0
SCALE
  5
62
102
{ACAD_REACTORS
330
47
102
}
330
47
100
AcDbScale
 70
     0
300
1/2" = 1'-0"
140
0.5
141
12.0
290
     0
  0
SCALE
  5
63
102
{ACAD_REACTORS
330
47
102
}
330
47
100
AcDbScale
 70
     0
300
3/4" = 1'-0"
140
0.75
141
12.0
290
     0
  0
SCALE
  5
64
102
{ACAD_REACTORS
330
47
102
}
330
47
100
AcDbScale
 70
     0
300
1" = 1'-0"
140
1.0
141
12.0
290
     0
  0
SCALE
  5
65
102
{ACAD_REACTORS
330
47
102
}
330
47
100
AcDbScale
 70
     0
300
1-1/2" = 1'-0"
140
1.5
141
12.0
290
     0
  0
SCALE
  5
66
102
{ACAD_REACTORS
330
47
102
}
330
47
100
AcDbScale
 70
     0
300
3" = 1'-0"
140
3.0
141
12.0
290
     0
  0
SCALE
  5
67
102
{ACAD_REACTORS
330
47
102
}
330
47
100
AcDbScale
 70
     0
300
6" = 1'-0"
140
6.0
141
12.0
290
     0
  0
SCALE
  5
68
102
{ACAD_REACTORS
330
47
102
}
330
47
100
AcDbScale
 70
     0
300
1'-0" = 1'-0"
140
12.0
141
12.0
290
     0
  0
ENDSEC
  0
EOF
