  0
SECTION
  2
HEADER
  9
$ACADVER
  1
AC1015
  9
$ACADMAINTVER
 70
     6
  9
$DWGCODEPAGE
  3
ANSI_949
  9
$INSBASE
 10
0.0
 20
0.0
 30
0.0
  9
$EXTMIN
 10
1.000000000000000E+20
 20
1.000000000000000E+20
 30
1.000000000000000E+20
  9
$EXTMAX
 10
-1.000000000000000E+20
 20
-1.000000000000000E+20
 30
-1.000000000000000E+20
  9
$LIMMIN
 10
0.0
 20
0.0
  9
$LIMMAX
 10
420.0
 20
297.0
  9
$ORTHOMODE
 70
     1
  9
$REGENMODE
 70
     1
  9
$FILLMODE
 70
     1
  9
$QTEXTMODE
 70
     0
  9
$MIRRTEXT
 70
     1
  9
$LTSCALE
 40
1.0
  9
$ATTMODE
 70
     1
  9
$TEXTSIZE
 40
3.5
  9
$TRACEWID
 40
1.0
  9
$TEXTSTYLE
  7
Standard
  9
$CLAYER
  8
0
  9
$CELTYPE
  6
ByLayer
  9
$CECOLOR
 62
   256
  9
$CELTSCALE
 40
1.0
  9
$DISPSILH
 70
     0
  9
$DIMSCALE
 40
1.0
  9
$DIMASZ
 40
3.302
  9
$DIMEXO
 40
1.0
  9
$DIMDLI
 40
3.75
  9
$DIMRND
 40
0.0
  9
$DIMDLE
 40
0.0
  9
$DIMEXE
 40
1.0
  9
$DIMTP
 40
0.0
  9
$DIMTM
 40
0.0
  9
$DIMTXT
 40
3.5
  9
$DIMCEN
 40
2.5
  9
$DIMTSZ
 40
0.0
  9
$DIMTOL
 70
     0
  9
$DIMLIM
 70
     0
  9
$DIMTIH
 70
     1
  9
$DIMTOH
 70
     1
  9
$DIMSE1
 70
     0
  9
$DIMSE2
 70
     0
  9
$DIMTAD
 70
     1
  9
$DIMZIN
 70
     0
  9
$DIMBLK
  1

  9
$DIMASO
 70
     1
  9
$DIMSHO
 70
     1
  9
$DIMPOST
  1

  9
$DIMAPOST
  1

  9
$DIMALT
 70
     0
  9
$DIMALTD
 70
     3
  9
$DIMALTF
 40
0.0393700787401575
  9
$DIMLFAC
 40
1.0
  9
$DIMTOFL
 70
     1
  9
$DIMTVP
 40
0.0
  9
$DIMTIX
 70
     0
  9
$DIMSOXD
 70
     0
  9
$DIMSAH
 70
     0
  9
$DIMBLK1
  1

  9
$DIMBLK2
  1

  9
$DIMSTYLE
  2
ISO-25
  9
$DIMCLRD
 70
     0
  9
$DIMCLRE
 70
     0
  9
$DIMCLRT
 70
     0
  9
$DIMTFAC
 40
1.0
  9
$DIMGAP
 40
1.524
  9
$DIMJUST
 70
     0
  9
$DIMSD1
 70
     0
  9
$DIMSD2
 70
     0
  9
$DIMTOLJ
 70
     0
  9
$DIMTZIN
 70
     0
  9
$DIMALTZ
 70
     0
  9
$DIMALTTZ
 70
     0
  9
$DIMUPT
 70
     0
  9
$DIMDEC
 70
     2
  9
$DIMTDEC
 70
     2
  9
$DIMALTU
 70
     2
  9
$DIMALTTD
 70
     3
  9
$DIMTXSTY
  7
Standard
  9
$DIMAUNIT
 70
     0
  9
$DIMADEC
 70
     2
  9
$DIMALTRND
 40
0.0
  9
$DIMAZIN
 70
     0
  9
$DIMDSEP
 70
    44
  9
$DIMATFIT
 70
     3
  9
$DIMFRAC
 70
     0
  9
$DIMLDRBLK
  1

  9
$DIMLUNIT
 70
     2
  9
$DIMLWD
 70
    -2
  9
$DIMLWE
 70
    -2
  9
$DIMTMOVE
 70
     0
  9
$LUNITS
 70
     2
  9
$LUPREC
 70
     2
  9
$SKETCHINC
 40
1.0
  9
$FILLETRAD
 40
10.0
  9
$AUNITS
 70
     0
  9
$AUPREC
 70
     2
  9
$MENU
  1
.
  9
$ELEVATION
 40
0.0
  9
$PELEVATION
 40
0.0
  9
$THICKNESS
 40
0.0
  9
$LIMCHECK
 70
     0
  9
$CHAMFERA
 40
0.0
  9
$CHAMFERB
 40
0.0
  9
$CHAMFERC
 40
0.0
  9
$CHAMFERD
 40
0.0
  9
$SKPOLY
 70
     0
  9
$TDCREATE
 40
2458323.690167083
  9
$TDUCREATE
 40
2458323.315167083
  9
$TDUPDATE
 40
2458324.487781285
  9
$TDUUPDATE
 40
2458324.112781285
  9
$TDINDWG
 40
0.0010823264
  9
$TDUSRTIMER
 40
2458324.111699282
  9
$USRTIMER
 70
     1
  9
$ANGBASE
 50
0.0
  9
$ANGDIR
 70
     0
  9
$PDMODE
 70
     0
  9
$PDSIZE
 40
-1.0
  9
$PLINEWID
 40
0.0
  9
$SPLFRAME
 70
     0
  9
$SPLINETYPE
 70
     6
  9
$SPLINESEGS
 70
     8
  9
$HANDSEED
  5
269
  9
$SURFTAB1
 70
     6
  9
$SURFTAB2
 70
     6
  9
$SURFTYPE
 70
     6
  9
$SURFU
 70
     6
  9
$SURFV
 70
     6
  9
$UCSBASE
  2

  9
$UCSNAME
  2

  9
$UCSORG
 10
0.0
 20
0.0
 30
0.0
  9
$UCSXDIR
 10
1.0
 20
0.0
 30
0.0
  9
$UCSYDIR
 10
0.0
 20
1.0
 30
0.0
  9
$UCSORTHOREF
  2

  9
$UCSORTHOVIEW
 70
     0
  9
$UCSORGTOP
 10
0.0
 20
0.0
 30
0.0
  9
$UCSORGBOTTOM
 10
0.0
 20
0.0
 30
0.0
  9
$UCSORGLEFT
 10
0.0
 20
0.0
 30
0.0
  9
$UCSORGRIGHT
 10
0.0
 20
0.0
 30
0.0
  9
$UCSORGFRONT
 10
0.0
 20
0.0
 30
0.0
  9
$UCSORGBACK
 10
0.0
 20
0.0
 30
0.0
  9
$PUCSBASE
  2

  9
$PUCSNAME
  2

  9
$PUCSORG
 10
0.0
 20
0.0
 30
0.0
  9
$PUCSXDIR
 10
1.0
 20
0.0
 30
0.0
  9
$PUCSYDIR
 10
0.0
 20
1.0
 30
0.0
  9
$PUCSORTHOREF
  2

  9
$PUCSORTHOVIEW
 70
     0
  9
$PUCSORGTOP
 10
0.0
 20
0.0
 30
0.0
  9
$PUCSORGBOTTOM
 10
0.0
 20
0.0
 30
0.0
  9
$PUCSORGLEFT
 10
0.0
 20
0.0
 30
0.0
  9
$PUCSORGRIGHT
 10
0.0
 20
0.0
 30
0.0
  9
$PUCSORGFRONT
 10
0.0
 20
0.0
 30
0.0
  9
$PUCSORGBACK
 10
0.0
 20
0.0
 30
0.0
  9
$USERI1
 70
     0
  9
$USERI2
 70
     0
  9
$USERI3
 70
     0
  9
$USERI4
 70
     0
  9
$USERI5
 70
     0
  9
$USERR1
 40
0.0
  9
$USERR2
 40
0.0
  9
$USERR3
 40
0.0
  9
$USERR4
 40
0.0
  9
$USERR5
 40
0.0
  9
$WORLDVIEW
 70
     1
  9
$SHADEDGE
 70
     3
  9
$SHADEDIF
 70
    70
  9
$TILEMODE
 70
     1
  9
$MAXACTVP
 70
    64
  9
$PINSBASE
 10
0.0
 20
0.0
 30
0.0
  9
$PLIMCHECK
 70
     0
  9
$PEXTMIN
 10
1.000000000000000E+20
 20
1.000000000000000E+20
 30
1.000000000000000E+20
  9
$PEXTMAX
 10
-1.000000000000000E+20
 20
-1.000000000000000E+20
 30
-1.000000000000000E+20
  9
$PLIMMIN
 10
0.0
 20
0.0
  9
$PLIMMAX
 10
0.0
 20
0.0
  9
$UNITMODE
 70
     0
  9
$VISRETAIN
 70
     1
  9
$PLINEGEN
 70
     0
  9
$PSLTSCALE
 70
     1
  9
$TREEDEPTH
 70
  3020
  9
$CMLSTYLE
  2
Standard
  9
$CMLJUST
 70
     0
  9
$CMLSCALE
 40
20.0
  9
$PROXYGRAPHICS
 70
     1
  9
$MEASUREMENT
 70
     1
  9
$CELWEIGHT
370
    -1
  9
$ENDCAPS
280
     0
  9
$JOINSTYLE
280
     0
  9
$LWDISPLAY
290
     1
  9
$INSUNITS
 70
     4
  9
$HYPERLINKBASE
  1

  9
$STYLESHEET
  1

  9
$XEDIT
290
     1
  9
$CEPSNTYPE
380
     0
  9
$PSTYLEMODE
290
     1
  9
$FINGERPRINTGUID
  2
{F57FC35E-4BC7-4CBD-9D99-6C7D94FDDC39}
  9
$VERSIONGUID
  2
{FAEB1C32-E019-11D5-929B-00C0DF256EC4}
  9
$EXTNAMES
290
     1
  9
$PSVPSCALE
 40
0.0
  9
$OLESTARTUP
290
     0
  0
ENDSEC
  0
SECTION
  2
CLASSES
  0
CLASS
  1
ACDBDICTIONARYWDFLT
  2
AcDbDictionaryWithDefault
  3
ObjectDBX Classes
 90
        0
280
     0
281
     0
  0
CLASS
  1
VISUALSTYLE
  2
AcDbVisualStyle
  3
ObjectDBX Classes
 90
     4095
280
     0
281
     0
  0
CLASS
  1
MATERIAL
  2
AcDbMaterial
  3
ObjectDBX Classes
 90
     1153
280
     0
281
     0
  0
CLASS
  1
SCALE
  2
AcDbScale
  3
ObjectDBX Classes
 90
     1153
280
     0
281
     0
  0
CLASS
  1
SUN
  2
AcDbSun
  3
SCENEOE
 90
     1153
280
     0
281
     0
  0
CLASS
  1
ACDBPLACEHOLDER
  2
AcDbPlaceHolder
  3
ObjectDBX Classes
 90
        0
280
     0
281
     0
  0
CLASS
  1
LAYOUT
  2
AcDbLayout
  3
ObjectDBX Classes
 90
        0
280
     0
281
     0
  0
CLASS
  1
TABLESTYLE
  2
AcDbTableStyle
  3
ObjectDBX Classes
 90
     4095
280
     0
281
     0
  0
CLASS
  1
MLEADERSTYLE
  2
AcDbMLeaderStyle
  3
ACDB_MLEADERSTYLE_CLASS
 90
     4095
280
     0
281
     0
  0
CLASS
  1
RASTERVARIABLES
  2
AcDbRasterVariables
  3
ISM
 90
        0
280
     0
281
     0
  0
ENDSEC
  0
SECTION
  2
TABLES
  0
TABLE
  2
VPORT
  5
8
330
0
100
AcDbSymbolTable
 70
     1
  0
VPORT
  5
29
330
8
100
AcDbSymbolTableRecord
100
AcDbViewportTableRecord
  2
*Active
 70
     0
 10
0.0
 20
0.0
 11
1.0
 21
1.0
 12
19.39108606132503
 22
-9.907979318159427
 13
0.0
 23
0.0
 14
10.0
 24
10.0
 15
10.0
 25
10.0
 16
0.0
 26
0.0
 36
1.0
 17
0.0
 27
0.0
 37
0.0
 40
118.9579254147245
 41
1.632093933463796
 42
50.0
 43
0.0
 44
0.0
 50
0.0
 51
0.0
 71
    16
 72
  2000
 73
     1
 74
     3
 75
     0
 76
     0
 77
     0
 78
     0
281
     0
 65
     1
110
0.0
120
0.0
130
0.0
111
1.0
121
0.0
131
0.0
112
0.0
122
1.0
132
0.0
 79
     0
146
0.0
  0
ENDTAB
  0
TABLE
  2
LTYPE
  5
5
330
0
100
AcDbSymbolTable
 70
     6
  0
LTYPE
  5
14
330
5
100
AcDbSymbolTableRecord
100
AcDbLinetypeTableRecord
  2
ByBlock
 70
     0
  3

 72
    65
 73
     0
 40
0.0
  0
LTYPE
  5
15
330
5
100
AcDbSymbolTableRecord
100
AcDbLinetypeTableRecord
  2
ByLayer
 70
     0
  3

 72
    65
 73
     0
 40
0.0
  0
LTYPE
  5
16
330
5
100
AcDbSymbolTableRecord
100
AcDbLinetypeTableRecord
  2
Continuous
 70
     0
  3
Solid line
 72
    65
 73
     0
 40
0.0
  0
LTYPE
  5
6A
330
5
100
AcDbSymbolTableRecord
100
AcDbLinetypeTableRecord
  2
HIDDEN
 70
     0
  3
Hidden __ __ __ __ __ __ __ __ __ __ __ __ __ __
 72
    65
 73
     2
 40
1.905
 49
1.27
 74
     0
 49
-0.635
 74
     0
  0
LTYPE
  5
6B
330
5
100
AcDbSymbolTableRecord
100
AcDbLinetypeTableRecord
  2
PHANTOM
 70
     0
  3
Phantom ______  __  __  ______  __  __  ______
 72
    65
 73
     6
 40
12.7
 49
6.35
 74
     0
 49
-1.27
 74
     0
 49
1.27
 74
     0
 49
-1.27
 74
     0
 49
1.27
 74
     0
 49
-1.27
 74
     0
  0
LTYPE
  5
6C
330
5
100
AcDbSymbolTableRecord
100
AcDbLinetypeTableRecord
  2
CENTER
 70
     0
  3
Center ____ _ ____ _ ____ _ ____ _ ____ _ ____
 72
    65
 73
     4
 40
10.16
 49
6.35
 74
     0
 49
-1.27
 74
     0
 49
1.27
 74
     0
 49
-1.27
 74
     0
  0
LTYPE
  5
6D
330
5
100
AcDbSymbolTableRecord
100
AcDbLinetypeTableRecord
  2
CENTERX2
 70
     0
  3
Center (2x) ________  __  ________  __  _____
 72
    65
 73
     4
 40
20.32
 49
12.7
 74
     0
 49
-2.54
 74
     0
 49
2.54
 74
     0
 49
-2.54
 74
     0
  0
LTYPE
  5
6E
330
5
100
AcDbSymbolTableRecord
100
AcDbLinetypeTableRecord
  2
DOT2
 70
     0
  3
Dot (.5x) ........................................
 72
    65
 73
     2
 40
0.635
 49
0.0
 74
     0
 49
-0.635
 74
     0
  0
ENDTAB
  0
TABLE
  2
LAYER
  5
2
102
{ACAD_XDICTIONARY
360
1D2
102
}
330
0
100
AcDbSymbolTable
 70
    18
  0
LAYER
  5
10
330
2
100
AcDbSymbolTableRecord
100
AcDbLayerTableRecord
  2
0
 70
     0
 62
     7
  6
Continuous
370
    -3
390
F
  0
LAYER
  5
6F
330
2
100
AcDbSymbolTableRecord
100
AcDbLayerTableRecord
  2
FORMAT
 70
     0
 62
     2
  6
Continuous
370
    -3
390
F
  0
LAYER
  5
70
330
2
100
AcDbSymbolTableRecord
100
AcDbLayerTableRecord
  2
외형선
 70
     0
 62
     4
  6
Continuous
370
    30
390
F
  0
LAYER
  5
71
330
2
100
AcDbSymbolTableRecord
100
AcDbLayerTableRecord
  2
숨은선
 70
     0
 62
     2
  6
HIDDEN
370
    15
390
F
  0
LAYER
  5
72
330
2
100
AcDbSymbolTableRecord
100
AcDbLayerTableRecord
  2
중심선
 70
     0
 62
     1
  6
CENTERX2
370
    -3
390
F
  0
LAYER
  5
73
330
2
100
AcDbSymbolTableRecord
100
AcDbLayerTableRecord
  2
파단선
 70
     0
 62
     4
  6
Continuous
370
    -3
390
F
  0
LAYER
  5
74
330
2
100
AcDbSymbolTableRecord
100
AcDbLayerTableRecord
  2
해칭선
 70
     0
 62
   100
  6
Continuous
370
    -3
390
F
  0
LAYER
  5
75
330
2
100
AcDbSymbolTableRecord
100
AcDbLayerTableRecord
  2
가는실선
 70
     0
 62
     4
  6
Continuous
370
    -3
390
F
  0
LAYER
  5
76
330
2
100
AcDbSymbolTableRecord
100
AcDbLayerTableRecord
  2
치수_보조선
 70
     0
 62
     4
  6
Continuous
370
    -3
390
F
  0
LAYER
  5
77
330
2
100
AcDbSymbolTableRecord
100
AcDbLayerTableRecord
  2
치수문자_일반주서
 70
     0
 62
     7
  6
Continuous
370
    15
390
F
  0
LAYER
  5
78
330
2
100
AcDbSymbolTableRecord
100
AcDbLayerTableRecord
  2
개별주서
 70
     0
 62
   100
  6
Continuous
370
    30
390
F
  0
LAYER
  5
79
330
2
100
AcDbSymbolTableRecord
100
AcDbLayerTableRecord
  2
중간선
 70
     0
 62
     2
  6
Continuous
370
    15
390
F
  0
LAYER
  5
7A
330
2
100
AcDbSymbolTableRecord
100
AcDbLayerTableRecord
  2
윤곽선
 70
     0
 62
     3
  6
Continuous
370
    40
390
F
  0
LAYER
  5
7B
330
2
100
AcDbSymbolTableRecord
100
AcDbLayerTableRecord
  2
중심마크
 70
     0
 62
   100
  6
Continuous
370
    30
390
F
  0
LAYER
  5
7C
330
2
100
AcDbSymbolTableRecord
100
AcDbLayerTableRecord
  2
가상선
 70
     0
 62
     4
  6
PHANTOM
370
    -3
390
F
  0
LAYER
  5
7D
330
2
100
AcDbSymbolTableRecord
100
AcDbLayerTableRecord
  2
특수지정선
 70
     0
 62
     5
  6
CENTERX2
370
    60
390
F
  0
LAYER
  5
7E
330
2
100
AcDbSymbolTableRecord
100
AcDbLayerTableRecord
  2
참조1
 70
     0
 62
    -4
  6
Continuous
370
    -3
390
F
  0
LAYER
  5
12D
330
2
100
AcDbSymbolTableRecord
100
AcDbLayerTableRecord
  2
Defpoints
 70
     0
 62
     7
  6
Continuous
290
     0
370
    -3
390
F
  0
ENDTAB
  0
TABLE
  2
STYLE
  5
3
330
0
100
AcDbSymbolTable
 70
     2
  0
STYLE
  5
11
330
3
100
AcDbSymbolTableRecord
100
AcDbTextStyleTableRecord
  2
Standard
 70
     0
 40
0.0
 41
1.0
 50
0.0
 71
     0
 42
3.5
  3
txt
  4

  0
STYLE
  5
94
330
3
100
AcDbSymbolTableRecord
100
AcDbTextStyleTableRecord
  2
SLDTEXTSTYLE0
 70
     0
 40
0.0
 41
0.75
 50
0.0
 71
     0
 42
3.5
  3
TXT
  4

  0
ENDTAB
  0
TABLE
  2
VIEW
  5
6
330
0
100
AcDbSymbolTable
 70
     0
  0
ENDTAB
  0
TABLE
  2
UCS
  5
7
330
0
100
AcDbSymbolTable
 70
     0
  0
ENDTAB
  0
TABLE
  2
APPID
  5
9
330
0
100
AcDbSymbolTable
 70
     1
  0
APPID
  5
12
330
9
100
AcDbSymbolTableRecord
100
AcDbRegAppTableRecord
  2
ACAD
 70
     0
  0
ENDTAB
  0
TABLE
  2
DIMSTYLE
  5
A
330
0
100
AcDbSymbolTable
 70
     4
100
AcDbDimStyleTable
  0
DIMSTYLE
105
27
330
A
100
AcDbSymbolTableRecord
100
AcDbDimStyleTableRecord
  2
ISO-25
 70
     0
 41
2.5
 42
0.625
 43
3.75
 44
1.25
 73
     0
 74
     0
 77
     1
 78
     8
140
2.5
141
2.5
143
0.03937007874016
147
0.625
171
     3
172
     1
178
     0
271
     2
272
     2
274
     3
278
    44
283
     0
284
     8
340
11
  0
DIMSTYLE
105
A9
330
A
100
AcDbSymbolTableRecord
100
AcDbDimStyleTableRecord
  2
SLDDIMSTYLE0
 70
     0
 41
3.302
 44
0.0
 45
0.000000001
 73
     0
 74
     0
 77
     1
 78
     4
 79
     1
140
3.5
143
0.0393700787401575
147
0.875
148
0.000000001
170
     1
172
     1
173
     1
178
     0
271
     2
272
     2
276
     2
284
    12
289
     0
340
94
  0
DIMSTYLE
105
BF
102
{ACAD_REACTORS
330
18D
330
19A
330
1A7
330
1B4
330
228
330
229
330
22A
330
22B
102
}
330
A
100
AcDbSymbolTableRecord
100
AcDbDimStyleTableRecord
  2
SLDDIMSTYLE1
 70
     0
 41
3.302
 44
0.0
 45
0.000000001
 73
     0
 74
     0
 77
     1
 78
    12
 79
     3
140
3.5
143
0.0393700787401575
147
0.875
148
0.000000001
170
     1
173
     1
178
     0
271
     2
272
     2
276
     2
284
    12
340
94
  0
DIMSTYLE
105
E6
330
A
100
AcDbSymbolTableRecord
100
AcDbDimStyleTableRecord
  2
SLDDIMSTYLE2
 70
     0
 41
3.302
 44
0.0
 45
0.000000001
 73
     0
 74
     0
 77
     1
 78
    12
 79
     3
140
3.5
143
0.0393700787401575
147
0.875
148
0.000000001
170
     1
172
     1
173
     1
178
     0
271
     2
272
     2
276
     2
284
    12
289
     0
340
94
  0
ENDTAB
  0
TABLE
  2
BLOCK_RECORD
  5
1
330
0
100
AcDbSymbolTable
 70
    16
  0
BLOCK_RECORD
  5
1F
330
1
100
AcDbSymbolTableRecord
100
AcDbBlockTableRecord
  2
*Model_Space
340
22
  0
BLOCK_RECORD
  5
1B
330
1
100
AcDbSymbolTableRecord
100
AcDbBlockTableRecord
  2
*Paper_Space
340
1E
  0
BLOCK_RECORD
  5
23
330
1
100
AcDbSymbolTableRecord
100
AcDbBlockTableRecord
  2
*Paper_Space0
340
26
  0
BLOCK_RECORD
  5
7F
330
1
100
AcDbSymbolTableRecord
100
AcDbBlockTableRecord
  2
블럭10
340
0
102
{BLKREFS
331
A1
331
170
331
0
102
}
  0
BLOCK_RECORD
  5
AA
330
1
100
AcDbSymbolTableRecord
100
AcDbBlockTableRecord
  2
_D
340
0
  0
BLOCK_RECORD
  5
C0
330
1
100
AcDbSymbolTableRecord
100
AcDbBlockTableRecord
  2
_D_1
340
0
  0
BLOCK_RECORD
  5
D3
330
1
100
AcDbSymbolTableRecord
100
AcDbBlockTableRecord
  2
_D_2
340
0
  0
BLOCK_RECORD
  5
E7
330
1
100
AcDbSymbolTableRecord
100
AcDbBlockTableRecord
  2
_D_3
340
0
  0
BLOCK_RECORD
  5
101
330
1
100
AcDbSymbolTableRecord
100
AcDbBlockTableRecord
  2
SW_DOWELSYMBOL_0
340
0
102
{BLKREFS
331
0
331
1C2
331
22C
102
}
  0
BLOCK_RECORD
  5
1D6
330
1
100
AcDbSymbolTableRecord
100
AcDbBlockTableRecord
  2
*D8
340
0
  0
BLOCK_RECORD
  5
1E2
330
1
100
AcDbSymbolTableRecord
100
AcDbBlockTableRecord
  2
*D9
340
0
  0
BLOCK_RECORD
  5
1EE
330
1
100
AcDbSymbolTableRecord
100
AcDbBlockTableRecord
  2
*D10
340
0
  0
BLOCK_RECORD
  5
1FA
330
1
100
AcDbSymbolTableRecord
100
AcDbBlockTableRecord
  2
*D11
340
0
  0
BLOCK_RECORD
  5
236
330
1
100
AcDbSymbolTableRecord
100
AcDbBlockTableRecord
  2
*D12
340
0
  0
BLOCK_RECORD
  5
242
330
1
100
AcDbSymbolTableRecord
100
AcDbBlockTableRecord
  2
*D13
340
0
  0
BLOCK_RECORD
  5
24E
330
1
100
AcDbSymbolTableRecord
100
AcDbBlockTableRecord
  2
*D14
340
0
  0
BLOCK_RECORD
  5
25A
330
1
100
AcDbSymbolTableRecord
100
AcDbBlockTableRecord
  2
*D15
340
0
  0
ENDTAB
  0
ENDSEC
  0
SECTION
  2
BLOCKS
  0
BLOCK
  5
20
330
1F
100
AcDbEntity
  8
0
100
AcDbBlockBegin
  2
*Model_Space
 70
     0
 10
0.0
 20
0.0
 30
0.0
  3
*Model_Space
  1
*Model_Space
  0
ENDBLK
  5
21
330
1F
100
AcDbEntity
  8
0
100
AcDbBlockEnd
  0
BLOCK
  5
1C
330
1B
100
AcDbEntity
 67
     1
  8
0
100
AcDbBlockBegin
  2
*Paper_Space
 70
     0
 10
0.0
 20
0.0
 30
0.0
  3
*Paper_Space
  1
*Paper_Space
  0
ENDBLK
  5
1D
330
1B
100
AcDbEntity
 67
     1
  8
0
100
AcDbBlockEnd
  0
BLOCK
  5
24
330
23
100
AcDbEntity
  8
0
100
AcDbBlockBegin
  2
*Paper_Space0
 70
     0
 10
0.0
 20
0.0
 30
0.0
  3
*Paper_Space0
  1
*Paper_Space0
  0
ENDBLK
  5
25
330
23
100
AcDbEntity
  8
0
100
AcDbBlockEnd
  0
BLOCK
  5
80
330
7F
100
AcDbEntity
  8
0
100
AcDbBlockBegin
  2
블럭10
 70
     2
 10
0.0
 20
0.0
 30
0.0
  3
블럭10
  1
블럭10
  0
ELLIPSE
  5
82
330
7F
100
AcDbEntity
  8
중심선
100
AcDbEllipse
 10
20.54032771741204
 20
12.0471743016438
 30
0.0
 11
6.600054785286829
 21
-1.261213355974178E-13
 31
0.0
210
0.0
220
0.0
230
1.0
 40
0.636358354079598
 41
0.9219305317359503
 42
6.513795318482858
  0
ELLIPSE
  5
83
330
7F
100
AcDbEntity
  8
중심선
100
AcDbEllipse
 10
20.54032771746488
 20
12.04717430159265
 30
0.0
 11
3.960054785062283
 21
1.540847449632565E-10
 31
0.0
210
0.0
220
0.0
230
1.0
 40
0.3939339440162632
 41
1.131841032648279
 42
5.62031148352944
  0
LINE
  5
84
330
7F
100
AcDbEntity
  8
중심선
100
AcDbLine
 10
2.268634060543552
 20
16.24717430164393
 30
0.0
 11
5.714909304380834
 21
16.24717430164393
 31
0.0
  0
LINE
  5
85
330
7F
100
AcDbEntity
  8
중심선
100
AcDbLine
 10
5.245725140726316
 20
7.84717430164391
 30
0.0
 11
8.692000384563599
 21
7.84717430164391
 31
0.0
  0
LINE
  5
86
330
7F
100
AcDbEntity
  8
중심선
100
AcDbLine
 10
15.74043728645272
 20
16.24717430164393
 30
0.0
 11
8.692000384563599
 21
7.84717430164391
 31
0.0
  0
LINE
  5
87
330
7F
100
AcDbEntity
  8
중심선
100
AcDbLine
 10
0.1404042013395286
 20
13.71084872107135
 30
0.0
 11
3.58671253028996
 21
13.71088815037384
 31
0.0
  0
LINE
  5
88
330
7F
100
AcDbEntity
  8
중심선
100
AcDbLine
 10
2.750260043222114
 20
10.84717430164391
 30
0.0
 11
6.196535287059397
 21
10.84717430164391
 31
0.0
  0
LINE
  5
89
330
7F
100
AcDbEntity
  8
중심선
100
AcDbLine
 10
12.29416204261559
 20
16.24717430164393
 30
0.0
 11
5.245725140726316
 21
7.84717430164391
 31
0.0
  0
LINE
  5
8A
330
7F
100
AcDbEntity
  8
중심선
100
AcDbLine
 10
10.72767329541681
 20
16.24717430164393
 30
0.0
 11
6.196535287059397
 21
10.84717430164391
 31
0.0
  0
LINE
  5
8B
330
7F
100
AcDbEntity
  8
중심선
100
AcDbLine
 10
7.28139805157953
 20
16.24717430164393
 30
0.0
 11
2.750260043222114
 21
10.84717430164391
 31
0.0
  0
LINE
  5
8C
330
7F
100
AcDbEntity
  8
중심선
100
AcDbLine
 10
5.714909304380834
 20
16.24717430164393
 30
0.0
 11
3.58671253028996
 21
13.71088815037384
 31
0.0
  0
LINE
  5
8D
330
7F
100
AcDbEntity
  8
중심선
100
AcDbLine
 10
2.268634060543552
 20
16.24717430164393
 30
0.0
 11
0.1404042013395286
 21
13.71084872107135
 31
0.0
  0
LINE
  5
8E
330
7F
100
AcDbEntity
  8
중심선
100
AcDbLine
 10
7.28139805157953
 20
16.24717430164393
 30
0.0
 11
10.72767329541681
 21
16.24717430164393
 31
0.0
  0
LINE
  5
8F
330
7F
100
AcDbEntity
  8
중심선
100
AcDbLine
 10
12.29416204261559
 20
16.24717430164393
 30
0.0
 11
15.74043728645272
 21
16.24717430164393
 31
0.0
  0
LINE
  5
90
330
7F
100
AcDbEntity
  8
중심선
100
AcDbLine
 10
19.22036997980202
 20
11.08717430171403
 30
0.0
 11
23.66174974927406
 21
11.08717430171406
 31
0.0
  0
LINE
  5
91
330
7F
100
AcDbEntity
  8
중심선
100
AcDbLine
 10
19.22039502424796
 20
13.00717430171391
 30
0.0
 11
19.22036997980202
 21
11.08717430171403
 31
0.0
  0
LINE
  5
92
330
7F
100
AcDbEntity
  8
중심선
100
AcDbLine
 10
19.22039502424796
 20
13.00717430171391
 30
0.0
 11
26.96566020931264
 21
13.00717430171391
 31
0.0
  0
LINE
  5
93
330
7F
100
AcDbEntity
  8
중심선
100
AcDbLine
 10
22.22332737316547
 20
13.45928029700563
 30
0.0
 11
24.52862924686651
 21
15.39360700705356
 31
0.0
  0
ATTDEF
  5
95
330
7F
100
AcDbEntity
  8
FORMAT
 62
     2
100
AcDbText
 10
4.408487351596664
 20
2.075366912832191
 30
0.0
 40
4.233333333333333
  1
E2020132
 41
0.75
  7
SLDTEXTSTYLE0
 11
4.408487351596664
 21
-0.0412997538344756
 31
0.0
100
AcDbAttributeDefinition
  3

  2
AUTOATTR0
 70
     0
 74
     1
  0
ENDBLK
  5
81
330
7F
100
AcDbEntity
  8
0
100
AcDbBlockEnd
  0
BLOCK
  5
AB
330
AA
100
AcDbEntity
  8
0
100
AcDbBlockBegin
  2
_D
 70
     0
 10
0.0
 20
0.0
 30
0.0
  3
_D
  1
_D
  0
SOLID
  5
AD
330
AA
100
AcDbEntity
  8
치수문자_일반주서
100
AcDbTrace
 10
31.36231532850778
 20
15.5905321960223
 30
0.0
 11
34.66431532850778
 21
15.0825321960223
 31
0.0
 12
34.66431532850778
 22
16.0985321960223
 32
0.0
 13
34.66431532850778
 23
16.0985321960223
 33
0.0
  0
SOLID
  5
AE
330
AA
100
AcDbEntity
  8
치수문자_일반주서
100
AcDbTrace
 10
5.962315328507771
 20
15.5905321960223
 30
0.0
 11
2.660315328507772
 21
16.0985321960223
 31
0.0
 12
2.660315328507772
 22
15.0825321960223
 32
0.0
 13
2.660315328507772
 23
15.0825321960223
 33
0.0
  0
LINE
  5
AF
330
AA
100
AcDbEntity
  8
치수문자_일반주서
100
AcDbLine
 10
13.72994157423881
 20
26.38341391206504
 30
0.0
 11
13.01900408867431
 21
26.38341391206504
 31
0.0
  0
LINE
  5
B0
330
AA
100
AcDbEntity
  8
치수문자_일반주서
100
AcDbLine
 10
13.01900408867431
 20
26.38341391206504
 30
0.0
 11
13.01900408867427
 21
20.82716392100574
 31
0.0
  0
LINE
  5
B1
330
AA
100
AcDbEntity
  8
치수문자_일반주서
100
AcDbLine
 10
13.01900408867427
 20
20.82716392100574
 30
0.0
 11
13.72994157423877
 21
20.82716392100573
 31
0.0
  0
LINE
  5
B2
330
AA
100
AcDbEntity
  8
치수문자_일반주서
100
AcDbLine
 10
24.55867443637607
 20
26.38341391206496
 30
0.0
 11
25.26961192194057
 21
26.38341391206496
 31
0.0
  0
LINE
  5
B3
330
AA
100
AcDbEntity
  8
치수문자_일반주서
100
AcDbLine
 10
25.26961192194057
 20
26.38341391206496
 30
0.0
 11
25.26961192194053
 21
20.82716392100565
 31
0.0
  0
LINE
  5
B4
330
AA
100
AcDbEntity
  8
치수문자_일반주서
100
AcDbLine
 10
25.26961192194053
 20
20.82716392100565
 30
0.0
 11
24.55867443637603
 21
20.82716392100566
 31
0.0
  0
LINE
  5
B5
330
AA
100
AcDbEntity
  8
치수문자_일반주서
100
AcDbLine
 10
31.36231532850778
 20
5.778273824452533
 30
0.0
 11
31.36231532850778
 21
16.5905321960223
 31
0.0
  0
LINE
  5
B6
330
AA
100
AcDbEntity
  8
치수문자_일반주서
100
AcDbLine
 10
5.962315328507772
 20
6.536892327903137
 30
0.0
 11
5.962315328507771
 21
16.5905321960223
 31
0.0
  0
LINE
  5
B7
330
AA
100
AcDbEntity
  8
치수문자_일반주서
100
AcDbLine
 10
31.36231532850778
 20
15.5905321960223
 30
0.0
 11
37.71231532850778
 21
15.5905321960223
 31
0.0
  0
LINE
  5
B8
330
AA
100
AcDbEntity
  8
치수문자_일반주서
100
AcDbLine
 10
31.36231532850778
 20
15.5905321960223
 30
0.0
 11
5.962315328507771
 21
15.5905321960223
 31
0.0
  0
LINE
  5
B9
330
AA
100
AcDbEntity
  8
치수문자_일반주서
100
AcDbLine
 10
5.962315328507771
 20
15.5905321960223
 30
0.0
 11
-0.3876846714922282
 21
15.5905321960223
 31
0.0
  0
MTEXT
  5
BA
330
AA
100
AcDbEntity
  8
치수문자_일반주서
100
AcDbMText
 10
12.50524536318757
 20
20.15574146188402
 30
0.0
 40
3.5
 41
0.0
 71
     1
 72
     1
  1

  7
SLDTEXTSTYLE0
 73
     1
 44
1.0
  0
MTEXT
  5
BB
330
AA
100
AcDbEntity
  8
치수문자_일반주서
100
AcDbMText
 10
14.61861347485018
 20
25.33890083558462
 30
0.0
 40
3.5
 41
0.0
 71
     1
 72
     1
  1
2.00
  7
SLDTEXTSTYLE0
 73
     1
 44
1.0
  0
MTEXT
  5
BC
330
AA
100
AcDbEntity
  8
치수문자_일반주서
100
AcDbMText
 10
13.32555776167341
 20
20.10226928522416
 30
0.0
 40
3.5
 41
0.0
 71
     1
 72
     1
  1
50.80
  7
SLDTEXTSTYLE0
 73
     1
 44
1.0
  0
MTEXT
  5
BD
330
AA
100
AcDbEntity
  8
치수문자_일반주서
100
AcDbMText
 10
27.11531516708114
 20
20.15574146188391
 30
0.0
 40
3.5
 41
0.0
 71
     1
 72
     1
  1

  7
SLDTEXTSTYLE0
 73
     1
 44
1.0
  0
ENDBLK
  5
AC
330
AA
100
AcDbEntity
  8
0
100
AcDbBlockEnd
  0
BLOCK
  5
C1
330
C0
100
AcDbEntity
  8
0
100
AcDbBlockBegin
  2
_D_1
 70
     0
 10
0.0
 20
0.0
 30
0.0
  3
_D_1
  1
_D_1
  0
SOLID
  5
C3
330
C0
100
AcDbEntity
  8
치수문자_일반주서
100
AcDbTrace
 10
31.36231532850778
 20
27.59053219602237
 30
0.0
 11
28.06031532850778
 21
28.09853219602237
 31
0.0
 12
28.06031532850778
 22
27.08253219602237
 32
0.0
 13
28.06031532850778
 23
27.08253219602237
 33
0.0
  0
SOLID
  5
C4
330
C0
100
AcDbEntity
  8
치수문자_일반주서
100
AcDbTrace
 10
-36.90018467149223
 20
27.59053219602236
 30
0.0
 11
-33.59818467149223
 21
27.08253219602236
 31
0.0
 12
-33.59818467149223
 22
28.09853219602236
 32
0.0
 13
-33.59818467149223
 23
28.09853219602236
 33
0.0
  0
LINE
  5
C5
330
C0
100
AcDbEntity
  8
치수문자_일반주서
100
AcDbLine
 10
-8.183300753314892
 20
38.38341391206509
 30
0.0
 11
-8.894238238879392
 21
38.3834139120651
 31
0.0
  0
LINE
  5
C6
330
C0
100
AcDbEntity
  8
치수문자_일반주서
100
AcDbLine
 10
-8.894238238879392
 20
38.3834139120651
 30
0.0
 11
-8.894238238879433
 21
32.8271639210058
 31
0.0
  0
LINE
  5
C7
330
C0
100
AcDbEntity
  8
치수문자_일반주서
100
AcDbLine
 10
-8.894238238879433
 20
32.8271639210058
 30
0.0
 11
-8.183300753314933
 21
32.82716392100579
 31
0.0
  0
LINE
  5
C8
330
C0
100
AcDbEntity
  8
치수문자_일반주서
100
AcDbLine
 10
2.645432108822366
 20
38.38341391206502
 30
0.0
 11
3.356369594386866
 21
38.38341391206501
 31
0.0
  0
LINE
  5
C9
330
C0
100
AcDbEntity
  8
치수문자_일반주서
100
AcDbLine
 10
3.356369594386866
 20
38.38341391206501
 30
0.0
 11
3.356369594386826
 21
32.82716392100571
 31
0.0
  0
LINE
  5
CA
330
C0
100
AcDbEntity
  8
치수문자_일반주서
100
AcDbLine
 10
3.356369594386826
 20
32.82716392100571
 30
0.0
 11
2.645432108822326
 21
32.82716392100571
 31
0.0
  0
LINE
  5
CB
330
C0
100
AcDbEntity
  8
치수문자_일반주서
100
AcDbLine
 10
31.36231532850778
 20
5.778273824452533
 30
0.0
 11
31.36231532850778
 21
28.59053219602237
 31
0.0
  0
LINE
  5
CC
330
C0
100
AcDbEntity
  8
치수문자_일반주서
100
AcDbLine
 10
-36.90018467149223
 20
4.811074928723901
 30
0.0
 11
-36.90018467149223
 21
28.59053219602236
 31
0.0
  0
LINE
  5
CD
330
C0
100
AcDbEntity
  8
치수문자_일반주서
100
AcDbLine
 10
31.36231532850778
 20
27.59053219602237
 30
0.0
 11
-36.90018467149223
 21
27.59053219602236
 31
0.0
  0
MTEXT
  5
CE
330
C0
100
AcDbEntity
  8
치수문자_일반주서
100
AcDbMText
 10
-9.407996964366134
 20
32.15574146188408
 30
0.0
 40
3.5
 41
0.0
 71
     1
 72
     1
  1

  7
SLDTEXTSTYLE0
 73
     1
 44
1.0
  0
MTEXT
  5
CF
330
C0
100
AcDbEntity
  8
치수문자_일반주서
100
AcDbMText
 10
-7.294628852703529
 20
37.33890083558469
 30
0.0
 40
3.5
 41
0.0
 71
     1
 72
     1
  1
3.69
  7
SLDTEXTSTYLE0
 73
     1
 44
1.0
  0
MTEXT
  5
D0
330
C0
100
AcDbEntity
  8
치수문자_일반주서
100
AcDbMText
 10
-8.587684565880291
 20
32.10226928522422
 30
0.0
 40
3.5
 41
0.0
 71
     1
 72
     1
  1
93.66
  7
SLDTEXTSTYLE0
 73
     1
 44
1.0
  0
MTEXT
  5
D1
330
C0
100
AcDbEntity
  8
치수문자_일반주서
100
AcDbMText
 10
5.202072839527434
 20
32.15574146188398
 30
0.0
 40
3.5
 41
0.0
 71
     1
 72
     1
  1

  7
SLDTEXTSTYLE0
 73
     1
 44
1.0
  0
ENDBLK
  5
C2
330
C0
100
AcDbEntity
  8
0
100
AcDbBlockEnd
  0
BLOCK
  5
D4
330
D3
100
AcDbEntity
  8
0
100
AcDbBlockBegin
  2
_D_2
 70
     0
 10
0.0
 20
0.0
 30
0.0
  3
_D_2
  1
_D_2
  0
SOLID
  5
D6
330
D3
100
AcDbEntity
  8
치수문자_일반주서
100
AcDbTrace
 10
76.27542336633579
 20
5.55732492872388
 30
0.0
 11
75.76742336633579
 21
2.255324928723881
 31
0.0
 12
76.78342336633578
 22
2.255324928723881
 32
0.0
 13
76.78342336633578
 23
2.255324928723881
 33
0.0
  0
SOLID
  5
D7
330
D3
100
AcDbEntity
  8
치수문자_일반주서
100
AcDbTrace
 10
76.27542336633579
 20
-5.555175071276098
 30
0.0
 11
76.78342336633578
 21
-2.253175071276099
 31
0.0
 12
75.76742336633579
 22
-2.253175071276099
 32
0.0
 13
75.76742336633579
 23
-2.253175071276099
 33
0.0
  0
LINE
  5
D8
330
D3
100
AcDbEntity
  8
치수문자_일반주서
100
AcDbLine
 10
65.48254165029307
 20
10.17616576495354
 30
0.0
 11
65.48254165029307
 21
9.465228279389038
 31
0.0
  0
LINE
  5
D9
330
D3
100
AcDbEntity
  8
치수문자_일반주서
100
AcDbLine
 10
65.48254165029307
 20
9.465228279389038
 30
0.0
 11
71.03879164135238
 21
9.465228279389077
 31
0.0
  0
LINE
  5
DA
330
D3
100
AcDbEntity
  8
치수문자_일반주서
100
AcDbLine
 10
71.03879164135238
 20
9.465228279389077
 30
0.0
 11
71.03879164135238
 21
10.17616576495358
 31
0.0
  0
LINE
  5
DB
330
D3
100
AcDbEntity
  8
치수문자_일반주서
100
AcDbLine
 10
65.48254165029299
 20
21.0048986270908
 30
0.0
 11
65.48254165029299
 21
21.7158361126553
 31
0.0
  0
LINE
  5
DC
330
D3
100
AcDbEntity
  8
치수문자_일반주서
100
AcDbLine
 10
65.48254165029299
 20
21.7158361126553
 30
0.0
 11
71.03879164135229
 21
21.71583611265534
 31
0.0
  0
LINE
  5
DD
330
D3
100
AcDbEntity
  8
치수문자_일반주서
100
AcDbLine
 10
71.03879164135229
 20
21.71583611265534
 30
0.0
 11
71.03879164135229
 21
21.00489862709084
 31
0.0
  0
LINE
  5
DE
330
D3
100
AcDbEntity
  8
치수문자_일반주서
100
AcDbLine
 10
52.20606532850784
 20
5.557324928723882
 30
0.0
 11
77.27542336633579
 21
5.55732492872388
 31
0.0
  0
LINE
  5
DF
330
D3
100
AcDbEntity
  8
치수문자_일반주서
100
AcDbLine
 10
52.20606532850784
 20
-5.555175071276096
 30
0.0
 11
77.27542336633579
 21
-5.555175071276098
 31
0.0
  0
LINE
  5
E0
330
D3
100
AcDbEntity
  8
치수문자_일반주서
100
AcDbLine
 10
76.27542336633579
 20
5.55732492872388
 30
0.0
 11
76.27542336633579
 21
24.04850113884327
 31
0.0
  0
LINE
  5
E1
330
D3
100
AcDbEntity
  8
치수문자_일반주서
100
AcDbLine
 10
76.27542336633579
 20
5.55732492872388
 30
0.0
 11
76.27542336633579
 21
-5.555175071276098
 31
0.0
  0
MTEXT
  5
E2
330
D3
100
AcDbEntity
  8
치수문자_일반주서
100
AcDbMText
 10
66.52705472677346
 20
11.06483766556492
 30
0.0
 40
3.5
 41
0.0
 71
     1
 72
     1
  1
0.44
  7
SLDTEXTSTYLE0
 11
-7.044195017643634E-15
 21
1.0
 31
0.0
 73
     1
 44
1.0
  0
MTEXT
  5
E3
330
D3
100
AcDbEntity
  8
치수문자_일반주서
100
AcDbMText
 10
71.76368627713396
 20
7.132563253201183
 30
0.0
 40
3.5
 41
0.0
 71
     1
 72
     1
  1
%%c
  7
SLDTEXTSTYLE0
 11
-7.044195017643634E-15
 21
1.0
 31
0.0
 73
     1
 44
1.0
  0
MTEXT
  5
E4
330
D3
100
AcDbEntity
  8
치수문자_일반주서
100
AcDbMText
 10
71.76368627713391
 20
12.41100065157526
 30
0.0
 40
3.5
 41
0.0
 71
     1
 72
     1
  1
11.11
  7
SLDTEXTSTYLE0
 11
-7.044195017643634E-15
 21
1.0
 31
0.0
 73
     1
 44
1.0
  0
ENDBLK
  5
D5
330
D3
100
AcDbEntity
  8
0
100
AcDbBlockEnd
  0
BLOCK
  5
E8
330
E7
100
AcDbEntity
  8
0
100
AcDbBlockBegin
  2
_D_3
 70
     0
 10
0.0
 20
0.0
 30
0.0
  3
_D_3
  1
_D_3
  0
SOLID
  5
EA
330
E7
100
AcDbEntity
  8
치수문자_일반주서
100
AcDbTrace
 10
-48.73747769446511
 20
4.763574928723895
 30
0.0
 11
-48.22947769446511
 21
8.065574928723894
 31
0.0
 12
-49.24547769446512
 22
8.065574928723894
 32
0.0
 13
-49.24547769446512
 23
8.065574928723894
 33
0.0
  0
SOLID
  5
EB
330
E7
100
AcDbEntity
  8
치수문자_일반주서
100
AcDbTrace
 10
-48.73747769446511
 20
-4.76142507127611
 30
0.0
 11
-49.24547769446512
 21
-8.06342507127611
 31
0.0
 12
-48.22947769446511
 22
-8.06342507127611
 32
0.0
 13
-48.22947769446511
 23
-8.06342507127611
 33
0.0
  0
LINE
  5
EC
330
E7
100
AcDbEntity
  8
치수문자_일반주서
100
AcDbLine
 10
-59.53035941050783
 20
-5.413291502344828
 30
0.0
 11
-59.53035941050782
 21
-6.124228987909328
 31
0.0
  0
LINE
  5
ED
330
E7
100
AcDbEntity
  8
치수문자_일반주서
100
AcDbLine
 10
-59.53035941050782
 20
-6.124228987909328
 30
0.0
 11
-53.97410941944852
 21
-6.124228987909289
 31
0.0
  0
LINE
  5
EE
330
E7
100
AcDbEntity
  8
치수문자_일반주서
100
AcDbLine
 10
-53.97410941944852
 20
-6.124228987909289
 30
0.0
 11
-53.97410941944852
 21
-5.413291502344789
 31
0.0
  0
LINE
  5
EF
330
E7
100
AcDbEntity
  8
치수문자_일반주서
100
AcDbLine
 10
-59.5303594105079
 20
5.41544135979243
 30
0.0
 11
-59.53035941050791
 21
6.12637884535693
 31
0.0
  0
LINE
  5
F0
330
E7
100
AcDbEntity
  8
치수문자_일반주서
100
AcDbLine
 10
-59.53035941050791
 20
6.12637884535693
 30
0.0
 11
-53.9741094194486
 21
6.126378845356969
 31
0.0
  0
LINE
  5
F1
330
E7
100
AcDbEntity
  8
치수문자_일반주서
100
AcDbLine
 10
-53.9741094194486
 20
6.126378845356969
 30
0.0
 11
-53.9741094194486
 21
5.415441359792469
 31
0.0
  0
LINE
  5
F2
330
E7
100
AcDbEntity
  8
치수문자_일반주서
100
AcDbLine
 10
-36.94768467149223
 20
4.763574928723896
 30
0.0
 11
-49.73747769446511
 21
4.763574928723895
 31
0.0
  0
LINE
  5
F3
330
E7
100
AcDbEntity
  8
치수문자_일반주서
100
AcDbLine
 10
-36.94768467149223
 20
-4.761425071276109
 30
0.0
 11
-49.73747769446511
 21
-4.76142507127611
 31
0.0
  0
LINE
  5
F4
330
E7
100
AcDbEntity
  8
치수문자_일반주서
100
AcDbLine
 10
-48.73747769446511
 20
4.763574928723895
 30
0.0
 11
-48.73747769446511
 21
11.11357492872389
 31
0.0
  0
LINE
  5
F5
330
E7
100
AcDbEntity
  8
치수문자_일반주서
100
AcDbLine
 10
-48.73747769446511
 20
4.763574928723895
 30
0.0
 11
-48.73747769446511
 21
-4.76142507127611
 31
0.0
  0
LINE
  5
F6
330
E7
100
AcDbEntity
  8
치수문자_일반주서
100
AcDbLine
 10
-48.73747769446511
 20
-4.76142507127611
 30
0.0
 11
-48.73747769446511
 21
-11.11142507127611
 31
0.0
  0
MTEXT
  5
F7
330
E7
100
AcDbEntity
  8
치수문자_일반주서
100
AcDbMText
 10
-58.48584633402742
 20
-4.52461960173345
 30
0.0
 40
3.5
 41
0.0
 71
     1
 72
     1
  1
0.38
  7
SLDTEXTSTYLE0
 11
-7.044195017643634E-15
 21
1.0
 31
0.0
 73
     1
 44
1.0
  0
MTEXT
  5
F8
330
E7
100
AcDbEntity
  8
치수문자_일반주서
100
AcDbMText
 10
-53.24921478366694
 20
-7.163838766581741
 30
0.0
 40
3.5
 41
0.0
 71
     1
 72
     1
  1
%%c
  7
SLDTEXTSTYLE0
 11
-7.044195017643634E-15
 21
1.0
 31
0.0
 73
     1
 44
1.0
  0
MTEXT
  5
F9
330
E7
100
AcDbEntity
  8
치수문자_일반주서
100
AcDbMText
 10
-53.24921478366696
 20
-1.88540136820766
 30
0.0
 40
3.5
 41
0.0
 71
     1
 72
     1
  1
9.53
  7
SLDTEXTSTYLE0
 11
-7.044195017643634E-15
 21
1.0
 31
0.0
 73
     1
 44
1.0
  0
ENDBLK
  5
E9
330
E7
100
AcDbEntity
  8
0
100
AcDbBlockEnd
  0
BLOCK
  5
102
330
101
100
AcDbEntity
  8
0
100
AcDbBlockBegin
  2
SW_DOWELSYMBOL_0
 70
     0
 10
0.0
 20
0.0
 30
0.0
  3
SW_DOWELSYMBOL_0
  1
SW_DOWELSYMBOL_0
  0
CIRCLE
  5
104
330
101
100
AcDbEntity
  8
해칭선
 62
     0
100
AcDbCircle
 10
0.0
 20
0.0
 30
0.0
 40
3.000000000000001
  0
HATCH
  5
105
330
101
100
AcDbEntity
  8
0
  6
Continuous
 62
     0
370
     0
100
AcDbHatch
 10
0.0
 20
0.0
 30
0.0
210
0.0
220
0.0
230
1.0
  2
SOLID
 70
     1
 71
     0
 91
        1
 92
        0
 93
        3
 72
     2
 10
0.0000000000000069
 20
0.0
 40
3.000000000000001
 50
0.0
 51
90.0
 73
     1
 72
     1
 10
0.0000000000000069
 20
3.000000000000001
 11
0.0000000000000069
 21
0.0
 72
     1
 10
0.0000000000000069
 20
0.0
 11
3.000000000000008
 21
0.0
 97
        0
 75
     0
 76
     1
 98
        1
 10
0.0
 20
0.0
  0
HATCH
  5
106
330
101
100
AcDbEntity
  8
0
  6
Continuous
 62
     0
370
     0
100
AcDbHatch
 10
0.0
 20
0.0
 30
0.0
210
0.0
220
0.0
230
1.0
  2
SOLID
 70
     1
 71
     0
 91
        1
 92
        0
 93
        3
 72
     2
 10
0.0000000000000069
 20
0.0
 40
3.000000000000001
 50
180.0
 51
270.0000000000008
 73
     1
 72
     1
 10
0.0000000000000069
 20
-3.000000000000001
 11
0.0000000000000069
 21
0.0
 72
     1
 10
0.0000000000000069
 20
0.0
 11
-2.999999999999994
 21
0.0
 97
        0
 75
     0
 76
     1
 98
        1
 10
0.0
 20
0.0
  0
ENDBLK
  5
103
330
101
100
AcDbEntity
  8
0
100
AcDbBlockEnd
  0
BLOCK
  5
1D7
330
1D6
100
AcDbEntity
  8
0
100
AcDbBlockBegin
  2
*D8
 70
     1
 10
0.0
 20
0.0
 30
0.0
  3
*D8
  1
*D8
  0
LINE
  5
1D9
330
1D6
100
AcDbEntity
  8
치수문자_일반주서
 62
     0
370
    -2
100
AcDbLine
 10
129.4525000000001
 20
65.90823246008786
 30
0.0
 11
129.4525000000001
 21
73.94408327306078
 31
0.0
  0
LINE
  5
1DA
330
1D6
100
AcDbEntity
  8
치수문자_일반주서
 62
     0
370
    -2
100
AcDbLine
 10
78.65250000000006
 20
65.84985360059999
 30
0.0
 11
78.65250000000006
 21
73.94408327306078
 31
0.0
  0
LINE
  5
1DB
330
1D6
100
AcDbEntity
  8
치수문자_일반주서
 62
     0
370
    -2
100
AcDbLine
 10
126.1505000000001
 20
73.94408327306078
 30
0.0
 11
81.95450000000005
 21
73.94408327306078
 31
0.0
  0
SOLID
  5
1DC
330
1D6
100
AcDbEntity
  8
치수문자_일반주서
 62
     0
100
AcDbTrace
 10
126.1505000000001
 20
73.39374993972746
 30
0.0
 11
126.1505000000001
 21
74.49441660639411
 31
0.0
 12
129.4525000000001
 22
73.94408327306078
 32
0.0
 13
129.4525000000001
 23
73.94408327306078
 33
0.0
  0
SOLID
  5
1DD
330
1D6
100
AcDbEntity
  8
치수문자_일반주서
 62
     0
100
AcDbTrace
 10
81.95450000000005
 20
74.49441660639411
 30
0.0
 11
81.95450000000005
 21
73.39374993972746
 31
0.0
 12
78.65250000000006
 22
73.94408327306078
 32
0.0
 13
78.65250000000006
 23
73.94408327306078
 33
0.0
  0
MTEXT
  5
1DE
330
1D6
100
AcDbEntity
  8
치수문자_일반주서
 62
     0
100
AcDbMText
 10
103.8408457894721
 20
78.31908327306078
 30
0.0
 40
3.5
 41
0.0
 71
     2
 72
     1
  1
\A1;50.8 [2]
  7
SLDTEXTSTYLE0
 73
     1
 44
1.0
  0
POINT
  5
1DF
330
1D6
100
AcDbEntity
  8
Defpoints
 62
     0
100
AcDbPoint
 10
129.4525000000001
 20
65.84573246008786
 30
0.0
  0
POINT
  5
1E0
330
1D6
100
AcDbEntity
  8
Defpoints
 62
     0
100
AcDbPoint
 10
78.65250000000006
 20
65.78735360059999
 30
0.0
  0
POINT
  5
1E1
330
1D6
100
AcDbEntity
  8
Defpoints
 62
     0
100
AcDbPoint
 10
78.65250000000006
 20
73.94408327306078
 30
0.0
  0
ENDBLK
  5
1D8
330
1D6
100
AcDbEntity
  8
0
100
AcDbBlockEnd
  0
BLOCK
  5
1E3
330
1E2
100
AcDbEntity
  8
0
100
AcDbBlockBegin
  2
*D9
 70
     1
 10
0.0
 20
0.0
 30
0.0
  3
*D9
  1
*D9
  0
LINE
  5
1E5
330
1E2
100
AcDbEntity
  8
치수문자_일반주서
 62
     0
370
    -2
100
AcDbLine
 10
129.4525000000001
 20
65.90823246008786
 30
0.0
 11
129.4525000000001
 21
89.30796821986027
 31
0.0
  0
LINE
  5
1E6
330
1E2
100
AcDbEntity
  8
치수문자_일반주서
 62
     0
370
    -2
100
AcDbLine
 10
15.15250000000005
 20
62.73323246008786
 30
0.0
 11
15.15250000000005
 21
89.30796821986027
 31
0.0
  0
LINE
  5
1E7
330
1E2
100
AcDbEntity
  8
치수문자_일반주서
 62
     0
370
    -2
100
AcDbLine
 10
126.1505000000001
 20
89.30796821986027
 30
0.0
 11
18.45450000000005
 21
89.30796821986027
 31
0.0
  0
SOLID
  5
1E8
330
1E2
100
AcDbEntity
  8
치수문자_일반주서
 62
     0
100
AcDbTrace
 10
126.1505000000001
 20
88.75763488652694
 30
0.0
 11
126.1505000000001
 21
89.8583015531936
 31
0.0
 12
129.4525000000001
 22
89.30796821986027
 32
0.0
 13
129.4525000000001
 23
89.30796821986027
 33
0.0
  0
SOLID
  5
1E9
330
1E2
100
AcDbEntity
  8
치수문자_일반주서
 62
     0
100
AcDbTrace
 10
18.45450000000005
 20
89.8583015531936
 30
0.0
 11
18.45450000000005
 21
88.75763488652694
 31
0.0
 12
15.15250000000005
 22
89.30796821986027
 32
0.0
 13
15.15250000000005
 23
89.30796821986027
 33
0.0
  0
MTEXT
  5
1EA
330
1E2
100
AcDbEntity
  8
치수문자_일반주서
 62
     0
100
AcDbMText
 10
74.39339964143969
 20
93.68296821986027
 30
0.0
 40
3.5
 41
0.0
 71
     2
 72
     1
  1
\A1;114.3 [4 1/2]
  7
SLDTEXTSTYLE0
 73
     1
 44
1.0
  0
POINT
  5
1EB
330
1E2
100
AcDbEntity
  8
Defpoints
 62
     0
100
AcDbPoint
 10
129.4525000000001
 20
65.84573246008786
 30
0.0
  0
POINT
  5
1EC
330
1E2
100
AcDbEntity
  8
Defpoints
 62
     0
100
AcDbPoint
 10
15.15250000000005
 20
62.67073246008786
 30
0.0
  0
POINT
  5
1ED
330
1E2
100
AcDbEntity
  8
Defpoints
 62
     0
100
AcDbPoint
 10
15.15250000000005
 20
89.30796821986027
 30
0.0
  0
ENDBLK
  5
1E4
330
1E2
100
AcDbEntity
  8
0
100
AcDbBlockEnd
  0
BLOCK
  5
1EF
330
1EE
100
AcDbEntity
  8
0
100
AcDbBlockBegin
  2
*D10
 70
     1
 10
0.0
 20
0.0
 30
0.0
  3
*D10
  1
*D10
  0
LINE
  5
1F1
330
1EE
100
AcDbEntity
  8
치수문자_일반주서
 62
     0
370
    -2
100
AcDbLine
 10
15.09000000000005
 20
65.84573246008785
 30
0.0
 11
4.374999999999995
 21
65.8457324600878
 31
0.0
  0
LINE
  5
1F2
330
1EE
100
AcDbEntity
  8
치수문자_일반주서
 62
     0
370
    -2
100
AcDbLine
 10
18.26500000000006
 20
34.09573246008785
 30
0.0
 11
4.375000000000106
 21
34.09573246008779
 31
0.0
  0
LINE
  5
1F3
330
1EE
100
AcDbEntity
  8
치수문자_일반주서
 62
     0
370
    -2
100
AcDbLine
 10
4.375000000000006
 20
62.5437324600878
 30
0.0
 11
4.375000000000094
 21
37.39773246008779
 31
0.0
  0
SOLID
  5
1F4
330
1EE
100
AcDbEntity
  8
치수문자_일반주서
 62
     0
100
AcDbTrace
 10
4.92533333333334
 20
62.5437324600878
 30
0.0
 11
3.824666666666673
 21
62.5437324600878
 31
0.0
 12
4.374999999999995
 22
65.8457324600878
 32
0.0
 13
4.374999999999995
 23
65.8457324600878
 33
0.0
  0
SOLID
  5
1F5
330
1EE
100
AcDbEntity
  8
치수문자_일반주서
 62
     0
100
AcDbTrace
 10
3.824666666666761
 20
37.39773246008779
 30
0.0
 11
4.925333333333428
 21
37.39773246008779
 31
0.0
 12
4.375000000000106
 22
34.09573246008779
 32
0.0
 13
4.375000000000106
 23
34.09573246008779
 33
0.0
  0
MTEXT
  5
1F6
330
1EE
100
AcDbEntity
  8
치수문자_일반주서
 62
     0
100
AcDbMText
 10
0.0000000000000497
 20
49.97073246008783
 30
0.0
 40
3.5
 41
0.0
 71
     2
 72
     1
  1
\A1;%%c31.75 [1 1/4]
  7
SLDTEXTSTYLE0
 11
-3.496765431890256E-15
 21
1.0
 31
0.0
 73
     1
 44
1.0
  0
POINT
  5
1F7
330
1EE
100
AcDbEntity
  8
Defpoints
 62
     0
100
AcDbPoint
 10
15.15250000000005
 20
65.84573246008785
 30
0.0
  0
POINT
  5
1F8
330
1EE
100
AcDbEntity
  8
Defpoints
 62
     0
100
AcDbPoint
 10
18.32750000000006
 20
34.09573246008785
 30
0.0
  0
POINT
  5
1F9
330
1EE
100
AcDbEntity
  8
Defpoints
 62
     0
100
AcDbPoint
 10
4.375000000000107
 20
34.0957324600878
 30
0.0
  0
ENDBLK
  5
1F0
330
1EE
100
AcDbEntity
  8
0
100
AcDbBlockEnd
  0
BLOCK
  5
1FB
330
1FA
100
AcDbEntity
  8
0
100
AcDbBlockBegin
  2
*D11
 70
     1
 10
0.0
 20
0.0
 30
0.0
  3
*D11
  1
*D11
  0
LINE
  5
1FD
330
1FA
100
AcDbEntity
  8
치수문자_일반주서
 62
     0
370
    -2
100
AcDbLine
 10
129.5150000000001
 20
65.84573246008786
 30
0.0
 11
145.1349650860014
 21
65.84573246008792
 31
0.0
  0
LINE
  5
1FE
330
1FA
100
AcDbEntity
  8
치수문자_일반주서
 62
     0
370
    -2
100
AcDbLine
 10
129.5150000000001
 20
34.09573246008786
 30
0.0
 11
145.1349650860015
 21
34.09573246008792
 31
0.0
  0
LINE
  5
1FF
330
1FA
100
AcDbEntity
  8
치수문자_일반주서
 62
     0
370
    -2
100
AcDbLine
 10
145.1349650860014
 20
65.84573246008792
 30
0.0
 11
145.1349650860013
 21
100.6477324600879
 31
0.0
  0
LINE
  5
200
330
1FA
100
AcDbEntity
  8
치수문자_일반주서
 62
     0
370
    -2
100
AcDbLine
 10
145.1349650860014
 20
62.54373246008792
 30
0.0
 11
145.1349650860015
 21
37.39773246008792
 31
0.0
  0
SOLID
  5
201
330
1FA
100
AcDbEntity
  8
치수문자_일반주서
 62
     0
100
AcDbTrace
 10
145.6852984193347
 20
62.54373246008792
 30
0.0
 11
144.5846317526681
 21
62.54373246008792
 31
0.0
 12
145.1349650860014
 22
65.84573246008792
 32
0.0
 13
145.1349650860014
 23
65.84573246008792
 33
0.0
  0
SOLID
  5
202
330
1FA
100
AcDbEntity
  8
치수문자_일반주서
 62
     0
100
AcDbTrace
 10
144.5846317526682
 20
37.39773246008792
 30
0.0
 11
145.6852984193348
 21
37.39773246008792
 31
0.0
 12
145.1349650860015
 22
34.09573246008792
 32
0.0
 13
145.1349650860015
 23
34.09573246008792
 33
0.0
  0
MTEXT
  5
203
330
1FA
100
AcDbEntity
  8
치수문자_일반주서
 62
     0
100
AcDbMText
 10
140.7599650860013
 20
84.89773246008791
 30
0.0
 40
3.5
 41
0.0
 71
     2
 72
     1
  1
\A1;%%c31.75 [1 1/4]
  7
SLDTEXTSTYLE0
 11
-3.580687802255623E-15
 21
1.0
 31
0.0
 73
     1
 44
1.0
  0
POINT
  5
204
330
1FA
100
AcDbEntity
  8
Defpoints
 62
     0
100
AcDbPoint
 10
129.4525000000001
 20
65.84573246008786
 30
0.0
  0
POINT
  5
205
330
1FA
100
AcDbEntity
  8
Defpoints
 62
     0
100
AcDbPoint
 10
129.4525000000001
 20
34.09573246008786
 30
0.0
  0
POINT
  5
206
330
1FA
100
AcDbEntity
  8
Defpoints
 62
     0
100
AcDbPoint
 10
145.1349650860015
 20
34.09573246008792
 30
0.0
  0
ENDBLK
  5
1FC
330
1FA
100
AcDbEntity
  8
0
100
AcDbBlockEnd
  0
BLOCK
  5
237
330
236
100
AcDbEntity
  8
0
100
AcDbBlockBegin
  2
*D12
 70
     1
 10
0.0
 20
0.0
 30
0.0
  3
*D12
  1
*D12
  0
LINE
  5
239
330
236
100
AcDbEntity
  8
치수문자_일반주서
 62
     0
370
    -2
100
AcDbLine
 10
52.80000000000004
 20
19.11250000000001
 30
0.0
 11
52.80000000000004
 21
23.97335081297293
 31
0.0
  0
LINE
  5
23A
330
236
100
AcDbEntity
  8
치수문자_일반주서
 62
     0
370
    -2
100
AcDbLine
 10
2.0
 20
19.11249999999999
 30
0.0
 11
2.0
 21
23.97335081297293
 31
0.0
  0
LINE
  5
23B
330
236
100
AcDbEntity
  8
치수문자_일반주서
 62
     0
370
    -2
100
AcDbLine
 10
49.49800000000004
 20
23.97335081297293
 30
0.0
 11
5.302
 21
23.97335081297293
 31
0.0
  0
SOLID
  5
23C
330
236
100
AcDbEntity
  8
치수문자_일반주서
 62
     0
100
AcDbTrace
 10
49.49800000000004
 20
23.4230174796396
 30
0.0
 11
49.49800000000004
 21
24.52368414630627
 31
0.0
 12
52.80000000000004
 22
23.97335081297293
 32
0.0
 13
52.80000000000004
 23
23.97335081297293
 33
0.0
  0
SOLID
  5
23D
330
236
100
AcDbEntity
  8
치수문자_일반주서
 62
     0
100
AcDbTrace
 10
5.302
 20
24.52368414630627
 30
0.0
 11
5.302
 21
23.4230174796396
 31
0.0
 12
2.0
 22
23.97335081297293
 32
0.0
 13
2.0
 23
23.97335081297293
 33
0.0
  0
MTEXT
  5
23E
330
236
100
AcDbEntity
  8
치수문자_일반주서
 62
     0
100
AcDbMText
 10
26.77302560848545
 20
28.34835081297293
 30
0.0
 40
3.5
 41
0.0
 71
     2
 72
     1
  1
\A1;50.8 [2]
  7
SLDTEXTSTYLE0
 73
     1
 44
1.0
  0
POINT
  5
23F
330
236
100
AcDbEntity
  8
Defpoints
 62
     0
100
AcDbPoint
 10
52.80000000000004
 20
19.05000000000001
 30
0.0
  0
POINT
  5
240
330
236
100
AcDbEntity
  8
Defpoints
 62
     0
100
AcDbPoint
 10
2.0
 20
19.04999999999999
 30
0.0
  0
POINT
  5
241
330
236
100
AcDbEntity
  8
Defpoints
 62
     0
100
AcDbPoint
 10
2.0
 20
23.97335081297293
 30
0.0
  0
ENDBLK
  5
238
330
236
100
AcDbEntity
  8
0
100
AcDbBlockEnd
  0
BLOCK
  5
243
330
242
100
AcDbEntity
  8
0
100
AcDbBlockBegin
  2
*D13
 70
     1
 10
0.0
 20
0.0
 30
0.0
  3
*D13
  1
*D13
  0
LINE
  5
245
330
242
100
AcDbEntity
  8
치수문자_일반주서
 62
     0
370
    -2
100
AcDbLine
 10
52.80000000000004
 20
19.11250000000001
 30
0.0
 11
52.80000000000004
 21
39.33723575977242
 31
0.0
  0
LINE
  5
246
330
242
100
AcDbEntity
  8
치수문자_일반주서
 62
     0
370
    -2
100
AcDbLine
 10
-61.5
 20
12.76250000000001
 30
0.0
 11
-61.5
 21
39.33723575977242
 31
0.0
  0
LINE
  5
247
330
242
100
AcDbEntity
  8
치수문자_일반주서
 62
     0
370
    -2
100
AcDbLine
 10
49.49800000000004
 20
39.33723575977242
 30
0.0
 11
-58.198
 21
39.33723575977242
 31
0.0
  0
SOLID
  5
248
330
242
100
AcDbEntity
  8
치수문자_일반주서
 62
     0
100
AcDbTrace
 10
49.49800000000004
 20
38.78690242643908
 30
0.0
 11
49.49800000000004
 21
39.88756909310575
 31
0.0
 12
52.80000000000004
 22
39.33723575977242
 32
0.0
 13
52.80000000000004
 23
39.33723575977242
 33
0.0
  0
SOLID
  5
249
330
242
100
AcDbEntity
  8
치수문자_일반주서
 62
     0
100
AcDbTrace
 10
-58.198
 20
39.88756909310575
 30
0.0
 11
-58.198
 21
38.78690242643908
 31
0.0
 12
-61.5
 22
39.33723575977242
 32
0.0
 13
-61.5
 23
39.33723575977242
 33
0.0
  0
MTEXT
  5
24A
330
242
100
AcDbEntity
  8
치수문자_일반주서
 62
     0
100
AcDbMText
 10
-2.259100358560374
 20
43.71223575977242
 30
0.0
 40
3.5
 41
0.0
 71
     2
 72
     1
  1
\A1;114.3 [4 1/2]
  7
SLDTEXTSTYLE0
 73
     1
 44
1.0
  0
POINT
  5
24B
330
242
100
AcDbEntity
  8
Defpoints
 62
     0
100
AcDbPoint
 10
52.80000000000004
 20
19.05000000000001
 30
0.0
  0
POINT
  5
24C
330
242
100
AcDbEntity
  8
Defpoints
 62
     0
100
AcDbPoint
 10
-61.5
 20
12.70000000000001
 30
0.0
  0
POINT
  5
24D
330
242
100
AcDbEntity
  8
Defpoints
 62
     0
100
AcDbPoint
 10
-61.5
 20
39.33723575977242
 30
0.0
  0
ENDBLK
  5
244
330
242
100
AcDbEntity
  8
0
100
AcDbBlockEnd
  0
BLOCK
  5
24F
330
24E
100
AcDbEntity
  8
0
100
AcDbBlockBegin
  2
*D14
 70
     1
 10
0.0
 20
0.0
 30
0.0
  3
*D14
  1
*D14
  0
LINE
  5
251
330
24E
100
AcDbEntity
  8
치수문자_일반주서
 62
     0
370
    -2
100
AcDbLine
 10
-61.5625
 20
15.87499999999999
 30
0.0
 11
-72.27750000000006
 21
15.87499999999995
 31
0.0
  0
LINE
  5
252
330
24E
100
AcDbEntity
  8
치수문자_일반주서
 62
     0
370
    -2
100
AcDbLine
 10
-58.3875
 20
-15.87500000000001
 30
0.0
 11
-72.27749999999995
 21
-15.87500000000006
 31
0.0
  0
LINE
  5
253
330
24E
100
AcDbEntity
  8
치수문자_일반주서
 62
     0
370
    -2
100
AcDbLine
 10
-72.27750000000005
 20
12.57299999999995
 30
0.0
 11
-72.27749999999996
 21
-12.57300000000006
 31
0.0
  0
SOLID
  5
254
330
24E
100
AcDbEntity
  8
치수문자_일반주서
 62
     0
100
AcDbTrace
 10
-71.72716666666672
 20
12.57299999999995
 30
0.0
 11
-72.82783333333337
 21
12.57299999999995
 31
0.0
 12
-72.27750000000006
 22
15.87499999999995
 32
0.0
 13
-72.27750000000006
 23
15.87499999999995
 33
0.0
  0
SOLID
  5
255
330
24E
100
AcDbEntity
  8
치수문자_일반주서
 62
     0
100
AcDbTrace
 10
-72.82783333333329
 20
-12.57300000000006
 30
0.0
 11
-71.72716666666663
 21
-12.57300000000006
 31
0.0
 12
-72.27749999999995
 22
-15.87500000000006
 32
0.0
 13
-72.27749999999995
 23
-15.87500000000006
 33
0.0
  0
MTEXT
  5
256
330
24E
100
AcDbEntity
  8
치수문자_일반주서
 62
     0
100
AcDbMText
 10
-76.6525
 20
-0.0000000000000226
 30
0.0
 40
3.5
 41
0.0
 71
     2
 72
     1
  1
\A1;%%c31.75 [1 1/4]
  7
SLDTEXTSTYLE0
 11
-3.580687802255622E-15
 21
1.0
 31
0.0
 73
     1
 44
1.0
  0
POINT
  5
257
330
24E
100
AcDbEntity
  8
Defpoints
 62
     0
100
AcDbPoint
 10
-61.5
 20
15.87499999999999
 30
0.0
  0
POINT
  5
258
330
24E
100
AcDbEntity
  8
Defpoints
 62
     0
100
AcDbPoint
 10
-58.325
 20
-15.87500000000001
 30
0.0
  0
POINT
  5
259
330
24E
100
AcDbEntity
  8
Defpoints
 62
     0
100
AcDbPoint
 10
-72.27749999999995
 20
-15.87500000000006
 30
0.0
  0
ENDBLK
  5
250
330
24E
100
AcDbEntity
  8
0
100
AcDbBlockEnd
  0
BLOCK
  5
25B
330
25A
100
AcDbEntity
  8
0
100
AcDbBlockBegin
  2
*D15
 70
     1
 10
0.0
 20
0.0
 30
0.0
  3
*D15
  1
*D15
  0
LINE
  5
25D
330
25A
100
AcDbEntity
  8
치수문자_일반주서
 62
     0
370
    -2
100
AcDbLine
 10
52.86250000000007
 20
19.05000000000001
 30
0.0
 11
71.61895810320159
 21
19.05000000000008
 31
0.0
  0
LINE
  5
25E
330
25A
100
AcDbEntity
  8
치수문자_일반주서
 62
     0
370
    -2
100
AcDbLine
 10
52.86250000000007
 20
-19.04999999999999
 30
0.0
 11
71.61895810320172
 21
-19.04999999999993
 31
0.0
  0
LINE
  5
25F
330
25A
100
AcDbEntity
  8
치수문자_일반주서
 62
     0
370
    -2
100
AcDbLine
 10
71.61895810320159
 20
19.05000000000008
 30
0.0
 11
71.61895810320148
 21
56.34990000000009
 31
0.0
  0
LINE
  5
260
330
25A
100
AcDbEntity
  8
치수문자_일반주서
 62
     0
370
    -2
100
AcDbLine
 10
71.6189581032016
 20
15.74800000000008
 30
0.0
 11
71.6189581032017
 21
-15.74799999999993
 31
0.0
  0
SOLID
  5
261
330
25A
100
AcDbEntity
  8
치수문자_일반주서
 62
     0
100
AcDbTrace
 10
72.16929143653493
 20
15.74800000000008
 30
0.0
 11
71.06862476986828
 21
15.74800000000007
 31
0.0
 12
71.61895810320159
 22
19.05000000000008
 32
0.0
 13
71.61895810320159
 23
19.05000000000008
 33
0.0
  0
SOLID
  5
262
330
25A
100
AcDbEntity
  8
치수문자_일반주서
 62
     0
100
AcDbTrace
 10
71.06862476986838
 20
-15.74799999999993
 30
0.0
 11
72.16929143653503
 21
-15.74799999999992
 31
0.0
 12
71.61895810320172
 22
-19.04999999999993
 32
0.0
 13
71.61895810320172
 23
-19.04999999999993
 33
0.0
  0
MTEXT
  5
263
330
25A
100
AcDbEntity
  8
치수문자_일반주서
 62
     0
100
AcDbMText
 10
67.24395810320152
 20
41.91240000000008
 30
0.0
 40
3.5
 41
0.0
 71
     2
 72
     1
  1
\A1;%%c38.1 [1 1/2]
  7
SLDTEXTSTYLE0
 11
-3.356894814614647E-15
 21
1.0
 31
0.0
 73
     1
 44
1.0
  0
POINT
  5
264
330
25A
100
AcDbEntity
  8
Defpoints
 62
     0
100
AcDbPoint
 10
52.80000000000007
 20
19.05000000000001
 30
0.0
  0
POINT
  5
265
330
25A
100
AcDbEntity
  8
Defpoints
 62
     0
100
AcDbPoint
 10
52.80000000000007
 20
-19.04999999999999
 30
0.0
  0
POINT
  5
266
330
25A
100
AcDbEntity
  8
Defpoints
 62
     0
100
AcDbPoint
 10
71.61895810320175
 20
-19.04999999999992
 30
0.0
  0
ENDBLK
  5
25C
330
25A
100
AcDbEntity
  8
0
100
AcDbBlockEnd
  0
ENDSEC
  0
SECTION
  2
ENTITIES
  0
LINE
  5
9C
330
1F
100
AcDbEntity
  8
참조1
100
AcDbLine
 10
56.76231532850781
 20
0.0010749287238892
 30
0.0
 11
56.76231532850781
 21
4.77827382445253
 31
0.0
  0
LINE
  5
9E
330
1F
100
AcDbEntity
  8
참조1
100
AcDbLine
 10
9.931065328507794
 20
0.0010749287238892
 30
0.0
 11
9.931065328507799
 21
-39.99892507127611
 31
0.0
  0
LINE
  5
9F
330
1F
100
AcDbEntity
  8
참조1
100
AcDbLine
 10
9.931065328507799
 20
-39.99892507127611
 30
0.0
 11
-17.9277914858009
 21
-39.9989250712761
 31
0.0
  0
INSERT
  5
A1
330
1F
100
AcDbEntity
  8
0
  6
Continuous
 62
     7
100
AcDbBlockReference
 66
     1
  2
블럭10
 10
-21.05957683617372
 20
-52.04609937292004
 30
0.0
  0
ATTRIB
  5
A2
330
A1
100
AcDbEntity
  8
FORMAT
 62
     2
100
AcDbText
 10
-30.240872124915
 20
-49.97073246008785
 30
0.0
 40
4.233333333333333
  1
E2020132 [ 4 FLUTE ]
 41
0.75
  7
SLDTEXTSTYLE0
 11
-30.240872124915
 21
-52.08739912675452
 31
0.0
100
AcDbAttribute
  2
AUTOATTR0
 70
     0
 74
     1
  0
SEQEND
  5
A3
330
A1
100
AcDbEntity
  8
0
  6
Continuous
 62
     7
  0
HATCH
  5
A4
330
1F
100
AcDbEntity
  8
중심선
100
AcDbHatch
 10
0.0
 20
0.0
 30
0.0
210
0.0
220
0.0
230
1.0
  2
SOLID
 70
     1
 71
     0
 91
        1
 92
        0
 93
        4
 72
     1
 10
-15.34466753179288
 20
-35.7989250712761
 11
-18.79094277563016
 21
-35.7989250712761
 72
     1
 10
-18.79094277563016
 20
-35.7989250712761
 11
-20.91917263483419
 21
-38.3352506518487
 72
     1
 10
-20.91917263483419
 20
-38.3352506518487
 11
-17.47286430588376
 21
-38.33521122254621
 72
     1
 10
-17.47286430588376
 20
-38.33521122254621
 11
-15.34466753179288
 21
-35.7989250712761
 97
        0
 75
     0
 76
     1
 98
        1
 10
-17.05036923255631
 20
0.0
  0
HATCH
  5
A5
330
1F
100
AcDbEntity
  8
중심선
100
AcDbHatch
 10
0.0
 20
0.0
 30
0.0
210
0.0
220
0.0
230
1.0
  2
SOLID
 70
     1
 71
     0
 91
        1
 92
        0
 93
        4
 72
     1
 10
-10.33190354075693
 20
-35.79892507127613
 11
-13.77817878459421
 21
-35.7989250712761
 72
     1
 10
-13.77817878459421
 20
-35.7989250712761
 11
-18.3093167929516
 21
-41.19892507127612
 72
     1
 10
-18.3093167929516
 20
-41.19892507127612
 11
-14.86304154911432
 21
-41.19892507127612
 72
     1
 10
-14.86304154911432
 20
-41.19892507127612
 11
-10.33190354075693
 21
-35.79892507127613
 97
        0
 75
     0
 76
     1
 98
        1
 10
-17.05036923255631
 20
0.0
  0
HATCH
  5
A6
330
1F
100
AcDbEntity
  8
중심선
100
AcDbHatch
 10
0.0
 20
0.0
 30
0.0
210
0.0
220
0.0
230
1.0
  2
SOLID
 70
     1
 71
     0
 91
        1
 92
        0
 93
        4
 72
     1
 10
-5.319139549720981
 20
-35.79892507127608
 11
-8.765414793558097
 21
-35.79892507127608
 72
     1
 10
-8.765414793558097
 20
-35.79892507127608
 11
-15.8138516954474
 21
-44.19892507127612
 72
     1
 10
-15.8138516954474
 20
-44.19892507127612
 11
-12.36757645161012
 21
-44.19892507127612
 72
     1
 10
-12.36757645161012
 20
-44.19892507127612
 11
-5.319139549720982
 21
-35.79892507127608
 97
        0
 75
     0
 76
     1
 98
        1
 10
-17.05036923255631
 20
0.0
  0
HATCH
  5
A7
330
1F
100
AcDbEntity
  8
중심선
100
AcDbHatch
 10
0.0
 20
0.0
 30
0.0
210
0.0
220
0.0
230
1.0
  2
SOLID
 70
     1
 71
     0
 91
        1
 92
        0
 93
        6
 72
     3
 10
-0.5192491187088386
 20
-39.99892507132738
 11
3.960054785062283
 21
1.540882976769353E-10
 40
0.3939339440162628
 50
17.09539180608437
 51
320.0019657685075
 73
     0
 72
     1
 10
1.16375053699176
 20
-38.58681907591438
 11
3.469052410692797
 21
-36.65249236586649
 72
     3
 10
-0.5192491187616852
 20
-39.99892507127625
 11
6.600054785286829
 21
-1.278976924368180E-13
 40
0.636358354079598
 50
39.99873849337408
 51
368.4976242363725
 73
     1
 72
     1
 10
5.906083373138927
 20
-39.03892507120613
 11
-1.839181811925762
 21
-39.03892507120613
 72
     1
 10
-1.839181811925762
 20
-39.03892507120613
 11
-1.839206856371694
 21
-40.95892507120602
 72
     1
 10
-1.839206856371694
 20
-40.95892507120602
 11
2.602172913100343
 21
-40.95892507120599
 97
        0
 75
     0
 76
     1
 98
        1
 10
-17.05036923255631
 20
0.0
  0
LINE
  5
FA
330
1F
100
AcDbEntity
  8
참조1
100
AcDbLine
 10
80.04454914385336
 20
7.441074928723896
 30
0.0
 11
80.04454914385336
 21
-7.438925071276109
 31
0.0
  0
LINE
  5
FB
330
1F
100
AcDbEntity
  8
참조1
100
AcDbLine
 10
92.74454914385336
 20
5.441074928723896
 30
0.0
 11
80.04454914385336
 21
5.441074928723896
 31
0.0
  0
SOLID
  5
FC
330
1F
100
AcDbEntity
  8
참조1
100
AcDbTrace
 10
80.04454914385336
 20
5.441074928723896
 30
0.0
 11
86.39454914385335
 21
4.425074928723896
 31
0.0
 12
86.39454914385335
 22
6.457074928723896
 32
0.0
 13
86.39454914385335
 23
6.457074928723896
 33
0.0
  0
LINE
  5
FD
330
1F
100
AcDbEntity
  8
참조1
100
AcDbLine
 10
92.74454914385336
 20
-5.438925071276109
 30
0.0
 11
80.04454914385336
 21
-5.438925071276109
 31
0.0
  0
SOLID
  5
FE
330
1F
100
AcDbEntity
  8
참조1
100
AcDbTrace
 10
80.04454914385336
 20
-5.438925071276109
 30
0.0
 11
86.39454914385335
 21
-6.454925071276109
 31
0.0
 12
86.39454914385335
 22
-4.422925071276109
 32
0.0
 13
86.39454914385335
 23
-4.422925071276109
 33
0.0
  0
MTEXT
  5
FF
330
1F
100
AcDbEntity
  8
참조1
100
AcDbMText
 10
89.64466395441593
 20
11.06679249473997
 30
0.0
 40
3.5
 41
0.0
 71
     1
 72
     1
  1
A
  7
SLDTEXTSTYLE0
 73
     1
 44
1.0
  0
MTEXT
  5
100
330
1F
100
AcDbEntity
  8
참조1
100
AcDbMText
 10
89.64466395441593
 20
0.1867924947399659
 30
0.0
 40
3.5
 41
0.0
 71
     1
 72
     1
  1
A
  7
SLDTEXTSTYLE0
 73
     1
 44
1.0
  0
ARC
  5
208
330
1F
100
AcDbEntity
  8
0
  6
Continuous
 62
     1
370
    15
100
AcDbCircle
 10
33.75000000000006
 20
0.0
 30
0.0
 40
19.04999999999998
100
AcDbArc
 50
315.2119058963303
 51
0.0
  0
ARC
  5
209
330
1F
100
AcDbEntity
  8
0
  6
Continuous
 62
     1
370
    15
100
AcDbCircle
 10
33.75000000000006
 20
0.0
 30
0.0
 40
19.04999999999998
100
AcDbArc
 50
0.0
 51
44.80665831573837
  0
LINE
  5
20A
330
1F
100
AcDbEntity
  8
0
  6
Continuous
 62
     1
370
    15
100
AcDbLine
 10
6.285958980905235
 20
19.04999999999999
 30
0.0
 11
2.0
 21
19.04999999999999
 31
0.0
  0
LINE
  5
20B
330
1F
100
AcDbEntity
  8
0
  6
Continuous
 62
     1
370
    15
100
AcDbLine
 10
2.0
 20
-19.05
 30
0.0
 11
6.285958980905491
 21
-19.05
 31
0.0
  0
LINE
  5
20C
330
1F
100
AcDbEntity
  8
외형선
  6
Continuous
370
    15
100
AcDbLine
 10
-61.5
 20
-12.70000000000001
 30
0.0
 11
-58.32499999999999
 21
-15.87500000000001
 31
0.0
  0
LINE
  5
20D
330
1F
100
AcDbEntity
  8
외형선
  6
Continuous
370
    15
100
AcDbLine
 10
-58.32499999999999
 20
-15.87500000000001
 30
0.0
 11
2.0
 21
-15.87500000000001
 31
0.0
  0
SPLINE
  5
20E
330
1F
100
AcDbEntity
  8
0
  6
Continuous
 62
     1
370
    15
100
AcDbSpline
210
0.0
220
0.0
230
1.0
 70
     8
 71
     3
 72
    28
 73
    24
 74
     0
 42
0.000000001
 43
0.00000001
 40
0.2424090902125626
 40
0.2424090902125626
 40
0.2424090902125626
 40
0.2424090902125626
 40
0.2499999999999991
 40
0.2499999999999991
 40
0.3749999999999987
 40
0.3749999999999987
 40
0.4999999999999982
 40
0.4999999999999982
 40
0.5624999999999983
 40
0.5624999999999983
 40
0.6249999999999986
 40
0.6249999999999986
 40
0.6874999999999988
 40
0.6874999999999988
 40
0.749999999999999
 40
0.749999999999999
 40
0.8124999999999993
 40
0.8124999999999993
 40
0.8749999999999996
 40
0.8749999999999996
 40
0.9374999999999998
 40
0.9374999999999998
 40
1.0
 40
1.0
 40
1.0
 40
1.0
 10
1.999999999999943
 20
18.58196205550718
 30
0.0
 10
2.105861000550249
 20
18.56848427860602
 30
0.0
 10
2.211675786701051
 20
18.55471977253008
 30
0.0
 10
4.059029141347963
 20
18.30929671666652
 30
0.0
 10
5.814252346779426
 20
17.99913619118047
 30
0.0
 10
9.298093555947446
 20
17.2321506675144
 30
0.0
 10
11.05267594935674
 20
16.77345760903802
 30
0.0
 10
13.6660397026028
 20
15.98448198430872
 30
0.0
 10
14.54089049446867
 20
15.70404836115117
 30
0.0
 10
16.28980329402054
 20
15.1108173239274
 30
0.0
 10
17.16239567252597
 20
14.79820704542301
 30
0.0
 10
18.90495261831518
 20
14.14294822031377
 30
0.0
 10
19.77987312939175
 20
13.79966064011491
 30
0.0
 10
21.52874817709932
 20
13.08490319230318
 30
0.0
 10
22.40100782869877
 20
12.71368589613248
 30
0.0
 10
24.14387175965393
 20
11.9456223542091
 30
0.0
 10
25.0188582084528
 20
11.54811450533953
 30
0.0
 10
26.76768795514226
 20
10.72981456126826
 30
0.0
 10
27.63963343212708
 20
10.30933923156357
 30
0.0
 10
29.3827968853908
 20
9.447781697385981
 30
0.0
 10
30.25784548947109
 20
9.006052022131918
 30
0.0
 10
32.00662238662068
 20
8.104798414356296
 30
0.0
 10
32.87827224578882
 20
7.645649742005688
 30
0.0
 10
33.75
 20
7.178956715962485
 30
0.0
  0
SPLINE
  5
20F
330
1F
100
AcDbEntity
  8
0
  6
Continuous
 62
     1
370
    15
100
AcDbSpline
210
0.0
220
0.0
230
1.0
 70
     8
 71
     3
 72
    66
 73
    62
 74
     0
 42
0.000000001
 43
0.00000001
 40
0.0
 40
0.0
 40
0.0
 40
0.0
 40
0.0625000000000024
 40
0.0625000000000024
 40
0.0937500000000031
 40
0.0937500000000031
 40
0.1250000000000038
 40
0.1250000000000038
 40
0.1875000000000053
 40
0.1875000000000053
 40
0.2187500000000056
 40
0.2187500000000056
 40
0.2500000000000059
 40
0.2500000000000059
 40
0.3125000000000058
 40
0.3125000000000058
 40
0.3750000000000058
 40
0.3750000000000058
 40
0.4062500000000058
 40
0.4062500000000058
 40
0.4375000000000058
 40
0.4375000000000058
 40
0.4687500000000059
 40
0.4687500000000059
 40
0.4843750000000058
 40
0.4843750000000058
 40
0.5000000000000058
 40
0.5000000000000058
 40
0.5312500000000058
 40
0.5312500000000058
 40
0.5468750000000058
 40
0.5468750000000058
 40
0.5625000000000058
 40
0.5625000000000058
 40
0.5781250000000059
 40
0.5781250000000059
 40
0.5937500000000059
 40
0.5937500000000059
 40
0.6093750000000059
 40
0.6093750000000059
 40
0.6250000000000059
 40
0.6250000000000059
 40
0.656250000000006
 40
0.656250000000006
 40
0.6718750000000057
 40
0.6718750000000057
 40
0.6875000000000054
 40
0.6875000000000054
 40
0.7187500000000048
 40
0.7187500000000048
 40
0.7500000000000042
 40
0.7500000000000042
 40
0.7812500000000037
 40
0.7812500000000037
 40
0.812500000000003
 40
0.812500000000003
 40
0.8750000000000019
 40
0.8750000000000019
 40
0.937500000000001
 40
0.937500000000001
 40
1.0
 40
1.0
 40
1.0
 40
1.0
 10
33.75000000000006
 20
7.178956715962475
 30
0.0
 10
34.71747881151975
 20
6.661001870542425
 30
0.0
 10
35.68127086829213
 20
6.131753391868887
 30
0.0
 10
37.13131572828894
 20
5.339107220941028
 30
0.0
 10
37.61532902102772
 20
5.074978838926114
 30
0.0
 10
38.58564915295744
 20
4.548600644831527
 30
0.0
 10
39.07474056204785
 20
4.285022026036604
 30
0.0
 10
40.52432577140655
 20
3.513529264852782
 30
0.0
 10
41.46558041051651
 20
3.025045878412222
 30
0.0
 10
42.8379765002565
 20
2.322695758517349
 30
0.0
 10
43.28873939851218
 20
2.093480917859115
 30
0.0
 10
44.17539010726733
 20
1.642203264597165
 30
0.0
 10
44.61148009539181
 20
1.420583997133391
 30
0.0
 10
45.86930686651397
 20
0.7737403947277954
 30
0.0
 10
46.650370436581
 20
0.3624906400871879
 30
0.0
 10
48.08165983373846
 20
-0.4762304448461325
 30
0.0
 10
48.73407295428257
 20
-0.9063025242681082
 30
0.0
 10
49.56070836227298
 20
-1.601021228113473
 30
0.0
 10
49.81234093399007
 20
-1.841778334742173
 30
0.0
 10
50.26307206790443
 20
-2.354984081786683
 30
0.0
 10
50.46298734474442
 20
-2.628666349793329
 30
0.0
 10
50.79881934666707
 20
-3.219652586899759
 30
0.0
 10
50.9332007389371
 20
-3.533630150865369
 30
0.0
 10
51.07937741869705
 20
-4.044377333983618
 30
0.0
 10
51.11883340835737
 20
-4.221288448788744
 30
0.0
 10
51.17766186312554
 20
-4.591093823256315
 30
0.0
 10
51.19692039912934
 20
-4.784370809089961
 30
0.0
 10
51.2213758319354
 20
-5.379637441637849
 30
0.0
 10
51.19444762583555
 20
-5.800465239236186
 30
0.0
 10
51.081324980739
 20
-6.478518102891021
 30
0.0
 10
51.03125053412492
 20
-6.711961428340667
 30
0.0
 10
50.90893679531035
 20
-7.181336361919728
 30
0.0
 10
50.8364572323527
 20
-7.418961031980436
 30
0.0
 10
50.6687208888265
 20
-7.900403006217507
 30
0.0
 10
50.57346929031189
 20
-8.14421892148703
 30
0.0
 10
50.35914188992547
 20
-8.638394674153606
 30
0.0
 10
50.24061407286138
 20
-8.88707210362738
 30
0.0
 10
49.98746532070061
 20
-9.374879489018856
 30
0.0
 10
49.85205408898577
 20
-9.615875859114741
 30
0.0
 10
49.56386110402957
 20
-10.09203514773498
 30
0.0
 10
49.41007485102756
 20
-10.32859702094104
 30
0.0
 10
48.92988824880507
 20
-11.01802652213423
 30
0.0
 10
48.58737657358876
 20
-11.44822924696596
 30
0.0
 10
48.04086591181982
 20
-12.05330459461269
 30
0.0
 10
47.85337320043118
 20
-12.24785089250115
 30
0.0
 10
47.47505989155508
 20
-12.61623833708546
 30
0.0
 10
47.28326484775329
 20
-12.7911840052221
 30
0.0
 10
46.699598948578
 20
-13.29023126504226
 30
0.0
 10
46.29949062457155
 20
-13.58870042371283
 30
0.0
 10
45.47414641414696
 20
-14.12219489627078
 30
0.0
 10
45.05777993774058
 20
-14.35140070871592
 30
0.0
 10
44.2170672417783
 20
-14.7432067298633
 30
0.0
 10
43.792197945346
 20
-14.90598703385778
 30
0.0
 10
42.92916390378269
 20
-15.17169272294675
 30
0.0
 10
42.48848889202344
 20
-15.27490772861266
 30
0.0
 10
41.16566205147143
 20
-15.4958734740126
 30
0.0
 10
40.27926488086024
 20
-15.52857140466686
 30
0.0
 10
38.46853810800047
 20
-15.40507986214954
 30
0.0
 10
37.53741305074044
 20
-15.24576763242953
 30
0.0
 10
35.66362937737119
 20
-14.77527667115345
 30
0.0
 10
34.71703679443021
 20
-14.46436607872884
 30
0.0
 10
33.75
 20
-14.08814366532523
 30
0.0
  0
SPLINE
  5
210
330
1F
100
AcDbEntity
  8
0
  6
Continuous
 62
     1
370
    15
100
AcDbSpline
210
0.0
220
0.0
230
1.0
 70
     8
 71
     3
 72
    28
 73
    24
 74
     0
 42
0.000000001
 43
0.00000001
 40
0.2424090902125643
 40
0.2424090902125643
 40
0.2424090902125643
 40
0.2424090902125643
 40
0.25
 40
0.25
 40
0.375
 40
0.375
 40
0.5
 40
0.5
 40
0.5625
 40
0.5625
 40
0.625
 40
0.625
 40
0.6875
 40
0.6875
 40
0.75
 40
0.75
 40
0.8125
 40
0.8125
 40
0.875
 40
0.875
 40
0.9375
 40
0.9375
 40
1.0
 40
1.0
 40
1.0
 40
1.0
 10
2.0
 20
2.467637295253097
 30
0.0
 10
2.105861000550277
 20
2.406962609853805
 30
0.0
 10
2.211675786701079
 20
2.346258350408394
 30
0.0
 10
4.05902914134802
 20
1.285486521127828
 30
0.0
 10
5.814252346779369
 20
0.2732221647599316
 30
0.0
 10
9.298093555947446
 20
-1.740046962740329
 30
0.0
 10
11.05267594935674
 20
-2.746003601532326
 30
0.0
 10
13.66603970260283
 20
-4.22785632130163
 30
0.0
 10
14.54089049446867
 20
-4.718589176434205
 30
0.0
 10
16.28980329402052
 20
-5.688951703801243
 30
0.0
 10
17.16239567252603
 20
-6.168313274796859
 30
0.0
 10
18.90495261831521
 20
-7.112625211884197
 30
0.0
 10
19.77987312939177
 20
-7.578462156381761
 30
0.0
 10
21.52874817709929
 20
-8.493045629262605
 30
0.0
 10
22.40100782869868
 20
-8.941505918731764
 30
0.0
 10
24.1438717596539
 20
-9.818464630823389
 30
0.0
 10
25.01885820845277
 20
-10.24768412885892
 30
0.0
 10
26.76768795514226
 20
-11.08348019982893
 30
0.0
 10
27.63963343212703
 20
-11.48976996104181
 30
0.0
 10
29.3827968853908
 20
-12.27730401401969
 30
0.0
 10
30.25784548947115
 20
-12.65910531441282
 30
0.0
 10
32.00662238662068
 20
-13.39508841029322
 30
0.0
 10
32.87827224578888
 20
-13.74900091356114
 30
0.0
 10
33.75000000000006
 20
-14.08814366532528
 30
0.0
  0
SPLINE
  5
212
330
1F
100
AcDbEntity
  8
0
  6
Continuous
 62
     1
370
    15
100
AcDbSpline
210
0.0
220
0.0
230
1.0
 70
     8
 71
     3
 72
    18
 73
    14
 74
     0
 42
0.000000001
 43
0.00000001
 40
0.0
 40
0.0
 40
0.0
 40
0.0
 40
0.0917461708622012
 40
0.1834884585057991
 40
0.277930033667231
 40
0.3723671712080369
 40
0.4632131498875617
 40
0.5540603870023113
 40
0.6476928820782641
 40
0.7413295119279676
 40
0.8301881850637147
 40
0.9190511473297327
 40
0.9999999999999999
 40
0.9999999999999999
 40
0.9999999999999999
 40
0.9999999999999999
 10
33.75000000000006
 20
-17.64553995972734
 30
0.0
 10
34.1870278653472
 20
-17.72887645435798
 30
0.0
 10
35.06106509854214
 20
-17.89554591634589
 30
0.0
 10
36.39741194184518
 20
-17.99106100151473
 30
0.0
 10
37.74905267219486
 20
-17.9640772786107
 30
0.0
 10
39.09231657202184
 20
-17.80087057567467
 30
0.0
 10
40.40656541071024
 20
-17.50814511719785
 30
0.0
 10
41.69567403794832
 20
-17.09076968613702
 30
0.0
 10
42.9648338081933
 20
-16.54300808677189
 30
0.0
 10
44.18083942247341
 20
-15.88034711222063
 30
0.0
 10
45.32012373201536
 20
-15.1180763975247
 30
0.0
 10
46.35387689564584
 20
-14.30636221262122
 30
0.0
 10
46.97142916344427
 20
-13.70370593949912
 30
0.0
 10
47.26581473114425
 20
-13.41642125390713
 30
0.0
  0
SPLINE
  5
213
330
1F
100
AcDbEntity
  8
0
  6
Continuous
 62
     1
370
    15
100
AcDbSpline
210
0.0
220
0.0
230
1.0
 70
     8
 71
     3
 72
    13
 73
     9
 74
     0
 42
0.000000001
 43
0.00000001
 40
0.0
 40
0.0
 40
0.0
 40
0.0
 40
0.0586932875849727
 40
0.1945452836281771
 40
0.3303918893461313
 40
0.4662369957939608
 40
0.5996572077598008
 40
0.7059363940276896
 40
0.7059363940276896
 40
0.7059363940276896
 40
0.7059363940276896
 10
26.38936736427866
 20
-15.58323881286898
 30
0.0
 10
25.71342178241702
 20
-15.81558238136125
 30
0.0
 10
23.4729266533939
 20
-16.585710402663
 30
0.0
 10
19.66801637643877
 20
-17.55199037237034
 30
0.0
 10
14.97462604334459
 20
-18.45860509399086
 30
0.0
 10
10.30922912615094
 20
-18.97021691106129
 30
0.0
 10
5.984414488452018
 20
-19.10062920116214
 30
0.0
 10
3.223956108524362
 20
-18.9793576524906
 30
0.0
 10
2.0
 20
-18.88849858618367
 30
0.0
  0
LINE
  5
214
330
1F
100
AcDbEntity
  8
외형선
  6
Continuous
370
    15
100
AcDbLine
 10
2.0
 20
1.360191419435154
 30
0.0
 11
2.0
 21
6.7303502470157
 31
0.0
  0
SPLINE
  5
215
330
1F
100
AcDbEntity
  8
0
  6
Continuous
 62
     1
370
    15
100
AcDbSpline
210
0.0
220
0.0
230
1.0
 70
     8
 71
     3
 72
    66
 73
    62
 74
     0
 42
0.000000001
 43
0.00000001
 40
0.0
 40
0.0
 40
0.0
 40
0.0
 40
0.0625000000000015
 40
0.0625000000000015
 40
0.0937500000000026
 40
0.0937500000000026
 40
0.1250000000000037
 40
0.1250000000000037
 40
0.1875000000000053
 40
0.1875000000000053
 40
0.2187500000000057
 40
0.2187500000000057
 40
0.2500000000000061
 40
0.2500000000000061
 40
0.3125000000000061
 40
0.3125000000000061
 40
0.3750000000000061
 40
0.3750000000000061
 40
0.4062500000000061
 40
0.4062500000000061
 40
0.4375000000000061
 40
0.4375000000000061
 40
0.4687500000000061
 40
0.4687500000000061
 40
0.4843750000000061
 40
0.4843750000000061
 40
0.500000000000006
 40
0.500000000000006
 40
0.5312500000000061
 40
0.5312500000000061
 40
0.5468750000000061
 40
0.5468750000000061
 40
0.5625000000000061
 40
0.5625000000000061
 40
0.5781250000000061
 40
0.5781250000000061
 40
0.5937500000000062
 40
0.5937500000000062
 40
0.6093750000000062
 40
0.6093750000000062
 40
0.6250000000000062
 40
0.6250000000000062
 40
0.6562500000000063
 40
0.6562500000000063
 40
0.671875000000006
 40
0.671875000000006
 40
0.6875000000000057
 40
0.6875000000000057
 40
0.7187500000000051
 40
0.7187500000000051
 40
0.7500000000000044
 40
0.7500000000000044
 40
0.7812500000000039
 40
0.7812500000000039
 40
0.8125000000000033
 40
0.8125000000000033
 40
0.8750000000000022
 40
0.8750000000000022
 40
0.9375000000000011
 40
0.9375000000000011
 40
1.0
 40
1.0
 40
1.0
 40
1.0
 10
33.75000000000006
 20
17.64553995972738
 30
0.0
 10
34.71747881151975
 20
17.85626603694462
 30
0.0
 10
35.68127086829219
 20
17.96630494226492
 30
0.0
 10
37.13131572828894
 20
17.97961604303291
 30
0.0
 10
37.61532902102766
 20
17.95865228557246
 30
0.0
 10
38.58564915295744
 20
17.8643807621139
 30
0.0
 10
39.07474056204785
 20
17.79038651194804
 30
0.0
 10
40.52432577140655
 20
17.49012963625019
 30
0.0
 10
41.46558041051651
 20
17.18827997363593
 30
0.0
 10
42.8379765002565
 20
16.58976056387147
 30
0.0
 10
43.28873939851218
 20
16.36586232083538
 30
0.0
 10
44.17539010726739
 20
15.86902866339796
 30
0.0
 10
44.61148009539187
 20
15.59552140194784
 30
0.0
 10
45.86930686651391
 20
14.71925993701127
 30
0.0
 10
46.650370436581
 20
14.05621196141747
 30
0.0
 10
48.08165983373846
 20
12.58986824962316
 30
0.0
 10
48.73407295428257
 20
11.78063563899149
 30
0.0
 10
49.56070836227298
 20
10.51983401799384
 30
0.0
 10
49.81234093399013
 20
10.09050373858156
 30
0.0
 10
50.26307206790455
 20
9.218552503897332
 30
0.0
 10
50.46298734474442
 20
8.773900728424497
 30
0.0
 10
50.79881934666707
 20
7.885858409884776
 30
0.0
 10
50.9332007389371
 20
7.447284538333449
 30
0.0
 10
51.07937741869699
 20
6.805535205174319
 30
0.0
 10
51.11883340835737
 20
6.594318877874279
 30
0.0
 10
51.17766186312559
 20
6.17892798864446
 30
0.0
 10
51.19692039912934
 20
5.974529754711153
 30
0.0
 10
51.22137583193535
 20
5.387391994760289
 30
0.0
 10
51.19444762583555
 20
5.026162623155166
 30
0.0
 10
51.081324980739
 20
4.542572814128022
 30
0.0
 10
51.03125053412492
 20
4.391772000036074
 30
0.0
 10
50.90893679531041
 20
4.120558657577725
 30
0.0
 10
50.8364572323527
 20
3.998875774177225
 30
0.0
 10
50.66872088882656
 20
3.784115065599572
 30
0.0
 10
50.57346929031189
 20
3.691030774359106
 30
0.0
 10
50.35914188992552
 20
3.534921797482284
 30
0.0
 10
50.24061407286143
 20
3.472704110311753
 30
0.0
 10
49.98746532070055
 20
3.381779330222869
 30
0.0
 10
49.85205408898577
 20
3.35245069034865
 30
0.0
 10
49.56386110402951
 20
3.324569688409728
 30
0.0
 10
49.41007485102756
 20
3.326159641893597
 30
0.0
 10
48.92988824880507
 20
3.375111732653508
 30
0.0
 10
48.58737657358876
 20
3.465104999178166
 30
0.0
 10
48.04086591181982
 20
3.670154918133672
 30
0.0
 10
47.85337320043118
 20
3.750354350060963
 30
0.0
 10
47.47505989155508
 20
3.928537394716486
 30
0.0
 10
47.28326484775329
 20
4.026871262135739
 30
0.0
 10
46.699598948578
 20
4.345974162311254
 30
0.0
 10
46.29949062457149
 20
4.590684415146214
 30
0.0
 10
45.47414641414701
 20
5.130777690806301
 30
0.0
 10
45.05777993774058
 20
5.420336782978932
 30
0.0
 10
44.2170672417783
 20
6.023869100505138
 30
0.0
 10
43.79219794534606
 20
6.338475488291913
 30
0.0
 10
42.92916390378269
 20
6.983777666184853
 30
0.0
 10
42.48848889202344
 20
7.316260836411079
 30
0.0
 10
41.16566205147137
 20
8.308130298446063
 30
0.0
 10
40.27926488086024
 20
8.964115160331708
 30
0.0
 10
38.46853810800042
 20
10.22458326417773
 30
0.0
 10
37.53741305074033
 20
10.8330407774785
 30
0.0
 10
35.66362937737119
 20
11.92316747774672
 30
0.0
 10
34.71703679443021
 20
12.40955321489643
 30
0.0
 10
33.75
 20
12.82289780295996
 30
0.0
  0
SPLINE
  5
216
330
1F
100
AcDbEntity
  8
0
  6
Continuous
 62
     1
370
    15
100
AcDbSpline
210
0.0
220
0.0
230
1.0
 70
     8
 71
     3
 72
     9
 73
     5
 74
     0
 42
0.000000001
 43
0.00000001
 40
0.0
 40
0.0
 40
0.0
 40
0.0
 40
0.3736054492374736
 40
1.0
 40
1.0
 40
1.0
 40
1.0
 10
26.38936736427837
 20
15.58323881286897
 30
0.0
 10
27.30600571399884
 20
15.89199944347778
 30
0.0
 10
29.75949870129676
 20
16.7184344733709
 30
0.0
 10
32.21308617601647
 20
17.28847172904285
 30
0.0
 10
33.75
 20
17.64553995972738
 30
0.0
  0
SPLINE
  5
217
330
1F
100
AcDbEntity
  8
0
  6
Continuous
 62
     1
370
    15
100
AcDbSpline
210
0.0
220
0.0
230
1.0
 70
     8
 71
     3
 72
    13
 73
     9
 74
     0
 42
0.000000001
 43
0.00000001
 40
0.0
 40
0.0
 40
0.0
 40
0.0
 40
0.1709275502910318
 40
0.3418385562310562
 40
0.5127378934432029
 40
0.6836304497243414
 40
0.8545211199509631
 40
1.0
 40
1.0
 40
1.0
 40
1.0
 10
33.75000000000006
 20
12.82289780296001
 30
0.0
 10
32.18515806238355
 20
13.46600504300266
 30
0.0
 10
29.05562565070471
 20
14.7521572757095
 30
0.0
 10
24.3616322849183
 20
16.31330987873612
 30
0.0
 10
19.66801348158481
 20
17.56607669837717
 30
0.0
 10
14.97462589060916
 20
18.4489681126845
 30
0.0
 10
10.51394129021651
 20
18.97053994761158
 30
0.0
 10
7.617742507360703
 20
19.01027839073246
 30
0.0
 10
6.285958980905235
 20
19.02855165437328
 30
0.0
  0
LINE
  5
219
330
1F
100
AcDbEntity
  8
외형선
  6
Continuous
370
    15
100
AcDbLine
 10
2.0
 20
-15.81662114051213
 30
0.0
 11
2.0
 21
-14.37769141943496
 31
0.0
  0
LINE
  5
21A
330
1F
100
AcDbEntity
  8
외형선
  6
Continuous
370
    15
100
AcDbLine
 10
-58.32499999999999
 20
-15.87500000000001
 30
0.0
 11
-58.32499999999999
 21
-0.0000000000000071
 31
0.0
  0
LINE
  5
21B
330
1F
100
AcDbEntity
  8
외형선
  6
Continuous
370
    15
100
AcDbLine
 10
-61.5
 20
-0.0000000000000071
 30
0.0
 11
-61.5
 21
12.7
 31
0.0
  0
LINE
  5
21C
330
1F
100
AcDbEntity
  8
외형선
  6
Continuous
370
    15
100
AcDbLine
 10
-61.5
 20
-12.70000000000001
 30
0.0
 11
-61.5
 21
-0.0000000000000071
 31
0.0
  0
LINE
  5
21D
330
1F
100
AcDbEntity
  8
외형선
  6
Continuous
370
    15
100
AcDbLine
 10
2.0
 20
-0.0000000000000071
 30
0.0
 11
2.0
 21
19.04999999999999
 31
0.0
  0
LINE
  5
21E
330
1F
100
AcDbEntity
  8
외형선
  6
Continuous
370
    15
100
AcDbLine
 10
2.0
 20
-19.05
 30
0.0
 11
2.0
 21
-0.0000000000000071
 31
0.0
  0
LINE
  5
21F
330
1F
100
AcDbEntity
  8
중심선
100
AcDbLine
 10
-64.5
 20
-0.0000000000000071
 30
0.0
 11
55.79999999999998
 21
0.0000000000000071
 31
0.0
  0
CIRCLE
  5
220
330
1F
100
AcDbEntity
  8
해칭선
100
AcDbCircle
 10
0.0
 20
0.0
 30
0.0
 40
3.000000000000001
  0
DIMENSION
  5
228
330
1F
100
AcDbEntity
  8
치수문자_일반주서
100
AcDbDimension
  2
*D12
 10
2.0
 20
23.97335081297293
 30
0.0
 11
26.77302560848545
 21
23.97335081297293
 31
0.0
 70
   160
  1
<>
 71
     2
 42
50.80000000000004
  3
SLDDIMSTYLE1
100
AcDbAlignedDimension
 13
52.80000000000004
 23
19.05000000000001
 33
0.0
 14
2.0
 24
19.04999999999999
 34
0.0
 50
0.000000000000004
100
AcDbRotatedDimension
1001
ACAD
1000
DSTYLE
1002
{
1070
   171
1070
     6
1070
   273
1070
     7
1002
}
  0
DIMENSION
  5
229
330
1F
100
AcDbEntity
  8
치수문자_일반주서
100
AcDbDimension
  2
*D13
 10
-61.5
 20
39.33723575977242
 30
0.0
 11
-2.259100358560374
 21
39.33723575977242
 31
0.0
 70
   160
  1
<>
 71
     2
 42
114.3
  3
SLDDIMSTYLE1
100
AcDbAlignedDimension
 13
52.80000000000004
 23
19.05000000000001
 33
0.0
 14
-61.5
 24
12.70000000000001
 34
0.0
 50
0.0000000000000036
100
AcDbRotatedDimension
1001
ACAD
1000
DSTYLE
1002
{
1070
   171
1070
     6
1070
   273
1070
     7
1002
}
  0
DIMENSION
  5
22A
330
1F
100
AcDbEntity
  8
치수문자_일반주서
100
AcDbDimension
  2
*D14
 10
-72.27749999999995
 20
-15.87500000000006
 30
0.0
 11
-72.2775
 21
-0.0000000000000071
 31
0.0
 70
   160
  1
%%c<>
 71
     2
 42
31.75000000000001
 52
-270.0
  3
SLDDIMSTYLE1
100
AcDbAlignedDimension
 13
-61.5
 23
15.87499999999999
 33
0.0
 14
-58.325
 24
-15.87500000000001
 34
0.0
 50
90.0000000000002
100
AcDbRotatedDimension
1001
ACAD
1000
DSTYLE
1002
{
1070
   171
1070
     6
1070
   273
1070
     7
1002
}
  0
DIMENSION
  5
22B
330
1F
100
AcDbEntity
  8
치수문자_일반주서
100
AcDbDimension
  2
*D15
 10
71.61895810320172
 20
-19.04999999999993
 30
0.0
 11
71.61895810320152
 21
41.91240000000009
 31
0.0
 70
   160
  1
%%c<>
 71
     2
 42
38.09999999999999
 52
-270.0
  3
SLDDIMSTYLE1
100
AcDbAlignedDimension
 13
52.80000000000007
 23
19.05000000000001
 33
0.0
 14
52.80000000000007
 24
-19.04999999999999
 34
0.0
 50
90.0000000000002
100
AcDbRotatedDimension
1001
ACAD
1000
DSTYLE
1002
{
1070
   171
1070
     6
1070
   273
1070
     7
1002
}
  0
INSERT
  5
22C
330
1F
100
AcDbEntity
  8
해칭선
100
AcDbBlockReference
  2
SW_DOWELSYMBOL_0
 10
0.0
 20
0.0
 30
0.0
  0
LINE
  5
22D
330
1F
100
AcDbEntity
  8
외형선
  6
Continuous
370
    15
100
AcDbLine
 10
-39.08132499999999
 20
13.48739999999999
 30
0.0
 11
-25.97492499999998
 21
13.48739999999999
 31
0.0
  0
LINE
  5
22E
330
1F
100
AcDbEntity
  8
외형선
  6
Continuous
370
    15
100
AcDbLine
 10
-25.97492499999998
 20
13.48739999999999
 30
0.0
 11
-23.58732499999996
 21
15.87500000000001
 31
0.0
  0
LINE
  5
22F
330
1F
100
AcDbEntity
  8
외형선
  6
Continuous
370
    15
100
AcDbLine
 10
-39.08132499999999
 20
13.48739999999999
 30
0.0
 11
-41.46892500000001
 21
15.87500000000001
 31
0.0
  0
LINE
  5
230
330
1F
100
AcDbEntity
  8
외형선
  6
Continuous
370
    15
100
AcDbLine
 10
-48.80000000000001
 20
13.48739999999999
 30
0.0
 11
-46.4124000000001
 21
15.87499999999998
 31
0.0
  0
LINE
  5
231
330
1F
100
AcDbEntity
  8
외형선
  6
Continuous
370
    15
100
AcDbLine
 10
-41.46892499999998
 20
15.87499999999999
 30
0.0
 11
-46.4124000000001
 21
15.87499999999999
 31
0.0
  0
LINE
  5
232
330
1F
100
AcDbEntity
  8
외형선
  6
Continuous
370
    15
100
AcDbLine
 10
-60.71260000000001
 20
13.48739999999999
 30
0.0
 11
-48.80000000000001
 21
13.48739999999999
 31
0.0
  0
LINE
  5
233
330
1F
100
AcDbEntity
  8
외형선
  6
Continuous
370
    15
100
AcDbLine
 10
-60.71260000000001
 20
13.48739999999999
 30
0.0
 11
-61.5
 21
12.7
 31
0.0
  0
LINE
  5
234
330
1F
100
AcDbEntity
  8
외형선
  6
Continuous
370
    15
100
AcDbLine
 10
-58.32499999999999
 20
-0.0000000000000071
 30
0.0
 11
-58.32499999999999
 21
13.48739999999999
 31
0.0
  0
LINE
  5
235
330
1F
100
AcDbEntity
  8
외형선
  6
Continuous
370
    15
100
AcDbLine
 10
2.0
 20
15.87499999999999
 30
0.0
 11
-23.58732499999996
 21
15.87499999999999
 31
0.0
  0
SPLINE
  5
267
330
1F
100
AcDbEntity
  8
0
  6
Continuous
 62
     1
370
    15
100
AcDbSpline
210
0.0
220
0.0
230
1.0
 70
     8
 71
     3
 72
    28
 73
    24
 74
     0
 42
0.000000001
 43
0.00000001
 40
0.242409090212565
 40
0.242409090212565
 40
0.242409090212565
 40
0.242409090212565
 40
0.25
 40
0.25
 40
0.375
 40
0.375
 40
0.5
 40
0.5
 40
0.5625
 40
0.5625
 40
0.625
 40
0.625
 40
0.6875
 40
0.6875
 40
0.75
 40
0.75
 40
0.8125
 40
0.8125
 40
0.875
 40
0.875
 40
0.9375
 40
0.9375
 40
1.0
 40
1.0
 40
1.0
 40
1.0
 10
2.0
 20
-4.196786207838995
 30
0.0
 10
2.105861000550306
 20
-4.256474042114601
 30
0.0
 10
2.211675786701079
 20
-4.316088059481616
 30
0.0
 10
4.05902914134802
 20
-5.356010011753071
 30
0.0
 10
5.814252346779398
 20
-6.320475747721511
 30
0.0
 10
9.298093555947446
 20
-8.183538395967911
 30
0.0
 10
11.05267594935677
 20
-9.086724495217831
 30
0.0
 10
13.66603970260283
 20
-10.37557570676701
 30
0.0
 10
14.54089049446867
 20
-10.79535768557997
 30
0.0
 10
16.28980329402057
 20
-11.61120503185957
 30
0.0
 10
17.16239567252603
 20
-12.00705352272625
 30
0.0
 10
18.90495261831521
 20
-12.77236398222129
 30
0.0
 10
19.77987312939175
 20
-13.14253571598589
 30
0.0
 10
21.52874817709932
 20
-13.85432016651683
 30
0.0
 10
22.40100782869877
 20
-14.19572072036022
 30
0.0
 10
24.14387175965393
 20
-14.84784167502477
 30
0.0
 10
25.01885820845277
 20
-15.15908723529062
 30
0.0
 10
26.76768795514226
 20
-15.74890326074741
 30
0.0
 10
27.63963343212708
 20
-16.02728453292043
 30
0.0
 10
29.3827968853908
 20
-16.54979594705581
 30
0.0
 10
30.25784548947115
 20
-16.79428165434729
 30
0.0
 10
32.00662238662079
 20
-17.24729288826338
 30
0.0
 10
32.87827224578893
 20
-17.45566937252784
 30
0.0
 10
33.75000000000006
 20
-17.64553995972734
 30
0.0
  0
ENDSEC
  0
SECTION
  2
OBJECTS
  0
DICTIONARY
  5
C
330
0
100
AcDbDictionary
281
     1
  3
ACAD_GROUP
350
D
  3
ACAD_IMAGE_VARS
350
12B
  3
ACAD_LAYOUT
350
1A
  3
ACAD_MLINESTYLE
350
17
  3
ACAD_PLOTSETTINGS
350
19
  3
ACAD_PLOTSTYLENAME
350
E
  3
ACAD_SCALELIST
350
47
  3
APPDATA
350
129
  3
DWGPROPS
350
268
  0
DICTIONARY
  5
1D2
330
2
100
AcDbDictionary
280
     1
281
     1
  3
ACAD_LAYERSTATES
360
1D3
  0
DICTIONARY
  5
D
102
{ACAD_REACTORS
330
C
102
}
330
C
100
AcDbDictionary
281
     1
  0
RASTERVARIABLES
  5
12B
102
{ACAD_REACTORS
330
C
102
}
330
C
100
AcDbRasterVariables
 90
        0
 70
     1
 71
     1
 72
     1
  0
DICTIONARY
  5
1A
102
{ACAD_REACTORS
330
C
102
}
330
C
100
AcDbDictionary
281
     1
  3
Layout1
350
1E
  3
Layout2
350
26
  3
Model
350
22
  0
DICTIONARY
  5
17
102
{ACAD_REACTORS
330
C
102
}
330
C
100
AcDbDictionary
281
     1
  3
Standard
350
18
  0
DICTIONARY
  5
19
102
{ACAD_REACTORS
330
C
102
}
330
C
100
AcDbDictionary
281
     1
  0
ACDBDICTIONARYWDFLT
  5
E
102
{ACAD_REACTORS
330
C
102
}
330
C
100
AcDbDictionary
281
     1
  3
Normal
350
F
100
AcDbDictionaryWithDefault
340
F
  0
DICTIONARY
  5
47
102
{ACAD_REACTORS
330
C
102
}
330
C
100
AcDbDictionary
281
     1
  3
A0
350
48
  3
A1
350
49
  3
A2
350
4A
  3
A3
350
4B
  3
A4
350
4C
  3
A5
350
4D
  3
A6
350
4E
  3
A7
350
4F
  3
A8
350
50
  3
A9
350
51
  3
B0
350
52
  3
B1
350
53
  3
B2
350
54
  3
B3
350
55
  3
B4
350
56
  3
B5
350
57
  3
B6
350
58
  3
B7
350
59
  3
B8
350
5A
  3
B9
350
5B
  3
C0
350
5C
  3
C1
350
5D
  3
C2
350
5E
  3
C3
350
5F
  3
C4
350
60
  3
C5
350
61
  3
C6
350
62
  3
C7
350
63
  3
C8
350
64
  3
C9
350
65
  3
D0
350
66
  3
D1
350
67
  3
D2
350
68
  0
DICTIONARY
  5
129
102
{ACAD_REACTORS
330
C
102
}
330
C
100
AcDbDictionary
281
     1
  0
XRECORD
  5
268
102
{ACAD_REACTORS
330
C
102
}
330
C
100
AcDbXrecord
280
     1
  1
DWGPROPS COOKIE
  2

  3

  4

  6

  7

  8
12017012
  9

300
=
301
=
302
=
303
=
304
=
305
=
306
=
307
=
308
=
309
=
 40
0.0
 41
2458323.315167083
 42
2458324.112781285
  1

 90
        0
  0
DICTIONARY
  5
1D3
102
{ACAD_REACTORS
330
1D2
102
}
330
1D2
100
AcDbDictionary
281
     1
  0
LAYOUT
  5
1E
102
{ACAD_REACTORS
330
1A
102
}
330
1A
100
AcDbPlotSettings
  1

  2
none_device
  4

  6

 40
0.0
 41
0.0
 42
0.0
 43
0.0
 44
0.0
 45
0.0
 46
0.0
 47
0.0
 48
0.0
 49
0.0
140
0.0
141
0.0
142
1.0
143
1.0
 70
   688
 72
     1
 73
     0
 74
     5
  7

 75
    16
147
1.0
148
0.0
149
0.0
100
AcDbLayout
  1
Layout1
 70
     1
 71
     1
 10
0.0
 20
0.0
 11
420.0
 21
297.0
 12
0.0
 22
0.0
 32
0.0
 14
1.000000000000000E+20
 24
1.000000000000000E+20
 34
1.000000000000000E+20
 15
-1.000000000000000E+20
 25
-1.000000000000000E+20
 35
-1.000000000000000E+20
146
0.0
 13
0.0
 23
0.0
 33
0.0
 16
1.0
 26
0.0
 36
0.0
 17
0.0
 27
1.0
 37
0.0
 76
     0
330
1B
  0
LAYOUT
  5
26
102
{ACAD_REACTORS
330
1A
102
}
330
1A
100
AcDbPlotSettings
  1

  2
none_device
  4

  6

 40
0.0
 41
0.0
 42
0.0
 43
0.0
 44
0.0
 45
0.0
 46
0.0
 47
0.0
 48
0.0
 49
0.0
140
0.0
141
0.0
142
1.0
143
1.0
 70
   688
 72
     1
 73
     0
 74
     5
  7

 75
    16
147
1.0
148
0.0
149
0.0
100
AcDbLayout
  1
Layout2
 70
     1
 71
     2
 10
0.0
 20
0.0
 11
0.0
 21
0.0
 12
0.0
 22
0.0
 32
0.0
 14
0.0
 24
0.0
 34
0.0
 15
0.0
 25
0.0
 35
0.0
146
0.0
 13
0.0
 23
0.0
 33
0.0
 16
1.0
 26
0.0
 36
0.0
 17
0.0
 27
1.0
 37
0.0
 76
     0
330
23
  0
LAYOUT
  5
22
102
{ACAD_REACTORS
330
1A
102
}
330
1A
100
AcDbPlotSettings
  1

  2
none_device
  4
ANSI_A_(11.00_x_8.50_Inches)
  6

 40
6.35
 41
19.05
 42
6.35000508
 43
19.05000254
 44
279.4
 45
215.9
 46
103.183359198313
 47
100.0998321548452
 48
0.0
 49
0.0
140
0.0
141
0.0
142
0.0715153934642642
143
1.0
 70
  1696
 72
     0
 73
     0
 74
     0
  7

 75
     0
147
0.0235690232323232
148
0.0
149
0.0
100
AcDbLayout
  1
Model
 70
     1
 71
     0
 10
0.0
 20
0.0
 11
420.0
 21
297.0
 12
0.0
 22
0.0
 32
0.0
 14
1.000000000000000E+20
 24
1.000000000000000E+20
 34
1.000000000000000E+20
 15
-1.000000000000000E+20
 25
-1.000000000000000E+20
 35
-1.000000000000000E+20
146
0.0
 13
0.0
 23
0.0
 33
0.0
 16
1.0
 26
0.0
 36
0.0
 17
0.0
 27
1.0
 37
0.0
 76
     0
330
1F
331
29
  0
MLINESTYLE
  5
18
102
{ACAD_REACTORS
330
17
102
}
330
17
100
AcDbMlineStyle
  2
Standard
 70
     0
  3

 62
   256
 51
90.0
 52
90.0
 71
     2
 49
0.5
 62
   256
  6
BYLAYER
 49
-0.5
 62
   256
  6
BYLAYER
  0
ACDBPLACEHOLDER
  5
F
102
{ACAD_REACTORS
330
E
102
}
330
E
  0
SCALE
  5
48
102
{ACAD_REACTORS
330
47
102
}
330
47
100
AcDbScale
 70
     0
300
1:1
140
1.0
141
1.0
290
     1
  0
SCALE
  5
49
102
{ACAD_REACTORS
330
47
102
}
330
47
100
AcDbScale
 70
     0
300
1:2
140
1.0
141
2.0
290
     0
  0
SCALE
  5
4A
102
{ACAD_REACTORS
330
47
102
}
330
47
100
AcDbScale
 70
     0
300
1:4
140
1.0
141
4.0
290
     0
  0
SCALE
  5
4B
102
{ACAD_REACTORS
330
47
102
}
330
47
100
AcDbScale
 70
     0
300
1:5
140
1.0
141
5.0
290
     0
  0
SCALE
  5
4C
102
{ACAD_REACTORS
330
47
102
}
330
47
100
AcDbScale
 70
     0
300
1:8
140
1.0
141
8.0
290
     0
  0
SCALE
  5
4D
102
{ACAD_REACTORS
330
47
102
}
330
47
100
AcDbScale
 70
     0
300
1:10
140
1.0
141
10.0
290
     0
  0
SCALE
  5
4E
102
{ACAD_REACTORS
330
47
102
}
330
47
100
AcDbScale
 70
     0
300
1:16
140
1.0
141
16.0
290
     0
  0
SCALE
  5
4F
102
{ACAD_REACTORS
330
47
102
}
330
47
100
AcDbScale
 70
     0
300
1:20
140
1.0
141
20.0
290
     0
  0
SCALE
  5
50
102
{ACAD_REACTORS
330
47
102
}
330
47
100
AcDbScale
 70
     0
300
1:30
140
1.0
141
30.0
290
     0
  0
SCALE
  5
51
102
{ACAD_REACTORS
330
47
102
}
330
47
100
AcDbScale
 70
     0
300
1:40
140
1.0
141
40.0
290
     0
  0
SCALE
  5
52
102
{ACAD_REACTORS
330
47
102
}
330
47
100
AcDbScale
 70
     0
300
1:50
140
1.0
141
50.0
290
     0
  0
SCALE
  5
53
102
{ACAD_REACTORS
330
47
102
}
330
47
100
AcDbScale
 70
     0
300
1:100
140
1.0
141
100.0
290
     0
  0
SCALE
  5
54
102
{ACAD_REACTORS
330
47
102
}
330
47
100
AcDbScale
 70
     0
300
2:1
140
2.0
141
1.0
290
     0
  0
SCALE
  5
55
102
{ACAD_REACTORS
330
47
102
}
330
47
100
AcDbScale
 70
     0
300
4:1
140
4.0
141
1.0
290
     0
  0
SCALE
  5
56
102
{ACAD_REACTORS
330
47
102
}
330
47
100
AcDbScale
 70
     0
300
8:1
140
8.0
141
1.0
290
     0
  0
SCALE
  5
57
102
{ACAD_REACTORS
330
47
102
}
330
47
100
AcDbScale
 70
     0
300
10:1
140
10.0
141
1.0
290
     0
  0
SCALE
  5
58
102
{ACAD_REACTORS
330
47
102
}
330
47
100
AcDbScale
 70
     0
300
100:1
140
100.0
141
1.0
290
     0
  0
SCALE
  5
59
102
{ACAD_REACTORS
330
47
102
}
330
47
100
AcDbScale
 70
     0
300
1/128" = 1'-0"
140
0.0078125
141
12.0
290
     0
  0
SCALE
  5
5A
102
{ACAD_REACTORS
330
47
102
}
330
47
100
AcDbScale
 70
     0
300
1/64" = 1'-0"
140
0.015625
141
12.0
290
     0
  0
SCALE
  5
5B
102
{ACAD_REACTORS
330
47
102
}
330
47
100
AcDbScale
 70
     0
300
1/32" = 1'-0"
140
0.03125
141
12.0
290
     0
  0
SCALE
  5
5C
102
{ACAD_REACTORS
330
47
102
}
330
47
100
AcDbScale
 70
     0
300
1/16" = 1'-0"
140
0.0625
141
12.0
290
     0
  0
SCALE
  5
5D
102
{ACAD_REACTORS
330
47
102
}
330
47
100
AcDbScale
 70
     0
300
3/32" = 1'-0"
140
0.09375
141
12.0
290
     0
  0
SCALE
  5
5E
102
{ACAD_REACTORS
330
47
102
}
330
47
100
AcDbScale
 70
     0
300
1/8" = 1'-0"
140
0.125
141
12.0
290
     0
  0
SCALE
  5
5F
102
{ACAD_REACTORS
330
47
102
}
330
47
100
AcDbScale
 70
     0
300
3/16" = 1'-0"
140
0.1875
141
12.0
290
     0
  0
SCALE
  5
60
102
{ACAD_REACTORS
330
47
102
}
330
47
100
AcDbScale
 70
     0
300
1/4" = 1'-0"
140
0.25
141
12.0
290
     0
  0
SCALE
  5
61
102
{ACAD_REACTORS
330
47
102
}
330
47
100
AcDbScale
 70
     0
300
3/8" = 1'-0"
140
0.375
141
12.0
290
     0
  0
SCALE
  5
62
102
{ACAD_REACTORS
330
47
102
}
330
47
100
AcDbScale
 70
     0
300
1/2" = 1'-0"
140
0.5
141
12.0
290
     0
  0
SCALE
  5
63
102
{ACAD_REACTORS
330
47
102
}
330
47
100
AcDbScale
 70
     0
300
3/4" = 1'-0"
140
0.75
141
12.0
290
     0
  0
SCALE
  5
64
102
{ACAD_REACTORS
330
47
102
}
330
47
100
AcDbScale
 70
     0
300
1" = 1'-0"
140
1.0
141
12.0
290
     0
  0
SCALE
  5
65
102
{ACAD_REACTORS
330
47
102
}
330
47
100
AcDbScale
 70
     0
300
1-1/2" = 1'-0"
140
1.5
141
12.0
290
     0
  0
SCALE
  5
66
102
{ACAD_REACTORS
330
47
102
}
330
47
100
AcDbScale
 70
     0
300
3" = 1'-0"
140
3.0
141
12.0
290
     0
  0
SCALE
  5
67
102
{ACAD_REACTORS
330
47
102
}
330
47
100
AcDbScale
 70
     0
300
6" = 1'-0"
140
6.0
141
12.0
290
     0
  0
SCALE
  5
68
102
{ACAD_REACTORS
330
47
102
}
330
47
100
AcDbScale
 70
     0
300
1'-0" = 1'-0"
140
12.0
141
12.0
290
     0
  0
ENDSEC
  0
EOF
