  0
SECTION
  2
HEADER
  9
$ACADVER
  1
AC1015
  9
$ACADMAINTVER
 70
     6
  9
$DWGCODEPAGE
  3
ANSI_949
  9
$INSBASE
 10
0.0
 20
0.0
 30
0.0
  9
$EXTMIN
 10
1.000000000000000E+20
 20
1.000000000000000E+20
 30
1.000000000000000E+20
  9
$EXTMAX
 10
-1.000000000000000E+20
 20
-1.000000000000000E+20
 30
-1.000000000000000E+20
  9
$LIMMIN
 10
0.0
 20
0.0
  9
$LIMMAX
 10
420.0
 20
297.0
  9
$ORTHOMODE
 70
     0
  9
$REGENMODE
 70
     1
  9
$FILLMODE
 70
     1
  9
$QTEXTMODE
 70
     0
  9
$MIRRTEXT
 70
     1
  9
$LTSCALE
 40
1.0
  9
$ATTMODE
 70
     1
  9
$TEXTSIZE
 40
3.5
  9
$TRACEWID
 40
1.0
  9
$TEXTSTYLE
  7
Standard
  9
$CLAYER
  8
0
  9
$CELTYPE
  6
ByLayer
  9
$CECOLOR
 62
   256
  9
$CELTSCALE
 40
1.0
  9
$DISPSILH
 70
     0
  9
$DIMSCALE
 40
1.0
  9
$DIMASZ
 40
3.302
  9
$DIMEXO
 40
1.0
  9
$DIMDLI
 40
3.75
  9
$DIMRND
 40
0.0
  9
$DIMDLE
 40
0.0
  9
$DIMEXE
 40
1.0
  9
$DIMTP
 40
0.0
  9
$DIMTM
 40
0.0
  9
$DIMTXT
 40
3.5
  9
$DIMCEN
 40
2.5
  9
$DIMTSZ
 40
0.0
  9
$DIMTOL
 70
     0
  9
$DIMLIM
 70
     0
  9
$DIMTIH
 70
     1
  9
$DIMTOH
 70
     1
  9
$DIMSE1
 70
     0
  9
$DIMSE2
 70
     0
  9
$DIMTAD
 70
     1
  9
$DIMZIN
 70
     0
  9
$DIMBLK
  1

  9
$DIMASO
 70
     1
  9
$DIMSHO
 70
     1
  9
$DIMPOST
  1

  9
$DIMAPOST
  1

  9
$DIMALT
 70
     0
  9
$DIMALTD
 70
     3
  9
$DIMALTF
 40
0.0393700787401575
  9
$DIMLFAC
 40
1.0
  9
$DIMTOFL
 70
     1
  9
$DIMTVP
 40
0.0
  9
$DIMTIX
 70
     0
  9
$DIMSOXD
 70
     0
  9
$DIMSAH
 70
     0
  9
$DIMBLK1
  1

  9
$DIMBLK2
  1

  9
$DIMSTYLE
  2
ISO-25
  9
$DIMCLRD
 70
     0
  9
$DIMCLRE
 70
     0
  9
$DIMCLRT
 70
     0
  9
$DIMTFAC
 40
1.0
  9
$DIMGAP
 40
1.524
  9
$DIMJUST
 70
     0
  9
$DIMSD1
 70
     0
  9
$DIMSD2
 70
     0
  9
$DIMTOLJ
 70
     0
  9
$DIMTZIN
 70
     0
  9
$DIMALTZ
 70
     0
  9
$DIMALTTZ
 70
     0
  9
$DIMUPT
 70
     0
  9
$DIMDEC
 70
     2
  9
$DIMTDEC
 70
     2
  9
$DIMALTU
 70
     2
  9
$DIMALTTD
 70
     3
  9
$DIMTXSTY
  7
Standard
  9
$DIMAUNIT
 70
     0
  9
$DIMADEC
 70
     2
  9
$DIMALTRND
 40
0.0
  9
$DIMAZIN
 70
     0
  9
$DIMDSEP
 70
    44
  9
$DIMATFIT
 70
     3
  9
$DIMFRAC
 70
     0
  9
$DIMLDRBLK
  1

  9
$DIMLUNIT
 70
     2
  9
$DIMLWD
 70
    -2
  9
$DIMLWE
 70
    -2
  9
$DIMTMOVE
 70
     0
  9
$LUNITS
 70
     2
  9
$LUPREC
 70
     2
  9
$SKETCHINC
 40
1.0
  9
$FILLETRAD
 40
10.0
  9
$AUNITS
 70
     0
  9
$AUPREC
 70
     2
  9
$MENU
  1
.
  9
$ELEVATION
 40
0.0
  9
$PELEVATION
 40
0.0
  9
$THICKNESS
 40
0.0
  9
$LIMCHECK
 70
     0
  9
$CHAMFERA
 40
0.0
  9
$CHAMFERB
 40
0.0
  9
$CHAMFERC
 40
0.0
  9
$CHAMFERD
 40
0.0
  9
$SKPOLY
 70
     0
  9
$TDCREATE
 40
2458323.690221979
  9
$TDUCREATE
 40
2458323.315221979
  9
$TDUPDATE
 40
2458324.488679271
  9
$TDUUPDATE
 40
2458324.113679271
  9
$TDINDWG
 40
0.000221875
  9
$TDUSRTIMER
 40
2458324.112785729
  9
$USRTIMER
 70
     1
  9
$ANGBASE
 50
0.0
  9
$ANGDIR
 70
     0
  9
$PDMODE
 70
     0
  9
$PDSIZE
 40
-1.0
  9
$PLINEWID
 40
0.0
  9
$SPLFRAME
 70
     0
  9
$SPLINETYPE
 70
     6
  9
$SPLINESEGS
 70
     8
  9
$HANDSEED
  5
211
  9
$SURFTAB1
 70
     6
  9
$SURFTAB2
 70
     6
  9
$SURFTYPE
 70
     6
  9
$SURFU
 70
     6
  9
$SURFV
 70
     6
  9
$UCSBASE
  2

  9
$UCSNAME
  2

  9
$UCSORG
 10
0.0
 20
0.0
 30
0.0
  9
$UCSXDIR
 10
1.0
 20
0.0
 30
0.0
  9
$UCSYDIR
 10
0.0
 20
1.0
 30
0.0
  9
$UCSORTHOREF
  2

  9
$UCSORTHOVIEW
 70
     0
  9
$UCSORGTOP
 10
0.0
 20
0.0
 30
0.0
  9
$UCSORGBOTTOM
 10
0.0
 20
0.0
 30
0.0
  9
$UCSORGLEFT
 10
0.0
 20
0.0
 30
0.0
  9
$UCSORGRIGHT
 10
0.0
 20
0.0
 30
0.0
  9
$UCSORGFRONT
 10
0.0
 20
0.0
 30
0.0
  9
$UCSORGBACK
 10
0.0
 20
0.0
 30
0.0
  9
$PUCSBASE
  2

  9
$PUCSNAME
  2

  9
$PUCSORG
 10
0.0
 20
0.0
 30
0.0
  9
$PUCSXDIR
 10
1.0
 20
0.0
 30
0.0
  9
$PUCSYDIR
 10
0.0
 20
1.0
 30
0.0
  9
$PUCSORTHOREF
  2

  9
$PUCSORTHOVIEW
 70
     0
  9
$PUCSORGTOP
 10
0.0
 20
0.0
 30
0.0
  9
$PUCSORGBOTTOM
 10
0.0
 20
0.0
 30
0.0
  9
$PUCSORGLEFT
 10
0.0
 20
0.0
 30
0.0
  9
$PUCSORGRIGHT
 10
0.0
 20
0.0
 30
0.0
  9
$PUCSORGFRONT
 10
0.0
 20
0.0
 30
0.0
  9
$PUCSORGBACK
 10
0.0
 20
0.0
 30
0.0
  9
$USERI1
 70
     0
  9
$USERI2
 70
     0
  9
$USERI3
 70
     0
  9
$USERI4
 70
     0
  9
$USERI5
 70
     0
  9
$USERR1
 40
0.0
  9
$USERR2
 40
0.0
  9
$USERR3
 40
0.0
  9
$USERR4
 40
0.0
  9
$USERR5
 40
0.0
  9
$WORLDVIEW
 70
     1
  9
$SHADEDGE
 70
     3
  9
$SHADEDIF
 70
    70
  9
$TILEMODE
 70
     1
  9
$MAXACTVP
 70
    64
  9
$PINSBASE
 10
0.0
 20
0.0
 30
0.0
  9
$PLIMCHECK
 70
     0
  9
$PEXTMIN
 10
1.000000000000000E+20
 20
1.000000000000000E+20
 30
1.000000000000000E+20
  9
$PEXTMAX
 10
-1.000000000000000E+20
 20
-1.000000000000000E+20
 30
-1.000000000000000E+20
  9
$PLIMMIN
 10
0.0
 20
0.0
  9
$PLIMMAX
 10
0.0
 20
0.0
  9
$UNITMODE
 70
     0
  9
$VISRETAIN
 70
     1
  9
$PLINEGEN
 70
     0
  9
$PSLTSCALE
 70
     1
  9
$TREEDEPTH
 70
  3020
  9
$CMLSTYLE
  2
Standard
  9
$CMLJUST
 70
     0
  9
$CMLSCALE
 40
20.0
  9
$PROXYGRAPHICS
 70
     1
  9
$MEASUREMENT
 70
     1
  9
$CELWEIGHT
370
    -1
  9
$ENDCAPS
280
     0
  9
$JOINSTYLE
280
     0
  9
$LWDISPLAY
290
     1
  9
$INSUNITS
 70
     4
  9
$HYPERLINKBASE
  1

  9
$STYLESHEET
  1

  9
$XEDIT
290
     1
  9
$CEPSNTYPE
380
     0
  9
$PSTYLEMODE
290
     1
  9
$FINGERPRINTGUID
  2
{0091D57E-3D75-4E15-865B-A4607D6649D0}
  9
$VERSIONGUID
  2
{FAEB1C32-E019-11D5-929B-00C0DF256EC4}
  9
$EXTNAMES
290
     1
  9
$PSVPSCALE
 40
0.0
  9
$OLESTARTUP
290
     0
  0
ENDSEC
  0
SECTION
  2
CLASSES
  0
CLASS
  1
ACDBDICTIONARYWDFLT
  2
AcDbDictionaryWithDefault
  3
ObjectDBX Classes
 90
        0
280
     0
281
     0
  0
CLASS
  1
VISUALSTYLE
  2
AcDbVisualStyle
  3
ObjectDBX Classes
 90
     4095
280
     0
281
     0
  0
CLASS
  1
MATERIAL
  2
AcDbMaterial
  3
ObjectDBX Classes
 90
     1153
280
     0
281
     0
  0
CLASS
  1
SCALE
  2
AcDbScale
  3
ObjectDBX Classes
 90
     1153
280
     0
281
     0
  0
CLASS
  1
SUN
  2
AcDbSun
  3
SCENEOE
 90
     1153
280
     0
281
     0
  0
CLASS
  1
ACDBPLACEHOLDER
  2
AcDbPlaceHolder
  3
ObjectDBX Classes
 90
        0
280
     0
281
     0
  0
CLASS
  1
LAYOUT
  2
AcDbLayout
  3
ObjectDBX Classes
 90
        0
280
     0
281
     0
  0
CLASS
  1
TABLESTYLE
  2
AcDbTableStyle
  3
ObjectDBX Classes
 90
     4095
280
     0
281
     0
  0
CLASS
  1
MLEADERSTYLE
  2
AcDbMLeaderStyle
  3
ACDB_MLEADERSTYLE_CLASS
 90
     4095
280
     0
281
     0
  0
CLASS
  1
RASTERVARIABLES
  2
AcDbRasterVariables
  3
ISM
 90
        0
280
     0
281
     0
  0
ENDSEC
  0
SECTION
  2
TABLES
  0
TABLE
  2
VPORT
  5
8
330
0
100
AcDbSymbolTable
 70
     1
  0
VPORT
  5
29
330
8
100
AcDbSymbolTableRecord
100
AcDbViewportTableRecord
  2
*Active
 70
     0
 10
0.0
 20
0.0
 11
1.0
 21
1.0
 12
46.19283328650937
 22
5.98293143427551
 13
0.0
 23
0.0
 14
10.0
 24
10.0
 15
10.0
 25
10.0
 16
0.0
 26
0.0
 36
1.0
 17
0.0
 27
0.0
 37
0.0
 40
232.3396980756337
 41
1.632093933463796
 42
50.0
 43
0.0
 44
0.0
 50
0.0
 51
0.0
 71
    16
 72
  2000
 73
     1
 74
     3
 75
     0
 76
     0
 77
     0
 78
     0
281
     0
 65
     1
110
0.0
120
0.0
130
0.0
111
1.0
121
0.0
131
0.0
112
0.0
122
1.0
132
0.0
 79
     0
146
0.0
  0
ENDTAB
  0
TABLE
  2
LTYPE
  5
5
330
0
100
AcDbSymbolTable
 70
     6
  0
LTYPE
  5
14
330
5
100
AcDbSymbolTableRecord
100
AcDbLinetypeTableRecord
  2
ByBlock
 70
     0
  3

 72
    65
 73
     0
 40
0.0
  0
LTYPE
  5
15
330
5
100
AcDbSymbolTableRecord
100
AcDbLinetypeTableRecord
  2
ByLayer
 70
     0
  3

 72
    65
 73
     0
 40
0.0
  0
LTYPE
  5
16
330
5
100
AcDbSymbolTableRecord
100
AcDbLinetypeTableRecord
  2
Continuous
 70
     0
  3
Solid line
 72
    65
 73
     0
 40
0.0
  0
LTYPE
  5
6A
330
5
100
AcDbSymbolTableRecord
100
AcDbLinetypeTableRecord
  2
HIDDEN
 70
     0
  3
Hidden __ __ __ __ __ __ __ __ __ __ __ __ __ __
 72
    65
 73
     2
 40
1.905
 49
1.27
 74
     0
 49
-0.635
 74
     0
  0
LTYPE
  5
6B
330
5
100
AcDbSymbolTableRecord
100
AcDbLinetypeTableRecord
  2
PHANTOM
 70
     0
  3
Phantom ______  __  __  ______  __  __  ______
 72
    65
 73
     6
 40
12.7
 49
6.35
 74
     0
 49
-1.27
 74
     0
 49
1.27
 74
     0
 49
-1.27
 74
     0
 49
1.27
 74
     0
 49
-1.27
 74
     0
  0
LTYPE
  5
6C
330
5
100
AcDbSymbolTableRecord
100
AcDbLinetypeTableRecord
  2
CENTER
 70
     0
  3
Center ____ _ ____ _ ____ _ ____ _ ____ _ ____
 72
    65
 73
     4
 40
10.16
 49
6.35
 74
     0
 49
-1.27
 74
     0
 49
1.27
 74
     0
 49
-1.27
 74
     0
  0
LTYPE
  5
6D
330
5
100
AcDbSymbolTableRecord
100
AcDbLinetypeTableRecord
  2
CENTERX2
 70
     0
  3
Center (2x) ________  __  ________  __  _____
 72
    65
 73
     4
 40
20.32
 49
12.7
 74
     0
 49
-2.54
 74
     0
 49
2.54
 74
     0
 49
-2.54
 74
     0
  0
LTYPE
  5
6E
330
5
100
AcDbSymbolTableRecord
100
AcDbLinetypeTableRecord
  2
DOT2
 70
     0
  3
Dot (.5x) ........................................
 72
    65
 73
     2
 40
0.635
 49
0.0
 74
     0
 49
-0.635
 74
     0
  0
ENDTAB
  0
TABLE
  2
LAYER
  5
2
102
{ACAD_XDICTIONARY
360
1B3
102
}
330
0
100
AcDbSymbolTable
 70
    18
  0
LAYER
  5
10
330
2
100
AcDbSymbolTableRecord
100
AcDbLayerTableRecord
  2
0
 70
     0
 62
     7
  6
Continuous
370
    -3
390
F
  0
LAYER
  5
6F
330
2
100
AcDbSymbolTableRecord
100
AcDbLayerTableRecord
  2
FORMAT
 70
     0
 62
     2
  6
Continuous
370
    -3
390
F
  0
LAYER
  5
70
330
2
100
AcDbSymbolTableRecord
100
AcDbLayerTableRecord
  2
외형선
 70
     0
 62
     4
  6
Continuous
370
    30
390
F
  0
LAYER
  5
71
330
2
100
AcDbSymbolTableRecord
100
AcDbLayerTableRecord
  2
숨은선
 70
     0
 62
     2
  6
HIDDEN
370
    15
390
F
  0
LAYER
  5
72
330
2
100
AcDbSymbolTableRecord
100
AcDbLayerTableRecord
  2
중심선
 70
     0
 62
     1
  6
CENTERX2
370
    -3
390
F
  0
LAYER
  5
73
330
2
100
AcDbSymbolTableRecord
100
AcDbLayerTableRecord
  2
파단선
 70
     0
 62
     4
  6
Continuous
370
    -3
390
F
  0
LAYER
  5
74
330
2
100
AcDbSymbolTableRecord
100
AcDbLayerTableRecord
  2
해칭선
 70
     0
 62
   100
  6
Continuous
370
    -3
390
F
  0
LAYER
  5
75
330
2
100
AcDbSymbolTableRecord
100
AcDbLayerTableRecord
  2
가는실선
 70
     0
 62
     4
  6
Continuous
370
    -3
390
F
  0
LAYER
  5
76
330
2
100
AcDbSymbolTableRecord
100
AcDbLayerTableRecord
  2
치수_보조선
 70
     0
 62
     4
  6
Continuous
370
    -3
390
F
  0
LAYER
  5
77
330
2
100
AcDbSymbolTableRecord
100
AcDbLayerTableRecord
  2
치수문자_일반주서
 70
     0
 62
     7
  6
Continuous
370
    15
390
F
  0
LAYER
  5
78
330
2
100
AcDbSymbolTableRecord
100
AcDbLayerTableRecord
  2
개별주서
 70
     0
 62
   100
  6
Continuous
370
    30
390
F
  0
LAYER
  5
79
330
2
100
AcDbSymbolTableRecord
100
AcDbLayerTableRecord
  2
중간선
 70
     0
 62
     2
  6
Continuous
370
    15
390
F
  0
LAYER
  5
7A
330
2
100
AcDbSymbolTableRecord
100
AcDbLayerTableRecord
  2
윤곽선
 70
     0
 62
     3
  6
Continuous
370
    40
390
F
  0
LAYER
  5
7B
330
2
100
AcDbSymbolTableRecord
100
AcDbLayerTableRecord
  2
중심마크
 70
     0
 62
   100
  6
Continuous
370
    30
390
F
  0
LAYER
  5
7C
330
2
100
AcDbSymbolTableRecord
100
AcDbLayerTableRecord
  2
가상선
 70
     0
 62
     4
  6
PHANTOM
370
    -3
390
F
  0
LAYER
  5
7D
330
2
100
AcDbSymbolTableRecord
100
AcDbLayerTableRecord
  2
특수지정선
 70
     0
 62
     5
  6
CENTERX2
370
    60
390
F
  0
LAYER
  5
7E
330
2
100
AcDbSymbolTableRecord
100
AcDbLayerTableRecord
  2
참조1
 70
     0
 62
    -4
  6
Continuous
370
    -3
390
F
  0
LAYER
  5
12D
330
2
100
AcDbSymbolTableRecord
100
AcDbLayerTableRecord
  2
Defpoints
 70
     0
 62
     7
  6
Continuous
290
     0
370
    -3
390
F
  0
ENDTAB
  0
TABLE
  2
STYLE
  5
3
330
0
100
AcDbSymbolTable
 70
     2
  0
STYLE
  5
11
330
3
100
AcDbSymbolTableRecord
100
AcDbTextStyleTableRecord
  2
Standard
 70
     0
 40
0.0
 41
1.0
 50
0.0
 71
     0
 42
3.5
  3
txt
  4

  0
STYLE
  5
94
330
3
100
AcDbSymbolTableRecord
100
AcDbTextStyleTableRecord
  2
SLDTEXTSTYLE0
 70
     0
 40
0.0
 41
0.75
 50
0.0
 71
     0
 42
3.5
  3
TXT
  4

  0
ENDTAB
  0
TABLE
  2
VIEW
  5
6
330
0
100
AcDbSymbolTable
 70
     0
  0
ENDTAB
  0
TABLE
  2
UCS
  5
7
330
0
100
AcDbSymbolTable
 70
     0
  0
ENDTAB
  0
TABLE
  2
APPID
  5
9
330
0
100
AcDbSymbolTable
 70
     1
  0
APPID
  5
12
330
9
100
AcDbSymbolTableRecord
100
AcDbRegAppTableRecord
  2
ACAD
 70
     0
  0
ENDTAB
  0
TABLE
  2
DIMSTYLE
  5
A
330
0
100
AcDbSymbolTable
 70
     4
100
AcDbDimStyleTable
  0
DIMSTYLE
105
27
330
A
100
AcDbSymbolTableRecord
100
AcDbDimStyleTableRecord
  2
ISO-25
 70
     0
 41
2.5
 42
0.625
 43
3.75
 44
1.25
 73
     0
 74
     0
 77
     1
 78
     8
140
2.5
141
2.5
143
0.03937007874016
147
0.625
171
     3
172
     1
178
     0
271
     2
272
     2
274
     3
278
    44
283
     0
284
     8
340
11
  0
DIMSTYLE
105
A9
330
A
100
AcDbSymbolTableRecord
100
AcDbDimStyleTableRecord
  2
SLDDIMSTYLE0
 70
     0
 41
3.302
 44
0.0
 45
0.000000001
 73
     0
 74
     0
 77
     1
 78
     4
 79
     1
140
3.5
143
0.0393700787401575
147
0.875
148
0.000000001
170
     1
172
     1
173
     1
178
     0
271
     2
272
     2
276
     2
284
    12
289
     0
340
94
  0
DIMSTYLE
105
BF
102
{ACAD_REACTORS
330
168
330
175
330
182
330
18F
330
1CA
330
1CB
330
1CC
330
1CD
102
}
330
A
100
AcDbSymbolTableRecord
100
AcDbDimStyleTableRecord
  2
SLDDIMSTYLE1
 70
     0
 41
3.302
 44
0.0
 45
0.000000001
 73
     0
 74
     0
 77
     1
 78
    12
 79
     3
140
3.5
143
0.0393700787401575
147
0.875
148
0.000000001
170
     1
173
     1
178
     0
271
     2
272
     2
276
     2
284
    12
340
94
  0
DIMSTYLE
105
E6
330
A
100
AcDbSymbolTableRecord
100
AcDbDimStyleTableRecord
  2
SLDDIMSTYLE2
 70
     0
 41
3.302
 44
0.0
 45
0.000000001
 73
     0
 74
     0
 77
     1
 78
    12
 79
     3
140
3.5
143
0.0393700787401575
147
0.875
148
0.000000001
170
     1
172
     1
173
     1
178
     0
271
     2
272
     2
276
     2
284
    12
289
     0
340
94
  0
ENDTAB
  0
TABLE
  2
BLOCK_RECORD
  5
1
330
0
100
AcDbSymbolTable
 70
    16
  0
BLOCK_RECORD
  5
1F
330
1
100
AcDbSymbolTableRecord
100
AcDbBlockTableRecord
  2
*Model_Space
340
22
  0
BLOCK_RECORD
  5
1B
330
1
100
AcDbSymbolTableRecord
100
AcDbBlockTableRecord
  2
*Paper_Space
340
1E
  0
BLOCK_RECORD
  5
23
330
1
100
AcDbSymbolTableRecord
100
AcDbBlockTableRecord
  2
*Paper_Space0
340
26
  0
BLOCK_RECORD
  5
7F
330
1
100
AcDbSymbolTableRecord
100
AcDbBlockTableRecord
  2
블럭10
340
0
102
{BLKREFS
331
A1
102
}
  0
BLOCK_RECORD
  5
AA
330
1
100
AcDbSymbolTableRecord
100
AcDbBlockTableRecord
  2
_D
340
0
  0
BLOCK_RECORD
  5
C0
330
1
100
AcDbSymbolTableRecord
100
AcDbBlockTableRecord
  2
_D_1
340
0
  0
BLOCK_RECORD
  5
D3
330
1
100
AcDbSymbolTableRecord
100
AcDbBlockTableRecord
  2
_D_2
340
0
  0
BLOCK_RECORD
  5
E7
330
1
100
AcDbSymbolTableRecord
100
AcDbBlockTableRecord
  2
_D_3
340
0
  0
BLOCK_RECORD
  5
101
330
1
100
AcDbSymbolTableRecord
100
AcDbBlockTableRecord
  2
SW_DOWELSYMBOL_0
340
0
102
{BLKREFS
331
0
331
19D
331
1CE
102
}
  0
BLOCK_RECORD
  5
169
330
1
100
AcDbSymbolTableRecord
100
AcDbBlockTableRecord
  2
*D8
340
0
  0
BLOCK_RECORD
  5
176
330
1
100
AcDbSymbolTableRecord
100
AcDbBlockTableRecord
  2
*D9
340
0
  0
BLOCK_RECORD
  5
183
330
1
100
AcDbSymbolTableRecord
100
AcDbBlockTableRecord
  2
*D10
340
0
  0
BLOCK_RECORD
  5
190
330
1
100
AcDbSymbolTableRecord
100
AcDbBlockTableRecord
  2
*D11
340
0
  0
BLOCK_RECORD
  5
1DE
330
1
100
AcDbSymbolTableRecord
100
AcDbBlockTableRecord
  2
*D12
340
0
  0
BLOCK_RECORD
  5
1EA
330
1
100
AcDbSymbolTableRecord
100
AcDbBlockTableRecord
  2
*D13
340
0
  0
BLOCK_RECORD
  5
1F6
330
1
100
AcDbSymbolTableRecord
100
AcDbBlockTableRecord
  2
*D14
340
0
  0
BLOCK_RECORD
  5
202
330
1
100
AcDbSymbolTableRecord
100
AcDbBlockTableRecord
  2
*D15
340
0
  0
ENDTAB
  0
ENDSEC
  0
SECTION
  2
BLOCKS
  0
BLOCK
  5
20
330
1F
100
AcDbEntity
  8
0
100
AcDbBlockBegin
  2
*Model_Space
 70
     0
 10
0.0
 20
0.0
 30
0.0
  3
*Model_Space
  1
*Model_Space
  0
ENDBLK
  5
21
330
1F
100
AcDbEntity
  8
0
100
AcDbBlockEnd
  0
BLOCK
  5
1C
330
1B
100
AcDbEntity
 67
     1
  8
0
100
AcDbBlockBegin
  2
*Paper_Space
 70
     0
 10
0.0
 20
0.0
 30
0.0
  3
*Paper_Space
  1
*Paper_Space
  0
ENDBLK
  5
1D
330
1B
100
AcDbEntity
 67
     1
  8
0
100
AcDbBlockEnd
  0
BLOCK
  5
24
330
23
100
AcDbEntity
  8
0
100
AcDbBlockBegin
  2
*Paper_Space0
 70
     0
 10
0.0
 20
0.0
 30
0.0
  3
*Paper_Space0
  1
*Paper_Space0
  0
ENDBLK
  5
25
330
23
100
AcDbEntity
  8
0
100
AcDbBlockEnd
  0
BLOCK
  5
80
330
7F
100
AcDbEntity
  8
0
100
AcDbBlockBegin
  2
블럭10
 70
     2
 10
0.0
 20
0.0
 30
0.0
  3
블럭10
  1
블럭10
  0
ELLIPSE
  5
82
330
7F
100
AcDbEntity
  8
중심선
100
AcDbEllipse
 10
20.54032771741204
 20
12.0471743016438
 30
0.0
 11
6.600054785286829
 21
-1.261213355974178E-13
 31
0.0
210
0.0
220
0.0
230
1.0
 40
0.636358354079598
 41
0.9219305317359503
 42
6.513795318482858
  0
ELLIPSE
  5
83
330
7F
100
AcDbEntity
  8
중심선
100
AcDbEllipse
 10
20.54032771746488
 20
12.04717430159265
 30
0.0
 11
3.960054785062283
 21
1.540847449632565E-10
 31
0.0
210
0.0
220
0.0
230
1.0
 40
0.3939339440162632
 41
1.131841032648279
 42
5.62031148352944
  0
LINE
  5
84
330
7F
100
AcDbEntity
  8
중심선
100
AcDbLine
 10
2.268634060543552
 20
16.24717430164393
 30
0.0
 11
5.714909304380834
 21
16.24717430164393
 31
0.0
  0
LINE
  5
85
330
7F
100
AcDbEntity
  8
중심선
100
AcDbLine
 10
5.245725140726316
 20
7.84717430164391
 30
0.0
 11
8.692000384563599
 21
7.84717430164391
 31
0.0
  0
LINE
  5
86
330
7F
100
AcDbEntity
  8
중심선
100
AcDbLine
 10
15.74043728645272
 20
16.24717430164393
 30
0.0
 11
8.692000384563599
 21
7.84717430164391
 31
0.0
  0
LINE
  5
87
330
7F
100
AcDbEntity
  8
중심선
100
AcDbLine
 10
0.1404042013395286
 20
13.71084872107135
 30
0.0
 11
3.58671253028996
 21
13.71088815037384
 31
0.0
  0
LINE
  5
88
330
7F
100
AcDbEntity
  8
중심선
100
AcDbLine
 10
2.750260043222114
 20
10.84717430164391
 30
0.0
 11
6.196535287059397
 21
10.84717430164391
 31
0.0
  0
LINE
  5
89
330
7F
100
AcDbEntity
  8
중심선
100
AcDbLine
 10
12.29416204261559
 20
16.24717430164393
 30
0.0
 11
5.245725140726316
 21
7.84717430164391
 31
0.0
  0
LINE
  5
8A
330
7F
100
AcDbEntity
  8
중심선
100
AcDbLine
 10
10.72767329541681
 20
16.24717430164393
 30
0.0
 11
6.196535287059397
 21
10.84717430164391
 31
0.0
  0
LINE
  5
8B
330
7F
100
AcDbEntity
  8
중심선
100
AcDbLine
 10
7.28139805157953
 20
16.24717430164393
 30
0.0
 11
2.750260043222114
 21
10.84717430164391
 31
0.0
  0
LINE
  5
8C
330
7F
100
AcDbEntity
  8
중심선
100
AcDbLine
 10
5.714909304380834
 20
16.24717430164393
 30
0.0
 11
3.58671253028996
 21
13.71088815037384
 31
0.0
  0
LINE
  5
8D
330
7F
100
AcDbEntity
  8
중심선
100
AcDbLine
 10
2.268634060543552
 20
16.24717430164393
 30
0.0
 11
0.1404042013395286
 21
13.71084872107135
 31
0.0
  0
LINE
  5
8E
330
7F
100
AcDbEntity
  8
중심선
100
AcDbLine
 10
7.28139805157953
 20
16.24717430164393
 30
0.0
 11
10.72767329541681
 21
16.24717430164393
 31
0.0
  0
LINE
  5
8F
330
7F
100
AcDbEntity
  8
중심선
100
AcDbLine
 10
12.29416204261559
 20
16.24717430164393
 30
0.0
 11
15.74043728645272
 21
16.24717430164393
 31
0.0
  0
LINE
  5
90
330
7F
100
AcDbEntity
  8
중심선
100
AcDbLine
 10
19.22036997980202
 20
11.08717430171403
 30
0.0
 11
23.66174974927406
 21
11.08717430171406
 31
0.0
  0
LINE
  5
91
330
7F
100
AcDbEntity
  8
중심선
100
AcDbLine
 10
19.22039502424796
 20
13.00717430171391
 30
0.0
 11
19.22036997980202
 21
11.08717430171403
 31
0.0
  0
LINE
  5
92
330
7F
100
AcDbEntity
  8
중심선
100
AcDbLine
 10
19.22039502424796
 20
13.00717430171391
 30
0.0
 11
26.96566020931264
 21
13.00717430171391
 31
0.0
  0
LINE
  5
93
330
7F
100
AcDbEntity
  8
중심선
100
AcDbLine
 10
22.22332737316547
 20
13.45928029700563
 30
0.0
 11
24.52862924686651
 21
15.39360700705356
 31
0.0
  0
ATTDEF
  5
95
330
7F
100
AcDbEntity
  8
FORMAT
 62
     2
100
AcDbText
 10
4.408487351596664
 20
2.075366912832191
 30
0.0
 40
4.233333333333333
  1
E2020164
 41
0.75
  7
SLDTEXTSTYLE0
 11
4.408487351596664
 21
-0.0412997538344756
 31
0.0
100
AcDbAttributeDefinition
  3

  2
AUTOATTR0
 70
     0
 74
     1
  0
ENDBLK
  5
81
330
7F
100
AcDbEntity
  8
0
100
AcDbBlockEnd
  0
BLOCK
  5
AB
330
AA
100
AcDbEntity
  8
0
100
AcDbBlockBegin
  2
_D
 70
     0
 10
0.0
 20
0.0
 30
0.0
  3
_D
  1
_D
  0
SOLID
  5
AD
330
AA
100
AcDbEntity
  8
치수문자_일반주서
100
AcDbTrace
 10
31.36231532850778
 20
15.5905321960223
 30
0.0
 11
34.66431532850778
 21
15.0825321960223
 31
0.0
 12
34.66431532850778
 22
16.0985321960223
 32
0.0
 13
34.66431532850778
 23
16.0985321960223
 33
0.0
  0
SOLID
  5
AE
330
AA
100
AcDbEntity
  8
치수문자_일반주서
100
AcDbTrace
 10
5.962315328507771
 20
15.5905321960223
 30
0.0
 11
2.660315328507772
 21
16.0985321960223
 31
0.0
 12
2.660315328507772
 22
15.0825321960223
 32
0.0
 13
2.660315328507772
 23
15.0825321960223
 33
0.0
  0
LINE
  5
AF
330
AA
100
AcDbEntity
  8
치수문자_일반주서
100
AcDbLine
 10
13.72994157423881
 20
26.38341391206504
 30
0.0
 11
13.01900408867431
 21
26.38341391206504
 31
0.0
  0
LINE
  5
B0
330
AA
100
AcDbEntity
  8
치수문자_일반주서
100
AcDbLine
 10
13.01900408867431
 20
26.38341391206504
 30
0.0
 11
13.01900408867427
 21
20.82716392100574
 31
0.0
  0
LINE
  5
B1
330
AA
100
AcDbEntity
  8
치수문자_일반주서
100
AcDbLine
 10
13.01900408867427
 20
20.82716392100574
 30
0.0
 11
13.72994157423877
 21
20.82716392100573
 31
0.0
  0
LINE
  5
B2
330
AA
100
AcDbEntity
  8
치수문자_일반주서
100
AcDbLine
 10
24.55867443637607
 20
26.38341391206496
 30
0.0
 11
25.26961192194057
 21
26.38341391206496
 31
0.0
  0
LINE
  5
B3
330
AA
100
AcDbEntity
  8
치수문자_일반주서
100
AcDbLine
 10
25.26961192194057
 20
26.38341391206496
 30
0.0
 11
25.26961192194053
 21
20.82716392100565
 31
0.0
  0
LINE
  5
B4
330
AA
100
AcDbEntity
  8
치수문자_일반주서
100
AcDbLine
 10
25.26961192194053
 20
20.82716392100565
 30
0.0
 11
24.55867443637603
 21
20.82716392100566
 31
0.0
  0
LINE
  5
B5
330
AA
100
AcDbEntity
  8
치수문자_일반주서
100
AcDbLine
 10
31.36231532850778
 20
5.778273824452533
 30
0.0
 11
31.36231532850778
 21
16.5905321960223
 31
0.0
  0
LINE
  5
B6
330
AA
100
AcDbEntity
  8
치수문자_일반주서
100
AcDbLine
 10
5.962315328507772
 20
6.536892327903137
 30
0.0
 11
5.962315328507771
 21
16.5905321960223
 31
0.0
  0
LINE
  5
B7
330
AA
100
AcDbEntity
  8
치수문자_일반주서
100
AcDbLine
 10
31.36231532850778
 20
15.5905321960223
 30
0.0
 11
37.71231532850778
 21
15.5905321960223
 31
0.0
  0
LINE
  5
B8
330
AA
100
AcDbEntity
  8
치수문자_일반주서
100
AcDbLine
 10
31.36231532850778
 20
15.5905321960223
 30
0.0
 11
5.962315328507771
 21
15.5905321960223
 31
0.0
  0
LINE
  5
B9
330
AA
100
AcDbEntity
  8
치수문자_일반주서
100
AcDbLine
 10
5.962315328507771
 20
15.5905321960223
 30
0.0
 11
-0.3876846714922282
 21
15.5905321960223
 31
0.0
  0
MTEXT
  5
BA
330
AA
100
AcDbEntity
  8
치수문자_일반주서
100
AcDbMText
 10
12.50524536318757
 20
20.15574146188402
 30
0.0
 40
3.5
 41
0.0
 71
     1
 72
     1
  1

  7
SLDTEXTSTYLE0
 73
     1
 44
1.0
  0
MTEXT
  5
BB
330
AA
100
AcDbEntity
  8
치수문자_일반주서
100
AcDbMText
 10
14.61861347485018
 20
25.33890083558462
 30
0.0
 40
3.5
 41
0.0
 71
     1
 72
     1
  1
2.00
  7
SLDTEXTSTYLE0
 73
     1
 44
1.0
  0
MTEXT
  5
BC
330
AA
100
AcDbEntity
  8
치수문자_일반주서
100
AcDbMText
 10
13.32555776167341
 20
20.10226928522416
 30
0.0
 40
3.5
 41
0.0
 71
     1
 72
     1
  1
50.80
  7
SLDTEXTSTYLE0
 73
     1
 44
1.0
  0
MTEXT
  5
BD
330
AA
100
AcDbEntity
  8
치수문자_일반주서
100
AcDbMText
 10
27.11531516708114
 20
20.15574146188391
 30
0.0
 40
3.5
 41
0.0
 71
     1
 72
     1
  1

  7
SLDTEXTSTYLE0
 73
     1
 44
1.0
  0
ENDBLK
  5
AC
330
AA
100
AcDbEntity
  8
0
100
AcDbBlockEnd
  0
BLOCK
  5
C1
330
C0
100
AcDbEntity
  8
0
100
AcDbBlockBegin
  2
_D_1
 70
     0
 10
0.0
 20
0.0
 30
0.0
  3
_D_1
  1
_D_1
  0
SOLID
  5
C3
330
C0
100
AcDbEntity
  8
치수문자_일반주서
100
AcDbTrace
 10
31.36231532850778
 20
27.59053219602237
 30
0.0
 11
28.06031532850778
 21
28.09853219602237
 31
0.0
 12
28.06031532850778
 22
27.08253219602237
 32
0.0
 13
28.06031532850778
 23
27.08253219602237
 33
0.0
  0
SOLID
  5
C4
330
C0
100
AcDbEntity
  8
치수문자_일반주서
100
AcDbTrace
 10
-36.90018467149223
 20
27.59053219602236
 30
0.0
 11
-33.59818467149223
 21
27.08253219602236
 31
0.0
 12
-33.59818467149223
 22
28.09853219602236
 32
0.0
 13
-33.59818467149223
 23
28.09853219602236
 33
0.0
  0
LINE
  5
C5
330
C0
100
AcDbEntity
  8
치수문자_일반주서
100
AcDbLine
 10
-8.183300753314892
 20
38.38341391206509
 30
0.0
 11
-8.894238238879392
 21
38.3834139120651
 31
0.0
  0
LINE
  5
C6
330
C0
100
AcDbEntity
  8
치수문자_일반주서
100
AcDbLine
 10
-8.894238238879392
 20
38.3834139120651
 30
0.0
 11
-8.894238238879433
 21
32.8271639210058
 31
0.0
  0
LINE
  5
C7
330
C0
100
AcDbEntity
  8
치수문자_일반주서
100
AcDbLine
 10
-8.894238238879433
 20
32.8271639210058
 30
0.0
 11
-8.183300753314933
 21
32.82716392100579
 31
0.0
  0
LINE
  5
C8
330
C0
100
AcDbEntity
  8
치수문자_일반주서
100
AcDbLine
 10
2.645432108822366
 20
38.38341391206502
 30
0.0
 11
3.356369594386866
 21
38.38341391206501
 31
0.0
  0
LINE
  5
C9
330
C0
100
AcDbEntity
  8
치수문자_일반주서
100
AcDbLine
 10
3.356369594386866
 20
38.38341391206501
 30
0.0
 11
3.356369594386826
 21
32.82716392100571
 31
0.0
  0
LINE
  5
CA
330
C0
100
AcDbEntity
  8
치수문자_일반주서
100
AcDbLine
 10
3.356369594386826
 20
32.82716392100571
 30
0.0
 11
2.645432108822326
 21
32.82716392100571
 31
0.0
  0
LINE
  5
CB
330
C0
100
AcDbEntity
  8
치수문자_일반주서
100
AcDbLine
 10
31.36231532850778
 20
5.778273824452533
 30
0.0
 11
31.36231532850778
 21
28.59053219602237
 31
0.0
  0
LINE
  5
CC
330
C0
100
AcDbEntity
  8
치수문자_일반주서
100
AcDbLine
 10
-36.90018467149223
 20
4.811074928723901
 30
0.0
 11
-36.90018467149223
 21
28.59053219602236
 31
0.0
  0
LINE
  5
CD
330
C0
100
AcDbEntity
  8
치수문자_일반주서
100
AcDbLine
 10
31.36231532850778
 20
27.59053219602237
 30
0.0
 11
-36.90018467149223
 21
27.59053219602236
 31
0.0
  0
MTEXT
  5
CE
330
C0
100
AcDbEntity
  8
치수문자_일반주서
100
AcDbMText
 10
-9.407996964366134
 20
32.15574146188408
 30
0.0
 40
3.5
 41
0.0
 71
     1
 72
     1
  1

  7
SLDTEXTSTYLE0
 73
     1
 44
1.0
  0
MTEXT
  5
CF
330
C0
100
AcDbEntity
  8
치수문자_일반주서
100
AcDbMText
 10
-7.294628852703529
 20
37.33890083558469
 30
0.0
 40
3.5
 41
0.0
 71
     1
 72
     1
  1
3.69
  7
SLDTEXTSTYLE0
 73
     1
 44
1.0
  0
MTEXT
  5
D0
330
C0
100
AcDbEntity
  8
치수문자_일반주서
100
AcDbMText
 10
-8.587684565880291
 20
32.10226928522422
 30
0.0
 40
3.5
 41
0.0
 71
     1
 72
     1
  1
93.66
  7
SLDTEXTSTYLE0
 73
     1
 44
1.0
  0
MTEXT
  5
D1
330
C0
100
AcDbEntity
  8
치수문자_일반주서
100
AcDbMText
 10
5.202072839527434
 20
32.15574146188398
 30
0.0
 40
3.5
 41
0.0
 71
     1
 72
     1
  1

  7
SLDTEXTSTYLE0
 73
     1
 44
1.0
  0
ENDBLK
  5
C2
330
C0
100
AcDbEntity
  8
0
100
AcDbBlockEnd
  0
BLOCK
  5
D4
330
D3
100
AcDbEntity
  8
0
100
AcDbBlockBegin
  2
_D_2
 70
     0
 10
0.0
 20
0.0
 30
0.0
  3
_D_2
  1
_D_2
  0
SOLID
  5
D6
330
D3
100
AcDbEntity
  8
치수문자_일반주서
100
AcDbTrace
 10
76.27542336633579
 20
5.55732492872388
 30
0.0
 11
75.76742336633579
 21
2.255324928723881
 31
0.0
 12
76.78342336633578
 22
2.255324928723881
 32
0.0
 13
76.78342336633578
 23
2.255324928723881
 33
0.0
  0
SOLID
  5
D7
330
D3
100
AcDbEntity
  8
치수문자_일반주서
100
AcDbTrace
 10
76.27542336633579
 20
-5.555175071276098
 30
0.0
 11
76.78342336633578
 21
-2.253175071276099
 31
0.0
 12
75.76742336633579
 22
-2.253175071276099
 32
0.0
 13
75.76742336633579
 23
-2.253175071276099
 33
0.0
  0
LINE
  5
D8
330
D3
100
AcDbEntity
  8
치수문자_일반주서
100
AcDbLine
 10
65.48254165029307
 20
10.17616576495354
 30
0.0
 11
65.48254165029307
 21
9.465228279389038
 31
0.0
  0
LINE
  5
D9
330
D3
100
AcDbEntity
  8
치수문자_일반주서
100
AcDbLine
 10
65.48254165029307
 20
9.465228279389038
 30
0.0
 11
71.03879164135238
 21
9.465228279389077
 31
0.0
  0
LINE
  5
DA
330
D3
100
AcDbEntity
  8
치수문자_일반주서
100
AcDbLine
 10
71.03879164135238
 20
9.465228279389077
 30
0.0
 11
71.03879164135238
 21
10.17616576495358
 31
0.0
  0
LINE
  5
DB
330
D3
100
AcDbEntity
  8
치수문자_일반주서
100
AcDbLine
 10
65.48254165029299
 20
21.0048986270908
 30
0.0
 11
65.48254165029299
 21
21.7158361126553
 31
0.0
  0
LINE
  5
DC
330
D3
100
AcDbEntity
  8
치수문자_일반주서
100
AcDbLine
 10
65.48254165029299
 20
21.7158361126553
 30
0.0
 11
71.03879164135229
 21
21.71583611265534
 31
0.0
  0
LINE
  5
DD
330
D3
100
AcDbEntity
  8
치수문자_일반주서
100
AcDbLine
 10
71.03879164135229
 20
21.71583611265534
 30
0.0
 11
71.03879164135229
 21
21.00489862709084
 31
0.0
  0
LINE
  5
DE
330
D3
100
AcDbEntity
  8
치수문자_일반주서
100
AcDbLine
 10
52.20606532850784
 20
5.557324928723882
 30
0.0
 11
77.27542336633579
 21
5.55732492872388
 31
0.0
  0
LINE
  5
DF
330
D3
100
AcDbEntity
  8
치수문자_일반주서
100
AcDbLine
 10
52.20606532850784
 20
-5.555175071276096
 30
0.0
 11
77.27542336633579
 21
-5.555175071276098
 31
0.0
  0
LINE
  5
E0
330
D3
100
AcDbEntity
  8
치수문자_일반주서
100
AcDbLine
 10
76.27542336633579
 20
5.55732492872388
 30
0.0
 11
76.27542336633579
 21
24.04850113884327
 31
0.0
  0
LINE
  5
E1
330
D3
100
AcDbEntity
  8
치수문자_일반주서
100
AcDbLine
 10
76.27542336633579
 20
5.55732492872388
 30
0.0
 11
76.27542336633579
 21
-5.555175071276098
 31
0.0
  0
MTEXT
  5
E2
330
D3
100
AcDbEntity
  8
치수문자_일반주서
100
AcDbMText
 10
66.52705472677346
 20
11.06483766556492
 30
0.0
 40
3.5
 41
0.0
 71
     1
 72
     1
  1
0.44
  7
SLDTEXTSTYLE0
 11
-7.044195017643634E-15
 21
1.0
 31
0.0
 73
     1
 44
1.0
  0
MTEXT
  5
E3
330
D3
100
AcDbEntity
  8
치수문자_일반주서
100
AcDbMText
 10
71.76368627713396
 20
7.132563253201183
 30
0.0
 40
3.5
 41
0.0
 71
     1
 72
     1
  1
%%c
  7
SLDTEXTSTYLE0
 11
-7.044195017643634E-15
 21
1.0
 31
0.0
 73
     1
 44
1.0
  0
MTEXT
  5
E4
330
D3
100
AcDbEntity
  8
치수문자_일반주서
100
AcDbMText
 10
71.76368627713391
 20
12.41100065157526
 30
0.0
 40
3.5
 41
0.0
 71
     1
 72
     1
  1
11.11
  7
SLDTEXTSTYLE0
 11
-7.044195017643634E-15
 21
1.0
 31
0.0
 73
     1
 44
1.0
  0
ENDBLK
  5
D5
330
D3
100
AcDbEntity
  8
0
100
AcDbBlockEnd
  0
BLOCK
  5
E8
330
E7
100
AcDbEntity
  8
0
100
AcDbBlockBegin
  2
_D_3
 70
     0
 10
0.0
 20
0.0
 30
0.0
  3
_D_3
  1
_D_3
  0
SOLID
  5
EA
330
E7
100
AcDbEntity
  8
치수문자_일반주서
100
AcDbTrace
 10
-48.73747769446511
 20
4.763574928723895
 30
0.0
 11
-48.22947769446511
 21
8.065574928723894
 31
0.0
 12
-49.24547769446512
 22
8.065574928723894
 32
0.0
 13
-49.24547769446512
 23
8.065574928723894
 33
0.0
  0
SOLID
  5
EB
330
E7
100
AcDbEntity
  8
치수문자_일반주서
100
AcDbTrace
 10
-48.73747769446511
 20
-4.76142507127611
 30
0.0
 11
-49.24547769446512
 21
-8.06342507127611
 31
0.0
 12
-48.22947769446511
 22
-8.06342507127611
 32
0.0
 13
-48.22947769446511
 23
-8.06342507127611
 33
0.0
  0
LINE
  5
EC
330
E7
100
AcDbEntity
  8
치수문자_일반주서
100
AcDbLine
 10
-59.53035941050783
 20
-5.413291502344828
 30
0.0
 11
-59.53035941050782
 21
-6.124228987909328
 31
0.0
  0
LINE
  5
ED
330
E7
100
AcDbEntity
  8
치수문자_일반주서
100
AcDbLine
 10
-59.53035941050782
 20
-6.124228987909328
 30
0.0
 11
-53.97410941944852
 21
-6.124228987909289
 31
0.0
  0
LINE
  5
EE
330
E7
100
AcDbEntity
  8
치수문자_일반주서
100
AcDbLine
 10
-53.97410941944852
 20
-6.124228987909289
 30
0.0
 11
-53.97410941944852
 21
-5.413291502344789
 31
0.0
  0
LINE
  5
EF
330
E7
100
AcDbEntity
  8
치수문자_일반주서
100
AcDbLine
 10
-59.5303594105079
 20
5.41544135979243
 30
0.0
 11
-59.53035941050791
 21
6.12637884535693
 31
0.0
  0
LINE
  5
F0
330
E7
100
AcDbEntity
  8
치수문자_일반주서
100
AcDbLine
 10
-59.53035941050791
 20
6.12637884535693
 30
0.0
 11
-53.9741094194486
 21
6.126378845356969
 31
0.0
  0
LINE
  5
F1
330
E7
100
AcDbEntity
  8
치수문자_일반주서
100
AcDbLine
 10
-53.9741094194486
 20
6.126378845356969
 30
0.0
 11
-53.9741094194486
 21
5.415441359792469
 31
0.0
  0
LINE
  5
F2
330
E7
100
AcDbEntity
  8
치수문자_일반주서
100
AcDbLine
 10
-36.94768467149223
 20
4.763574928723896
 30
0.0
 11
-49.73747769446511
 21
4.763574928723895
 31
0.0
  0
LINE
  5
F3
330
E7
100
AcDbEntity
  8
치수문자_일반주서
100
AcDbLine
 10
-36.94768467149223
 20
-4.761425071276109
 30
0.0
 11
-49.73747769446511
 21
-4.76142507127611
 31
0.0
  0
LINE
  5
F4
330
E7
100
AcDbEntity
  8
치수문자_일반주서
100
AcDbLine
 10
-48.73747769446511
 20
4.763574928723895
 30
0.0
 11
-48.73747769446511
 21
11.11357492872389
 31
0.0
  0
LINE
  5
F5
330
E7
100
AcDbEntity
  8
치수문자_일반주서
100
AcDbLine
 10
-48.73747769446511
 20
4.763574928723895
 30
0.0
 11
-48.73747769446511
 21
-4.76142507127611
 31
0.0
  0
LINE
  5
F6
330
E7
100
AcDbEntity
  8
치수문자_일반주서
100
AcDbLine
 10
-48.73747769446511
 20
-4.76142507127611
 30
0.0
 11
-48.73747769446511
 21
-11.11142507127611
 31
0.0
  0
MTEXT
  5
F7
330
E7
100
AcDbEntity
  8
치수문자_일반주서
100
AcDbMText
 10
-58.48584633402742
 20
-4.52461960173345
 30
0.0
 40
3.5
 41
0.0
 71
     1
 72
     1
  1
0.38
  7
SLDTEXTSTYLE0
 11
-7.044195017643634E-15
 21
1.0
 31
0.0
 73
     1
 44
1.0
  0
MTEXT
  5
F8
330
E7
100
AcDbEntity
  8
치수문자_일반주서
100
AcDbMText
 10
-53.24921478366694
 20
-7.163838766581741
 30
0.0
 40
3.5
 41
0.0
 71
     1
 72
     1
  1
%%c
  7
SLDTEXTSTYLE0
 11
-7.044195017643634E-15
 21
1.0
 31
0.0
 73
     1
 44
1.0
  0
MTEXT
  5
F9
330
E7
100
AcDbEntity
  8
치수문자_일반주서
100
AcDbMText
 10
-53.24921478366696
 20
-1.88540136820766
 30
0.0
 40
3.5
 41
0.0
 71
     1
 72
     1
  1
9.53
  7
SLDTEXTSTYLE0
 11
-7.044195017643634E-15
 21
1.0
 31
0.0
 73
     1
 44
1.0
  0
ENDBLK
  5
E9
330
E7
100
AcDbEntity
  8
0
100
AcDbBlockEnd
  0
BLOCK
  5
102
330
101
100
AcDbEntity
  8
0
100
AcDbBlockBegin
  2
SW_DOWELSYMBOL_0
 70
     0
 10
0.0
 20
0.0
 30
0.0
  3
SW_DOWELSYMBOL_0
  1
SW_DOWELSYMBOL_0
  0
CIRCLE
  5
104
330
101
100
AcDbEntity
  8
해칭선
 62
     0
100
AcDbCircle
 10
0.0
 20
0.0
 30
0.0
 40
3.000000000000001
  0
HATCH
  5
105
330
101
100
AcDbEntity
  8
0
  6
Continuous
 62
     0
370
     0
100
AcDbHatch
 10
0.0
 20
0.0
 30
0.0
210
0.0
220
0.0
230
1.0
  2
SOLID
 70
     1
 71
     0
 91
        1
 92
        0
 93
        3
 72
     2
 10
0.0000000000000069
 20
0.0
 40
3.000000000000001
 50
0.0
 51
90.0
 73
     1
 72
     1
 10
0.0000000000000069
 20
3.000000000000001
 11
0.0000000000000069
 21
0.0
 72
     1
 10
0.0000000000000069
 20
0.0
 11
3.000000000000008
 21
0.0
 97
        0
 75
     0
 76
     1
 98
        1
 10
0.0
 20
0.0
  0
HATCH
  5
106
330
101
100
AcDbEntity
  8
0
  6
Continuous
 62
     0
370
     0
100
AcDbHatch
 10
0.0
 20
0.0
 30
0.0
210
0.0
220
0.0
230
1.0
  2
SOLID
 70
     1
 71
     0
 91
        1
 92
        0
 93
        3
 72
     2
 10
0.0000000000000069
 20
0.0
 40
3.000000000000001
 50
180.0
 51
270.0000000000008
 73
     1
 72
     1
 10
0.0000000000000069
 20
-3.000000000000001
 11
0.0000000000000069
 21
0.0
 72
     1
 10
0.0000000000000069
 20
0.0
 11
-2.999999999999994
 21
0.0
 97
        0
 75
     0
 76
     1
 98
        1
 10
0.0
 20
0.0
  0
ENDBLK
  5
103
330
101
100
AcDbEntity
  8
0
100
AcDbBlockEnd
  0
BLOCK
  5
16A
330
169
100
AcDbEntity
  8
0
100
AcDbBlockBegin
  2
*D8
 70
     1
 10
0.0
 20
0.0
 30
0.0
  3
*D8
  1
*D8
  0
LINE
  5
16B
330
169
100
AcDbEntity
  8
치수문자_일반주서
 62
     0
370
    -2
100
AcDbLine
 10
129.4525000000001
 20
38.21312920116215
 30
0.0
 11
129.4525000000001
 21
43.07398001413507
 31
0.0
  0
LINE
  5
16C
330
169
100
AcDbEntity
  8
치수문자_일반주서
 62
     0
370
    -2
100
AcDbLine
 10
78.65250000000005
 20
38.21312920116213
 30
0.0
 11
78.65250000000005
 21
43.07398001413507
 31
0.0
  0
LINE
  5
16D
330
169
100
AcDbEntity
  8
치수문자_일반주서
 62
     0
370
    -2
100
AcDbLine
 10
126.1505000000001
 20
43.07398001413507
 30
0.0
 11
81.95450000000005
 21
43.07398001413507
 31
0.0
  0
SOLID
  5
16E
330
169
100
AcDbEntity
  8
치수문자_일반주서
 62
     0
100
AcDbTrace
 10
126.1505000000001
 20
42.52364668080174
 30
0.0
 11
126.1505000000001
 21
43.62431334746841
 31
0.0
 12
129.4525000000001
 22
43.07398001413507
 32
0.0
 13
129.4525000000001
 23
43.07398001413507
 33
0.0
  0
SOLID
  5
16F
330
169
100
AcDbEntity
  8
치수문자_일반주서
 62
     0
100
AcDbTrace
 10
81.95450000000005
 20
43.62431334746841
 30
0.0
 11
81.95450000000005
 21
42.52364668080174
 31
0.0
 12
78.65250000000005
 22
43.07398001413507
 32
0.0
 13
78.65250000000005
 23
43.07398001413507
 33
0.0
  0
MTEXT
  5
170
330
169
100
AcDbEntity
  8
치수문자_일반주서
 62
     0
100
AcDbMText
 10
103.4255256084855
 20
47.44898001413507
 30
0.0
 40
3.5
 41
0.0
 71
     2
 72
     1
  1
\A1;50.8 [2]
  7
SLDTEXTSTYLE0
 73
     1
 44
1.0
  0
POINT
  5
171
330
169
100
AcDbEntity
  8
Defpoints
 62
     0
100
AcDbPoint
 10
129.4525000000001
 20
38.15062920116215
 30
0.0
  0
POINT
  5
172
330
169
100
AcDbEntity
  8
Defpoints
 62
     0
100
AcDbPoint
 10
78.65250000000005
 20
38.15062920116213
 30
0.0
  0
POINT
  5
173
330
169
100
AcDbEntity
  8
Defpoints
 62
     0
100
AcDbPoint
 10
78.65250000000005
 20
43.07398001413507
 30
0.0
  0
ENDBLK
  5
174
330
169
100
AcDbEntity
  8
0
100
AcDbBlockEnd
  0
BLOCK
  5
177
330
176
100
AcDbEntity
  8
0
100
AcDbBlockBegin
  2
*D9
 70
     1
 10
0.0
 20
0.0
 30
0.0
  3
*D9
  1
*D9
  0
LINE
  5
178
330
176
100
AcDbEntity
  8
치수문자_일반주서
 62
     0
370
    -2
100
AcDbLine
 10
129.4525000000001
 20
38.21312920116215
 30
0.0
 11
129.4525000000001
 21
58.43786496093456
 31
0.0
  0
LINE
  5
179
330
176
100
AcDbEntity
  8
치수문자_일반주서
 62
     0
370
    -2
100
AcDbLine
 10
15.15250000000005
 20
31.86312920116215
 30
0.0
 11
15.15250000000005
 21
58.43786496093456
 31
0.0
  0
LINE
  5
17A
330
176
100
AcDbEntity
  8
치수문자_일반주서
 62
     0
370
    -2
100
AcDbLine
 10
126.1505000000001
 20
58.43786496093456
 30
0.0
 11
18.45450000000005
 21
58.43786496093456
 31
0.0
  0
SOLID
  5
17B
330
176
100
AcDbEntity
  8
치수문자_일반주서
 62
     0
100
AcDbTrace
 10
126.1505000000001
 20
57.88753162760123
 30
0.0
 11
126.1505000000001
 21
58.9881982942679
 31
0.0
 12
129.4525000000001
 22
58.43786496093456
 32
0.0
 13
129.4525000000001
 23
58.43786496093456
 33
0.0
  0
SOLID
  5
17C
330
176
100
AcDbEntity
  8
치수문자_일반주서
 62
     0
100
AcDbTrace
 10
18.45450000000005
 20
58.9881982942679
 30
0.0
 11
18.45450000000005
 21
57.88753162760123
 31
0.0
 12
15.15250000000005
 22
58.43786496093456
 32
0.0
 13
15.15250000000005
 23
58.43786496093456
 33
0.0
  0
MTEXT
  5
17D
330
176
100
AcDbEntity
  8
치수문자_일반주서
 62
     0
100
AcDbMText
 10
74.39339964143967
 20
62.81286496093456
 30
0.0
 40
3.5
 41
0.0
 71
     2
 72
     1
  1
\A1;114.3 [4 1/2]
  7
SLDTEXTSTYLE0
 73
     1
 44
1.0
  0
POINT
  5
17E
330
176
100
AcDbEntity
  8
Defpoints
 62
     0
100
AcDbPoint
 10
129.4525000000001
 20
38.15062920116215
 30
0.0
  0
POINT
  5
17F
330
176
100
AcDbEntity
  8
Defpoints
 62
     0
100
AcDbPoint
 10
15.15250000000005
 20
31.80062920116215
 30
0.0
  0
POINT
  5
180
330
176
100
AcDbEntity
  8
Defpoints
 62
     0
100
AcDbPoint
 10
15.15250000000005
 20
58.43786496093456
 30
0.0
  0
ENDBLK
  5
181
330
176
100
AcDbEntity
  8
0
100
AcDbBlockEnd
  0
BLOCK
  5
184
330
183
100
AcDbEntity
  8
0
100
AcDbBlockBegin
  2
*D10
 70
     1
 10
0.0
 20
0.0
 30
0.0
  3
*D10
  1
*D10
  0
LINE
  5
185
330
183
100
AcDbEntity
  8
치수문자_일반주서
 62
     0
370
    -2
100
AcDbLine
 10
15.09000000000005
 20
34.97562920116214
 30
0.0
 11
4.374999999999988
 21
34.9756292011621
 31
0.0
  0
LINE
  5
186
330
183
100
AcDbEntity
  8
치수문자_일반주서
 62
     0
370
    -2
100
AcDbLine
 10
18.26500000000004
 20
3.225629201162135
 30
0.0
 11
4.375000000000099
 21
3.225629201162089
 31
0.0
  0
LINE
  5
187
330
183
100
AcDbEntity
  8
치수문자_일반주서
 62
     0
370
    -2
100
AcDbLine
 10
4.374999999999999
 20
31.6736292011621
 30
0.0
 11
4.375000000000087
 21
6.527629201162089
 31
0.0
  0
SOLID
  5
188
330
183
100
AcDbEntity
  8
치수문자_일반주서
 62
     0
100
AcDbTrace
 10
4.925333333333333
 20
31.6736292011621
 30
0.0
 11
3.824666666666666
 21
31.6736292011621
 31
0.0
 12
4.374999999999988
 22
34.9756292011621
 32
0.0
 13
4.374999999999988
 23
34.9756292011621
 33
0.0
  0
SOLID
  5
189
330
183
100
AcDbEntity
  8
치수문자_일반주서
 62
     0
100
AcDbTrace
 10
3.824666666666754
 20
6.527629201162087
 30
0.0
 11
4.925333333333421
 21
6.527629201162091
 31
0.0
 12
4.375000000000099
 22
3.225629201162089
 32
0.0
 13
4.375000000000099
 23
3.225629201162089
 33
0.0
  0
MTEXT
  5
18A
330
183
100
AcDbEntity
  8
치수문자_일반주서
 62
     0
100
AcDbMText
 10
0.0000000000000426
 20
19.10062920116212
 30
0.0
 40
3.5
 41
0.0
 71
     2
 72
     1
  1
\A1;%%c31.75 [1 1/4]
  7
SLDTEXTSTYLE0
 11
-3.496765431890255E-15
 21
1.0
 31
0.0
 73
     1
 44
1.0
  0
POINT
  5
18B
330
183
100
AcDbEntity
  8
Defpoints
 62
     0
100
AcDbPoint
 10
15.15250000000005
 20
34.97562920116214
 30
0.0
  0
POINT
  5
18C
330
183
100
AcDbEntity
  8
Defpoints
 62
     0
100
AcDbPoint
 10
18.32750000000004
 20
3.225629201162135
 30
0.0
  0
POINT
  5
18D
330
183
100
AcDbEntity
  8
Defpoints
 62
     0
100
AcDbPoint
 10
4.375000000000099
 20
3.225629201162084
 30
0.0
  0
ENDBLK
  5
18E
330
183
100
AcDbEntity
  8
0
100
AcDbBlockEnd
  0
BLOCK
  5
191
330
190
100
AcDbEntity
  8
0
100
AcDbBlockBegin
  2
*D11
 70
     1
 10
0.0
 20
0.0
 30
0.0
  3
*D11
  1
*D11
  0
LINE
  5
192
330
190
100
AcDbEntity
  8
치수문자_일반주서
 62
     0
370
    -2
100
AcDbLine
 10
129.5150000000001
 20
38.15062920116215
 30
0.0
 11
148.2714581032016
 21
38.15062920116222
 31
0.0
  0
LINE
  5
193
330
190
100
AcDbEntity
  8
치수문자_일반주서
 62
     0
370
    -2
100
AcDbLine
 10
129.5150000000001
 20
0.0506292011621528
 30
0.0
 11
148.2714581032018
 21
0.0506292011622236
 31
0.0
  0
LINE
  5
194
330
190
100
AcDbEntity
  8
치수문자_일반주서
 62
     0
370
    -2
100
AcDbLine
 10
148.2714581032016
 20
38.15062920116222
 30
0.0
 11
148.2714581032015
 21
75.45052920116223
 31
0.0
  0
LINE
  5
195
330
190
100
AcDbEntity
  8
치수문자_일반주서
 62
     0
370
    -2
100
AcDbLine
 10
148.2714581032016
 20
34.84862920116222
 30
0.0
 11
148.2714581032018
 21
3.352629201162223
 31
0.0
  0
SOLID
  5
196
330
190
100
AcDbEntity
  8
치수문자_일반주서
 62
     0
100
AcDbTrace
 10
148.821791436535
 20
34.84862920116222
 30
0.0
 11
147.7211247698683
 21
34.84862920116222
 31
0.0
 12
148.2714581032016
 22
38.15062920116222
 32
0.0
 13
148.2714581032016
 23
38.15062920116222
 33
0.0
  0
SOLID
  5
197
330
190
100
AcDbEntity
  8
치수문자_일반주서
 62
     0
100
AcDbTrace
 10
147.7211247698685
 20
3.352629201162221
 30
0.0
 11
148.8217914365351
 21
3.352629201162225
 31
0.0
 12
148.2714581032018
 22
0.0506292011622236
 32
0.0
 13
148.2714581032018
 23
0.0506292011622236
 33
0.0
  0
MTEXT
  5
198
330
190
100
AcDbEntity
  8
치수문자_일반주서
 62
     0
100
AcDbMText
 10
143.8964581032016
 20
61.01302920116222
 30
0.0
 40
3.5
 41
0.0
 71
     2
 72
     1
  1
\A1;%%c38.1 [1 1/2]
  7
SLDTEXTSTYLE0
 11
-3.729883127349608E-15
 21
1.0
 31
0.0
 73
     1
 44
1.0
  0
POINT
  5
199
330
190
100
AcDbEntity
  8
Defpoints
 62
     0
100
AcDbPoint
 10
129.4525000000001
 20
38.15062920116215
 30
0.0
  0
POINT
  5
19A
330
190
100
AcDbEntity
  8
Defpoints
 62
     0
100
AcDbPoint
 10
129.4525000000001
 20
0.0506292011621525
 30
0.0
  0
POINT
  5
19B
330
190
100
AcDbEntity
  8
Defpoints
 62
     0
100
AcDbPoint
 10
148.2714581032018
 20
0.0506292011622228
 30
0.0
  0
ENDBLK
  5
19C
330
190
100
AcDbEntity
  8
0
100
AcDbBlockEnd
  0
BLOCK
  5
1DF
330
1DE
100
AcDbEntity
  8
0
100
AcDbBlockBegin
  2
*D12
 70
     1
 10
0.0
 20
0.0
 30
0.0
  3
*D12
  1
*D12
  0
LINE
  5
1E1
330
1DE
100
AcDbEntity
  8
치수문자_일반주서
 62
     0
370
    -2
100
AcDbLine
 10
52.80000000000004
 20
25.46249999999994
 30
0.0
 11
52.80000000000004
 21
40.23632893770112
 31
0.0
  0
LINE
  5
1E2
330
1DE
100
AcDbEntity
  8
치수문자_일반주서
 62
     0
370
    -2
100
AcDbLine
 10
2.0
 20
24.64195535856297
 30
0.0
 11
2.0
 21
40.23632893770112
 31
0.0
  0
LINE
  5
1E3
330
1DE
100
AcDbEntity
  8
치수문자_일반주서
 62
     0
370
    -2
100
AcDbLine
 10
49.49800000000004
 20
40.23632893770112
 30
0.0
 11
5.302
 21
40.23632893770112
 31
0.0
  0
SOLID
  5
1E4
330
1DE
100
AcDbEntity
  8
치수문자_일반주서
 62
     0
100
AcDbTrace
 10
49.49800000000004
 20
39.68599560436779
 30
0.0
 11
49.49800000000004
 21
40.78666227103446
 31
0.0
 12
52.80000000000004
 22
40.23632893770112
 32
0.0
 13
52.80000000000004
 23
40.23632893770112
 33
0.0
  0
SOLID
  5
1E5
330
1DE
100
AcDbEntity
  8
치수문자_일반주서
 62
     0
100
AcDbTrace
 10
5.302
 20
40.78666227103446
 30
0.0
 11
5.302
 21
39.68599560436779
 31
0.0
 12
2.0
 22
40.23632893770112
 32
0.0
 13
2.0
 23
40.23632893770112
 33
0.0
  0
MTEXT
  5
1E6
330
1DE
100
AcDbEntity
  8
치수문자_일반주서
 62
     0
100
AcDbMText
 10
25.8294035532233
 20
44.61132893770112
 30
0.0
 40
3.5
 41
0.0
 71
     2
 72
     1
  1
\A1;50.8 [2]
  7
SLDTEXTSTYLE0
 73
     1
 44
1.0
  0
POINT
  5
1E7
330
1DE
100
AcDbEntity
  8
Defpoints
 62
     0
100
AcDbPoint
 10
52.80000000000004
 20
25.39999999999994
 30
0.0
  0
POINT
  5
1E8
330
1DE
100
AcDbEntity
  8
Defpoints
 62
     0
100
AcDbPoint
 10
2.0
 20
24.57945535856297
 30
0.0
  0
POINT
  5
1E9
330
1DE
100
AcDbEntity
  8
Defpoints
 62
     0
100
AcDbPoint
 10
2.0
 20
40.23632893770112
 30
0.0
  0
ENDBLK
  5
1E0
330
1DE
100
AcDbEntity
  8
0
100
AcDbBlockEnd
  0
BLOCK
  5
1EB
330
1EA
100
AcDbEntity
  8
0
100
AcDbBlockBegin
  2
*D13
 70
     1
 10
0.0
 20
0.0
 30
0.0
  3
*D13
  1
*D13
  0
LINE
  5
1ED
330
1EA
100
AcDbEntity
  8
치수문자_일반주서
 62
     0
370
    -2
100
AcDbLine
 10
52.80000000000004
 20
25.46249999999994
 30
0.0
 11
52.80000000000004
 21
52.44964767969643
 31
0.0
  0
LINE
  5
1EE
330
1EA
100
AcDbEntity
  8
치수문자_일반주서
 62
     0
370
    -2
100
AcDbLine
 10
-61.50000000000001
 20
12.7625
 30
0.0
 11
-61.50000000000001
 21
52.44964767969643
 31
0.0
  0
LINE
  5
1EF
330
1EA
100
AcDbEntity
  8
치수문자_일반주서
 62
     0
370
    -2
100
AcDbLine
 10
49.49800000000004
 20
52.44964767969643
 30
0.0
 11
-58.19800000000001
 21
52.44964767969643
 31
0.0
  0
SOLID
  5
1F0
330
1EA
100
AcDbEntity
  8
치수문자_일반주서
 62
     0
100
AcDbTrace
 10
49.49800000000004
 20
51.89931434636309
 30
0.0
 11
49.49800000000004
 21
52.99998101302976
 31
0.0
 12
52.80000000000004
 22
52.44964767969643
 32
0.0
 13
52.80000000000004
 23
52.44964767969643
 33
0.0
  0
SOLID
  5
1F1
330
1EA
100
AcDbEntity
  8
치수문자_일반주서
 62
     0
100
AcDbTrace
 10
-58.19800000000001
 20
52.99998101302976
 30
0.0
 11
-58.19800000000001
 21
51.89931434636309
 31
0.0
 12
-61.50000000000001
 22
52.44964767969643
 32
0.0
 13
-61.50000000000001
 23
52.44964767969643
 33
0.0
  0
MTEXT
  5
1F2
330
1EA
100
AcDbEntity
  8
치수문자_일반주서
 62
     0
100
AcDbMText
 10
-1.982540378864996
 20
56.82464767969643
 30
0.0
 40
3.5
 41
0.0
 71
     2
 72
     1
  1
\A1;114.3 [4 1/2]
  7
SLDTEXTSTYLE0
 73
     1
 44
1.0
  0
POINT
  5
1F3
330
1EA
100
AcDbEntity
  8
Defpoints
 62
     0
100
AcDbPoint
 10
52.80000000000004
 20
25.39999999999994
 30
0.0
  0
POINT
  5
1F4
330
1EA
100
AcDbEntity
  8
Defpoints
 62
     0
100
AcDbPoint
 10
-61.50000000000001
 20
12.7
 30
0.0
  0
POINT
  5
1F5
330
1EA
100
AcDbEntity
  8
Defpoints
 62
     0
100
AcDbPoint
 10
-61.50000000000001
 20
52.44964767969643
 30
0.0
  0
ENDBLK
  5
1EC
330
1EA
100
AcDbEntity
  8
0
100
AcDbBlockEnd
  0
BLOCK
  5
1F7
330
1F6
100
AcDbEntity
  8
0
100
AcDbBlockBegin
  2
*D14
 70
     1
 10
0.0
 20
0.0
 30
0.0
  3
*D14
  1
*D14
  0
LINE
  5
1F9
330
1F6
100
AcDbEntity
  8
치수문자_일반주서
 62
     0
370
    -2
100
AcDbLine
 10
-61.56250000000001
 20
15.87499999999999
 30
0.0
 11
-72.27750000000007
 21
15.87499999999995
 31
0.0
  0
LINE
  5
1FA
330
1F6
100
AcDbEntity
  8
치수문자_일반주서
 62
     0
370
    -2
100
AcDbLine
 10
-58.38750000000002
 20
-15.87500000000001
 30
0.0
 11
-72.27749999999996
 21
-15.87500000000006
 31
0.0
  0
LINE
  5
1FB
330
1F6
100
AcDbEntity
  8
치수문자_일반주서
 62
     0
370
    -2
100
AcDbLine
 10
-72.27750000000006
 20
12.57299999999995
 30
0.0
 11
-72.27749999999997
 21
-12.57300000000006
 31
0.0
  0
SOLID
  5
1FC
330
1F6
100
AcDbEntity
  8
치수문자_일반주서
 62
     0
100
AcDbTrace
 10
-71.72716666666673
 20
12.57299999999995
 30
0.0
 11
-72.82783333333339
 21
12.57299999999995
 31
0.0
 12
-72.27750000000007
 22
15.87499999999995
 32
0.0
 13
-72.27750000000007
 23
15.87499999999995
 33
0.0
  0
SOLID
  5
1FD
330
1F6
100
AcDbEntity
  8
치수문자_일반주서
 62
     0
100
AcDbTrace
 10
-72.8278333333333
 20
-12.57300000000006
 30
0.0
 11
-71.72716666666665
 21
-12.57300000000006
 31
0.0
 12
-72.27749999999996
 22
-15.87500000000006
 32
0.0
 13
-72.27749999999996
 23
-15.87500000000006
 33
0.0
  0
MTEXT
  5
1FE
330
1F6
100
AcDbEntity
  8
치수문자_일반주서
 62
     0
100
AcDbMText
 10
-76.65250000000002
 20
-0.0000000000000226
 30
0.0
 40
3.5
 41
0.0
 71
     2
 72
     1
  1
\A1;%%c31.75 [1 1/4]
  7
SLDTEXTSTYLE0
 11
-3.580687802255622E-15
 21
1.0
 31
0.0
 73
     1
 44
1.0
  0
POINT
  5
1FF
330
1F6
100
AcDbEntity
  8
Defpoints
 62
     0
100
AcDbPoint
 10
-61.50000000000001
 20
15.87499999999999
 30
0.0
  0
POINT
  5
200
330
1F6
100
AcDbEntity
  8
Defpoints
 62
     0
100
AcDbPoint
 10
-58.32500000000002
 20
-15.87500000000001
 30
0.0
  0
POINT
  5
201
330
1F6
100
AcDbEntity
  8
Defpoints
 62
     0
100
AcDbPoint
 10
-72.27749999999996
 20
-15.87500000000006
 30
0.0
  0
ENDBLK
  5
1F8
330
1F6
100
AcDbEntity
  8
0
100
AcDbBlockEnd
  0
BLOCK
  5
203
330
202
100
AcDbEntity
  8
0
100
AcDbBlockBegin
  2
*D15
 70
     1
 10
0.0
 20
0.0
 30
0.0
  3
*D15
  1
*D15
  0
LINE
  5
205
330
202
100
AcDbEntity
  8
치수문자_일반주서
 62
     0
370
    -2
100
AcDbLine
 10
52.86250000000004
 20
25.39999999999994
 30
0.0
 11
77.89194413760198
 21
25.40000000000003
 31
0.0
  0
LINE
  5
206
330
202
100
AcDbEntity
  8
치수문자_일반주서
 62
     0
370
    -2
100
AcDbLine
 10
52.86250000000004
 20
-25.39999999999992
 30
0.0
 11
77.89194413760215
 21
-25.39999999999984
 31
0.0
  0
LINE
  5
207
330
202
100
AcDbEntity
  8
치수문자_일반주서
 62
     0
370
    -2
100
AcDbLine
 10
77.89194413760198
 20
25.40000000000003
 30
0.0
 11
77.89194413760185
 21
66.16444999999999
 31
0.0
  0
LINE
  5
208
330
202
100
AcDbEntity
  8
치수문자_일반주서
 62
     0
370
    -2
100
AcDbLine
 10
77.891944137602
 20
22.09800000000003
 30
0.0
 11
77.89194413760214
 21
-22.09799999999984
 31
0.0
  0
SOLID
  5
209
330
202
100
AcDbEntity
  8
치수문자_일반주서
 62
     0
100
AcDbTrace
 10
78.44227747093532
 20
22.09800000000004
 30
0.0
 11
77.34161080426867
 21
22.09800000000003
 31
0.0
 12
77.89194413760198
 22
25.40000000000003
 32
0.0
 13
77.89194413760198
 23
25.40000000000003
 33
0.0
  0
SOLID
  5
20A
330
202
100
AcDbEntity
  8
치수문자_일반주서
 62
     0
100
AcDbTrace
 10
77.34161080426881
 20
-22.09799999999985
 30
0.0
 11
78.44227747093547
 21
-22.09799999999984
 31
0.0
 12
77.89194413760215
 22
-25.39999999999984
 32
0.0
 13
77.89194413760215
 23
-25.39999999999984
 33
0.0
  0
MTEXT
  5
20B
330
202
100
AcDbEntity
  8
치수문자_일반주서
 62
     0
100
AcDbMText
 10
73.51694413760188
 20
55.88319999999997
 30
0.0
 40
3.5
 41
0.0
 71
     2
 72
     1
  1
\A1;%%c50.8 [2]
  7
SLDTEXTSTYLE0
 11
-3.356894814614656E-15
 21
1.0
 31
0.0
 73
     1
 44
1.0
  0
POINT
  5
20C
330
202
100
AcDbEntity
  8
Defpoints
 62
     0
100
AcDbPoint
 10
52.80000000000004
 20
25.39999999999994
 30
0.0
  0
POINT
  5
20D
330
202
100
AcDbEntity
  8
Defpoints
 62
     0
100
AcDbPoint
 10
52.80000000000004
 20
-25.39999999999992
 30
0.0
  0
POINT
  5
20E
330
202
100
AcDbEntity
  8
Defpoints
 62
     0
100
AcDbPoint
 10
77.89194413760217
 20
-25.39999999999983
 30
0.0
  0
ENDBLK
  5
204
330
202
100
AcDbEntity
  8
0
100
AcDbBlockEnd
  0
ENDSEC
  0
SECTION
  2
ENTITIES
  0
LINE
  5
9C
330
1F
100
AcDbEntity
  8
참조1
100
AcDbLine
 10
56.76231532850781
 20
0.0010749287238892
 30
0.0
 11
56.76231532850781
 21
4.77827382445253
 31
0.0
  0
LINE
  5
9E
330
1F
100
AcDbEntity
  8
참조1
100
AcDbLine
 10
9.931065328507794
 20
0.0010749287238892
 30
0.0
 11
9.931065328507799
 21
-39.99892507127611
 31
0.0
  0
LINE
  5
9F
330
1F
100
AcDbEntity
  8
참조1
100
AcDbLine
 10
9.931065328507799
 20
-39.99892507127611
 30
0.0
 11
-17.9277914858009
 21
-39.9989250712761
 31
0.0
  0
INSERT
  5
A1
330
1F
100
AcDbEntity
  8
0
  6
Continuous
 62
     7
100
AcDbBlockReference
 66
     1
  2
블럭10
 10
-4.009207603617412
 20
-52.04609937292004
 30
0.0
  0
ATTRIB
  5
A2
330
A1
100
AcDbEntity
  8
FORMAT
 62
     2
100
AcDbText
 10
-13.19050289235869
 20
-49.97073246008785
 30
0.0
 40
4.233333333333333
  1
E2020164 [ 4 FLUTE ]
 41
0.75
  7
SLDTEXTSTYLE0
 11
-13.19050289235869
 21
-52.08739912675452
 31
0.0
100
AcDbAttribute
  2
AUTOATTR0
 70
     0
 74
     1
  0
SEQEND
  5
A3
330
A1
100
AcDbEntity
  8
0
  6
Continuous
 62
     7
  0
HATCH
  5
A4
330
1F
100
AcDbEntity
  8
중심선
100
AcDbHatch
 10
0.0
 20
0.0
 30
0.0
210
0.0
220
0.0
230
1.0
  2
SOLID
 70
     1
 71
     0
 91
        1
 92
        0
 93
        4
 72
     1
 10
1.705701700763423
 20
-35.7989250712761
 11
-1.740573543073859
 21
-35.7989250712761
 72
     1
 10
-1.740573543073859
 20
-35.7989250712761
 11
-3.868803402277882
 21
-38.3352506518487
 72
     1
 10
-3.868803402277882
 20
-38.3352506518487
 11
-0.4224950733274504
 21
-38.33521122254621
 72
     1
 10
-0.4224950733274502
 20
-38.33521122254621
 11
1.705701700763423
 21
-35.7989250712761
 97
        0
 75
     0
 76
     1
 98
        1
 10
0.0
 20
0.0
  0
HATCH
  5
A5
330
1F
100
AcDbEntity
  8
중심선
100
AcDbHatch
 10
0.0
 20
0.0
 30
0.0
210
0.0
220
0.0
230
1.0
  2
SOLID
 70
     1
 71
     0
 91
        1
 92
        0
 93
        4
 72
     1
 10
6.718465691799374
 20
-35.79892507127613
 11
3.272190447962092
 21
-35.7989250712761
 72
     1
 10
3.272190447962092
 20
-35.7989250712761
 11
-1.258947560395296
 21
-41.19892507127612
 72
     1
 10
-1.258947560395296
 20
-41.19892507127612
 11
2.187327683441986
 21
-41.19892507127612
 72
     1
 10
2.187327683441986
 20
-41.19892507127612
 11
6.718465691799374
 21
-35.79892507127613
 97
        0
 75
     0
 76
     1
 98
        1
 10
0.0
 20
0.0
  0
HATCH
  5
A6
330
1F
100
AcDbEntity
  8
중심선
100
AcDbHatch
 10
0.0
 20
0.0
 30
0.0
210
0.0
220
0.0
230
1.0
  2
SOLID
 70
     1
 71
     0
 91
        1
 92
        0
 93
        4
 72
     1
 10
11.73122968283533
 20
-35.79892507127608
 11
8.28495443899821
 21
-35.79892507127608
 72
     1
 10
8.28495443899821
 20
-35.79892507127608
 11
1.236517537108906
 21
-44.19892507127612
 72
     1
 10
1.236517537108905
 20
-44.19892507127612
 11
4.682792780946188
 21
-44.19892507127612
 72
     1
 10
4.682792780946188
 20
-44.19892507127612
 11
11.73122968283533
 21
-35.79892507127608
 97
        0
 75
     0
 76
     1
 98
        1
 10
0.0
 20
0.0
  0
HATCH
  5
A7
330
1F
100
AcDbEntity
  8
중심선
100
AcDbHatch
 10
0.0
 20
0.0
 30
0.0
210
0.0
220
0.0
230
1.0
  2
SOLID
 70
     1
 71
     0
 91
        1
 92
        0
 93
        6
 72
     3
 10
16.53112011384747
 20
-39.99892507132738
 11
3.960054785062284
 21
1.540850780301639E-10
 40
0.3939339440162633
 50
17.09539180608432
 51
320.0019657685075
 73
     0
 72
     1
 10
18.21411976954807
 20
-38.58681907591438
 11
20.5194216432491
 21
-36.65249236586649
 72
     3
 10
16.53112011379462
 20
-39.99892507127625
 11
6.600054785286829
 21
-1.249000902703301E-13
 40
0.6363583540795982
 50
39.99873849337406
 51
368.4976242363725
 73
     1
 72
     1
 10
22.95645260569523
 20
-39.03892507120613
 11
15.21118742063054
 21
-39.03892507120613
 72
     1
 10
15.21118742063054
 20
-39.03892507120613
 11
15.21116237618461
 21
-40.95892507120602
 72
     1
 10
15.21116237618461
 20
-40.95892507120602
 11
19.65254214565665
 21
-40.95892507120599
 97
        0
 75
     0
 76
     1
 98
        1
 10
0.0
 20
0.0
  0
LINE
  5
FA
330
1F
100
AcDbEntity
  8
참조1
100
AcDbLine
 10
80.04454914385336
 20
7.441074928723896
 30
0.0
 11
80.04454914385336
 21
-7.438925071276109
 31
0.0
  0
LINE
  5
FB
330
1F
100
AcDbEntity
  8
참조1
100
AcDbLine
 10
92.74454914385336
 20
5.441074928723896
 30
0.0
 11
80.04454914385336
 21
5.441074928723896
 31
0.0
  0
SOLID
  5
FC
330
1F
100
AcDbEntity
  8
참조1
100
AcDbTrace
 10
80.04454914385336
 20
5.441074928723896
 30
0.0
 11
86.39454914385335
 21
4.425074928723896
 31
0.0
 12
86.39454914385335
 22
6.457074928723896
 32
0.0
 13
86.39454914385335
 23
6.457074928723896
 33
0.0
  0
LINE
  5
FD
330
1F
100
AcDbEntity
  8
참조1
100
AcDbLine
 10
92.74454914385336
 20
-5.438925071276109
 30
0.0
 11
80.04454914385336
 21
-5.438925071276109
 31
0.0
  0
SOLID
  5
FE
330
1F
100
AcDbEntity
  8
참조1
100
AcDbTrace
 10
80.04454914385336
 20
-5.438925071276109
 30
0.0
 11
86.39454914385335
 21
-6.454925071276109
 31
0.0
 12
86.39454914385335
 22
-4.422925071276109
 32
0.0
 13
86.39454914385335
 23
-4.422925071276109
 33
0.0
  0
MTEXT
  5
FF
330
1F
100
AcDbEntity
  8
참조1
100
AcDbMText
 10
89.64466395441593
 20
11.06679249473997
 30
0.0
 40
3.5
 41
0.0
 71
     1
 72
     1
  1
A
  7
SLDTEXTSTYLE0
 73
     1
 44
1.0
  0
MTEXT
  5
100
330
1F
100
AcDbEntity
  8
참조1
100
AcDbMText
 10
89.64466395441593
 20
0.1867924947399659
 30
0.0
 40
3.5
 41
0.0
 71
     1
 72
     1
  1
A
  7
SLDTEXTSTYLE0
 73
     1
 44
1.0
  0
ARC
  5
1B8
330
1F
100
AcDbEntity
  8
0
  6
Continuous
 62
     1
370
    15
100
AcDbCircle
 10
27.40000000000012
 20
0.0
 30
0.0
 40
25.39999999999991
100
AcDbArc
 50
315.2119058963303
 51
0.0
  0
ARC
  5
1B9
330
1F
100
AcDbEntity
  8
0
  6
Continuous
 62
     1
370
    15
100
AcDbCircle
 10
27.40000000000012
 20
0.0
 30
0.0
 40
25.39999999999991
100
AcDbArc
 50
0.0
 51
44.80665831573838
  0
LINE
  5
1BA
330
1F
100
AcDbEntity
  8
외형선
  6
Continuous
370
    15
100
AcDbLine
 10
-61.50000000000001
 20
-12.70000000000001
 30
0.0
 11
-58.325
 21
-15.87500000000001
 31
0.0
  0
LINE
  5
1BB
330
1F
100
AcDbEntity
  8
외형선
  6
Continuous
370
    15
100
AcDbLine
 10
-58.325
 20
-15.87500000000001
 30
0.0
 11
2.0
 21
-15.87500000000001
 31
0.0
  0
SPLINE
  5
1BC
330
1F
100
AcDbEntity
  8
0
  6
Continuous
 62
     1
370
    15
100
AcDbSpline
210
0.0
220
0.0
230
1.0
 70
     8
 71
     3
 72
    66
 73
    62
 74
     0
 42
0.000000001
 43
0.00000001
 40
0.0
 40
0.0
 40
0.0
 40
0.0
 40
0.0625000000000024
 40
0.0625000000000024
 40
0.0937500000000031
 40
0.0937500000000031
 40
0.1250000000000038
 40
0.1250000000000038
 40
0.1875000000000053
 40
0.1875000000000053
 40
0.2187500000000056
 40
0.2187500000000056
 40
0.2500000000000059
 40
0.2500000000000059
 40
0.3125000000000058
 40
0.3125000000000058
 40
0.3750000000000058
 40
0.3750000000000058
 40
0.4062500000000058
 40
0.4062500000000058
 40
0.4375000000000058
 40
0.4375000000000058
 40
0.4687500000000059
 40
0.4687500000000059
 40
0.4843750000000058
 40
0.4843750000000058
 40
0.5000000000000058
 40
0.5000000000000058
 40
0.5312500000000058
 40
0.5312500000000058
 40
0.5468750000000058
 40
0.5468750000000058
 40
0.5625000000000058
 40
0.5625000000000058
 40
0.5781250000000059
 40
0.5781250000000059
 40
0.5937500000000059
 40
0.5937500000000059
 40
0.6093750000000059
 40
0.6093750000000059
 40
0.6250000000000059
 40
0.6250000000000059
 40
0.656250000000006
 40
0.656250000000006
 40
0.6718750000000057
 40
0.6718750000000057
 40
0.6875000000000054
 40
0.6875000000000054
 40
0.7187500000000048
 40
0.7187500000000048
 40
0.7500000000000042
 40
0.7500000000000042
 40
0.7812500000000037
 40
0.7812500000000037
 40
0.812500000000003
 40
0.812500000000003
 40
0.8750000000000019
 40
0.8750000000000019
 40
0.937500000000001
 40
0.937500000000001
 40
1.0
 40
1.0
 40
1.0
 40
1.0
 10
27.40000000000012
 20
9.571942287949941
 30
0.0
 10
28.68997174869301
 20
8.881335827389877
 30
0.0
 10
29.97502782438951
 20
8.175671189158496
 30
0.0
 10
31.90842097105192
 20
7.118809627921353
 30
0.0
 10
32.55377202803695
 20
6.766638451901469
 30
0.0
 10
33.84753220394325
 20
6.064800859775355
 30
0.0
 10
34.49965408273047
 20
5.713362701382124
 30
0.0
 10
36.43243436187541
 20
4.684705686470364
 30
0.0
 10
37.68744054735535
 20
4.033394504549619
 30
0.0
 10
39.51730200034197
 20
3.096927678023123
 30
0.0
 10
40.11831919801622
 20
2.791307890478813
 30
0.0
 10
41.30052014302308
 20
2.189604352796215
 30
0.0
 10
41.8819734605224
 20
1.894111996177852
 30
0.0
 10
43.55907582201863
 20
1.031653859637059
 30
0.0
 10
44.60049391544132
 20
0.4833208534495839
 30
0.0
 10
46.50887977831795
 20
-0.6349739264615053
 30
0.0
 10
47.37876393904341
 20
-1.208403365690804
 30
0.0
 10
48.48094448303058
 20
-2.134694970817959
 30
0.0
 10
48.81645457865338
 20
-2.455704446322891
 30
0.0
 10
49.41742942387256
 20
-3.139978775715567
 30
0.0
 10
49.68398312632584
 20
-3.504888466391094
 30
0.0
 10
50.1317591288894
 20
-4.292870115866334
 30
0.0
 10
50.31093431858275
 20
-4.711506867820479
 30
0.0
 10
50.5058365582627
 20
-5.392503111978144
 30
0.0
 10
50.55844454447649
 20
-5.628384598384976
 30
0.0
 10
50.63688248416733
 20
-6.121458431008403
 30
0.0
 10
50.66256053217242
 20
-6.379161078786598
 30
0.0
 10
50.69516777591386
 20
-7.172849922183779
 30
0.0
 10
50.65926350111405
 20
-7.733953652314895
 30
0.0
 10
50.50843330765198
 20
-8.638024137188005
 30
0.0
 10
50.44166737883322
 20
-8.9492819044542
 30
0.0
 10
50.27858239374709
 20
-9.575115149226278
 30
0.0
 10
50.18194297647025
 20
-9.891948042640553
 30
0.0
 10
49.95829451843528
 20
-10.53387067495665
 30
0.0
 10
49.83129238708247
 20
-10.85895856198268
 30
0.0
 10
49.54552251990057
 20
-11.51785956553811
 30
0.0
 10
49.3874854304818
 20
-11.84942947150315
 30
0.0
 10
49.04995376093413
 20
-12.49983931869178
 30
0.0
 10
48.86940545198101
 20
-12.82116781215295
 30
0.0
 10
48.48514813870608
 20
-13.4560468636466
 30
0.0
 10
48.28009980137003
 20
-13.77146269458802
 30
0.0
 10
47.63985099840673
 20
-14.69070202951227
 30
0.0
 10
47.18316876478499
 20
-15.26430566262124
 30
0.0
 10
46.45448788242643
 20
-16.07107279281687
 30
0.0
 10
46.20449760057491
 20
-16.33046785666816
 30
0.0
 10
45.70007985540676
 20
-16.8216511161139
 30
0.0
 10
45.4443531303377
 20
-17.05491200696276
 30
0.0
 10
44.66613193143732
 20
-17.72030835338963
 30
0.0
 10
44.13265416609536
 20
-18.11826723161706
 30
0.0
 10
43.0321952188626
 20
-18.82959319502766
 30
0.0
 10
42.47703991698742
 20
-19.13520094495452
 30
0.0
 10
41.35608965570438
 20
-19.65760897315102
 30
0.0
 10
40.78959726046131
 20
-19.874649378477
 30
0.0
 10
39.63888520504358
 20
-20.22892363059562
 30
0.0
 10
39.05131852269793
 20
-20.36654363815016
 30
0.0
 10
37.28754940196191
 20
-20.66116463201675
 30
0.0
 10
36.10568650781366
 20
-20.70476187288909
 30
0.0
 10
33.69138414400064
 20
-20.540106482866
 30
0.0
 10
32.44988406765393
 20
-20.32769017657266
 30
0.0
 10
29.95150583649493
 20
-19.70036889487122
 30
0.0
 10
28.68938239257366
 20
-19.28582143830507
 30
0.0
 10
27.40000000000001
 20
-18.78419155376692
 30
0.0
  0
SPLINE
  5
1BD
330
1F
100
AcDbEntity
  8
0
  6
Continuous
 62
     1
370
    15
100
AcDbSpline
210
0.0
220
0.0
230
1.0
 70
     8
 71
     3
 72
    18
 73
    14
 74
     0
 42
0.000000001
 43
0.00000001
 40
0.0
 40
0.0
 40
0.0
 40
0.0
 40
0.0917461708622012
 40
0.1834884585057991
 40
0.277930033667231
 40
0.3723671712080369
 40
0.4632131498875617
 40
0.5540603870023113
 40
0.6476928820782641
 40
0.7413295119279676
 40
0.8301881850637147
 40
0.9190511473297327
 40
0.9999999999999999
 40
0.9999999999999999
 40
0.9999999999999999
 40
0.9999999999999999
 10
27.40000000000012
 20
-23.52738661296972
 30
0.0
 10
27.98270382046294
 20
-23.63850193914391
 30
0.0
 10
29.1480867980562
 20
-23.86072788846113
 30
0.0
 10
30.92988258912695
 20
-23.98808133535292
 30
0.0
 10
32.73207022959318
 20
-23.95210303814753
 30
0.0
 10
34.52308876269578
 20
-23.7344941008995
 30
0.0
 10
36.27542054761366
 20
-23.34419348959707
 30
0.0
 10
37.99423205059779
 20
-22.78769291484929
 30
0.0
 10
39.68644507759106
 20
-22.0573441156958
 30
0.0
 10
41.3077858966312
 20
-21.17379614962745
 30
0.0
 10
42.82683164268715
 20
-20.15743519669955
 30
0.0
 10
44.20516919419444
 20
-19.07514961682825
 30
0.0
 10
45.0285722179257
 20
-18.27160791933211
 30
0.0
 10
45.42108630819232
 20
-17.88856167187613
 30
0.0
  0
LINE
  5
1BE
330
1F
100
AcDbEntity
  8
외형선
  6
Continuous
370
    15
100
AcDbLine
 10
2.0
 20
1.360191419435154
 30
0.0
 11
2.0
 21
6.7303502470157
 31
0.0
  0
SPLINE
  5
1BF
330
1F
100
AcDbEntity
  8
0
  6
Continuous
 62
     1
370
    15
100
AcDbSpline
210
0.0
220
0.0
230
1.0
 70
     8
 71
     3
 72
    66
 73
    62
 74
     0
 42
0.000000001
 43
0.00000001
 40
0.0
 40
0.0
 40
0.0
 40
0.0
 40
0.0625000000000015
 40
0.0625000000000015
 40
0.0937500000000026
 40
0.0937500000000026
 40
0.1250000000000037
 40
0.1250000000000037
 40
0.1875000000000053
 40
0.1875000000000053
 40
0.2187500000000057
 40
0.2187500000000057
 40
0.2500000000000061
 40
0.2500000000000061
 40
0.3125000000000061
 40
0.3125000000000061
 40
0.3750000000000061
 40
0.3750000000000061
 40
0.4062500000000061
 40
0.4062500000000061
 40
0.4375000000000061
 40
0.4375000000000061
 40
0.4687500000000061
 40
0.4687500000000061
 40
0.4843750000000061
 40
0.4843750000000061
 40
0.500000000000006
 40
0.500000000000006
 40
0.5312500000000061
 40
0.5312500000000061
 40
0.5468750000000061
 40
0.5468750000000061
 40
0.5625000000000061
 40
0.5625000000000061
 40
0.5781250000000061
 40
0.5781250000000061
 40
0.5937500000000062
 40
0.5937500000000062
 40
0.6093750000000062
 40
0.6093750000000062
 40
0.6250000000000062
 40
0.6250000000000062
 40
0.6562500000000063
 40
0.6562500000000063
 40
0.671875000000006
 40
0.671875000000006
 40
0.6875000000000057
 40
0.6875000000000057
 40
0.7187500000000051
 40
0.7187500000000051
 40
0.7500000000000044
 40
0.7500000000000044
 40
0.7812500000000039
 40
0.7812500000000039
 40
0.8125000000000033
 40
0.8125000000000033
 40
0.8750000000000022
 40
0.8750000000000022
 40
0.9375000000000011
 40
0.9375000000000011
 40
1.0
 40
1.0
 40
1.0
 40
1.0
 10
27.40000000000012
 20
23.52738661296978
 30
0.0
 10
28.68997174869301
 20
23.80835471592611
 30
0.0
 10
29.97502782438963
 20
23.95507325635317
 30
0.0
 10
31.90842097105192
 20
23.97282139071049
 30
0.0
 10
32.55377202803689
 20
23.94486971409655
 30
0.0
 10
33.84753220394325
 20
23.81917434948513
 30
0.0
 10
34.49965408273047
 20
23.72051534926399
 30
0.0
 10
36.43243436187541
 20
23.32017284833353
 30
0.0
 10
37.68744054735535
 20
22.91770663151451
 30
0.0
 10
39.51730200034197
 20
22.11968075182858
 30
0.0
 10
40.11831919801622
 20
21.82114976111379
 30
0.0
 10
41.30052014302319
 20
21.15870488453055
 30
0.0
 10
41.88197346052246
 20
20.7940285359304
 30
0.0
 10
43.55907582201851
 20
19.62567991601498
 30
0.0
 10
44.60049391544132
 20
18.74161594855658
 30
0.0
 10
46.50887977831795
 20
16.78649099949751
 30
0.0
 10
47.37876393904341
 20
15.70751418532195
 30
0.0
 10
48.48094448303058
 20
14.02644535732509
 30
0.0
 10
48.81645457865349
 20
13.45400498477538
 30
0.0
 10
49.41742942387268
 20
12.29140333852974
 30
0.0
 10
49.68398312632584
 20
11.69853430456597
 30
0.0
 10
50.1317591288894
 20
10.51447787984634
 30
0.0
 10
50.31093431858275
 20
9.929712717777907
 30
0.0
 10
50.50583655826264
 20
9.074046940232403
 30
0.0
 10
50.55844454447649
 20
8.792425170499017
 30
0.0
 10
50.63688248416744
 20
8.238570651525926
 30
0.0
 10
50.66256053217242
 20
7.966039672948184
 30
0.0
 10
50.69516777591375
 20
7.183189326347035
 30
0.0
 10
50.65926350111405
 20
6.701550164206871
 30
0.0
 10
50.50843330765198
 20
6.056763752170681
 30
0.0
 10
50.44166737883322
 20
5.855696000048084
 30
0.0
 10
50.2785823937472
 20
5.49407821010362
 30
0.0
 10
50.18194297647025
 20
5.331834365569621
 30
0.0
 10
49.95829451843539
 20
5.04548675413275
 30
0.0
 10
49.83129238708247
 20
4.92137436581213
 30
0.0
 10
49.54552251990069
 20
4.7132290633097
 30
0.0
 10
49.38748543048186
 20
4.630272147082326
 30
0.0
 10
49.04995376093402
 20
4.509039106963815
 30
0.0
 10
48.86940545198101
 20
4.46993425379819
 30
0.0
 10
48.48514813870597
 20
4.432759584546293
 30
0.0
 10
48.28009980137003
 20
4.434879522524785
 30
0.0
 10
47.63985099840673
 20
4.500148976871333
 30
0.0
 10
47.18316876478499
 20
4.62013999890421
 30
0.0
 10
46.45448788242643
 20
4.893539890844885
 30
0.0
 10
46.20449760057491
 20
5.000472466747938
 30
0.0
 10
45.70007985540676
 20
5.238049859621968
 30
0.0
 10
45.4443531303377
 20
5.369161682847639
 30
0.0
 10
44.66613193143732
 20
5.794632216414992
 30
0.0
 10
44.13265416609531
 20
6.12091255352827
 30
0.0
 10
43.03219521886265
 20
6.841036921075052
 30
0.0
 10
42.47703991698742
 20
7.227115710638558
 30
0.0
 10
41.35608965570438
 20
8.031825467340164
 30
0.0
 10
40.78959726046142
 20
8.451300651055863
 30
0.0
 10
39.63888520504358
 20
9.311703554913114
 30
0.0
 10
39.05131852269793
 20
9.755014448548081
 30
0.0
 10
37.28754940196185
 20
11.07750706459472
 30
0.0
 10
36.10568650781366
 20
11.95215354710891
 30
0.0
 10
33.69138414400058
 20
13.63277768557028
 30
0.0
 10
32.44988406765376
 20
14.44405436997129
 30
0.0
 10
29.95150583649493
 20
15.89755663699559
 30
0.0
 10
28.68938239257366
 20
16.54607095319519
 30
0.0
 10
27.40000000000001
 20
17.09719707061324
 30
0.0
  0
SPLINE
  5
1C0
330
1F
100
AcDbEntity
  8
0
  6
Continuous
 62
     1
370
    15
100
AcDbSpline
210
0.0
220
0.0
230
1.0
 70
     8
 71
     3
 72
     9
 73
     5
 74
     0
 42
0.000000001
 43
0.00000001
 40
0.0
 40
0.0
 40
0.0
 40
0.0
 40
0.3736054492374736
 40
1.0
 40
1.0
 40
1.0
 40
1.0
 10
17.5858231523712
 20
20.77765175049192
 30
0.0
 10
18.80800761866519
 20
21.18933259130365
 30
0.0
 10
22.07933160172905
 20
22.29124596449448
 30
0.0
 10
25.35078156802197
 20
23.05129563872374
 30
0.0
 10
27.40000000000001
 20
23.52738661296978
 30
0.0
  0
SPLINE
  5
1C1
330
1F
100
AcDbEntity
  8
0
  6
Continuous
 62
     1
370
    15
100
AcDbSpline
210
0.0
220
0.0
230
1.0
 70
     8
 71
     3
 72
    12
 73
     8
 74
     0
 42
0.000000001
 43
0.00000001
 40
0.0
 40
0.0
 40
0.0
 40
0.0
 40
0.1709275502910318
 40
0.3418385562310562
 40
0.5127378934432029
 40
0.6836304497243414
 40
0.6936293365732151
 40
0.6936293365732151
 40
0.6936293365732151
 40
0.6936293365732151
 10
27.40000000000012
 20
17.0971970706133
 30
0.0
 10
25.31354408317807
 20
17.95467339067017
 30
0.0
 10
21.14083420093965
 20
19.66954303427929
 30
0.0
 10
14.88217637989112
 20
21.75107983831478
 30
0.0
 10
8.624017975446492
 20
23.42143559783617
 30
0.0
 10
4.330027632838664
 20
24.22919484062629
 30
0.0
 10
2.12204747918625
 20
24.56135745865497
 30
0.0
 10
2.0
 20
24.57945535856297
 30
0.0
  0
LINE
  5
1C2
330
1F
100
AcDbEntity
  8
외형선
  6
Continuous
370
    15
100
AcDbLine
 10
2.0
 20
-15.81662114051213
 30
0.0
 11
2.0
 21
-14.37769141943496
 31
0.0
  0
LINE
  5
1C3
330
1F
100
AcDbEntity
  8
외형선
  6
Continuous
370
    15
100
AcDbLine
 10
-58.325
 20
-15.87500000000001
 30
0.0
 11
-58.325
 21
-0.0000000000000071
 31
0.0
  0
LINE
  5
1C4
330
1F
100
AcDbEntity
  8
외형선
  6
Continuous
370
    15
100
AcDbLine
 10
-61.50000000000001
 20
-0.0000000000000071
 30
0.0
 11
-61.50000000000001
 21
12.7
 31
0.0
  0
LINE
  5
1C5
330
1F
100
AcDbEntity
  8
외형선
  6
Continuous
370
    15
100
AcDbLine
 10
-61.50000000000001
 20
-12.70000000000001
 30
0.0
 11
-61.50000000000001
 21
-0.0000000000000071
 31
0.0
  0
LINE
  5
1C6
330
1F
100
AcDbEntity
  8
외형선
  6
Continuous
370
    15
100
AcDbLine
 10
2.0
 20
-0.0000000000000071
 30
0.0
 11
2.0
 21
24.57945535856297
 31
0.0
  0
LINE
  5
1C7
330
1F
100
AcDbEntity
  8
외형선
  6
Continuous
370
    15
100
AcDbLine
 10
2.0
 20
-24.57892772141455
 30
0.0
 11
2.0
 21
-0.0000000000000071
 31
0.0
  0
LINE
  5
1C8
330
1F
100
AcDbEntity
  8
중심선
100
AcDbLine
 10
-64.50000000000001
 20
-0.0000000000000071
 30
0.0
 11
55.79999999999998
 21
0.0000000000000071
 31
0.0
  0
CIRCLE
  5
1C9
330
1F
100
AcDbEntity
  8
해칭선
100
AcDbCircle
 10
0.0
 20
0.0
 30
0.0
 40
3.000000000000001
  0
DIMENSION
  5
1CA
330
1F
100
AcDbEntity
  8
치수문자_일반주서
100
AcDbDimension
  2
*D12
 10
2.0
 20
40.23632893770112
 30
0.0
 11
25.8294035532233
 21
40.23632893770112
 31
0.0
 70
   160
  1
<>
 71
     2
 42
50.80000000000004
  3
SLDDIMSTYLE1
100
AcDbAlignedDimension
 13
52.80000000000004
 23
25.39999999999994
 33
0.0
 14
2.0
 24
24.57945535856297
 34
0.0
 50
0.000000000000004
100
AcDbRotatedDimension
1001
ACAD
1000
DSTYLE
1002
{
1070
   171
1070
     6
1070
   273
1070
     7
1002
}
  0
DIMENSION
  5
1CB
330
1F
100
AcDbEntity
  8
치수문자_일반주서
100
AcDbDimension
  2
*D13
 10
-61.50000000000001
 20
52.44964767969643
 30
0.0
 11
-1.982540378864996
 21
52.44964767969643
 31
0.0
 70
   160
  1
<>
 71
     2
 42
114.3000000000001
  3
SLDDIMSTYLE1
100
AcDbAlignedDimension
 13
52.80000000000004
 23
25.39999999999994
 33
0.0
 14
-61.50000000000001
 24
12.7
 34
0.0
 50
0.0000000000000036
100
AcDbRotatedDimension
1001
ACAD
1000
DSTYLE
1002
{
1070
   171
1070
     6
1070
   273
1070
     7
1002
}
  0
DIMENSION
  5
1CC
330
1F
100
AcDbEntity
  8
치수문자_일반주서
100
AcDbDimension
  2
*D14
 10
-72.27749999999996
 20
-15.87500000000006
 30
0.0
 11
-72.27750000000002
 21
-0.0000000000000071
 31
0.0
 70
   160
  1
%%c<>
 71
     2
 42
31.75000000000001
 52
-270.0
  3
SLDDIMSTYLE1
100
AcDbAlignedDimension
 13
-61.50000000000001
 23
15.87499999999999
 33
0.0
 14
-58.32500000000002
 24
-15.87500000000001
 34
0.0
 50
90.0000000000002
100
AcDbRotatedDimension
1001
ACAD
1000
DSTYLE
1002
{
1070
   171
1070
     6
1070
   273
1070
     7
1002
}
  0
DIMENSION
  5
1CD
330
1F
100
AcDbEntity
  8
치수문자_일반주서
100
AcDbDimension
  2
*D15
 10
77.89194413760215
 20
-25.39999999999984
 30
0.0
 11
77.89194413760188
 21
55.88319999999998
 31
0.0
 70
   160
  1
%%c<>
 71
     2
 42
50.79999999999986
 52
-270.0
  3
SLDDIMSTYLE1
100
AcDbAlignedDimension
 13
52.80000000000004
 23
25.39999999999994
 33
0.0
 14
52.80000000000004
 24
-25.39999999999992
 34
0.0
 50
90.0000000000002
100
AcDbRotatedDimension
1001
ACAD
1000
DSTYLE
1002
{
1070
   171
1070
     6
1070
   273
1070
     7
1002
}
  0
INSERT
  5
1CE
330
1F
100
AcDbEntity
  8
해칭선
100
AcDbBlockReference
  2
SW_DOWELSYMBOL_0
 10
0.0
 20
0.0
 30
0.0
  0
LINE
  5
1CF
330
1F
100
AcDbEntity
  8
외형선
  6
Continuous
370
    15
100
AcDbLine
 10
-39.08132500000001
 20
13.48739999999999
 30
0.0
 11
-25.97492499999998
 21
13.48739999999999
 31
0.0
  0
LINE
  5
1D0
330
1F
100
AcDbEntity
  8
외형선
  6
Continuous
370
    15
100
AcDbLine
 10
-25.97492499999998
 20
13.48739999999999
 30
0.0
 11
-23.58732499999996
 21
15.87500000000001
 31
0.0
  0
LINE
  5
1D1
330
1F
100
AcDbEntity
  8
외형선
  6
Continuous
370
    15
100
AcDbLine
 10
-39.08132500000001
 20
13.48739999999999
 30
0.0
 11
-41.46892500000003
 21
15.87500000000001
 31
0.0
  0
LINE
  5
1D2
330
1F
100
AcDbEntity
  8
외형선
  6
Continuous
370
    15
100
AcDbLine
 10
-48.80000000000003
 20
13.48739999999999
 30
0.0
 11
-46.41240000000012
 21
15.87499999999998
 31
0.0
  0
LINE
  5
1D3
330
1F
100
AcDbEntity
  8
외형선
  6
Continuous
370
    15
100
AcDbLine
 10
-41.468925
 20
15.87499999999999
 30
0.0
 11
-46.41240000000012
 21
15.87499999999999
 31
0.0
  0
LINE
  5
1D4
330
1F
100
AcDbEntity
  8
외형선
  6
Continuous
370
    15
100
AcDbLine
 10
-60.71260000000002
 20
13.48739999999999
 30
0.0
 11
-48.80000000000003
 21
13.48739999999999
 31
0.0
  0
LINE
  5
1D5
330
1F
100
AcDbEntity
  8
외형선
  6
Continuous
370
    15
100
AcDbLine
 10
-60.71260000000002
 20
13.48739999999999
 30
0.0
 11
-61.50000000000001
 21
12.7
 31
0.0
  0
LINE
  5
1D6
330
1F
100
AcDbEntity
  8
외형선
  6
Continuous
370
    15
100
AcDbLine
 10
-58.325
 20
-0.0000000000000071
 30
0.0
 11
-58.325
 21
13.48739999999999
 31
0.0
  0
LINE
  5
1D7
330
1F
100
AcDbEntity
  8
외형선
  6
Continuous
370
    15
100
AcDbLine
 10
2.0
 20
15.87499999999999
 30
0.0
 11
-23.58732499999996
 21
15.87499999999999
 31
0.0
  0
SPLINE
  5
1D9
330
1F
100
AcDbEntity
  8
0
  6
Continuous
 62
     1
370
    15
100
AcDbSpline
210
0.0
220
0.0
230
1.0
 70
     8
 71
     3
 72
    22
 73
    18
 74
     0
 42
0.000000001
 43
0.00000001
 40
0.5454574471240857
 40
0.5454574471240857
 40
0.5454574471240857
 40
0.5454574471240857
 40
0.5624999999999983
 40
0.5624999999999983
 40
0.6249999999999986
 40
0.6249999999999986
 40
0.6874999999999988
 40
0.6874999999999988
 40
0.749999999999999
 40
0.749999999999999
 40
0.8124999999999993
 40
0.8124999999999993
 40
0.8749999999999996
 40
0.8749999999999996
 40
0.9374999999999998
 40
0.9374999999999998
 40
1.0
 40
1.0
 40
1.0
 40
1.0
 10
2.000000000000057
 20
20.86192240478387
 30
0.0
 10
2.317896729993151
 20
20.75732317512389
 30
0.0
 10
2.635865844467844
 20
20.65108561746053
 30
0.0
 10
4.119737725360807
 20
20.14775643190315
 30
0.0
 10
5.283194230034724
 20
19.73094272723063
 30
0.0
 10
7.606603491086986
 20
18.85726429375163
 30
0.0
 10
8.773164172522371
 20
18.39954752015317
 30
0.0
 10
11.10499756946584
 20
17.44653758973753
 30
0.0
 10
12.26801043826509
 20
16.95158119484327
 30
0.0
 10
14.59182901287193
 20
15.92749647227876
 30
0.0
 10
15.75847761127045
 20
15.39748600711934
 30
0.0
 10
18.09025060685642
 20
14.30641941502431
 30
0.0
 10
19.25284457616948
 20
13.74578564208473
 30
0.0
 10
21.57706251385446
 20
12.59704226318128
 30
0.0
 10
22.7437939859615
 20
12.00806936284253
 30
0.0
 10
25.07549651549428
 20
10.80639788580837
 30
0.0
 10
26.23769632771845
 20
10.19419965600756
 30
0.0
 10
27.40000000000001
 20
9.571942287949955
 30
0.0
  0
SPLINE
  5
1DB
330
1F
100
AcDbEntity
  8
0
  6
Continuous
 62
     1
370
    15
100
AcDbSpline
210
0.0
220
0.0
230
1.0
 70
     8
 71
     3
 72
    22
 73
    18
 74
     0
 42
0.000000001
 43
0.00000001
 40
0.5454574471240864
 40
0.5454574471240864
 40
0.5454574471240864
 40
0.5454574471240864
 40
0.5625
 40
0.5625
 40
0.625
 40
0.625
 40
0.6875
 40
0.6875
 40
0.75
 40
0.75
 40
0.8125
 40
0.8125
 40
0.875
 40
0.875
 40
0.9375
 40
0.9375
 40
1.0
 40
1.0
 40
1.0
 40
1.0
 10
1.999999999999943
 20
-14.48930439382486
 30
0.0
 10
2.317896729993095
 20
-14.63991158886876
 30
0.0
 10
2.635865844467816
 20
-14.78939784855812
 30
0.0
 10
4.119737725360807
 20
-15.48160670914605
 30
0.0
 10
5.283194230034781
 20
-16.00940469696829
 30
0.0
 10
7.606603491086986
 20
-17.02981864296168
 30
0.0
 10
8.773164172522371
 20
-17.5233809546478
 30
0.0
 10
11.10499756946584
 20
-18.47242688868906
 30
0.0
 10
12.26801043826509
 20
-18.92762762714691
 30
0.0
 10
14.59182901287193
 20
-19.79712223336631
 30
0.0
 10
15.75847761127037
 20
-20.21211631372078
 30
0.0
 10
18.09025060685642
 20
-20.9985376809965
 30
0.0
 10
19.25284457616948
 20
-21.36971271056052
 30
0.0
 10
21.57706251385446
 20
-22.06639459607436
 30
0.0
 10
22.74379398596159
 20
-22.39237553912967
 30
0.0
 10
25.07549651549439
 20
-22.99639051768445
 30
0.0
 10
26.23769632771862
 20
-23.27422583003706
 30
0.0
 10
27.40000000000012
 20
-23.52738661296973
 30
0.0
  0
SPLINE
  5
1DC
330
1F
100
AcDbEntity
  8
0
  6
Continuous
 62
     1
370
    15
100
AcDbSpline
210
0.0
220
0.0
230
1.0
 70
     8
 71
     3
 72
    11
 73
     7
 74
     0
 42
0.000000001
 43
0.00000001
 40
0.0
 40
0.0
 40
0.0
 40
0.0
 40
0.0586932875849727
 40
0.1945452836281771
 40
0.3303918893461313
 40
0.3383402396933
 40
0.3383402396933
 40
0.3383402396933
 40
0.3383402396933
 10
17.5858231523716
 20
-20.77765175049192
 30
0.0
 10
16.68456237655607
 20
-21.08744317514827
 30
0.0
 10
13.69723553785855
 20
-22.11428053688394
 30
0.0
 10
8.624021835251739
 20
-23.40265382982707
 30
0.0
 10
4.330029067466057
 20
-24.23211756105695
 30
0.0
 10
2.122047479232037
 20
-24.56104361746788
 30
0.0
 10
2.000000000000028
 20
-24.57892772141455
 30
0.0
  0
SPLINE
  5
20F
330
1F
100
AcDbEntity
  8
0
  6
Continuous
 62
     1
370
    15
100
AcDbSpline
210
0.0
220
0.0
230
1.0
 70
     8
 71
     3
 72
    22
 73
    18
 74
     0
 42
0.000000001
 43
0.00000001
 40
0.5454574471240875
 40
0.5454574471240875
 40
0.5454574471240875
 40
0.5454574471240875
 40
0.5625
 40
0.5625
 40
0.625
 40
0.625
 40
0.6875
 40
0.6875
 40
0.75
 40
0.75
 40
0.8125
 40
0.8125
 40
0.875
 40
0.875
 40
0.9375
 40
0.9375
 40
1.0
 40
1.0
 40
1.0
 40
1.0
 10
2.000000000000028
 20
-6.407573969962581
 30
0.0
 10
2.317896729993151
 20
-6.58501116999928
 30
0.0
 10
2.635865844467816
 20
-6.761961070221409
 30
0.0
 10
4.11973772536075
 20
-7.58526893840164
 30
0.0
 10
5.283194230034781
 20
-8.224417699729123
 30
0.0
 10
7.606603491086986
 20
-9.483500282512239
 30
0.0
 10
8.773164172522428
 20
-10.10461620850899
 30
0.0
 10
11.10499756946575
 20
-11.32406083901677
 30
0.0
 10
12.26801043826492
 20
-11.92200789164232
 30
0.0
 10
14.59182901287193
 20
-13.09128617443115
 30
0.0
 10
15.75847761127037
 20
-13.66357883847852
 30
0.0
 10
18.09025060685642
 20
-14.77797359977187
 30
0.0
 10
19.25284457616942
 20
-15.31969328138904
 30
0.0
 10
21.57706251385446
 20
-16.36973868535954
 30
0.0
 10
22.74379398596159
 20
-16.87880708588371
 30
0.0
 10
25.07549651549428
 20
-17.86011788039092
 30
0.0
 10
26.23769632771851
 20
-18.33200121808147
 30
0.0
 10
27.40000000000012
 20
-18.78419155376699
 30
0.0
  0
ENDSEC
  0
SECTION
  2
OBJECTS
  0
DICTIONARY
  5
C
330
0
100
AcDbDictionary
281
     1
  3
ACAD_GROUP
350
D
  3
ACAD_IMAGE_VARS
350
12B
  3
ACAD_LAYOUT
350
1A
  3
ACAD_MLINESTYLE
350
17
  3
ACAD_PLOTSETTINGS
350
19
  3
ACAD_PLOTSTYLENAME
350
E
  3
ACAD_SCALELIST
350
47
  3
APPDATA
350
129
  3
DWGPROPS
350
210
  0
DICTIONARY
  5
1B3
330
2
100
AcDbDictionary
280
     1
281
     1
  3
ACAD_LAYERSTATES
360
1B4
  0
DICTIONARY
  5
D
102
{ACAD_REACTORS
330
C
102
}
330
C
100
AcDbDictionary
281
     1
  0
RASTERVARIABLES
  5
12B
102
{ACAD_REACTORS
330
C
102
}
330
C
100
AcDbRasterVariables
 90
        0
 70
     1
 71
     1
 72
     1
  0
DICTIONARY
  5
1A
102
{ACAD_REACTORS
330
C
102
}
330
C
100
AcDbDictionary
281
     1
  3
Layout1
350
1E
  3
Layout2
350
26
  3
Model
350
22
  0
DICTIONARY
  5
17
102
{ACAD_REACTORS
330
C
102
}
330
C
100
AcDbDictionary
281
     1
  3
Standard
350
18
  0
DICTIONARY
  5
19
102
{ACAD_REACTORS
330
C
102
}
330
C
100
AcDbDictionary
281
     1
  0
ACDBDICTIONARYWDFLT
  5
E
102
{ACAD_REACTORS
330
C
102
}
330
C
100
AcDbDictionary
281
     1
  3
Normal
350
F
100
AcDbDictionaryWithDefault
340
F
  0
DICTIONARY
  5
47
102
{ACAD_REACTORS
330
C
102
}
330
C
100
AcDbDictionary
281
     1
  3
A0
350
48
  3
A1
350
49
  3
A2
350
4A
  3
A3
350
4B
  3
A4
350
4C
  3
A5
350
4D
  3
A6
350
4E
  3
A7
350
4F
  3
A8
350
50
  3
A9
350
51
  3
B0
350
52
  3
B1
350
53
  3
B2
350
54
  3
B3
350
55
  3
B4
350
56
  3
B5
350
57
  3
B6
350
58
  3
B7
350
59
  3
B8
350
5A
  3
B9
350
5B
  3
C0
350
5C
  3
C1
350
5D
  3
C2
350
5E
  3
C3
350
5F
  3
C4
350
60
  3
C5
350
61
  3
C6
350
62
  3
C7
350
63
  3
C8
350
64
  3
C9
350
65
  3
D0
350
66
  3
D1
350
67
  3
D2
350
68
  0
DICTIONARY
  5
129
102
{ACAD_REACTORS
330
C
102
}
330
C
100
AcDbDictionary
281
     1
  0
XRECORD
  5
210
102
{ACAD_REACTORS
330
C
102
}
330
C
100
AcDbXrecord
280
     1
  1
DWGPROPS COOKIE
  2

  3

  4

  6

  7

  8
12017012
  9

300
=
301
=
302
=
303
=
304
=
305
=
306
=
307
=
308
=
309
=
 40
0.0
 41
2458323.315221979
 42
2458324.113679271
  1

 90
        0
  0
DICTIONARY
  5
1B4
102
{ACAD_REACTORS
330
1B3
102
}
330
1B3
100
AcDbDictionary
281
     1
  0
LAYOUT
  5
1E
102
{ACAD_REACTORS
330
1A
102
}
330
1A
100
AcDbPlotSettings
  1

  2
none_device
  4

  6

 40
0.0
 41
0.0
 42
0.0
 43
0.0
 44
0.0
 45
0.0
 46
0.0
 47
0.0
 48
0.0
 49
0.0
140
0.0
141
0.0
142
1.0
143
1.0
 70
   688
 72
     1
 73
     0
 74
     5
  7

 75
    16
147
1.0
148
0.0
149
0.0
100
AcDbLayout
  1
Layout1
 70
     1
 71
     1
 10
0.0
 20
0.0
 11
420.0
 21
297.0
 12
0.0
 22
0.0
 32
0.0
 14
1.000000000000000E+20
 24
1.000000000000000E+20
 34
1.000000000000000E+20
 15
-1.000000000000000E+20
 25
-1.000000000000000E+20
 35
-1.000000000000000E+20
146
0.0
 13
0.0
 23
0.0
 33
0.0
 16
1.0
 26
0.0
 36
0.0
 17
0.0
 27
1.0
 37
0.0
 76
     0
330
1B
  0
LAYOUT
  5
26
102
{ACAD_REACTORS
330
1A
102
}
330
1A
100
AcDbPlotSettings
  1

  2
none_device
  4

  6

 40
0.0
 41
0.0
 42
0.0
 43
0.0
 44
0.0
 45
0.0
 46
0.0
 47
0.0
 48
0.0
 49
0.0
140
0.0
141
0.0
142
1.0
143
1.0
 70
   688
 72
     1
 73
     0
 74
     5
  7

 75
    16
147
1.0
148
0.0
149
0.0
100
AcDbLayout
  1
Layout2
 70
     1
 71
     2
 10
0.0
 20
0.0
 11
0.0
 21
0.0
 12
0.0
 22
0.0
 32
0.0
 14
0.0
 24
0.0
 34
0.0
 15
0.0
 25
0.0
 35
0.0
146
0.0
 13
0.0
 23
0.0
 33
0.0
 16
1.0
 26
0.0
 36
0.0
 17
0.0
 27
1.0
 37
0.0
 76
     0
330
23
  0
LAYOUT
  5
22
102
{ACAD_REACTORS
330
1A
102
}
330
1A
100
AcDbPlotSettings
  1

  2
none_device
  4
ANSI_A_(11.00_x_8.50_Inches)
  6

 40
6.35
 41
19.05
 42
6.35000508
 43
19.05000254
 44
279.4
 45
215.9
 46
103.183359198313
 47
100.0998321548452
 48
0.0
 49
0.0
140
0.0
141
0.0
142
0.0715153934642642
143
1.0
 70
  1696
 72
     0
 73
     0
 74
     0
  7

 75
     0
147
0.0235690232323232
148
0.0
149
0.0
100
AcDbLayout
  1
Model
 70
     1
 71
     0
 10
0.0
 20
0.0
 11
420.0
 21
297.0
 12
0.0
 22
0.0
 32
0.0
 14
1.000000000000000E+20
 24
1.000000000000000E+20
 34
1.000000000000000E+20
 15
-1.000000000000000E+20
 25
-1.000000000000000E+20
 35
-1.000000000000000E+20
146
0.0
 13
0.0
 23
0.0
 33
0.0
 16
1.0
 26
0.0
 36
0.0
 17
0.0
 27
1.0
 37
0.0
 76
     0
330
1F
331
29
  0
MLINESTYLE
  5
18
102
{ACAD_REACTORS
330
17
102
}
330
17
100
AcDbMlineStyle
  2
Standard
 70
     0
  3

 62
   256
 51
90.0
 52
90.0
 71
     2
 49
0.5
 62
   256
  6
BYLAYER
 49
-0.5
 62
   256
  6
BYLAYER
  0
ACDBPLACEHOLDER
  5
F
102
{ACAD_REACTORS
330
E
102
}
330
E
  0
SCALE
  5
48
102
{ACAD_REACTORS
330
47
102
}
330
47
100
AcDbScale
 70
     0
300
1:1
140
1.0
141
1.0
290
     1
  0
SCALE
  5
49
102
{ACAD_REACTORS
330
47
102
}
330
47
100
AcDbScale
 70
     0
300
1:2
140
1.0
141
2.0
290
     0
  0
SCALE
  5
4A
102
{ACAD_REACTORS
330
47
102
}
330
47
100
AcDbScale
 70
     0
300
1:4
140
1.0
141
4.0
290
     0
  0
SCALE
  5
4B
102
{ACAD_REACTORS
330
47
102
}
330
47
100
AcDbScale
 70
     0
300
1:5
140
1.0
141
5.0
290
     0
  0
SCALE
  5
4C
102
{ACAD_REACTORS
330
47
102
}
330
47
100
AcDbScale
 70
     0
300
1:8
140
1.0
141
8.0
290
     0
  0
SCALE
  5
4D
102
{ACAD_REACTORS
330
47
102
}
330
47
100
AcDbScale
 70
     0
300
1:10
140
1.0
141
10.0
290
     0
  0
SCALE
  5
4E
102
{ACAD_REACTORS
330
47
102
}
330
47
100
AcDbScale
 70
     0
300
1:16
140
1.0
141
16.0
290
     0
  0
SCALE
  5
4F
102
{ACAD_REACTORS
330
47
102
}
330
47
100
AcDbScale
 70
     0
300
1:20
140
1.0
141
20.0
290
     0
  0
SCALE
  5
50
102
{ACAD_REACTORS
330
47
102
}
330
47
100
AcDbScale
 70
     0
300
1:30
140
1.0
141
30.0
290
     0
  0
SCALE
  5
51
102
{ACAD_REACTORS
330
47
102
}
330
47
100
AcDbScale
 70
     0
300
1:40
140
1.0
141
40.0
290
     0
  0
SCALE
  5
52
102
{ACAD_REACTORS
330
47
102
}
330
47
100
AcDbScale
 70
     0
300
1:50
140
1.0
141
50.0
290
     0
  0
SCALE
  5
53
102
{ACAD_REACTORS
330
47
102
}
330
47
100
AcDbScale
 70
     0
300
1:100
140
1.0
141
100.0
290
     0
  0
SCALE
  5
54
102
{ACAD_REACTORS
330
47
102
}
330
47
100
AcDbScale
 70
     0
300
2:1
140
2.0
141
1.0
290
     0
  0
SCALE
  5
55
102
{ACAD_REACTORS
330
47
102
}
330
47
100
AcDbScale
 70
     0
300
4:1
140
4.0
141
1.0
290
     0
  0
SCALE
  5
56
102
{ACAD_REACTORS
330
47
102
}
330
47
100
AcDbScale
 70
     0
300
8:1
140
8.0
141
1.0
290
     0
  0
SCALE
  5
57
102
{ACAD_REACTORS
330
47
102
}
330
47
100
AcDbScale
 70
     0
300
10:1
140
10.0
141
1.0
290
     0
  0
SCALE
  5
58
102
{ACAD_REACTORS
330
47
102
}
330
47
100
AcDbScale
 70
     0
300
100:1
140
100.0
141
1.0
290
     0
  0
SCALE
  5
59
102
{ACAD_REACTORS
330
47
102
}
330
47
100
AcDbScale
 70
     0
300
1/128" = 1'-0"
140
0.0078125
141
12.0
290
     0
  0
SCALE
  5
5A
102
{ACAD_REACTORS
330
47
102
}
330
47
100
AcDbScale
 70
     0
300
1/64" = 1'-0"
140
0.015625
141
12.0
290
     0
  0
SCALE
  5
5B
102
{ACAD_REACTORS
330
47
102
}
330
47
100
AcDbScale
 70
     0
300
1/32" = 1'-0"
140
0.03125
141
12.0
290
     0
  0
SCALE
  5
5C
102
{ACAD_REACTORS
330
47
102
}
330
47
100
AcDbScale
 70
     0
300
1/16" = 1'-0"
140
0.0625
141
12.0
290
     0
  0
SCALE
  5
5D
102
{ACAD_REACTORS
330
47
102
}
330
47
100
AcDbScale
 70
     0
300
3/32" = 1'-0"
140
0.09375
141
12.0
290
     0
  0
SCALE
  5
5E
102
{ACAD_REACTORS
330
47
102
}
330
47
100
AcDbScale
 70
     0
300
1/8" = 1'-0"
140
0.125
141
12.0
290
     0
  0
SCALE
  5
5F
102
{ACAD_REACTORS
330
47
102
}
330
47
100
AcDbScale
 70
     0
300
3/16" = 1'-0"
140
0.1875
141
12.0
290
     0
  0
SCALE
  5
60
102
{ACAD_REACTORS
330
47
102
}
330
47
100
AcDbScale
 70
     0
300
1/4" = 1'-0"
140
0.25
141
12.0
290
     0
  0
SCALE
  5
61
102
{ACAD_REACTORS
330
47
102
}
330
47
100
AcDbScale
 70
     0
300
3/8" = 1'-0"
140
0.375
141
12.0
290
     0
  0
SCALE
  5
62
102
{ACAD_REACTORS
330
47
102
}
330
47
100
AcDbScale
 70
     0
300
1/2" = 1'-0"
140
0.5
141
12.0
290
     0
  0
SCALE
  5
63
102
{ACAD_REACTORS
330
47
102
}
330
47
100
AcDbScale
 70
     0
300
3/4" = 1'-0"
140
0.75
141
12.0
290
     0
  0
SCALE
  5
64
102
{ACAD_REACTORS
330
47
102
}
330
47
100
AcDbScale
 70
     0
300
1" = 1'-0"
140
1.0
141
12.0
290
     0
  0
SCALE
  5
65
102
{ACAD_REACTORS
330
47
102
}
330
47
100
AcDbScale
 70
     0
300
1-1/2" = 1'-0"
140
1.5
141
12.0
290
     0
  0
SCALE
  5
66
102
{ACAD_REACTORS
330
47
102
}
330
47
100
AcDbScale
 70
     0
300
3" = 1'-0"
140
3.0
141
12.0
290
     0
  0
SCALE
  5
67
102
{ACAD_REACTORS
330
47
102
}
330
47
100
AcDbScale
 70
     0
300
6" = 1'-0"
140
6.0
141
12.0
290
     0
  0
SCALE
  5
68
102
{ACAD_REACTORS
330
47
102
}
330
47
100
AcDbScale
 70
     0
300
1'-0" = 1'-0"
140
12.0
141
12.0
290
     0
  0
ENDSEC
  0
EOF
