  0
SECTION
  2
HEADER
  9
$ACADVER
  1
AC1015
  9
$ACADMAINTVER
 70
     6
  9
$DWGCODEPAGE
  3
ANSI_949
  9
$INSBASE
 10
0.0
 20
0.0
 30
0.0
  9
$EXTMIN
 10
1.000000000000000E+20
 20
1.000000000000000E+20
 30
1.000000000000000E+20
  9
$EXTMAX
 10
-1.000000000000000E+20
 20
-1.000000000000000E+20
 30
-1.000000000000000E+20
  9
$LIMMIN
 10
0.0
 20
0.0
  9
$LIMMAX
 10
420.0
 20
297.0
  9
$ORTHOMODE
 70
     1
  9
$REGENMODE
 70
     1
  9
$FILLMODE
 70
     1
  9
$QTEXTMODE
 70
     0
  9
$MIRRTEXT
 70
     1
  9
$LTSCALE
 40
1.0
  9
$ATTMODE
 70
     1
  9
$TEXTSIZE
 40
3.5
  9
$TRACEWID
 40
1.0
  9
$TEXTSTYLE
  7
Standard
  9
$CLAYER
  8
0
  9
$CELTYPE
  6
ByLayer
  9
$CECOLOR
 62
   256
  9
$CELTSCALE
 40
1.0
  9
$DISPSILH
 70
     0
  9
$DIMSCALE
 40
1.0
  9
$DIMASZ
 40
3.302
  9
$DIMEXO
 40
1.0
  9
$DIMDLI
 40
3.75
  9
$DIMRND
 40
0.0
  9
$DIMDLE
 40
0.0
  9
$DIMEXE
 40
1.0
  9
$DIMTP
 40
0.0
  9
$DIMTM
 40
0.0
  9
$DIMTXT
 40
3.5
  9
$DIMCEN
 40
2.5
  9
$DIMTSZ
 40
0.0
  9
$DIMTOL
 70
     0
  9
$DIMLIM
 70
     0
  9
$DIMTIH
 70
     1
  9
$DIMTOH
 70
     1
  9
$DIMSE1
 70
     0
  9
$DIMSE2
 70
     0
  9
$DIMTAD
 70
     1
  9
$DIMZIN
 70
     0
  9
$DIMBLK
  1

  9
$DIMASO
 70
     1
  9
$DIMSHO
 70
     1
  9
$DIMPOST
  1

  9
$DIMAPOST
  1

  9
$DIMALT
 70
     0
  9
$DIMALTD
 70
     3
  9
$DIMALTF
 40
0.0393700787401575
  9
$DIMLFAC
 40
1.0
  9
$DIMTOFL
 70
     1
  9
$DIMTVP
 40
0.0
  9
$DIMTIX
 70
     0
  9
$DIMSOXD
 70
     0
  9
$DIMSAH
 70
     0
  9
$DIMBLK1
  1

  9
$DIMBLK2
  1

  9
$DIMSTYLE
  2
ISO-25
  9
$DIMCLRD
 70
     0
  9
$DIMCLRE
 70
     0
  9
$DIMCLRT
 70
     0
  9
$DIMTFAC
 40
1.0
  9
$DIMGAP
 40
1.524
  9
$DIMJUST
 70
     0
  9
$DIMSD1
 70
     0
  9
$DIMSD2
 70
     0
  9
$DIMTOLJ
 70
     0
  9
$DIMTZIN
 70
     0
  9
$DIMALTZ
 70
     0
  9
$DIMALTTZ
 70
     0
  9
$DIMUPT
 70
     0
  9
$DIMDEC
 70
     2
  9
$DIMTDEC
 70
     2
  9
$DIMALTU
 70
     2
  9
$DIMALTTD
 70
     3
  9
$DIMTXSTY
  7
Standard
  9
$DIMAUNIT
 70
     0
  9
$DIMADEC
 70
     2
  9
$DIMALTRND
 40
0.0
  9
$DIMAZIN
 70
     0
  9
$DIMDSEP
 70
    44
  9
$DIMATFIT
 70
     3
  9
$DIMFRAC
 70
     0
  9
$DIMLDRBLK
  1

  9
$DIMLUNIT
 70
     2
  9
$DIMLWD
 70
    -2
  9
$DIMLWE
 70
    -2
  9
$DIMTMOVE
 70
     0
  9
$LUNITS
 70
     2
  9
$LUPREC
 70
     2
  9
$SKETCHINC
 40
1.0
  9
$FILLETRAD
 40
10.0
  9
$AUNITS
 70
     0
  9
$AUPREC
 70
     2
  9
$MENU
  1
.
  9
$ELEVATION
 40
0.0
  9
$PELEVATION
 40
0.0
  9
$THICKNESS
 40
0.0
  9
$LIMCHECK
 70
     0
  9
$CHAMFERA
 40
0.0
  9
$CHAMFERB
 40
0.0
  9
$CHAMFERC
 40
0.0
  9
$CHAMFERD
 40
0.0
  9
$SKPOLY
 70
     0
  9
$TDCREATE
 40
2458323.690278669
  9
$TDUCREATE
 40
2458323.315278669
  9
$TDUPDATE
 40
2458324.471264989
  9
$TDUUPDATE
 40
2458324.096264989
  9
$TDINDWG
 40
0.0014372106
  9
$TDUSRTIMER
 40
2458324.094828056
  9
$USRTIMER
 70
     1
  9
$ANGBASE
 50
0.0
  9
$ANGDIR
 70
     0
  9
$PDMODE
 70
     0
  9
$PDSIZE
 40
-1.0
  9
$PLINEWID
 40
0.0
  9
$SPLFRAME
 70
     0
  9
$SPLINETYPE
 70
     6
  9
$SPLINESEGS
 70
     8
  9
$HANDSEED
  5
25D
  9
$SURFTAB1
 70
     6
  9
$SURFTAB2
 70
     6
  9
$SURFTYPE
 70
     6
  9
$SURFU
 70
     6
  9
$SURFV
 70
     6
  9
$UCSBASE
  2

  9
$UCSNAME
  2

  9
$UCSORG
 10
0.0
 20
0.0
 30
0.0
  9
$UCSXDIR
 10
1.0
 20
0.0
 30
0.0
  9
$UCSYDIR
 10
0.0
 20
1.0
 30
0.0
  9
$UCSORTHOREF
  2

  9
$UCSORTHOVIEW
 70
     0
  9
$UCSORGTOP
 10
0.0
 20
0.0
 30
0.0
  9
$UCSORGBOTTOM
 10
0.0
 20
0.0
 30
0.0
  9
$UCSORGLEFT
 10
0.0
 20
0.0
 30
0.0
  9
$UCSORGRIGHT
 10
0.0
 20
0.0
 30
0.0
  9
$UCSORGFRONT
 10
0.0
 20
0.0
 30
0.0
  9
$UCSORGBACK
 10
0.0
 20
0.0
 30
0.0
  9
$PUCSBASE
  2

  9
$PUCSNAME
  2

  9
$PUCSORG
 10
0.0
 20
0.0
 30
0.0
  9
$PUCSXDIR
 10
1.0
 20
0.0
 30
0.0
  9
$PUCSYDIR
 10
0.0
 20
1.0
 30
0.0
  9
$PUCSORTHOREF
  2

  9
$PUCSORTHOVIEW
 70
     0
  9
$PUCSORGTOP
 10
0.0
 20
0.0
 30
0.0
  9
$PUCSORGBOTTOM
 10
0.0
 20
0.0
 30
0.0
  9
$PUCSORGLEFT
 10
0.0
 20
0.0
 30
0.0
  9
$PUCSORGRIGHT
 10
0.0
 20
0.0
 30
0.0
  9
$PUCSORGFRONT
 10
0.0
 20
0.0
 30
0.0
  9
$PUCSORGBACK
 10
0.0
 20
0.0
 30
0.0
  9
$USERI1
 70
     0
  9
$USERI2
 70
     0
  9
$USERI3
 70
     0
  9
$USERI4
 70
     0
  9
$USERI5
 70
     0
  9
$USERR1
 40
0.0
  9
$USERR2
 40
0.0
  9
$USERR3
 40
0.0
  9
$USERR4
 40
0.0
  9
$USERR5
 40
0.0
  9
$WORLDVIEW
 70
     1
  9
$SHADEDGE
 70
     3
  9
$SHADEDIF
 70
    70
  9
$TILEMODE
 70
     1
  9
$MAXACTVP
 70
    64
  9
$PINSBASE
 10
0.0
 20
0.0
 30
0.0
  9
$PLIMCHECK
 70
     0
  9
$PEXTMIN
 10
1.000000000000000E+20
 20
1.000000000000000E+20
 30
1.000000000000000E+20
  9
$PEXTMAX
 10
-1.000000000000000E+20
 20
-1.000000000000000E+20
 30
-1.000000000000000E+20
  9
$PLIMMIN
 10
0.0
 20
0.0
  9
$PLIMMAX
 10
0.0
 20
0.0
  9
$UNITMODE
 70
     0
  9
$VISRETAIN
 70
     1
  9
$PLINEGEN
 70
     0
  9
$PSLTSCALE
 70
     1
  9
$TREEDEPTH
 70
  3020
  9
$CMLSTYLE
  2
Standard
  9
$CMLJUST
 70
     0
  9
$CMLSCALE
 40
20.0
  9
$PROXYGRAPHICS
 70
     1
  9
$MEASUREMENT
 70
     1
  9
$CELWEIGHT
370
    -1
  9
$ENDCAPS
280
     0
  9
$JOINSTYLE
280
     0
  9
$LWDISPLAY
290
     1
  9
$INSUNITS
 70
     4
  9
$HYPERLINKBASE
  1

  9
$STYLESHEET
  1

  9
$XEDIT
290
     1
  9
$CEPSNTYPE
380
     0
  9
$PSTYLEMODE
290
     1
  9
$FINGERPRINTGUID
  2
{6BE5F5D5-3AFB-4AF7-B998-744DE2A3677B}
  9
$VERSIONGUID
  2
{FAEB1C32-E019-11D5-929B-00C0DF256EC4}
  9
$EXTNAMES
290
     1
  9
$PSVPSCALE
 40
0.0
  9
$OLESTARTUP
290
     0
  0
ENDSEC
  0
SECTION
  2
CLASSES
  0
CLASS
  1
ACDBDICTIONARYWDFLT
  2
AcDbDictionaryWithDefault
  3
ObjectDBX Classes
 90
        0
280
     0
281
     0
  0
CLASS
  1
VISUALSTYLE
  2
AcDbVisualStyle
  3
ObjectDBX Classes
 90
     4095
280
     0
281
     0
  0
CLASS
  1
MATERIAL
  2
AcDbMaterial
  3
ObjectDBX Classes
 90
     1153
280
     0
281
     0
  0
CLASS
  1
SCALE
  2
AcDbScale
  3
ObjectDBX Classes
 90
     1153
280
     0
281
     0
  0
CLASS
  1
SUN
  2
AcDbSun
  3
SCENEOE
 90
     1153
280
     0
281
     0
  0
CLASS
  1
ACDBPLACEHOLDER
  2
AcDbPlaceHolder
  3
ObjectDBX Classes
 90
        0
280
     0
281
     0
  0
CLASS
  1
LAYOUT
  2
AcDbLayout
  3
ObjectDBX Classes
 90
        0
280
     0
281
     0
  0
CLASS
  1
TABLESTYLE
  2
AcDbTableStyle
  3
ObjectDBX Classes
 90
     4095
280
     0
281
     0
  0
CLASS
  1
MLEADERSTYLE
  2
AcDbMLeaderStyle
  3
ACDB_MLEADERSTYLE_CLASS
 90
     4095
280
     0
281
     0
  0
CLASS
  1
RASTERVARIABLES
  2
AcDbRasterVariables
  3
ISM
 90
        0
280
     0
281
     0
  0
ENDSEC
  0
SECTION
  2
TABLES
  0
TABLE
  2
VPORT
  5
8
330
0
100
AcDbSymbolTable
 70
     1
  0
VPORT
  5
29
330
8
100
AcDbSymbolTableRecord
100
AcDbViewportTableRecord
  2
*Active
 70
     0
 10
0.0
 20
0.0
 11
1.0
 21
1.0
 12
21.95576327065436
 22
-5.746837435732679
 13
0.0
 23
0.0
 14
10.0
 24
10.0
 15
10.0
 25
10.0
 16
0.0
 26
0.0
 36
1.0
 17
0.0
 27
0.0
 37
0.0
 40
148.6974067684055
 41
1.632093933463796
 42
50.0
 43
0.0
 44
0.0
 50
0.0
 51
0.0
 71
    16
 72
  2000
 73
     1
 74
     3
 75
     0
 76
     0
 77
     0
 78
     0
281
     0
 65
     1
110
0.0
120
0.0
130
0.0
111
1.0
121
0.0
131
0.0
112
0.0
122
1.0
132
0.0
 79
     0
146
0.0
  0
ENDTAB
  0
TABLE
  2
LTYPE
  5
5
330
0
100
AcDbSymbolTable
 70
     6
  0
LTYPE
  5
14
330
5
100
AcDbSymbolTableRecord
100
AcDbLinetypeTableRecord
  2
ByBlock
 70
     0
  3

 72
    65
 73
     0
 40
0.0
  0
LTYPE
  5
15
330
5
100
AcDbSymbolTableRecord
100
AcDbLinetypeTableRecord
  2
ByLayer
 70
     0
  3

 72
    65
 73
     0
 40
0.0
  0
LTYPE
  5
16
330
5
100
AcDbSymbolTableRecord
100
AcDbLinetypeTableRecord
  2
Continuous
 70
     0
  3
Solid line
 72
    65
 73
     0
 40
0.0
  0
LTYPE
  5
6A
330
5
100
AcDbSymbolTableRecord
100
AcDbLinetypeTableRecord
  2
HIDDEN
 70
     0
  3
Hidden __ __ __ __ __ __ __ __ __ __ __ __ __ __
 72
    65
 73
     2
 40
1.905
 49
1.27
 74
     0
 49
-0.635
 74
     0
  0
LTYPE
  5
6B
330
5
100
AcDbSymbolTableRecord
100
AcDbLinetypeTableRecord
  2
PHANTOM
 70
     0
  3
Phantom ______  __  __  ______  __  __  ______
 72
    65
 73
     6
 40
12.7
 49
6.35
 74
     0
 49
-1.27
 74
     0
 49
1.27
 74
     0
 49
-1.27
 74
     0
 49
1.27
 74
     0
 49
-1.27
 74
     0
  0
LTYPE
  5
6C
330
5
100
AcDbSymbolTableRecord
100
AcDbLinetypeTableRecord
  2
CENTER
 70
     0
  3
Center ____ _ ____ _ ____ _ ____ _ ____ _ ____
 72
    65
 73
     4
 40
10.16
 49
6.35
 74
     0
 49
-1.27
 74
     0
 49
1.27
 74
     0
 49
-1.27
 74
     0
  0
LTYPE
  5
6D
330
5
100
AcDbSymbolTableRecord
100
AcDbLinetypeTableRecord
  2
CENTERX2
 70
     0
  3
Center (2x) ________  __  ________  __  _____
 72
    65
 73
     4
 40
20.32
 49
12.7
 74
     0
 49
-2.54
 74
     0
 49
2.54
 74
     0
 49
-2.54
 74
     0
  0
LTYPE
  5
6E
330
5
100
AcDbSymbolTableRecord
100
AcDbLinetypeTableRecord
  2
DOT2
 70
     0
  3
Dot (.5x) ........................................
 72
    65
 73
     2
 40
0.635
 49
0.0
 74
     0
 49
-0.635
 74
     0
  0
ENDTAB
  0
TABLE
  2
LAYER
  5
2
102
{ACAD_XDICTIONARY
360
1C6
102
}
330
0
100
AcDbSymbolTable
 70
    18
  0
LAYER
  5
10
330
2
100
AcDbSymbolTableRecord
100
AcDbLayerTableRecord
  2
0
 70
     0
 62
     7
  6
Continuous
370
    -3
390
F
  0
LAYER
  5
6F
330
2
100
AcDbSymbolTableRecord
100
AcDbLayerTableRecord
  2
FORMAT
 70
     0
 62
     2
  6
Continuous
370
    -3
390
F
  0
LAYER
  5
70
330
2
100
AcDbSymbolTableRecord
100
AcDbLayerTableRecord
  2
외형선
 70
     0
 62
     4
  6
Continuous
370
    30
390
F
  0
LAYER
  5
71
330
2
100
AcDbSymbolTableRecord
100
AcDbLayerTableRecord
  2
숨은선
 70
     0
 62
     2
  6
HIDDEN
370
    15
390
F
  0
LAYER
  5
72
330
2
100
AcDbSymbolTableRecord
100
AcDbLayerTableRecord
  2
중심선
 70
     0
 62
     1
  6
CENTERX2
370
    -3
390
F
  0
LAYER
  5
73
330
2
100
AcDbSymbolTableRecord
100
AcDbLayerTableRecord
  2
파단선
 70
     0
 62
     4
  6
Continuous
370
    -3
390
F
  0
LAYER
  5
74
330
2
100
AcDbSymbolTableRecord
100
AcDbLayerTableRecord
  2
해칭선
 70
     0
 62
   100
  6
Continuous
370
    -3
390
F
  0
LAYER
  5
75
330
2
100
AcDbSymbolTableRecord
100
AcDbLayerTableRecord
  2
가는실선
 70
     0
 62
     4
  6
Continuous
370
    -3
390
F
  0
LAYER
  5
76
330
2
100
AcDbSymbolTableRecord
100
AcDbLayerTableRecord
  2
치수_보조선
 70
     0
 62
     4
  6
Continuous
370
    -3
390
F
  0
LAYER
  5
77
330
2
100
AcDbSymbolTableRecord
100
AcDbLayerTableRecord
  2
치수문자_일반주서
 70
     0
 62
     7
  6
Continuous
370
    15
390
F
  0
LAYER
  5
78
330
2
100
AcDbSymbolTableRecord
100
AcDbLayerTableRecord
  2
개별주서
 70
     0
 62
   100
  6
Continuous
370
    30
390
F
  0
LAYER
  5
79
330
2
100
AcDbSymbolTableRecord
100
AcDbLayerTableRecord
  2
중간선
 70
     0
 62
     2
  6
Continuous
370
    15
390
F
  0
LAYER
  5
7A
330
2
100
AcDbSymbolTableRecord
100
AcDbLayerTableRecord
  2
윤곽선
 70
     0
 62
     3
  6
Continuous
370
    40
390
F
  0
LAYER
  5
7B
330
2
100
AcDbSymbolTableRecord
100
AcDbLayerTableRecord
  2
중심마크
 70
     0
 62
   100
  6
Continuous
370
    30
390
F
  0
LAYER
  5
7C
330
2
100
AcDbSymbolTableRecord
100
AcDbLayerTableRecord
  2
가상선
 70
     0
 62
     4
  6
PHANTOM
370
    -3
390
F
  0
LAYER
  5
7D
330
2
100
AcDbSymbolTableRecord
100
AcDbLayerTableRecord
  2
특수지정선
 70
     0
 62
     5
  6
CENTERX2
370
    60
390
F
  0
LAYER
  5
7E
330
2
100
AcDbSymbolTableRecord
100
AcDbLayerTableRecord
  2
참조1
 70
     0
 62
    -4
  6
Continuous
370
    -3
390
F
  0
LAYER
  5
13B
330
2
100
AcDbSymbolTableRecord
100
AcDbLayerTableRecord
  2
Defpoints
 70
     0
 62
     7
  6
Continuous
290
     0
370
    -3
390
F
  0
ENDTAB
  0
TABLE
  2
STYLE
  5
3
330
0
100
AcDbSymbolTable
 70
     2
  0
STYLE
  5
11
330
3
100
AcDbSymbolTableRecord
100
AcDbTextStyleTableRecord
  2
Standard
 70
     0
 40
0.0
 41
1.0
 50
0.0
 71
     0
 42
3.5
  3
txt
  4

  0
STYLE
  5
94
330
3
100
AcDbSymbolTableRecord
100
AcDbTextStyleTableRecord
  2
SLDTEXTSTYLE0
 70
     0
 40
0.0
 41
0.75
 50
0.0
 71
     0
 42
3.5
  3
TXT
  4

  0
ENDTAB
  0
TABLE
  2
VIEW
  5
6
330
0
100
AcDbSymbolTable
 70
     0
  0
ENDTAB
  0
TABLE
  2
UCS
  5
7
330
0
100
AcDbSymbolTable
 70
     0
  0
ENDTAB
  0
TABLE
  2
APPID
  5
9
330
0
100
AcDbSymbolTable
 70
     1
  0
APPID
  5
12
330
9
100
AcDbSymbolTableRecord
100
AcDbRegAppTableRecord
  2
ACAD
 70
     0
  0
ENDTAB
  0
TABLE
  2
DIMSTYLE
  5
A
330
0
100
AcDbSymbolTable
 70
     3
100
AcDbDimStyleTable
  0
DIMSTYLE
105
27
330
A
100
AcDbSymbolTableRecord
100
AcDbDimStyleTableRecord
  2
ISO-25
 70
     0
 41
2.5
 42
0.625
 43
3.75
 44
1.25
 73
     0
 74
     0
 77
     1
 78
     8
140
2.5
141
2.5
143
0.03937007874016
147
0.625
171
     3
172
     1
178
     0
271
     2
272
     2
274
     3
278
    44
283
     0
284
     8
340
11
  0
DIMSTYLE
105
BA
330
A
100
AcDbSymbolTableRecord
100
AcDbDimStyleTableRecord
  2
SLDDIMSTYLE0
 70
     0
 41
3.302
 44
0.0
 45
0.000000001
 73
     0
 74
     0
 77
     1
 78
    12
 79
     3
140
3.5
143
0.0393700787401575
147
0.875
148
0.000000001
170
     1
173
     1
178
     0
271
     2
272
     2
276
     2
284
    12
340
94
  0
DIMSTYLE
105
F4
102
{ACAD_REACTORS
330
183
330
190
330
19D
330
1AA
330
21D
330
21E
330
21F
330
220
102
}
330
A
100
AcDbSymbolTableRecord
100
AcDbDimStyleTableRecord
  2
SLDDIMSTYLE1
 70
     0
 41
3.302
 44
0.0
 45
0.000000001
 73
     0
 74
     0
 77
     1
 78
    12
 79
     3
140
3.5
143
0.0393700787401575
147
0.875
148
0.000000001
170
     1
172
     1
173
     1
178
     0
271
     2
272
     2
276
     2
284
    12
289
     0
340
94
  0
ENDTAB
  0
TABLE
  2
BLOCK_RECORD
  5
1
330
0
100
AcDbSymbolTable
 70
    16
  0
BLOCK_RECORD
  5
1F
330
1
100
AcDbSymbolTableRecord
100
AcDbBlockTableRecord
  2
*Model_Space
340
22
  0
BLOCK_RECORD
  5
1B
330
1
100
AcDbSymbolTableRecord
100
AcDbBlockTableRecord
  2
*Paper_Space
340
1E
  0
BLOCK_RECORD
  5
23
330
1
100
AcDbSymbolTableRecord
100
AcDbBlockTableRecord
  2
*Paper_Space0
340
26
  0
BLOCK_RECORD
  5
7F
330
1
100
AcDbSymbolTableRecord
100
AcDbBlockTableRecord
  2
블럭10
340
0
102
{BLKREFS
331
B2
102
}
  0
BLOCK_RECORD
  5
BB
330
1
100
AcDbSymbolTableRecord
100
AcDbBlockTableRecord
  2
_D
340
0
  0
BLOCK_RECORD
  5
CE
330
1
100
AcDbSymbolTableRecord
100
AcDbBlockTableRecord
  2
_D_1
340
0
  0
BLOCK_RECORD
  5
E1
330
1
100
AcDbSymbolTableRecord
100
AcDbBlockTableRecord
  2
_D_2
340
0
  0
BLOCK_RECORD
  5
F5
330
1
100
AcDbSymbolTableRecord
100
AcDbBlockTableRecord
  2
_D_3
340
0
  0
BLOCK_RECORD
  5
10F
330
1
100
AcDbSymbolTableRecord
100
AcDbBlockTableRecord
  2
SW_DOWELSYMBOL_0
340
0
102
{BLKREFS
331
0
331
1BA
331
221
102
}
  0
BLOCK_RECORD
  5
1CA
330
1
100
AcDbSymbolTableRecord
100
AcDbBlockTableRecord
  2
*D8
340
0
  0
BLOCK_RECORD
  5
1D6
330
1
100
AcDbSymbolTableRecord
100
AcDbBlockTableRecord
  2
*D9
340
0
  0
BLOCK_RECORD
  5
1E2
330
1
100
AcDbSymbolTableRecord
100
AcDbBlockTableRecord
  2
*D10
340
0
  0
BLOCK_RECORD
  5
1EE
330
1
100
AcDbSymbolTableRecord
100
AcDbBlockTableRecord
  2
*D11
340
0
  0
BLOCK_RECORD
  5
227
330
1
100
AcDbSymbolTableRecord
100
AcDbBlockTableRecord
  2
*D12
340
0
  0
BLOCK_RECORD
  5
233
330
1
100
AcDbSymbolTableRecord
100
AcDbBlockTableRecord
  2
*D13
340
0
  0
BLOCK_RECORD
  5
23F
330
1
100
AcDbSymbolTableRecord
100
AcDbBlockTableRecord
  2
*D14
340
0
  0
BLOCK_RECORD
  5
24B
330
1
100
AcDbSymbolTableRecord
100
AcDbBlockTableRecord
  2
*D15
340
0
  0
ENDTAB
  0
ENDSEC
  0
SECTION
  2
BLOCKS
  0
BLOCK
  5
20
330
1F
100
AcDbEntity
  8
0
100
AcDbBlockBegin
  2
*Model_Space
 70
     0
 10
0.0
 20
0.0
 30
0.0
  3
*Model_Space
  1
*Model_Space
  0
ENDBLK
  5
21
330
1F
100
AcDbEntity
  8
0
100
AcDbBlockEnd
  0
BLOCK
  5
1C
330
1B
100
AcDbEntity
 67
     1
  8
0
100
AcDbBlockBegin
  2
*Paper_Space
 70
     0
 10
0.0
 20
0.0
 30
0.0
  3
*Paper_Space
  1
*Paper_Space
  0
ENDBLK
  5
1D
330
1B
100
AcDbEntity
 67
     1
  8
0
100
AcDbBlockEnd
  0
BLOCK
  5
24
330
23
100
AcDbEntity
  8
0
100
AcDbBlockBegin
  2
*Paper_Space0
 70
     0
 10
0.0
 20
0.0
 30
0.0
  3
*Paper_Space0
  1
*Paper_Space0
  0
ENDBLK
  5
25
330
23
100
AcDbEntity
  8
0
100
AcDbBlockEnd
  0
BLOCK
  5
80
330
7F
100
AcDbEntity
  8
0
100
AcDbBlockBegin
  2
블럭10
 70
     2
 10
0.0
 20
0.0
 30
0.0
  3
블럭10
  1
블럭10
  0
ELLIPSE
  5
82
330
7F
100
AcDbEntity
  8
중심선
100
AcDbEllipse
 10
20.54032771741204
 20
12.0471743016438
 30
0.0
 11
6.600054785286829
 21
-1.261213355974178E-13
 31
0.0
210
0.0
220
0.0
230
1.0
 40
0.636358354079598
 41
0.9219305317359503
 42
6.513795318482858
  0
ELLIPSE
  5
83
330
7F
100
AcDbEntity
  8
중심선
100
AcDbEllipse
 10
20.54032771746488
 20
12.04717430159265
 30
0.0
 11
3.960054785062283
 21
1.540847449632565E-10
 31
0.0
210
0.0
220
0.0
230
1.0
 40
0.3939339440162632
 41
1.131841032648279
 42
5.62031148352944
  0
LINE
  5
84
330
7F
100
AcDbEntity
  8
중심선
100
AcDbLine
 10
2.268634060543552
 20
16.24717430164393
 30
0.0
 11
5.714909304380834
 21
16.24717430164393
 31
0.0
  0
LINE
  5
85
330
7F
100
AcDbEntity
  8
중심선
100
AcDbLine
 10
5.245725140726316
 20
7.84717430164391
 30
0.0
 11
8.692000384563599
 21
7.84717430164391
 31
0.0
  0
LINE
  5
86
330
7F
100
AcDbEntity
  8
중심선
100
AcDbLine
 10
15.74043728645272
 20
16.24717430164393
 30
0.0
 11
8.692000384563599
 21
7.84717430164391
 31
0.0
  0
LINE
  5
87
330
7F
100
AcDbEntity
  8
중심선
100
AcDbLine
 10
0.1404042013395286
 20
13.71084872107135
 30
0.0
 11
3.58671253028996
 21
13.71088815037384
 31
0.0
  0
LINE
  5
88
330
7F
100
AcDbEntity
  8
중심선
100
AcDbLine
 10
2.750260043222114
 20
10.84717430164391
 30
0.0
 11
6.196535287059397
 21
10.84717430164391
 31
0.0
  0
LINE
  5
89
330
7F
100
AcDbEntity
  8
중심선
100
AcDbLine
 10
12.29416204261559
 20
16.24717430164393
 30
0.0
 11
5.245725140726316
 21
7.84717430164391
 31
0.0
  0
LINE
  5
8A
330
7F
100
AcDbEntity
  8
중심선
100
AcDbLine
 10
10.72767329541681
 20
16.24717430164393
 30
0.0
 11
6.196535287059397
 21
10.84717430164391
 31
0.0
  0
LINE
  5
8B
330
7F
100
AcDbEntity
  8
중심선
100
AcDbLine
 10
7.28139805157953
 20
16.24717430164393
 30
0.0
 11
2.750260043222114
 21
10.84717430164391
 31
0.0
  0
LINE
  5
8C
330
7F
100
AcDbEntity
  8
중심선
100
AcDbLine
 10
5.714909304380834
 20
16.24717430164393
 30
0.0
 11
3.58671253028996
 21
13.71088815037384
 31
0.0
  0
LINE
  5
8D
330
7F
100
AcDbEntity
  8
중심선
100
AcDbLine
 10
2.268634060543552
 20
16.24717430164393
 30
0.0
 11
0.1404042013395286
 21
13.71084872107135
 31
0.0
  0
LINE
  5
8E
330
7F
100
AcDbEntity
  8
중심선
100
AcDbLine
 10
7.28139805157953
 20
16.24717430164393
 30
0.0
 11
10.72767329541681
 21
16.24717430164393
 31
0.0
  0
LINE
  5
8F
330
7F
100
AcDbEntity
  8
중심선
100
AcDbLine
 10
12.29416204261559
 20
16.24717430164393
 30
0.0
 11
15.74043728645272
 21
16.24717430164393
 31
0.0
  0
LINE
  5
90
330
7F
100
AcDbEntity
  8
중심선
100
AcDbLine
 10
19.22036997980202
 20
11.08717430171403
 30
0.0
 11
23.66174974927406
 21
11.08717430171406
 31
0.0
  0
LINE
  5
91
330
7F
100
AcDbEntity
  8
중심선
100
AcDbLine
 10
19.22039502424796
 20
13.00717430171391
 30
0.0
 11
19.22036997980202
 21
11.08717430171403
 31
0.0
  0
LINE
  5
92
330
7F
100
AcDbEntity
  8
중심선
100
AcDbLine
 10
19.22039502424796
 20
13.00717430171391
 30
0.0
 11
26.96566020931264
 21
13.00717430171391
 31
0.0
  0
LINE
  5
93
330
7F
100
AcDbEntity
  8
중심선
100
AcDbLine
 10
22.22332737316547
 20
13.45928029700563
 30
0.0
 11
24.52862924686651
 21
15.39360700705356
 31
0.0
  0
ATTDEF
  5
95
330
7F
100
AcDbEntity
  8
FORMAT
 62
     2
100
AcDbText
 10
4.408487351596664
 20
2.075366912832191
 30
0.0
 40
4.233333333333333
  1
E2020901
 41
0.75
  7
SLDTEXTSTYLE0
 11
4.408487351596664
 21
-0.0412997538344756
 31
0.0
100
AcDbAttributeDefinition
  3

  2
AUTOATTR0
 70
     0
 74
     1
  0
ENDBLK
  5
81
330
7F
100
AcDbEntity
  8
0
100
AcDbBlockEnd
  0
BLOCK
  5
BC
330
BB
100
AcDbEntity
  8
0
100
AcDbBlockBegin
  2
_D
 70
     0
 10
0.0
 20
0.0
 30
0.0
  3
_D
  1
_D
  0
SOLID
  5
BE
330
BB
100
AcDbEntity
  8
치수문자_일반주서
100
AcDbTrace
 10
47.23731532850775
 20
15.5905321960223
 30
0.0
 11
43.93531532850775
 21
16.0985321960223
 31
0.0
 12
43.93531532850775
 22
15.0825321960223
 32
0.0
 13
43.93531532850775
 23
15.0825321960223
 33
0.0
  0
SOLID
  5
BF
330
BB
100
AcDbEntity
  8
치수문자_일반주서
100
AcDbTrace
 10
5.962315328507771
 20
15.5905321960223
 30
0.0
 11
9.26431532850777
 21
15.0825321960223
 31
0.0
 12
9.26431532850777
 22
16.0985321960223
 32
0.0
 13
9.26431532850777
 23
16.0985321960223
 33
0.0
  0
LINE
  5
C0
330
BB
100
AcDbEntity
  8
치수문자_일반주서
100
AcDbLine
 10
21.96868677895988
 20
26.38341391206504
 30
0.0
 11
21.25774929339538
 21
26.38341391206504
 31
0.0
  0
LINE
  5
C1
330
BB
100
AcDbEntity
  8
치수문자_일반주서
100
AcDbLine
 10
21.25774929339538
 20
26.38341391206504
 30
0.0
 11
21.25774929339534
 21
20.82716392100574
 31
0.0
  0
LINE
  5
C2
330
BB
100
AcDbEntity
  8
치수문자_일반주서
100
AcDbLine
 10
21.25774929339534
 20
20.82716392100574
 30
0.0
 11
21.96868677895984
 21
20.82716392100573
 31
0.0
  0
LINE
  5
C3
330
BB
100
AcDbEntity
  8
치수문자_일반주서
100
AcDbLine
 10
32.79741964109714
 20
26.38341391206496
 30
0.0
 11
33.50835712666164
 21
26.38341391206496
 31
0.0
  0
LINE
  5
C4
330
BB
100
AcDbEntity
  8
치수문자_일반주서
100
AcDbLine
 10
33.50835712666164
 20
26.38341391206496
 30
0.0
 11
33.5083571266616
 21
20.82716392100565
 31
0.0
  0
LINE
  5
C5
330
BB
100
AcDbEntity
  8
치수문자_일반주서
100
AcDbLine
 10
33.5083571266616
 20
20.82716392100565
 30
0.0
 11
32.7974196410971
 21
20.82716392100566
 31
0.0
  0
LINE
  5
C6
330
BB
100
AcDbEntity
  8
치수문자_일반주서
100
AcDbLine
 10
47.23731532850775
 20
5.778273824452533
 30
0.0
 11
47.23731532850775
 21
16.5905321960223
 31
0.0
  0
LINE
  5
C7
330
BB
100
AcDbEntity
  8
치수문자_일반주서
100
AcDbLine
 10
5.962315328507772
 20
6.537748472898063
 30
0.0
 11
5.962315328507771
 21
16.5905321960223
 31
0.0
  0
LINE
  5
C8
330
BB
100
AcDbEntity
  8
치수문자_일반주서
100
AcDbLine
 10
47.23731532850775
 20
15.5905321960223
 30
0.0
 11
5.962315328507771
 21
15.5905321960223
 31
0.0
  0
MTEXT
  5
C9
330
BB
100
AcDbEntity
  8
치수문자_일반주서
100
AcDbMText
 10
20.74399056790864
 20
20.15574146188402
 30
0.0
 40
3.5
 41
0.0
 71
     1
 72
     1
  1

  7
SLDTEXTSTYLE0
 73
     1
 44
1.0
  0
MTEXT
  5
CA
330
BB
100
AcDbEntity
  8
치수문자_일반주서
100
AcDbMText
 10
22.85735867957125
 20
25.33890083558462
 30
0.0
 40
3.5
 41
0.0
 71
     1
 72
     1
  1
1.63
  7
SLDTEXTSTYLE0
 73
     1
 44
1.0
  0
MTEXT
  5
CB
330
BB
100
AcDbEntity
  8
치수문자_일반주서
100
AcDbMText
 10
21.56430296639448
 20
20.10226928522416
 30
0.0
 40
3.5
 41
0.0
 71
     1
 72
     1
  1
41.28
  7
SLDTEXTSTYLE0
 73
     1
 44
1.0
  0
MTEXT
  5
CC
330
BB
100
AcDbEntity
  8
치수문자_일반주서
100
AcDbMText
 10
35.35406037180221
 20
20.15574146188391
 30
0.0
 40
3.5
 41
0.0
 71
     1
 72
     1
  1

  7
SLDTEXTSTYLE0
 73
     1
 44
1.0
  0
ENDBLK
  5
BD
330
BB
100
AcDbEntity
  8
0
100
AcDbBlockEnd
  0
BLOCK
  5
CF
330
CE
100
AcDbEntity
  8
0
100
AcDbBlockBegin
  2
_D_1
 70
     0
 10
0.0
 20
0.0
 30
0.0
  3
_D_1
  1
_D_1
  0
SOLID
  5
D1
330
CE
100
AcDbEntity
  8
치수문자_일반주서
100
AcDbTrace
 10
31.36231532850778
 20
27.59053219602237
 30
0.0
 11
28.06031532850778
 21
28.09853219602237
 31
0.0
 12
28.06031532850778
 22
27.08253219602237
 32
0.0
 13
28.06031532850778
 23
27.08253219602237
 33
0.0
  0
SOLID
  5
D2
330
CE
100
AcDbEntity
  8
치수문자_일반주서
100
AcDbTrace
 10
-36.90018467149223
 20
27.59053219602236
 30
0.0
 11
-33.59818467149223
 21
27.08253219602236
 31
0.0
 12
-33.59818467149223
 22
28.09853219602236
 32
0.0
 13
-33.59818467149223
 23
28.09853219602236
 33
0.0
  0
LINE
  5
D3
330
CE
100
AcDbEntity
  8
치수문자_일반주서
100
AcDbLine
 10
-8.183300753314892
 20
38.38341391206509
 30
0.0
 11
-8.894238238879392
 21
38.3834139120651
 31
0.0
  0
LINE
  5
D4
330
CE
100
AcDbEntity
  8
치수문자_일반주서
100
AcDbLine
 10
-8.894238238879392
 20
38.3834139120651
 30
0.0
 11
-8.894238238879433
 21
32.8271639210058
 31
0.0
  0
LINE
  5
D5
330
CE
100
AcDbEntity
  8
치수문자_일반주서
100
AcDbLine
 10
-8.894238238879433
 20
32.8271639210058
 30
0.0
 11
-8.183300753314933
 21
32.82716392100579
 31
0.0
  0
LINE
  5
D6
330
CE
100
AcDbEntity
  8
치수문자_일반주서
100
AcDbLine
 10
2.645432108822366
 20
38.38341391206502
 30
0.0
 11
3.356369594386866
 21
38.38341391206501
 31
0.0
  0
LINE
  5
D7
330
CE
100
AcDbEntity
  8
치수문자_일반주서
100
AcDbLine
 10
3.356369594386866
 20
38.38341391206501
 30
0.0
 11
3.356369594386826
 21
32.82716392100571
 31
0.0
  0
LINE
  5
D8
330
CE
100
AcDbEntity
  8
치수문자_일반주서
100
AcDbLine
 10
3.356369594386826
 20
32.82716392100571
 30
0.0
 11
2.645432108822326
 21
32.82716392100571
 31
0.0
  0
LINE
  5
D9
330
CE
100
AcDbEntity
  8
치수문자_일반주서
100
AcDbLine
 10
31.36231532850778
 20
5.778273824452533
 30
0.0
 11
31.36231532850778
 21
28.59053219602237
 31
0.0
  0
LINE
  5
DA
330
CE
100
AcDbEntity
  8
치수문자_일반주서
100
AcDbLine
 10
-36.90018467149223
 20
4.811074928723901
 30
0.0
 11
-36.90018467149223
 21
28.59053219602236
 31
0.0
  0
LINE
  5
DB
330
CE
100
AcDbEntity
  8
치수문자_일반주서
100
AcDbLine
 10
31.36231532850778
 20
27.59053219602237
 30
0.0
 11
-36.90018467149223
 21
27.59053219602236
 31
0.0
  0
MTEXT
  5
DC
330
CE
100
AcDbEntity
  8
치수문자_일반주서
100
AcDbMText
 10
-9.407996964366134
 20
32.15574146188408
 30
0.0
 40
3.5
 41
0.0
 71
     1
 72
     1
  1

  7
SLDTEXTSTYLE0
 73
     1
 44
1.0
  0
MTEXT
  5
DD
330
CE
100
AcDbEntity
  8
치수문자_일반주서
100
AcDbMText
 10
-7.294628852703529
 20
37.33890083558469
 30
0.0
 40
3.5
 41
0.0
 71
     1
 72
     1
  1
3.31
  7
SLDTEXTSTYLE0
 73
     1
 44
1.0
  0
MTEXT
  5
DE
330
CE
100
AcDbEntity
  8
치수문자_일반주서
100
AcDbMText
 10
-8.587684565880291
 20
32.10226928522422
 30
0.0
 40
3.5
 41
0.0
 71
     1
 72
     1
  1
84.14
  7
SLDTEXTSTYLE0
 73
     1
 44
1.0
  0
MTEXT
  5
DF
330
CE
100
AcDbEntity
  8
치수문자_일반주서
100
AcDbMText
 10
5.202072839527434
 20
32.15574146188398
 30
0.0
 40
3.5
 41
0.0
 71
     1
 72
     1
  1

  7
SLDTEXTSTYLE0
 73
     1
 44
1.0
  0
ENDBLK
  5
D0
330
CE
100
AcDbEntity
  8
0
100
AcDbBlockEnd
  0
BLOCK
  5
E2
330
E1
100
AcDbEntity
  8
0
100
AcDbBlockBegin
  2
_D_2
 70
     0
 10
0.0
 20
0.0
 30
0.0
  3
_D_2
  1
_D_2
  0
SOLID
  5
E4
330
E1
100
AcDbEntity
  8
치수문자_일반주서
100
AcDbTrace
 10
76.27542336633579
 20
5.55732492872388
 30
0.0
 11
75.76742336633579
 21
2.255324928723881
 31
0.0
 12
76.78342336633578
 22
2.255324928723881
 32
0.0
 13
76.78342336633578
 23
2.255324928723881
 33
0.0
  0
SOLID
  5
E5
330
E1
100
AcDbEntity
  8
치수문자_일반주서
100
AcDbTrace
 10
76.27542336633579
 20
-5.555175071276098
 30
0.0
 11
76.78342336633578
 21
-2.253175071276099
 31
0.0
 12
75.76742336633579
 22
-2.253175071276099
 32
0.0
 13
75.76742336633579
 23
-2.253175071276099
 33
0.0
  0
LINE
  5
E6
330
E1
100
AcDbEntity
  8
치수문자_일반주서
100
AcDbLine
 10
65.48254165029307
 20
10.17616576495354
 30
0.0
 11
65.48254165029307
 21
9.465228279389038
 31
0.0
  0
LINE
  5
E7
330
E1
100
AcDbEntity
  8
치수문자_일반주서
100
AcDbLine
 10
65.48254165029307
 20
9.465228279389038
 30
0.0
 11
71.03879164135238
 21
9.465228279389077
 31
0.0
  0
LINE
  5
E8
330
E1
100
AcDbEntity
  8
치수문자_일반주서
100
AcDbLine
 10
71.03879164135238
 20
9.465228279389077
 30
0.0
 11
71.03879164135238
 21
10.17616576495358
 31
0.0
  0
LINE
  5
E9
330
E1
100
AcDbEntity
  8
치수문자_일반주서
100
AcDbLine
 10
65.48254165029299
 20
21.0048986270908
 30
0.0
 11
65.48254165029299
 21
21.7158361126553
 31
0.0
  0
LINE
  5
EA
330
E1
100
AcDbEntity
  8
치수문자_일반주서
100
AcDbLine
 10
65.48254165029299
 20
21.7158361126553
 30
0.0
 11
71.03879164135229
 21
21.71583611265534
 31
0.0
  0
LINE
  5
EB
330
E1
100
AcDbEntity
  8
치수문자_일반주서
100
AcDbLine
 10
71.03879164135229
 20
21.71583611265534
 30
0.0
 11
71.03879164135229
 21
21.00489862709084
 31
0.0
  0
LINE
  5
EC
330
E1
100
AcDbEntity
  8
치수문자_일반주서
100
AcDbLine
 10
52.20606532850784
 20
5.557324928723882
 30
0.0
 11
77.27542336633579
 21
5.55732492872388
 31
0.0
  0
LINE
  5
ED
330
E1
100
AcDbEntity
  8
치수문자_일반주서
100
AcDbLine
 10
52.20606532850784
 20
-5.555175071276096
 30
0.0
 11
77.27542336633579
 21
-5.555175071276098
 31
0.0
  0
LINE
  5
EE
330
E1
100
AcDbEntity
  8
치수문자_일반주서
100
AcDbLine
 10
76.27542336633579
 20
5.55732492872388
 30
0.0
 11
76.27542336633579
 21
24.04850113884327
 31
0.0
  0
LINE
  5
EF
330
E1
100
AcDbEntity
  8
치수문자_일반주서
100
AcDbLine
 10
76.27542336633579
 20
5.55732492872388
 30
0.0
 11
76.27542336633579
 21
-5.555175071276098
 31
0.0
  0
MTEXT
  5
F0
330
E1
100
AcDbEntity
  8
치수문자_일반주서
100
AcDbMText
 10
66.52705472677346
 20
11.06483766556492
 30
0.0
 40
3.5
 41
0.0
 71
     1
 72
     1
  1
0.44
  7
SLDTEXTSTYLE0
 11
-7.044195017643634E-15
 21
1.0
 31
0.0
 73
     1
 44
1.0
  0
MTEXT
  5
F1
330
E1
100
AcDbEntity
  8
치수문자_일반주서
100
AcDbMText
 10
71.76368627713396
 20
7.132563253201183
 30
0.0
 40
3.5
 41
0.0
 71
     1
 72
     1
  1
%%c
  7
SLDTEXTSTYLE0
 11
-7.044195017643634E-15
 21
1.0
 31
0.0
 73
     1
 44
1.0
  0
MTEXT
  5
F2
330
E1
100
AcDbEntity
  8
치수문자_일반주서
100
AcDbMText
 10
71.76368627713391
 20
12.41100065157526
 30
0.0
 40
3.5
 41
0.0
 71
     1
 72
     1
  1
11.11
  7
SLDTEXTSTYLE0
 11
-7.044195017643634E-15
 21
1.0
 31
0.0
 73
     1
 44
1.0
  0
ENDBLK
  5
E3
330
E1
100
AcDbEntity
  8
0
100
AcDbBlockEnd
  0
BLOCK
  5
F6
330
F5
100
AcDbEntity
  8
0
100
AcDbBlockBegin
  2
_D_3
 70
     0
 10
0.0
 20
0.0
 30
0.0
  3
_D_3
  1
_D_3
  0
SOLID
  5
F8
330
F5
100
AcDbEntity
  8
치수문자_일반주서
100
AcDbTrace
 10
-48.73747769446511
 20
4.763574928723895
 30
0.0
 11
-48.22947769446511
 21
8.065574928723894
 31
0.0
 12
-49.24547769446512
 22
8.065574928723894
 32
0.0
 13
-49.24547769446512
 23
8.065574928723894
 33
0.0
  0
SOLID
  5
F9
330
F5
100
AcDbEntity
  8
치수문자_일반주서
100
AcDbTrace
 10
-48.73747769446511
 20
-4.76142507127611
 30
0.0
 11
-49.24547769446512
 21
-8.06342507127611
 31
0.0
 12
-48.22947769446511
 22
-8.06342507127611
 32
0.0
 13
-48.22947769446511
 23
-8.06342507127611
 33
0.0
  0
LINE
  5
FA
330
F5
100
AcDbEntity
  8
치수문자_일반주서
100
AcDbLine
 10
-59.53035941050783
 20
-5.413291502344828
 30
0.0
 11
-59.53035941050782
 21
-6.124228987909328
 31
0.0
  0
LINE
  5
FB
330
F5
100
AcDbEntity
  8
치수문자_일반주서
100
AcDbLine
 10
-59.53035941050782
 20
-6.124228987909328
 30
0.0
 11
-53.97410941944852
 21
-6.124228987909289
 31
0.0
  0
LINE
  5
FC
330
F5
100
AcDbEntity
  8
치수문자_일반주서
100
AcDbLine
 10
-53.97410941944852
 20
-6.124228987909289
 30
0.0
 11
-53.97410941944852
 21
-5.413291502344789
 31
0.0
  0
LINE
  5
FD
330
F5
100
AcDbEntity
  8
치수문자_일반주서
100
AcDbLine
 10
-59.5303594105079
 20
5.41544135979243
 30
0.0
 11
-59.53035941050791
 21
6.12637884535693
 31
0.0
  0
LINE
  5
FE
330
F5
100
AcDbEntity
  8
치수문자_일반주서
100
AcDbLine
 10
-59.53035941050791
 20
6.12637884535693
 30
0.0
 11
-53.9741094194486
 21
6.126378845356969
 31
0.0
  0
LINE
  5
FF
330
F5
100
AcDbEntity
  8
치수문자_일반주서
100
AcDbLine
 10
-53.9741094194486
 20
6.126378845356969
 30
0.0
 11
-53.9741094194486
 21
5.415441359792469
 31
0.0
  0
LINE
  5
100
330
F5
100
AcDbEntity
  8
치수문자_일반주서
100
AcDbLine
 10
-36.94768467149223
 20
4.763574928723896
 30
0.0
 11
-49.73747769446511
 21
4.763574928723895
 31
0.0
  0
LINE
  5
101
330
F5
100
AcDbEntity
  8
치수문자_일반주서
100
AcDbLine
 10
-36.94768467149223
 20
-4.761425071276109
 30
0.0
 11
-49.73747769446511
 21
-4.76142507127611
 31
0.0
  0
LINE
  5
102
330
F5
100
AcDbEntity
  8
치수문자_일반주서
100
AcDbLine
 10
-48.73747769446511
 20
4.763574928723895
 30
0.0
 11
-48.73747769446511
 21
11.11357492872389
 31
0.0
  0
LINE
  5
103
330
F5
100
AcDbEntity
  8
치수문자_일반주서
100
AcDbLine
 10
-48.73747769446511
 20
4.763574928723895
 30
0.0
 11
-48.73747769446511
 21
-4.76142507127611
 31
0.0
  0
LINE
  5
104
330
F5
100
AcDbEntity
  8
치수문자_일반주서
100
AcDbLine
 10
-48.73747769446511
 20
-4.76142507127611
 30
0.0
 11
-48.73747769446511
 21
-11.11142507127611
 31
0.0
  0
MTEXT
  5
105
330
F5
100
AcDbEntity
  8
치수문자_일반주서
100
AcDbMText
 10
-58.48584633402742
 20
-4.52461960173345
 30
0.0
 40
3.5
 41
0.0
 71
     1
 72
     1
  1
0.38
  7
SLDTEXTSTYLE0
 11
-7.044195017643634E-15
 21
1.0
 31
0.0
 73
     1
 44
1.0
  0
MTEXT
  5
106
330
F5
100
AcDbEntity
  8
치수문자_일반주서
100
AcDbMText
 10
-53.24921478366694
 20
-7.163838766581741
 30
0.0
 40
3.5
 41
0.0
 71
     1
 72
     1
  1
%%c
  7
SLDTEXTSTYLE0
 11
-7.044195017643634E-15
 21
1.0
 31
0.0
 73
     1
 44
1.0
  0
MTEXT
  5
107
330
F5
100
AcDbEntity
  8
치수문자_일반주서
100
AcDbMText
 10
-53.24921478366696
 20
-1.88540136820766
 30
0.0
 40
3.5
 41
0.0
 71
     1
 72
     1
  1
9.53
  7
SLDTEXTSTYLE0
 11
-7.044195017643634E-15
 21
1.0
 31
0.0
 73
     1
 44
1.0
  0
ENDBLK
  5
F7
330
F5
100
AcDbEntity
  8
0
100
AcDbBlockEnd
  0
BLOCK
  5
110
330
10F
100
AcDbEntity
  8
0
100
AcDbBlockBegin
  2
SW_DOWELSYMBOL_0
 70
     0
 10
0.0
 20
0.0
 30
0.0
  3
SW_DOWELSYMBOL_0
  1
SW_DOWELSYMBOL_0
  0
CIRCLE
  5
112
330
10F
100
AcDbEntity
  8
해칭선
 62
     0
100
AcDbCircle
 10
0.0
 20
0.0
 30
0.0
 40
3.000000000000001
  0
HATCH
  5
113
330
10F
100
AcDbEntity
  8
0
  6
Continuous
 62
     0
370
     0
100
AcDbHatch
 10
0.0
 20
0.0
 30
0.0
210
0.0
220
0.0
230
1.0
  2
SOLID
 70
     1
 71
     0
 91
        1
 92
        0
 93
        3
 72
     2
 10
0.0000000000000069
 20
0.0
 40
3.000000000000001
 50
0.0
 51
90.0
 73
     1
 72
     1
 10
0.0000000000000069
 20
3.000000000000001
 11
0.0000000000000069
 21
0.0
 72
     1
 10
0.0000000000000069
 20
0.0
 11
3.000000000000008
 21
0.0
 97
        0
 75
     0
 76
     1
 98
        1
 10
0.0
 20
0.0
  0
HATCH
  5
114
330
10F
100
AcDbEntity
  8
0
  6
Continuous
 62
     0
370
     0
100
AcDbHatch
 10
0.0
 20
0.0
 30
0.0
210
0.0
220
0.0
230
1.0
  2
SOLID
 70
     1
 71
     0
 91
        1
 92
        0
 93
        3
 72
     2
 10
0.0000000000000069
 20
0.0
 40
3.000000000000001
 50
180.0
 51
270.0000000000008
 73
     1
 72
     1
 10
0.0000000000000069
 20
-3.000000000000001
 11
0.0000000000000069
 21
0.0
 72
     1
 10
0.0000000000000069
 20
0.0
 11
-2.999999999999994
 21
0.0
 97
        0
 75
     0
 76
     1
 98
        1
 10
0.0
 20
0.0
  0
ENDBLK
  5
111
330
10F
100
AcDbEntity
  8
0
100
AcDbBlockEnd
  0
BLOCK
  5
1CB
330
1CA
100
AcDbEntity
  8
0
100
AcDbBlockBegin
  2
*D8
 70
     1
 10
0.0
 20
0.0
 30
0.0
  3
*D8
  1
*D8
  0
LINE
  5
1CD
330
1CA
100
AcDbEntity
  8
치수문자_일반주서
 62
     0
370
    -2
100
AcDbLine
 10
111.9900000000001
 20
22.54149999999992
 30
0.0
 11
111.9900000000001
 21
29.30399999999992
 31
0.0
  0
LINE
  5
1CE
330
1CA
100
AcDbEntity
  8
치수문자_일반주서
 62
     0
370
    -2
100
AcDbLine
 10
70.71500000000003
 20
22.51231057025598
 30
0.0
 11
70.71500000000003
 21
29.30399999999992
 31
0.0
  0
LINE
  5
1CF
330
1CA
100
AcDbEntity
  8
치수문자_일반주서
 62
     0
370
    -2
100
AcDbLine
 10
108.6880000000001
 20
29.30399999999992
 30
0.0
 11
74.01700000000002
 21
29.30399999999992
 31
0.0
  0
SOLID
  5
1D0
330
1CA
100
AcDbEntity
  8
치수문자_일반주서
 62
     0
100
AcDbTrace
 10
108.6880000000001
 20
28.75366666666659
 30
0.0
 11
108.6880000000001
 21
29.85433333333326
 31
0.0
 12
111.9900000000001
 22
29.30399999999992
 32
0.0
 13
111.9900000000001
 23
29.30399999999992
 33
0.0
  0
SOLID
  5
1D1
330
1CA
100
AcDbEntity
  8
치수문자_일반주서
 62
     0
100
AcDbTrace
 10
74.01700000000002
 20
29.85433333333326
 30
0.0
 11
74.01700000000002
 21
28.75366666666659
 31
0.0
 12
70.71500000000003
 22
29.30399999999992
 32
0.0
 13
70.71500000000003
 23
29.30399999999992
 33
0.0
  0
MTEXT
  5
1D2
330
1CA
100
AcDbEntity
  8
치수문자_일반주서
 62
     0
100
AcDbMText
 10
91.35250000000006
 20
33.67899999999992
 30
0.0
 40
3.5
 41
0.0
 71
     2
 72
     1
  1
\A1;41.28 [1 5/8]
  7
SLDTEXTSTYLE0
 73
     1
 44
1.0
  0
POINT
  5
1D3
330
1CA
100
AcDbEntity
  8
Defpoints
 62
     0
100
AcDbPoint
 10
111.9900000000001
 20
22.47899999999992
 30
0.0
  0
POINT
  5
1D4
330
1CA
100
AcDbEntity
  8
Defpoints
 62
     0
100
AcDbPoint
 10
70.71500000000003
 20
22.44981057025598
 30
0.0
  0
POINT
  5
1D5
330
1CA
100
AcDbEntity
  8
Defpoints
 62
     0
100
AcDbPoint
 10
70.71500000000003
 20
29.30399999999992
 30
0.0
  0
ENDBLK
  5
1CC
330
1CA
100
AcDbEntity
  8
0
100
AcDbBlockEnd
  0
BLOCK
  5
1D7
330
1D6
100
AcDbEntity
  8
0
100
AcDbBlockBegin
  2
*D9
 70
     1
 10
0.0
 20
0.0
 30
0.0
  3
*D9
  1
*D9
  0
LINE
  5
1D9
330
1D6
100
AcDbEntity
  8
치수문자_일반주서
 62
     0
370
    -2
100
AcDbLine
 10
111.9900000000001
 20
22.54149999999992
 30
0.0
 11
111.9900000000001
 21
46.15064679328071
 31
0.0
  0
LINE
  5
1DA
330
1D6
100
AcDbEntity
  8
치수문자_일반주서
 62
     0
370
    -2
100
AcDbLine
 10
16.74000000000004
 20
20.95399999999991
 30
0.0
 11
16.74000000000004
 21
46.15064679328071
 31
0.0
  0
LINE
  5
1DB
330
1D6
100
AcDbEntity
  8
치수문자_일반주서
 62
     0
370
    -2
100
AcDbLine
 10
108.6880000000001
 20
46.15064679328071
 30
0.0
 11
20.04200000000004
 21
46.15064679328071
 31
0.0
  0
SOLID
  5
1DC
330
1D6
100
AcDbEntity
  8
치수문자_일반주서
 62
     0
100
AcDbTrace
 10
108.6880000000001
 20
45.60031345994738
 30
0.0
 11
108.6880000000001
 21
46.70098012661405
 31
0.0
 12
111.9900000000001
 22
46.15064679328071
 32
0.0
 13
111.9900000000001
 23
46.15064679328071
 33
0.0
  0
SOLID
  5
1DD
330
1D6
100
AcDbEntity
  8
치수문자_일반주서
 62
     0
100
AcDbTrace
 10
20.04200000000004
 20
46.70098012661405
 30
0.0
 11
20.04200000000004
 21
45.60031345994738
 31
0.0
 12
16.74000000000004
 22
46.15064679328071
 32
0.0
 13
16.74000000000004
 23
46.15064679328071
 33
0.0
  0
MTEXT
  5
1DE
330
1D6
100
AcDbEntity
  8
치수문자_일반주서
 62
     0
100
AcDbMText
 10
64.36500000000007
 20
50.52564679328071
 30
0.0
 40
3.5
 41
0.0
 71
     2
 72
     1
  1
\A1;95.25 [3 3/4]
  7
SLDTEXTSTYLE0
 73
     1
 44
1.0
  0
POINT
  5
1DF
330
1D6
100
AcDbEntity
  8
Defpoints
 62
     0
100
AcDbPoint
 10
111.9900000000001
 20
22.47899999999992
 30
0.0
  0
POINT
  5
1E0
330
1D6
100
AcDbEntity
  8
Defpoints
 62
     0
100
AcDbPoint
 10
16.74000000000004
 20
20.89149999999991
 30
0.0
  0
POINT
  5
1E1
330
1D6
100
AcDbEntity
  8
Defpoints
 62
     0
100
AcDbPoint
 10
16.74000000000004
 20
46.15064679328071
 30
0.0
  0
ENDBLK
  5
1D8
330
1D6
100
AcDbEntity
  8
0
100
AcDbBlockEnd
  0
BLOCK
  5
1E3
330
1E2
100
AcDbEntity
  8
0
100
AcDbBlockBegin
  2
*D10
 70
     1
 10
0.0
 20
0.0
 30
0.0
  3
*D10
  1
*D10
  0
LINE
  5
1E5
330
1E2
100
AcDbEntity
  8
치수문자_일반주서
 62
     0
370
    -2
100
AcDbLine
 10
18.26500000000004
 20
22.47899999999993
 30
0.0
 11
4.375000000000015
 21
22.47899999999987
 31
0.0
  0
LINE
  5
1E6
330
1E2
100
AcDbEntity
  8
치수문자_일반주서
 62
     0
370
    -2
100
AcDbLine
 10
18.26500000000004
 20
6.603999999999898
 30
0.0
 11
4.37500000000007
 21
6.603999999999845
 31
0.0
  0
LINE
  5
1E7
330
1E2
100
AcDbEntity
  8
치수문자_일반주서
 62
     0
370
    -2
100
AcDbLine
 10
4.375000000000027
 20
19.17699999999988
 30
0.0
 11
4.375000000000059
 21
9.905999999999844
 31
0.0
  0
SOLID
  5
1E8
330
1E2
100
AcDbEntity
  8
치수문자_일반주서
 62
     0
100
AcDbTrace
 10
4.92533333333336
 20
19.17699999999988
 30
0.0
 11
3.824666666666694
 21
19.17699999999987
 31
0.0
 12
4.375000000000015
 22
22.47899999999987
 32
0.0
 13
4.375000000000015
 23
22.47899999999987
 33
0.0
  0
SOLID
  5
1E9
330
1E2
100
AcDbEntity
  8
치수문자_일반주서
 62
     0
100
AcDbTrace
 10
3.824666666666726
 20
9.905999999999842
 30
0.0
 11
4.925333333333392
 21
9.905999999999846
 31
0.0
 12
4.37500000000007
 22
6.603999999999845
 32
0.0
 13
4.37500000000007
 23
6.603999999999845
 33
0.0
  0
MTEXT
  5
1EA
330
1E2
100
AcDbEntity
  8
치수문자_일반주서
 62
     0
100
AcDbMText
 10
0.0000000000000426
 20
14.54149999999992
 30
0.0
 40
3.5
 41
0.0
 71
     2
 72
     1
  1
\A1;%%c15.88 [5/8]
  7
SLDTEXTSTYLE0
 11
-3.468791308435129E-15
 21
1.0
 31
0.0
 73
     1
 44
1.0
  0
POINT
  5
1EB
330
1E2
100
AcDbEntity
  8
Defpoints
 62
     0
100
AcDbPoint
 10
18.32750000000004
 20
22.47899999999993
 30
0.0
  0
POINT
  5
1EC
330
1E2
100
AcDbEntity
  8
Defpoints
 62
     0
100
AcDbPoint
 10
18.32750000000004
 20
6.603999999999898
 30
0.0
  0
POINT
  5
1ED
330
1E2
100
AcDbEntity
  8
Defpoints
 62
     0
100
AcDbPoint
 10
4.375000000000071
 20
6.603999999999846
 30
0.0
  0
ENDBLK
  5
1E4
330
1E2
100
AcDbEntity
  8
0
100
AcDbBlockEnd
  0
BLOCK
  5
1EF
330
1EE
100
AcDbEntity
  8
0
100
AcDbBlockBegin
  2
*D11
 70
     1
 10
0.0
 20
0.0
 30
0.0
  3
*D11
  1
*D11
  0
LINE
  5
1F1
330
1EE
100
AcDbEntity
  8
치수문자_일반주서
 62
     0
370
    -2
100
AcDbLine
 10
112.0525000000001
 20
22.47899999999992
 30
0.0
 11
132.787975024029
 21
22.479
 31
0.0
  0
LINE
  5
1F2
330
1EE
100
AcDbEntity
  8
치수문자_일반주서
 62
     0
370
    -2
100
AcDbLine
 10
112.0525000000001
 20
6.603999999999919
 30
0.0
 11
132.7879750240291
 21
6.603999999999999
 31
0.0
  0
LINE
  5
1F3
330
1EE
100
AcDbEntity
  8
치수문자_일반주서
 62
     0
370
    -2
100
AcDbLine
 10
132.787975024029
 20
22.479
 30
0.0
 11
132.7879750240289
 21
57.08300000000003
 31
0.0
  0
LINE
  5
1F4
330
1EE
100
AcDbEntity
  8
치수문자_일반주서
 62
     0
370
    -2
100
AcDbLine
 10
132.787975024029
 20
22.479
 30
0.0
 11
132.7879750240291
 21
6.603999999999999
 31
0.0
  0
LINE
  5
1F5
330
1EE
100
AcDbEntity
  8
치수문자_일반주서
 62
     0
370
    -2
100
AcDbLine
 10
132.787975024029
 20
25.781
 30
0.0
 11
132.787975024029
 21
29.083
 31
0.0
  0
LINE
  5
1F6
330
1EE
100
AcDbEntity
  8
치수문자_일반주서
 62
     0
370
    -2
100
AcDbLine
 10
132.7879750240291
 20
3.302
 30
0.0
 11
132.7879750240291
 21
0.0
 31
0.0
  0
SOLID
  5
1F7
330
1EE
100
AcDbEntity
  8
치수문자_일반주서
 62
     0
100
AcDbTrace
 10
132.2376416906957
 20
25.781
 30
0.0
 11
133.3383083573623
 21
25.781
 31
0.0
 12
132.787975024029
 22
22.479
 32
0.0
 13
132.787975024029
 23
22.479
 33
0.0
  0
SOLID
  5
1F8
330
1EE
100
AcDbEntity
  8
치수문자_일반주서
 62
     0
100
AcDbTrace
 10
133.3383083573624
 20
3.302000000000001
 30
0.0
 11
132.2376416906957
 21
3.301999999999998
 31
0.0
 12
132.7879750240291
 22
6.603999999999999
 32
0.0
 13
132.7879750240291
 23
6.603999999999999
 33
0.0
  0
MTEXT
  5
1F9
330
1EE
100
AcDbEntity
  8
치수문자_일반주서
 62
     0
100
AcDbMText
 10
128.4129750240289
 20
43.08300000000001
 30
0.0
 40
3.5
 41
0.0
 71
     2
 72
     1
  1
\A1;%%c15.88 [5/8]
  7
SLDTEXTSTYLE0
 11
-3.580687802255622E-15
 21
1.0
 31
0.0
 73
     1
 44
1.0
  0
POINT
  5
1FA
330
1EE
100
AcDbEntity
  8
Defpoints
 62
     0
100
AcDbPoint
 10
111.9900000000001
 20
22.47899999999992
 30
0.0
  0
POINT
  5
1FB
330
1EE
100
AcDbEntity
  8
Defpoints
 62
     0
100
AcDbPoint
 10
111.9900000000001
 20
6.603999999999919
 30
0.0
  0
POINT
  5
1FC
330
1EE
100
AcDbEntity
  8
Defpoints
 62
     0
100
AcDbPoint
 10
132.7879750240291
 20
6.603999999999997
 30
0.0
  0
ENDBLK
  5
1F0
330
1EE
100
AcDbEntity
  8
0
100
AcDbBlockEnd
  0
BLOCK
  5
228
330
227
100
AcDbEntity
  8
0
100
AcDbBlockBegin
  2
*D12
 70
     1
 10
0.0
 20
0.0
 30
0.0
  3
*D12
  1
*D12
  0
LINE
  5
22A
330
227
100
AcDbEntity
  8
치수문자_일반주서
 62
     0
370
    -2
100
AcDbLine
 10
43.27500003481279
 20
8.793990509735629
 30
0.0
 11
43.27500003481279
 21
14.76274050973563
 31
0.0
  0
LINE
  5
22B
330
227
100
AcDbEntity
  8
치수문자_일반주서
 62
     0
370
    -2
100
AcDbLine
 10
2.000000034812729
 20
8.793990509735615
 30
0.0
 11
2.000000034812729
 21
14.76274050973563
 31
0.0
  0
LINE
  5
22C
330
227
100
AcDbEntity
  8
치수문자_일반주서
 62
     0
370
    -2
100
AcDbLine
 10
39.97300003481279
 20
14.76274050973563
 30
0.0
 11
5.302000034812728
 21
14.76274050973563
 31
0.0
  0
SOLID
  5
22D
330
227
100
AcDbEntity
  8
치수문자_일반주서
 62
     0
100
AcDbTrace
 10
39.97300003481279
 20
14.2124071764023
 30
0.0
 11
39.97300003481279
 21
15.31307384306896
 31
0.0
 12
43.27500003481279
 22
14.76274050973563
 32
0.0
 13
43.27500003481279
 23
14.76274050973563
 33
0.0
  0
SOLID
  5
22E
330
227
100
AcDbEntity
  8
치수문자_일반주서
 62
     0
100
AcDbTrace
 10
5.302000034812728
 20
15.31307384306896
 30
0.0
 11
5.302000034812728
 21
14.2124071764023
 31
0.0
 12
2.000000034812729
 22
14.76274050973563
 32
0.0
 13
2.000000034812729
 23
14.76274050973563
 33
0.0
  0
MTEXT
  5
22F
330
227
100
AcDbEntity
  8
치수문자_일반주서
 62
     0
100
AcDbMText
 10
22.63750003481275
 20
19.13774050973563
 30
0.0
 40
3.5
 41
0.0
 71
     2
 72
     1
  1
\A1;41.28 [1 5/8]
  7
SLDTEXTSTYLE0
 73
     1
 44
1.0
  0
POINT
  5
230
330
227
100
AcDbEntity
  8
Defpoints
 62
     0
100
AcDbPoint
 10
43.27500003481279
 20
8.731490509735629
 30
0.0
  0
POINT
  5
231
330
227
100
AcDbEntity
  8
Defpoints
 62
     0
100
AcDbPoint
 10
2.000000034812729
 20
8.731490509735615
 30
0.0
  0
POINT
  5
232
330
227
100
AcDbEntity
  8
Defpoints
 62
     0
100
AcDbPoint
 10
2.000000034812729
 20
14.76274050973563
 30
0.0
  0
ENDBLK
  5
229
330
227
100
AcDbEntity
  8
0
100
AcDbBlockEnd
  0
BLOCK
  5
234
330
233
100
AcDbEntity
  8
0
100
AcDbBlockBegin
  2
*D13
 70
     1
 10
0.0
 20
0.0
 30
0.0
  3
*D13
  1
*D13
  0
LINE
  5
236
330
233
100
AcDbEntity
  8
치수문자_일반주서
 62
     0
370
    -2
100
AcDbLine
 10
43.27500003481279
 20
8.793990509735629
 30
0.0
 11
43.27500003481279
 21
31.60938730301642
 31
0.0
  0
LINE
  5
237
330
233
100
AcDbEntity
  8
치수문자_일반주서
 62
     0
370
    -2
100
AcDbLine
 10
-51.97499996518727
 20
6.412740509735613
 30
0.0
 11
-51.97499996518727
 21
31.60938730301642
 31
0.0
  0
LINE
  5
238
330
233
100
AcDbEntity
  8
치수문자_일반주서
 62
     0
370
    -2
100
AcDbLine
 10
39.97300003481279
 20
31.60938730301642
 30
0.0
 11
-48.67299996518727
 21
31.60938730301642
 31
0.0
  0
SOLID
  5
239
330
233
100
AcDbEntity
  8
치수문자_일반주서
 62
     0
100
AcDbTrace
 10
39.97300003481279
 20
31.05905396968308
 30
0.0
 11
39.97300003481279
 21
32.15972063634975
 31
0.0
 12
43.27500003481279
 22
31.60938730301642
 32
0.0
 13
43.27500003481279
 23
31.60938730301642
 33
0.0
  0
SOLID
  5
23A
330
233
100
AcDbEntity
  8
치수문자_일반주서
 62
     0
100
AcDbTrace
 10
-48.67299996518727
 20
32.15972063634975
 30
0.0
 11
-48.67299996518727
 21
31.05905396968308
 31
0.0
 12
-51.97499996518727
 22
31.60938730301642
 32
0.0
 13
-51.97499996518727
 23
31.60938730301642
 33
0.0
  0
MTEXT
  5
23B
330
233
100
AcDbEntity
  8
치수문자_일반주서
 62
     0
100
AcDbMText
 10
-4.349999965187237
 20
35.98438730301642
 30
0.0
 40
3.5
 41
0.0
 71
     2
 72
     1
  1
\A1;95.25 [3 3/4]
  7
SLDTEXTSTYLE0
 73
     1
 44
1.0
  0
POINT
  5
23C
330
233
100
AcDbEntity
  8
Defpoints
 62
     0
100
AcDbPoint
 10
43.27500003481279
 20
8.731490509735629
 30
0.0
  0
POINT
  5
23D
330
233
100
AcDbEntity
  8
Defpoints
 62
     0
100
AcDbPoint
 10
-51.97499996518727
 20
6.350240509735613
 30
0.0
  0
POINT
  5
23E
330
233
100
AcDbEntity
  8
Defpoints
 62
     0
100
AcDbPoint
 10
-51.97499996518727
 20
31.60938730301642
 30
0.0
  0
ENDBLK
  5
235
330
233
100
AcDbEntity
  8
0
100
AcDbBlockEnd
  0
BLOCK
  5
240
330
23F
100
AcDbEntity
  8
0
100
AcDbBlockBegin
  2
*D14
 70
     1
 10
0.0
 20
0.0
 30
0.0
  3
*D14
  1
*D14
  0
LINE
  5
242
330
23F
100
AcDbEntity
  8
치수문자_일반주서
 62
     0
370
    -2
100
AcDbLine
 10
-50.44999996518726
 20
7.937740509735633
 30
0.0
 11
-64.33999996518729
 21
7.937740509735582
 31
0.0
  0
LINE
  5
243
330
23F
100
AcDbEntity
  8
치수문자_일반주서
 62
     0
370
    -2
100
AcDbLine
 10
-50.44999996518726
 20
-7.937259490264395
 30
0.0
 11
-64.33999996518723
 21
-7.937259490264446
 31
0.0
  0
LINE
  5
244
330
23F
100
AcDbEntity
  8
치수문자_일반주서
 62
     0
370
    -2
100
AcDbLine
 10
-64.33999996518727
 20
4.635740509735583
 30
0.0
 11
-64.33999996518725
 21
-4.635259490264446
 31
0.0
  0
SOLID
  5
245
330
23F
100
AcDbEntity
  8
치수문자_일반주서
 62
     0
100
AcDbTrace
 10
-63.78966663185394
 20
4.635740509735585
 30
0.0
 11
-64.8903332985206
 21
4.635740509735581
 31
0.0
 12
-64.33999996518729
 22
7.937740509735582
 32
0.0
 13
-64.33999996518729
 23
7.937740509735582
 33
0.0
  0
SOLID
  5
246
330
23F
100
AcDbEntity
  8
치수문자_일반주서
 62
     0
100
AcDbTrace
 10
-64.89033329852057
 20
-4.635259490264448
 30
0.0
 11
-63.78966663185391
 21
-4.635259490264445
 31
0.0
 12
-64.33999996518723
 22
-7.937259490264446
 32
0.0
 13
-64.33999996518723
 23
-7.937259490264446
 33
0.0
  0
MTEXT
  5
247
330
23F
100
AcDbEntity
  8
치수문자_일반주서
 62
     0
100
AcDbMText
 10
-68.71499996518726
 20
0.0002405097356175
 30
0.0
 40
3.5
 41
0.0
 71
     2
 72
     1
  1
\A1;%%c15.88 [5/8]
  7
SLDTEXTSTYLE0
 11
-3.580687802255616E-15
 21
1.0
 31
0.0
 73
     1
 44
1.0
  0
POINT
  5
248
330
23F
100
AcDbEntity
  8
Defpoints
 62
     0
100
AcDbPoint
 10
-50.38749996518726
 20
7.937740509735633
 30
0.0
  0
POINT
  5
249
330
23F
100
AcDbEntity
  8
Defpoints
 62
     0
100
AcDbPoint
 10
-50.38749996518726
 20
-7.937259490264395
 30
0.0
  0
POINT
  5
24A
330
23F
100
AcDbEntity
  8
Defpoints
 62
     0
100
AcDbPoint
 10
-64.33999996518723
 20
-7.937259490264448
 30
0.0
  0
ENDBLK
  5
241
330
23F
100
AcDbEntity
  8
0
100
AcDbBlockEnd
  0
BLOCK
  5
24C
330
24B
100
AcDbEntity
  8
0
100
AcDbBlockBegin
  2
*D15
 70
     1
 10
0.0
 20
0.0
 30
0.0
  3
*D15
  1
*D15
  0
LINE
  5
24E
330
24B
100
AcDbEntity
  8
치수문자_일반주서
 62
     0
370
    -2
100
AcDbLine
 10
43.33750003481279
 20
8.731490509735629
 30
0.0
 11
66.15277256124456
 21
8.731490509735714
 31
0.0
  0
LINE
  5
24F
330
24B
100
AcDbEntity
  8
치수문자_일반주서
 62
     0
370
    -2
100
AcDbLine
 10
43.33750003481279
 20
-8.73100949026437
 30
0.0
 11
66.15277256124462
 21
-8.731009490264285
 31
0.0
  0
LINE
  5
250
330
24B
100
AcDbEntity
  8
치수문자_일반주서
 62
     0
370
    -2
100
AcDbLine
 10
66.15277256124456
 20
8.731490509735714
 30
0.0
 11
66.15277256124443
 21
46.70839050973575
 31
0.0
  0
LINE
  5
251
330
24B
100
AcDbEntity
  8
치수문자_일반주서
 62
     0
370
    -2
100
AcDbLine
 10
66.15277256124456
 20
8.731490509735714
 30
0.0
 11
66.15277256124462
 21
-8.731009490264285
 31
0.0
  0
LINE
  5
252
330
24B
100
AcDbEntity
  8
치수문자_일반주서
 62
     0
370
    -2
100
AcDbLine
 10
66.15277256124455
 20
12.03349050973571
 30
0.0
 11
66.15277256124453
 21
15.33549050973571
 31
0.0
  0
LINE
  5
253
330
24B
100
AcDbEntity
  8
치수문자_일반주서
 62
     0
370
    -2
100
AcDbLine
 10
66.15277256124463
 20
-12.03300949026428
 30
0.0
 11
66.15277256124465
 21
-15.33500949026428
 31
0.0
  0
SOLID
  5
254
330
24B
100
AcDbEntity
  8
치수문자_일반주서
 62
     0
100
AcDbTrace
 10
65.60243922791122
 20
12.03349050973571
 30
0.0
 11
66.70310589457787
 21
12.03349050973572
 31
0.0
 12
66.15277256124456
 22
8.731490509735714
 32
0.0
 13
66.15277256124456
 23
8.731490509735714
 33
0.0
  0
SOLID
  5
255
330
24B
100
AcDbEntity
  8
치수문자_일반주서
 62
     0
100
AcDbTrace
 10
66.70310589457796
 20
-12.03300949026428
 30
0.0
 11
65.6024392279113
 21
-12.03300949026429
 31
0.0
 12
66.15277256124462
 22
-8.731009490264285
 32
0.0
 13
66.15277256124462
 23
-8.731009490264285
 33
0.0
  0
MTEXT
  5
256
330
24B
100
AcDbEntity
  8
치수문자_일반주서
 62
     0
100
AcDbMText
 10
61.77777256124449
 20
31.39589050973574
 30
0.0
 40
3.5
 41
0.0
 71
     2
 72
     1
  1
\A1;%%c17.46 [11/16]
  7
SLDTEXTSTYLE0
 11
-3.255170729323294E-15
 21
1.0
 31
0.0
 73
     1
 44
1.0
  0
POINT
  5
257
330
24B
100
AcDbEntity
  8
Defpoints
 62
     0
100
AcDbPoint
 10
43.27500003481279
 20
8.731490509735629
 30
0.0
  0
POINT
  5
258
330
24B
100
AcDbEntity
  8
Defpoints
 62
     0
100
AcDbPoint
 10
43.27500003481279
 20
-8.73100949026437
 30
0.0
  0
POINT
  5
259
330
24B
100
AcDbEntity
  8
Defpoints
 62
     0
100
AcDbPoint
 10
66.15277256124463
 20
-8.731009490264285
 30
0.0
  0
ENDBLK
  5
24D
330
24B
100
AcDbEntity
  8
0
100
AcDbBlockEnd
  0
ENDSEC
  0
SECTION
  2
ENTITIES
  0
LINE
  5
AD
330
1F
100
AcDbEntity
  8
참조1
100
AcDbLine
 10
47.23731532850777
 20
0.0010749287238892
 30
0.0
 11
47.23731532850777
 21
4.77827382445253
 31
0.0
  0
LINE
  5
AF
330
1F
100
AcDbEntity
  8
참조1
100
AcDbLine
 10
5.168565328507777
 20
0.0010749287238892
 30
0.0
 11
5.168565328507782
 21
-39.99892507127611
 31
0.0
  0
LINE
  5
B0
330
1F
100
AcDbEntity
  8
참조1
100
AcDbLine
 10
5.168565328507782
 20
-39.99892507127611
 30
0.0
 11
-17.9277914858009
 21
-39.9989250712761
 31
0.0
  0
INSERT
  5
B2
330
1F
100
AcDbEntity
  8
0
  6
Continuous
 62
     7
100
AcDbBlockReference
 66
     1
  2
블럭10
 10
-27.86812114408043
 20
-52.04609937292004
 30
0.0
  0
ATTRIB
  5
B3
330
B2
100
AcDbEntity
  8
FORMAT
 62
     2
100
AcDbText
 10
-37.04941643282172
 20
-49.97073246008785
 30
0.0
 40
4.233333333333333
  1
E2020901 [ 4 FLUTE ]
 41
0.75
  7
SLDTEXTSTYLE0
 11
-37.04941643282172
 21
-52.08739912675452
 31
0.0
100
AcDbAttribute
  2
AUTOATTR0
 70
     0
 74
     1
  0
SEQEND
  5
B4
330
B2
100
AcDbEntity
  8
0
  6
Continuous
 62
     7
  0
HATCH
  5
B5
330
1F
100
AcDbEntity
  8
중심선
100
AcDbHatch
 10
0.0
 20
0.0
 30
0.0
210
0.0
220
0.0
230
1.0
  2
SOLID
 70
     1
 71
     0
 91
        1
 92
        0
 93
        4
 72
     1
 10
-22.15321183969958
 20
-35.7989250712761
 11
-25.59948708353686
 21
-35.7989250712761
 72
     1
 10
-25.59948708353686
 20
-35.7989250712761
 11
-27.72771694274091
 21
-38.3352506518487
 72
     1
 10
-27.72771694274092
 20
-38.3352506518487
 11
-24.28140861379046
 21
-38.33521122254621
 72
     1
 10
-24.28140861379046
 20
-38.33521122254621
 11
-22.15321183969958
 21
-35.7989250712761
 97
        0
 75
     0
 76
     1
 98
        1
 10
-19.096413540463
 20
0.0
  0
HATCH
  5
B6
330
1F
100
AcDbEntity
  8
중심선
100
AcDbHatch
 10
0.0
 20
0.0
 30
0.0
210
0.0
220
0.0
230
1.0
  2
SOLID
 70
     1
 71
     0
 91
        1
 92
        0
 93
        4
 72
     1
 10
-17.14044784866363
 20
-35.79892507127608
 11
-20.58672309250091
 21
-35.79892507127613
 72
     1
 10
-20.58672309250091
 20
-35.79892507127613
 11
-25.1178611008583
 21
-41.19892507127612
 72
     1
 10
-25.1178611008583
 20
-41.19892507127612
 11
-21.67158585702102
 21
-41.19892507127612
 72
     1
 10
-21.67158585702102
 20
-41.19892507127612
 11
-17.14044784866363
 21
-35.79892507127608
 97
        0
 75
     0
 76
     1
 98
        1
 10
-19.096413540463
 20
0.0
  0
HATCH
  5
B7
330
1F
100
AcDbEntity
  8
중심선
100
AcDbHatch
 10
0.0
 20
0.0
 30
0.0
210
0.0
220
0.0
230
1.0
  2
SOLID
 70
     1
 71
     0
 91
        1
 92
        0
 93
        4
 72
     1
 10
-12.12768385762774
 20
-35.79892507127608
 11
-15.57395910146482
 21
-35.7989250712761
 72
     1
 10
-15.57395910146482
 20
-35.7989250712761
 11
-22.6223960033541
 21
-44.19892507127612
 72
     1
 10
-22.6223960033541
 20
-44.19892507127612
 11
-19.17612075951682
 21
-44.19892507127612
 72
     1
 10
-19.17612075951682
 20
-44.19892507127612
 11
-12.12768385762774
 21
-35.79892507127608
 97
        0
 75
     0
 76
     1
 98
        1
 10
-19.096413540463
 20
0.0
  0
HATCH
  5
B8
330
1F
100
AcDbEntity
  8
중심선
100
AcDbHatch
 10
0.0
 20
0.0
 30
0.0
210
0.0
220
0.0
230
1.0
  2
SOLID
 70
     1
 71
     0
 91
        1
 92
        0
 93
        6
 72
     3
 10
-7.327793426615537
 20
-39.99892507132738
 11
3.960054785062283
 21
1.540882976769353E-10
 40
0.3939339440162628
 50
17.09539180608437
 51
320.0019657685079
 73
     0
 72
     1
 10
-5.644793770914914
 20
-38.58681907591438
 11
-3.339491897213877
 21
-36.65249236586646
 72
     3
 10
-7.327793426668384
 20
-39.99892507127625
 11
6.600054785286828
 21
-1.278976924368180E-13
 40
0.6363583540795982
 50
39.99873849337413
 51
368.4976242363725
 73
     1
 72
     1
 10
-0.9024609347677739
 20
-39.03892507120613
 11
-8.647726119832463
 21
-39.03892507120613
 72
     1
 10
-8.647726119832463
 20
-39.03892507120613
 11
-8.647751164278395
 21
-40.95892507120602
 72
     1
 10
-8.647751164278395
 20
-40.95892507120602
 11
-4.206371394806359
 21
-40.95892507120599
 97
        0
 75
     0
 76
     1
 98
        1
 10
-19.096413540463
 20
0.0
  0
LINE
  5
108
330
1F
100
AcDbEntity
  8
참조1
100
AcDbLine
 10
80.04454914385336
 20
7.441074928723896
 30
0.0
 11
80.04454914385336
 21
-7.438925071276109
 31
0.0
  0
LINE
  5
109
330
1F
100
AcDbEntity
  8
참조1
100
AcDbLine
 10
92.74454914385336
 20
5.441074928723896
 30
0.0
 11
80.04454914385336
 21
5.441074928723896
 31
0.0
  0
SOLID
  5
10A
330
1F
100
AcDbEntity
  8
참조1
100
AcDbTrace
 10
80.04454914385336
 20
5.441074928723896
 30
0.0
 11
86.39454914385335
 21
4.425074928723896
 31
0.0
 12
86.39454914385335
 22
6.457074928723896
 32
0.0
 13
86.39454914385335
 23
6.457074928723896
 33
0.0
  0
LINE
  5
10B
330
1F
100
AcDbEntity
  8
참조1
100
AcDbLine
 10
92.74454914385336
 20
-5.438925071276109
 30
0.0
 11
80.04454914385336
 21
-5.438925071276109
 31
0.0
  0
SOLID
  5
10C
330
1F
100
AcDbEntity
  8
참조1
100
AcDbTrace
 10
80.04454914385336
 20
-5.438925071276109
 30
0.0
 11
86.39454914385335
 21
-6.454925071276109
 31
0.0
 12
86.39454914385335
 22
-4.422925071276109
 32
0.0
 13
86.39454914385335
 23
-4.422925071276109
 33
0.0
  0
MTEXT
  5
10D
330
1F
100
AcDbEntity
  8
참조1
100
AcDbMText
 10
89.64466395441593
 20
11.06679249473997
 30
0.0
 40
3.5
 41
0.0
 71
     1
 72
     1
  1
A
  7
SLDTEXTSTYLE0
 73
     1
 44
1.0
  0
MTEXT
  5
10E
330
1F
100
AcDbEntity
  8
참조1
100
AcDbMText
 10
89.64466395441593
 20
0.1867924947399659
 30
0.0
 40
3.5
 41
0.0
 71
     1
 72
     1
  1
A
  7
SLDTEXTSTYLE0
 73
     1
 44
1.0
  0
LINE
  5
1FE
330
1F
100
AcDbEntity
  8
0
  6
Continuous
 62
     1
370
    15
100
AcDbLine
 10
22.92637807440613
 20
-8.731009490264377
 30
0.0
 11
28.24828612202612
 21
-8.731009490264377
 31
0.0
  0
LINE
  5
1FF
330
1F
100
AcDbEntity
  8
0
  6
Continuous
 62
     1
370
    15
100
AcDbLine
 10
4.49426453632239
 20
8.731490509735615
 30
0.0
 11
2.000000034812757
 21
8.731490509735615
 31
0.0
  0
ARC
  5
200
330
1F
100
AcDbEntity
  8
0
  6
Continuous
 62
     1
370
    15
100
AcDbCircle
 10
34.54375003481277
 20
0.0002405097356188
 30
0.0
 40
8.731249999999992
100
AcDbArc
 50
333.8501419247906
 51
0.0
  0
ARC
  5
201
330
1F
100
AcDbEntity
  8
0
  6
Continuous
 62
     1
370
    15
100
AcDbCircle
 10
34.54375003481277
 20
0.0002405097356188
 30
0.0
 40
8.731249999999992
100
AcDbArc
 50
0.0
 51
26.15434455023352
  0
LINE
  5
202
330
1F
100
AcDbEntity
  8
0
  6
Continuous
 62
     1
370
    15
100
AcDbLine
 10
28.24828612202609
 20
8.731490509735615
 30
0.0
 11
22.92637807440599
 21
8.731490509735615
 31
0.0
  0
LINE
  5
203
330
1F
100
AcDbEntity
  8
0
  6
Continuous
 62
     1
370
    15
100
AcDbLine
 10
2.000000034812757
 20
-8.731009490264377
 30
0.0
 11
4.494264536322532
 21
-8.731009490264377
 31
0.0
  0
LINE
  5
204
330
1F
100
AcDbEntity
  8
외형선
  6
Continuous
370
    15
100
AcDbLine
 10
-50.38749996518726
 20
-7.937259490264381
 30
0.0
 11
2.000000034812757
 21
-7.937259490264381
 31
0.0
  0
LINE
  5
205
330
1F
100
AcDbEntity
  8
외형선
  6
Continuous
370
    15
100
AcDbLine
 10
-50.38749996518726
 20
7.937740509735612
 30
0.0
 11
-51.97499996518725
 21
6.35024050973562
 31
0.0
  0
LINE
  5
206
330
1F
100
AcDbEntity
  8
외형선
  6
Continuous
370
    15
100
AcDbLine
 10
-51.97499996518725
 20
-6.349759490264383
 30
0.0
 11
-50.38749996518726
 21
-7.937259490264381
 31
0.0
  0
SPLINE
  5
207
330
1F
100
AcDbEntity
  8
0
  6
Continuous
 62
     1
370
    15
100
AcDbSpline
210
0.0
220
0.0
230
1.0
 70
     8
 71
     3
 72
    48
 73
    44
 74
     0
 42
0.000000001
 43
0.00000001
 40
0.1125715139919898
 40
0.1125715139919898
 40
0.1125715139919898
 40
0.1125715139919898
 40
0.1249999999999991
 40
0.1249999999999991
 40
0.1874999999999989
 40
0.1874999999999989
 40
0.2187499999999988
 40
0.2187499999999988
 40
0.2499999999999987
 40
0.2499999999999987
 40
0.3124999999999976
 40
0.3124999999999976
 40
0.3437499999999975
 40
0.3437499999999975
 40
0.3749999999999974
 40
0.3749999999999974
 40
0.4374999999999982
 40
0.4374999999999982
 40
0.4687499999999991
 40
0.4687499999999991
 40
0.5
 40
0.5
 40
0.5625000000000008
 40
0.5625000000000008
 40
0.6250000000000014
 40
0.6250000000000014
 40
0.6562500000000018
 40
0.6562500000000018
 40
0.6875000000000021
 40
0.6875000000000021
 40
0.7187500000000024
 40
0.7187500000000024
 40
0.7500000000000028
 40
0.7500000000000028
 40
0.8125000000000026
 40
0.8125000000000026
 40
0.8750000000000022
 40
0.8750000000000022
 40
0.9062500000000017
 40
0.9062500000000017
 40
0.9375000000000011
 40
0.9375000000000011
 40
1.0
 40
1.0
 40
1.0
 40
1.0
 10
2.000000034812786
 20
8.578985979560443
 30
0.0
 10
2.152240285634235
 20
8.562652815128786
 30
0.0
 10
2.304554707739186
 20
8.545017328829108
 30
0.0
 10
3.222645832712828
 20
8.4308995815992
 30
0.0
 10
3.982306300919703
 20
8.303322083892951
 30
0.0
 10
5.129949091937902
 20
8.064647703585557
 30
0.0
 10
5.513285197034179
 20
7.977221965800254
 30
0.0
 10
6.278233104628185
 20
7.787391140041798
 30
0.0
 10
6.658571502848474
 20
7.685111492879528
 30
0.0
 10
7.801699456982305
 20
7.356382465029704
 30
0.0
 10
8.570824898392033
 20
7.107441601899389
 30
0.0
 10
9.715309192993345
 20
6.69569639403452
 30
0.0
 10
10.09502161582986
 20
6.552140775576042
 30
0.0
 10
10.85943339146726
 20
6.252142914918139
 30
0.0
 10
11.24272797677597
 20
6.095863622465821
 30
0.0
 10
12.39092762886531
 20
5.610178867412614
 30
0.0
 10
13.15029102448131
 20
5.264542605033675
 30
0.0
 10
14.29875204937733
 20
4.716464845495516
 30
0.0
 10
14.68198612928734
 20
4.529004726350792
 30
0.0
 10
15.44598336561162
 20
4.146182409489079
 30
0.0
 10
15.82551474536359
 20
3.951041379884515
 30
0.0
 10
16.97078053812965
 20
3.353716433536817
 30
0.0
 10
17.73983814557553
 20
2.940107352486251
 30
0.0
 10
19.26270306420628
 20
2.096339774276558
 30
0.0
 10
20.02912191804603
 20
1.66388485235651
 30
0.0
 10
21.17630318091975
 20
1.008576996385244
 30
0.0
 10
21.55639226039995
 20
0.7894071645269989
 30
0.0
 10
22.31878457020437
 20
0.3495567451794415
 30
0.0
 10
22.70166640598327
 20
0.1287628438734387
 30
0.0
 10
23.46751310896994
 20
-0.3126651476022886
 30
0.0
 10
23.85047481830676
 20
-0.5332974175177796
 30
0.0
 10
24.61318433995356
 20
-0.9725035637294468
 30
0.0
 10
24.99305382102693
 20
-1.191103552291565
 30
0.0
 10
26.13995296322526
 20
-1.844247822729386
 30
0.0
 10
26.90718367962916
 20
-2.274744777785884
 30
0.0
 10
28.4293000422951
 20
-3.112818739746842
 30
0.0
 10
29.19829877407602
 20
-3.522957436759526
 30
0.0
 10
30.34395433386879
 20
-4.114213040431189
 30
0.0
 10
30.72346173909068
 20
-4.307149533610563
 30
0.0
 10
31.48721322856295
 20
-4.685218211415538
 30
0.0
 10
31.87040362574723
 20
-4.870160547794939
 30
0.0
 10
33.01897304864173
 20
-5.410288201343306
 30
0.0
 10
33.77839963870662
 20
-5.750055167184243
 30
0.0
 10
34.54375003481277
 20
-6.067422462995268
 30
0.0
  0
SPLINE
  5
208
330
1F
100
AcDbEntity
  8
0
  6
Continuous
 62
     1
370
    15
100
AcDbSpline
210
0.0
220
0.0
230
1.0
 70
     8
 71
     3
 72
    16
 73
    12
 74
     0
 42
0.000000001
 43
0.00000001
 40
0.0
 40
0.0
 40
0.0
 40
0.0
 40
0.1255689464569706
 40
0.2548166273883313
 40
0.3789492451110905
 40
0.50689477307131
 40
0.6283641732374518
 40
0.7528580088825539
 40
0.85346427753412
 40
0.9563400336750919
 40
1.0
 40
1.0
 40
1.0
 40
1.0
 10
34.54375003481277
 20
-6.067422462995253
 30
0.0
 10
34.9466107086663
 20
-6.215825364075435
 30
0.0
 10
35.76413447640709
 20
-6.516978856359088
 30
0.0
 10
36.99217063743438
 20
-6.698392896333125
 30
0.0
 10
38.20500294724619
 20
-6.653910153478101
 30
0.0
 10
39.33440026844735
 20
-6.378843996621512
 30
0.0
 10
40.36375219422496
 20
-5.9039743022228
 30
0.0
 10
41.19328382534184
 20
-5.316310607108228
 30
0.0
 10
41.82833889054183
 20
-4.687038256193212
 30
0.0
 10
42.20454025745221
 20
-4.19008535432738
 30
0.0
 10
42.33668522410483
 20
-3.924523198406675
 30
0.0
 10
42.37605749932192
 20
-3.845399592301902
 30
0.0
  0
SPLINE
  5
209
330
1F
100
AcDbEntity
  8
0
  6
Continuous
 62
     1
370
    15
100
AcDbSpline
210
0.0
220
0.0
230
1.0
 70
     8
 71
     3
 72
    10
 73
     6
 74
     0
 42
0.000000001
 43
0.00000001
 40
0.0
 40
0.0
 40
0.0
 40
0.0
 40
0.3715436727616369
 40
0.6832394598491258
 40
1.0
 40
1.0
 40
1.0
 40
1.0
 10
37.50436089617762
 20
-6.64246406312995
 30
0.0
 10
37.14737924296648
 20
-6.86419906236474
 30
0.0
 10
36.49091818657678
 20
-7.271952207454696
 30
0.0
 10
35.50121864615275
 20
-7.719438130352842
 30
0.0
 10
34.86461637244309
 20
-7.896181687264459
 30
0.0
 10
34.54375003481277
 20
-7.985265657190467
 30
0.0
  0
SPLINE
  5
20A
330
1F
100
AcDbEntity
  8
0
  6
Continuous
 62
     1
370
    15
100
AcDbSpline
210
0.0
220
0.0
230
1.0
 70
     8
 71
     3
 72
    48
 73
    44
 74
     0
 42
0.000000001
 43
0.00000001
 40
0.1125715139919873
 40
0.1125715139919873
 40
0.1125715139919873
 40
0.1125715139919873
 40
0.124999999999997
 40
0.124999999999997
 40
0.1874999999999955
 40
0.1874999999999955
 40
0.2187499999999945
 40
0.2187499999999945
 40
0.2499999999999936
 40
0.2499999999999936
 40
0.3124999999999921
 40
0.3124999999999921
 40
0.3437499999999918
 40
0.3437499999999918
 40
0.3749999999999916
 40
0.3749999999999916
 40
0.437499999999992
 40
0.437499999999992
 40
0.4687499999999918
 40
0.4687499999999918
 40
0.4999999999999916
 40
0.4999999999999916
 40
0.562499999999992
 40
0.562499999999992
 40
0.6249999999999926
 40
0.6249999999999926
 40
0.6562499999999932
 40
0.6562499999999932
 40
0.6874999999999939
 40
0.6874999999999939
 40
0.7187499999999946
 40
0.7187499999999946
 40
0.7499999999999952
 40
0.7499999999999952
 40
0.8124999999999968
 40
0.8124999999999968
 40
0.8749999999999981
 40
0.8749999999999981
 40
0.9062499999999988
 40
0.9062499999999988
 40
0.9374999999999996
 40
0.9374999999999996
 40
1.0
 40
1.0
 40
1.0
 40
1.0
 10
2.000000034812757
 20
1.433076657535253
 30
0.0
 10
2.152240285634178
 20
1.346491468104091
 30
0.0
 10
2.304554707739157
 20
1.259675160528445
 30
0.0
 10
3.222645832712772
 20
0.7352396100934584
 30
0.0
 10
3.982306300919703
 20
0.2944756515694706
 30
0.0
 10
5.129949091937846
 20
-0.3673927704675179
 30
0.0
 10
5.513285197034179
 20
-0.5880257725136886
 30
0.0
 10
6.278233104628157
 20
-1.027412228859959
 30
0.0
 10
6.658571502848503
 20
-1.245923001705698
 30
0.0
 10
7.801699456982305
 20
-1.897664834227662
 30
0.0
 10
8.570824898392061
 20
-2.327861785767119
 30
0.0
 10
9.715309192993402
 20
-2.955641556322597
 30
0.0
 10
10.09502161582992
 20
-3.161955079008145
 30
0.0
 10
10.85943339146735
 20
-3.569035745672522
 30
0.0
 10
11.24272797677602
 20
-3.769541999979836
 30
0.0
 10
12.39092762886537
 20
-4.359354125149956
 30
0.0
 10
13.15029102448133
 20
-4.736338724165023
 30
0.0
 10
14.2987520493773
 20
-5.274035117664404
 30
0.0
 10
14.6819861292874
 20
-5.448441100123979
 30
0.0
 10
15.44598336561165
 20
-5.786121188565602
 30
0.0
 10
15.82551474536365
 20
-5.949233544084748
 30
0.0
 10
16.9707805381297
 20
-6.421999788875596
 30
0.0
 10
17.73983814557556
 20
-6.714428222048937
 30
0.0
 10
19.26270306420633
 20
-7.243904090474466
 30
0.0
 10
20.02912191804609
 20
-7.482454895611603
 30
0.0
 10
21.17630318091983
 20
-7.795697838967257
 30
0.0
 10
21.55639226039997
 20
-7.892546823776719
 30
0.0
 10
22.31878457020437
 20
-8.071182521196008
 30
0.0
 10
22.70166640598327
 20
-8.152992139186864
 30
0.0
 10
23.46751310896997
 20
-8.300821137539458
 30
0.0
 10
23.85047481830682
 20
-8.366839902077196
 30
0.0
 10
24.61318433995365
 20
-8.482583312754478
 30
0.0
 10
24.99305382102699
 20
-8.532340304432978
 30
0.0
 10
26.13995296322528
 20
-8.657289016190639
 30
0.0
 10
26.90718367962927
 20
-8.707693202043664
 30
0.0
 10
28.42930004229513
 20
-8.74148073262181
 30
0.0
 10
29.19829877407602
 20
-8.72492556405846
 30
0.0
 10
30.34395433386879
 20
-8.650167969937925
 30
0.0
 10
30.72346173909074
 20
-8.617018093444678
 30
0.0
 10
31.48721322856301
 20
-8.534172701185256
 30
0.0
 10
31.87040362574726
 20
-8.484484746665999
 30
0.0
 10
33.01897304864181
 20
-8.311204158739443
 30
0.0
 10
33.77839963870665
 20
-8.163743643345214
 30
0.0
 10
34.5437500348128
 20
-7.985265657190489
 30
0.0
  0
SPLINE
  5
20C
330
1F
100
AcDbEntity
  8
0
  6
Continuous
 62
     1
370
    15
100
AcDbSpline
210
0.0
220
0.0
230
1.0
 70
     8
 71
     3
 72
    12
 73
     8
 74
     0
 42
0.000000001
 43
0.00000001
 40
0.0
 40
0.0
 40
0.0
 40
0.0
 40
0.150431203010225
 40
0.3203099943963477
 40
0.4901986889852379
 40
0.6601048830692072
 40
0.7392350377421987
 40
0.7392350377421987
 40
0.7392350377421987
 40
0.7392350377421987
 10
13.70005563540812
 20
-7.150509389256243
 30
0.0
 10
12.90643259168107
 20
-7.40026772625292
 30
0.0
 10
11.21658774830939
 20
-7.932072896476861
 30
0.0
 10
8.63046605853063
 20
-8.447068226251908
 30
0.0
 10
5.941569049615907
 20
-8.738751189842525
 30
0.0
 10
3.731389395707282
 20
-8.743316755208646
 30
0.0
 10
2.417489384326473
 20
-8.654244305463145
 30
0.0
 10
2.000000034812814
 20
-8.615352289325088
 30
0.0
  0
SPLINE
  5
20D
330
1F
100
AcDbEntity
  8
0
  6
Continuous
 62
     1
370
    15
100
AcDbSpline
210
0.0
220
0.0
230
1.0
 70
     8
 71
     3
 72
    16
 73
    12
 74
     0
 42
0.000000001
 43
0.00000001
 40
0.0
 40
0.0
 40
0.0
 40
0.0
 40
0.0091244612445286
 40
0.1174878964474203
 40
0.2259626117330093
 40
0.354998813252433
 40
0.4840153498193892
 40
0.6130179649058032
 40
0.7420124246727862
 40
0.8710045085885126
 40
1.0
 40
1.0
 40
1.0
 40
1.0
 10
13.70005563540798
 20
7.15099040872748
 30
0.0
 10
13.76343930831493
 20
7.173918307817047
 30
0.0
 10
14.57957674365235
 20
7.469141287212928
 30
0.0
 10
16.14929480883509
 20
7.889116130569434
 30
0.0
 10
18.55279390231317
 20
8.409658965419005
 30
0.0
 10
21.09945733745499
 20
8.712820288003002
 30
0.0
 10
23.78874932885819
 20
8.763420141651793
 30
0.0
 10
26.47767137945672
 20
8.53718634096252
 30
0.0
 10
29.16639605548511
 20
8.038320753643362
 30
0.0
 10
31.85505702616027
 20
7.30007793546099
 30
0.0
 10
33.64751114036019
 20
6.61911659993725
 30
0.0
 10
34.54375003481277
 20
6.278631435112175
 30
0.0
  0
SPLINE
  5
20E
330
1F
100
AcDbEntity
  8
0
  6
Continuous
 62
     1
370
    15
100
AcDbSpline
210
0.0
220
0.0
230
1.0
 70
     8
 71
     3
 72
    52
 73
    48
 74
     0
 42
0.000000001
 43
0.00000001
 40
0.0
 40
0.0
 40
0.0
 40
0.0
 40
0.0624999999999994
 40
0.0624999999999994
 40
0.09375
 40
0.09375
 40
0.1250000000000006
 40
0.1250000000000006
 40
0.1875000000000017
 40
0.1875000000000017
 40
0.2187500000000015
 40
0.2187500000000015
 40
0.2500000000000013
 40
0.2500000000000013
 40
0.3125000000000009
 40
0.3125000000000009
 40
0.3750000000000004
 40
0.3750000000000004
 40
0.4375
 40
0.4375
 40
0.4687500000000001
 40
0.4687500000000001
 40
0.5000000000000001
 40
0.5000000000000001
 40
0.5312500000000001
 40
0.5312500000000001
 40
0.5625000000000002
 40
0.5625000000000002
 40
0.5937500000000002
 40
0.5937500000000002
 40
0.6250000000000003
 40
0.6250000000000003
 40
0.6562500000000003
 40
0.6562500000000003
 40
0.6875000000000004
 40
0.6875000000000004
 40
0.7500000000000004
 40
0.7500000000000004
 40
0.7812499999999999
 40
0.7812499999999999
 40
0.8124999999999992
 40
0.8124999999999992
 40
0.8749999999999994
 40
0.8749999999999994
 40
0.9374999999999997
 40
0.9374999999999997
 40
1.0
 40
1.0
 40
1.0
 40
1.0
 10
34.54375003481277
 20
6.27863143511216
 30
0.0
 10
34.98742240880313
 20
6.100829147681132
 30
0.0
 10
35.42923441883471
 20
5.899436138044436
 30
0.0
 10
36.09368397933494
 20
5.569432666389211
 30
0.0
 10
36.31539123282678
 20
5.454660163360998
 30
0.0
 10
36.75992481079703
 20
5.216315805693618
 30
0.0
 10
36.98414332603136
 20
5.092222733683919
 30
0.0
 10
37.64870050270659
 20
4.713194266063098
 30
0.0
 10
38.08018284789426
 20
4.452552009993695
 30
0.0
 10
38.7092598516827
 20
4.047377469857217
 30
0.0
 10
38.91588087918987
 20
3.909882519376936
 30
0.0
 10
39.32225178252719
 20
3.62874798947707
 30
0.0
 10
39.52204875475181
 20
3.484915136299612
 30
0.0
 10
40.0984570645461
 20
3.051018015391818
 30
0.0
 10
40.45643285866484
 20
2.755791366904496
 30
0.0
 10
41.11243931084823
 20
2.132814618010599
 30
0.0
 10
41.41157382372495
 20
1.802859847220859
 30
0.0
 10
41.91679595574487
 20
1.103170375760293
 30
0.0
 10
42.12698486568303
 20
0.729943518866591
 30
0.0
 10
42.35782315617078
 20
0.1113922584495484
 30
0.0
 10
42.41939673056422
 20
-0.1015121322595292
 30
0.0
 10
42.50870690485675
 20
-0.5455120864165011
 30
0.0
 10
42.53651193737815
 20
-0.779199775374039
 30
0.0
 10
42.55146636129481
 20
-1.257004662713285
 30
0.0
 10
42.53912549558024
 20
-1.500341090694405
 30
0.0
 10
42.47000427574554
 20
-1.998730632171885
 30
0.0
 10
42.41347052793193
 20
-2.248362356015342
 30
0.0
 10
42.25967269647865
 20
-2.731573923260143
 30
0.0
 10
42.1598924209504
 20
-2.97137514445236
 30
0.0
 10
41.92779159795398
 20
-3.414033983124192
 30
0.0
 10
41.79452766818946
 20
-3.620126695606366
 30
0.0
 10
41.50108682521426
 20
-3.993450241610311
 30
0.0
 10
41.3441100971547
 20
-4.157234546015673
 30
0.0
 10
41.01014341803844
 20
-4.444951301243243
 30
0.0
 10
40.83554214503769
 20
-4.566370123862768
 30
0.0
 10
40.30049160075512
 20
-4.866674523276224
 30
0.0
 10
39.91899921735288
 20
-4.986144096282054
 30
0.0
 10
39.34121822231972
 20
-5.064298241721296
 30
0.0
 10
39.14651318508493
 20
-5.074203526808802
 30
0.0
 10
38.75093014622757
 20
-5.066163775230514
 30
0.0
 10
38.54894341305018
 20
-5.047897151573714
 30
0.0
 10
37.94256661263285
 20
-4.956933490022905
 30
0.0
 10
37.53627109271324
 20
-4.84920166372612
 30
0.0
 10
36.70634823567428
 20
-4.564072978057759
 30
0.0
 10
36.27981749382317
 20
-4.384248942655027
 30
0.0
 10
35.42115470289616
 20
-3.984780500351931
 30
0.0
 10
34.98722720030079
 20
-3.764439347441879
 30
0.0
 10
34.54375003481277
 20
-3.530540964737817
 30
0.0
  0
SPLINE
  5
20F
330
1F
100
AcDbEntity
  8
0
  6
Continuous
 62
     1
370
    15
100
AcDbSpline
210
0.0
220
0.0
230
1.0
 70
     8
 71
     3
 72
    20
 73
    16
 74
     0
 42
0.000000001
 43
0.00000001
 40
0.0
 40
0.0
 40
0.0
 40
0.0
 40
0.0765023438037387
 40
0.1530230080606195
 40
0.229614861953058
 40
0.3061865103103529
 40
0.3826980082968937
 40
0.4578364318695892
 40
0.5330339149810751
 40
0.6082651842447656
 40
0.6834179356768131
 40
0.7728882633349804
 40
0.8623597974822307
 40
0.9518365474350399
 40
1.0
 40
1.0
 40
1.0
 40
1.0
 10
34.54375003481283
 20
-3.530540964737824
 30
0.0
 10
33.77755746677988
 20
-3.117917043098842
 30
0.0
 10
32.24498884620428
 20
-2.292570386414056
 30
0.0
 10
29.9453419435591
 20
-0.9793053621977563
 30
0.0
 10
27.64429595451554
 20
0.3499147749467184
 30
0.0
 10
25.34358568651922
 20
1.672995375563708
 30
0.0
 10
23.05788859066854
 20
2.949684188528295
 30
0.0
 10
20.78605031256191
 20
4.152026744194046
 30
0.0
 10
18.52658624086371
 20
5.254309947277292
 30
0.0
 10
16.26654168812829
 20
6.239367328829985
 30
0.0
 10
13.86454157095608
 20
7.139310004684759
 30
0.0
 10
11.31913393667267
 20
7.900968235922711
 30
0.0
 10
8.630475285587977
 20
8.442911863774341
 30
0.0
 10
6.355499846269623
 20
8.71875362709686
 30
0.0
 10
4.976728234482465
 20
8.702788933693284
 30
0.0
 10
4.49426453632239
 20
8.6972025226056
 30
0.0
  0
LINE
  5
210
330
1F
100
AcDbEntity
  8
외형선
  6
Continuous
370
    15
100
AcDbLine
 10
2.000000034812757
 20
0.6803362194531957
 30
0.0
 11
2.000000034812757
 21
3.365415633243465
 31
0.0
  0
LWPOLYLINE
  5
211
330
1F
100
AcDbEntity
  8
0
  6
Continuous
 62
     1
370
    15
100
AcDbPolyline
 90
       26
 70
   128
 43
0.0
 10
37.50436089617762
 20
6.64294508260118
 10
38.18327074736814
 20
6.616954698620987
 10
39.3362273215532
 20
6.33953054705939
 10
40.33386649558096
 20
5.882762908569461
 10
41.21897609558448
 20
5.260932652332237
 10
41.80334737859954
 20
4.687290169771579
 10
42.24987009309299
 20
4.085833985151211
 10
42.43083270212941
 20
3.741722082139169
 10
42.53147550037991
 20
3.434105816782264
 10
42.54299449958864
 20
3.243631147357647
 10
42.48812695461538
 20
3.109581575285333
 10
42.3667593152779
 20
3.052509043189282
 10
42.1715903681517
 20
3.079425672666744
 10
41.95987289265148
 20
3.169596834162839
 10
41.70307558188574
 20
3.321224148867742
 10
41.41730575695149
 20
3.521493861320614
 10
41.10020387056124
 20
3.767091764136389
 10
40.61513449889847
 20
4.168928649743322
 10
40.08848875528022
 20
4.6199858342978
 10
39.35629499383714
 20
5.243494745043023
 10
38.57895780789221
 20
5.871941224768193
 10
37.53320853824471
 20
6.625932035064459
 10
36.42757830186261
 20
7.277983240007529
 10
35.50263506757702
 20
7.691951608360284
 10
34.54375003481277
 20
7.985746676661705
 10
34.54375003481277
 20
7.985746676661705
  0
SPLINE
  5
213
330
1F
100
AcDbEntity
  8
0
  6
Continuous
 62
     1
370
    15
100
AcDbSpline
210
0.0
220
0.0
230
1.0
 70
     8
 71
     3
 72
    10
 73
     6
 74
     0
 42
0.000000001
 43
0.00000001
 40
0.0
 40
0.0
 40
0.0
 40
0.0
 40
0.3651456162488165
 40
0.7303786760035453
 40
0.9999999999999999
 40
0.9999999999999999
 40
0.9999999999999999
 40
0.9999999999999999
 10
34.54375003481277
 20
7.985746676661726
 30
0.0
 10
33.77755692351764
 20
8.145599875451211
 30
0.0
 10
32.24498721628757
 20
8.465344553988537
 30
0.0
 10
30.14668387099871
 20
8.70108709183652
 30
0.0
 10
28.81419243677337
 20
8.70871031271627
 30
0.0
 10
28.24828612202609
 20
8.711947878620073
 30
0.0
  0
LINE
  5
214
330
1F
100
AcDbEntity
  8
외형선
  6
Continuous
370
    15
100
AcDbLine
 10
2.000000034812757
 20
-7.908070060520444
 30
0.0
 11
2.000000034812757
 21
-7.188605199981858
 31
0.0
  0
LINE
  5
215
330
1F
100
AcDbEntity
  8
외형선
  6
Continuous
370
    15
100
AcDbLine
 10
-50.38749996518726
 20
0.0002405097356188
 30
0.0
 11
-50.38749996518726
 21
7.937740509735605
 31
0.0
  0
LINE
  5
216
330
1F
100
AcDbEntity
  8
외형선
  6
Continuous
370
    15
100
AcDbLine
 10
-50.38749996518726
 20
-7.937259490264367
 30
0.0
 11
-50.38749996518726
 21
0.0002405097356188
 31
0.0
  0
LINE
  5
217
330
1F
100
AcDbEntity
  8
외형선
  6
Continuous
370
    15
100
AcDbLine
 10
2.000000034812757
 20
0.0002405097356188
 30
0.0
 11
2.000000034812757
 21
8.731490509735615
 31
0.0
  0
LINE
  5
218
330
1F
100
AcDbEntity
  8
외형선
  6
Continuous
370
    15
100
AcDbLine
 10
2.000000034812757
 20
-8.731009490264377
 30
0.0
 11
2.000000034812757
 21
0.0002405097356188
 31
0.0
  0
LINE
  5
219
330
1F
100
AcDbEntity
  8
외형선
  6
Continuous
370
    15
100
AcDbLine
 10
-51.97499996518725
 20
0.0002405097356188
 30
0.0
 11
-51.97499996518725
 21
6.35024050973562
 31
0.0
  0
LINE
  5
21A
330
1F
100
AcDbEntity
  8
외형선
  6
Continuous
370
    15
100
AcDbLine
 10
-51.97499996518725
 20
-6.349759490264383
 30
0.0
 11
-51.97499996518725
 21
0.0002405097356188
 31
0.0
  0
LINE
  5
21B
330
1F
100
AcDbEntity
  8
중심선
 48
0.8
100
AcDbLine
 10
-54.97499996518727
 20
0.0002405097356188
 30
0.0
 11
46.27500003481276
 21
0.0002405097356259
 31
0.0
  0
CIRCLE
  5
21C
330
1F
100
AcDbEntity
  8
해칭선
100
AcDbCircle
 10
0.0
 20
0.0
 30
0.0
 40
3.000000000000002
  0
DIMENSION
  5
21D
330
1F
100
AcDbEntity
  8
치수문자_일반주서
100
AcDbDimension
  2
*D12
 10
2.000000034812729
 20
14.76274050973563
 30
0.0
 11
22.63750003481275
 21
14.76274050973563
 31
0.0
 70
   160
  1
<>
 71
     2
 42
41.27500000000006
  3
SLDDIMSTYLE1
100
AcDbAlignedDimension
 13
43.27500003481279
 23
8.731490509735629
 33
0.0
 14
2.000000034812729
 24
8.731490509735615
 34
0.0
 50
0.0000000000000049
100
AcDbRotatedDimension
1001
ACAD
1000
DSTYLE
1002
{
1070
   171
1070
     6
1070
   273
1070
     7
1002
}
  0
DIMENSION
  5
21E
330
1F
100
AcDbEntity
  8
치수문자_일반주서
100
AcDbDimension
  2
*D13
 10
-51.97499996518727
 20
31.60938730301642
 30
0.0
 11
-4.349999965187237
 21
31.60938730301642
 31
0.0
 70
   160
  1
<>
 71
     2
 42
95.25000000000006
  3
SLDDIMSTYLE1
100
AcDbAlignedDimension
 13
43.27500003481279
 23
8.731490509735629
 33
0.0
 14
-51.97499996518727
 24
6.350240509735613
 34
0.0
 50
0.0000000000000043
100
AcDbRotatedDimension
1001
ACAD
1000
DSTYLE
1002
{
1070
   171
1070
     6
1070
   273
1070
     7
1002
}
  0
DIMENSION
  5
21F
330
1F
100
AcDbEntity
  8
치수문자_일반주서
100
AcDbDimension
  2
*D14
 10
-64.33999996518723
 20
-7.937259490264446
 30
0.0
 11
-64.33999996518726
 21
0.0002405097356331
 31
0.0
 70
   160
  1
%%c<>
 71
     2
 42
15.87500000000003
 52
-270.0
  3
SLDDIMSTYLE1
100
AcDbAlignedDimension
 13
-50.38749996518726
 23
7.937740509735633
 33
0.0
 14
-50.38749996518726
 24
-7.937259490264395
 34
0.0
 50
90.0000000000002
100
AcDbRotatedDimension
1001
ACAD
1000
DSTYLE
1002
{
1070
   171
1070
     6
1070
   273
1070
     7
1002
}
  0
DIMENSION
  5
220
330
1F
100
AcDbEntity
  8
치수문자_일반주서
100
AcDbDimension
  2
*D15
 10
66.15277256124462
 20
-8.731009490264285
 30
0.0
 11
66.15277256124449
 21
31.39589050973575
 31
0.0
 70
   160
  1
%%c<>
 71
     2
 42
17.4625
 52
-270.0
  3
SLDDIMSTYLE1
100
AcDbAlignedDimension
 13
43.27500003481279
 23
8.731490509735629
 33
0.0
 14
43.27500003481279
 24
-8.73100949026437
 34
0.0
 50
90.0000000000002
100
AcDbRotatedDimension
1001
ACAD
1000
DSTYLE
1002
{
1070
   171
1070
     6
1070
   273
1070
     7
1002
}
  0
INSERT
  5
221
330
1F
100
AcDbEntity
  8
해칭선
100
AcDbBlockReference
  2
SW_DOWELSYMBOL_0
 10
0.0
 20
0.0
 30
0.0
  0
LINE
  5
222
330
1F
100
AcDbEntity
  8
외형선
  6
Continuous
370
    15
100
AcDbLine
 10
-32.85832496518726
 20
6.28674050973558
 30
0.0
 11
-22.67292496518725
 21
6.28674050973558
 31
0.0
  0
LINE
  5
223
330
1F
100
AcDbEntity
  8
외형선
  6
Continuous
370
    15
100
AcDbLine
 10
-32.85832496518726
 20
6.286740509735679
 30
0.0
 11
-34.50932496518722
 21
7.937740509735587
 31
0.0
  0
LINE
  5
224
330
1F
100
AcDbEntity
  8
외형선
  6
Continuous
370
    15
100
AcDbLine
 10
-22.67292496518736
 20
6.286740509735679
 30
0.0
 11
-21.02192496518735
 21
7.937740509735587
 31
0.0
  0
LINE
  5
225
330
1F
100
AcDbEntity
  8
외형선
  6
Continuous
370
    15
100
AcDbLine
 10
-34.50932496518726
 20
7.937740509735619
 30
0.0
 11
-50.38749996518726
 21
7.937740509735619
 31
0.0
  0
LINE
  5
226
330
1F
100
AcDbEntity
  8
외형선
  6
Continuous
370
    15
100
AcDbLine
 10
2.000000034812757
 20
7.937740509735619
 30
0.0
 11
-21.02192496518732
 21
7.937740509735619
 31
0.0
  0
SPLINE
  5
25A
330
1F
100
AcDbEntity
  8
0
  6
Continuous
 62
     1
370
    15
100
AcDbSpline
210
0.0
220
0.0
230
1.0
 70
     8
 71
     3
 72
    17
 73
    13
 74
     0
 42
0.000000001
 43
0.00000001
 40
0.1647439756688556
 40
0.1647439756688556
 40
0.1647439756688556
 40
0.1647439756688556
 40
0.1836264380982549
 40
0.275385460255794
 40
0.3671957277340956
 40
0.4590764467069631
 40
0.5492354226591565
 40
0.6393505648686372
 40
0.7295002806315053
 40
0.8197425725277013
 40
0.9270903773321193
 40
1.0
 40
1.0
 40
1.0
 40
1.0
 10
2.000000034812757
 20
-1.623878061797122
 30
0.0
 10
2.15767181774288
 20
-1.713395423076044
 30
0.0
 10
3.08154155822416
 20
-2.236375429742999
 30
0.0
 10
4.772031738489858
 20
-3.173348200190041
 30
0.0
 10
7.07228555691691
 20
-4.374829836889106
 30
0.0
 10
9.359843297684904
 20
-5.467857439770626
 30
0.0
 10
11.63247192924632
 20
-6.431556802401893
 30
0.0
 10
13.89047573305535
 20
-7.245483733350966
 30
0.0
 10
16.14929395567276
 20
-7.90023454761161
 30
0.0
 10
18.55279329351691
 20
-8.400421925988319
 30
0.0
 10
20.81197464834113
 20
-8.69974930257888
 30
0.0
 10
22.31745066510575
 20
-8.700612557831484
 30
0.0
 10
22.92637807440613
 20
-8.7009617229983
 30
0.0
  0
ENDSEC
  0
SECTION
  2
OBJECTS
  0
DICTIONARY
  5
C
330
0
100
AcDbDictionary
281
     1
  3
ACAD_GROUP
350
D
  3
ACAD_IMAGE_VARS
350
139
  3
ACAD_LAYOUT
350
1A
  3
ACAD_MLINESTYLE
350
17
  3
ACAD_PLOTSETTINGS
350
19
  3
ACAD_PLOTSTYLENAME
350
E
  3
ACAD_SCALELIST
350
47
  3
APPDATA
350
137
  3
DWGPROPS
350
25C
  0
DICTIONARY
  5
1C6
330
2
100
AcDbDictionary
280
     1
281
     1
  3
ACAD_LAYERSTATES
360
1C7
  0
DICTIONARY
  5
D
102
{ACAD_REACTORS
330
C
102
}
330
C
100
AcDbDictionary
281
     1
  0
RASTERVARIABLES
  5
139
102
{ACAD_REACTORS
330
C
102
}
330
C
100
AcDbRasterVariables
 90
        0
 70
     1
 71
     1
 72
     1
  0
DICTIONARY
  5
1A
102
{ACAD_REACTORS
330
C
102
}
330
C
100
AcDbDictionary
281
     1
  3
Layout1
350
1E
  3
Layout2
350
26
  3
Model
350
22
  0
DICTIONARY
  5
17
102
{ACAD_REACTORS
330
C
102
}
330
C
100
AcDbDictionary
281
     1
  3
Standard
350
18
  0
DICTIONARY
  5
19
102
{ACAD_REACTORS
330
C
102
}
330
C
100
AcDbDictionary
281
     1
  0
ACDBDICTIONARYWDFLT
  5
E
102
{ACAD_REACTORS
330
C
102
}
330
C
100
AcDbDictionary
281
     1
  3
Normal
350
F
100
AcDbDictionaryWithDefault
340
F
  0
DICTIONARY
  5
47
102
{ACAD_REACTORS
330
C
102
}
330
C
100
AcDbDictionary
281
     1
  3
A0
350
48
  3
A1
350
49
  3
A2
350
4A
  3
A3
350
4B
  3
A4
350
4C
  3
A5
350
4D
  3
A6
350
4E
  3
A7
350
4F
  3
A8
350
50
  3
A9
350
51
  3
B0
350
52
  3
B1
350
53
  3
B2
350
54
  3
B3
350
55
  3
B4
350
56
  3
B5
350
57
  3
B6
350
58
  3
B7
350
59
  3
B8
350
5A
  3
B9
350
5B
  3
C0
350
5C
  3
C1
350
5D
  3
C2
350
5E
  3
C3
350
5F
  3
C4
350
60
  3
C5
350
61
  3
C6
350
62
  3
C7
350
63
  3
C8
350
64
  3
C9
350
65
  3
D0
350
66
  3
D1
350
67
  3
D2
350
68
  0
DICTIONARY
  5
137
102
{ACAD_REACTORS
330
C
102
}
330
C
100
AcDbDictionary
281
     1
  0
XRECORD
  5
25C
102
{ACAD_REACTORS
330
C
102
}
330
C
100
AcDbXrecord
280
     1
  1
DWGPROPS COOKIE
  2

  3

  4

  6

  7

  8
12017012
  9

300
=
301
=
302
=
303
=
304
=
305
=
306
=
307
=
308
=
309
=
 40
0.0
 41
2458323.315278669
 42
2458324.096264989
  1

 90
        0
  0
DICTIONARY
  5
1C7
102
{ACAD_REACTORS
330
1C6
102
}
330
1C6
100
AcDbDictionary
281
     1
  0
LAYOUT
  5
1E
102
{ACAD_REACTORS
330
1A
102
}
330
1A
100
AcDbPlotSettings
  1

  2
none_device
  4

  6

 40
0.0
 41
0.0
 42
0.0
 43
0.0
 44
0.0
 45
0.0
 46
0.0
 47
0.0
 48
0.0
 49
0.0
140
0.0
141
0.0
142
1.0
143
1.0
 70
   688
 72
     1
 73
     0
 74
     5
  7

 75
    16
147
1.0
148
0.0
149
0.0
100
AcDbLayout
  1
Layout1
 70
     1
 71
     1
 10
0.0
 20
0.0
 11
420.0
 21
297.0
 12
0.0
 22
0.0
 32
0.0
 14
1.000000000000000E+20
 24
1.000000000000000E+20
 34
1.000000000000000E+20
 15
-1.000000000000000E+20
 25
-1.000000000000000E+20
 35
-1.000000000000000E+20
146
0.0
 13
0.0
 23
0.0
 33
0.0
 16
1.0
 26
0.0
 36
0.0
 17
0.0
 27
1.0
 37
0.0
 76
     0
330
1B
  0
LAYOUT
  5
26
102
{ACAD_REACTORS
330
1A
102
}
330
1A
100
AcDbPlotSettings
  1

  2
none_device
  4

  6

 40
0.0
 41
0.0
 42
0.0
 43
0.0
 44
0.0
 45
0.0
 46
0.0
 47
0.0
 48
0.0
 49
0.0
140
0.0
141
0.0
142
1.0
143
1.0
 70
   688
 72
     1
 73
     0
 74
     5
  7

 75
    16
147
1.0
148
0.0
149
0.0
100
AcDbLayout
  1
Layout2
 70
     1
 71
     2
 10
0.0
 20
0.0
 11
0.0
 21
0.0
 12
0.0
 22
0.0
 32
0.0
 14
0.0
 24
0.0
 34
0.0
 15
0.0
 25
0.0
 35
0.0
146
0.0
 13
0.0
 23
0.0
 33
0.0
 16
1.0
 26
0.0
 36
0.0
 17
0.0
 27
1.0
 37
0.0
 76
     0
330
23
  0
LAYOUT
  5
22
102
{ACAD_REACTORS
330
1A
102
}
330
1A
100
AcDbPlotSettings
  1

  2
none_device
  4
ANSI_A_(11.00_x_8.50_Inches)
  6

 40
6.35
 41
19.05
 42
6.35000508
 43
19.05000254
 44
279.4
 45
215.9
 46
103.183359198313
 47
100.0998321548452
 48
0.0
 49
0.0
140
0.0
141
0.0
142
0.0715153934642642
143
1.0
 70
  1696
 72
     0
 73
     0
 74
     0
  7

 75
     0
147
0.0235690232323232
148
0.0
149
0.0
100
AcDbLayout
  1
Model
 70
     1
 71
     0
 10
0.0
 20
0.0
 11
420.0
 21
297.0
 12
0.0
 22
0.0
 32
0.0
 14
1.000000000000000E+20
 24
1.000000000000000E+20
 34
1.000000000000000E+20
 15
-1.000000000000000E+20
 25
-1.000000000000000E+20
 35
-1.000000000000000E+20
146
0.0
 13
0.0
 23
0.0
 33
0.0
 16
1.0
 26
0.0
 36
0.0
 17
0.0
 27
1.0
 37
0.0
 76
     0
330
1F
331
29
  0
MLINESTYLE
  5
18
102
{ACAD_REACTORS
330
17
102
}
330
17
100
AcDbMlineStyle
  2
Standard
 70
     0
  3

 62
   256
 51
90.0
 52
90.0
 71
     2
 49
0.5
 62
   256
  6
BYLAYER
 49
-0.5
 62
   256
  6
BYLAYER
  0
ACDBPLACEHOLDER
  5
F
102
{ACAD_REACTORS
330
E
102
}
330
E
  0
SCALE
  5
48
102
{ACAD_REACTORS
330
47
102
}
330
47
100
AcDbScale
 70
     0
300
1:1
140
1.0
141
1.0
290
     1
  0
SCALE
  5
49
102
{ACAD_REACTORS
330
47
102
}
330
47
100
AcDbScale
 70
     0
300
1:2
140
1.0
141
2.0
290
     0
  0
SCALE
  5
4A
102
{ACAD_REACTORS
330
47
102
}
330
47
100
AcDbScale
 70
     0
300
1:4
140
1.0
141
4.0
290
     0
  0
SCALE
  5
4B
102
{ACAD_REACTORS
330
47
102
}
330
47
100
AcDbScale
 70
     0
300
1:5
140
1.0
141
5.0
290
     0
  0
SCALE
  5
4C
102
{ACAD_REACTORS
330
47
102
}
330
47
100
AcDbScale
 70
     0
300
1:8
140
1.0
141
8.0
290
     0
  0
SCALE
  5
4D
102
{ACAD_REACTORS
330
47
102
}
330
47
100
AcDbScale
 70
     0
300
1:10
140
1.0
141
10.0
290
     0
  0
SCALE
  5
4E
102
{ACAD_REACTORS
330
47
102
}
330
47
100
AcDbScale
 70
     0
300
1:16
140
1.0
141
16.0
290
     0
  0
SCALE
  5
4F
102
{ACAD_REACTORS
330
47
102
}
330
47
100
AcDbScale
 70
     0
300
1:20
140
1.0
141
20.0
290
     0
  0
SCALE
  5
50
102
{ACAD_REACTORS
330
47
102
}
330
47
100
AcDbScale
 70
     0
300
1:30
140
1.0
141
30.0
290
     0
  0
SCALE
  5
51
102
{ACAD_REACTORS
330
47
102
}
330
47
100
AcDbScale
 70
     0
300
1:40
140
1.0
141
40.0
290
     0
  0
SCALE
  5
52
102
{ACAD_REACTORS
330
47
102
}
330
47
100
AcDbScale
 70
     0
300
1:50
140
1.0
141
50.0
290
     0
  0
SCALE
  5
53
102
{ACAD_REACTORS
330
47
102
}
330
47
100
AcDbScale
 70
     0
300
1:100
140
1.0
141
100.0
290
     0
  0
SCALE
  5
54
102
{ACAD_REACTORS
330
47
102
}
330
47
100
AcDbScale
 70
     0
300
2:1
140
2.0
141
1.0
290
     0
  0
SCALE
  5
55
102
{ACAD_REACTORS
330
47
102
}
330
47
100
AcDbScale
 70
     0
300
4:1
140
4.0
141
1.0
290
     0
  0
SCALE
  5
56
102
{ACAD_REACTORS
330
47
102
}
330
47
100
AcDbScale
 70
     0
300
8:1
140
8.0
141
1.0
290
     0
  0
SCALE
  5
57
102
{ACAD_REACTORS
330
47
102
}
330
47
100
AcDbScale
 70
     0
300
10:1
140
10.0
141
1.0
290
     0
  0
SCALE
  5
58
102
{ACAD_REACTORS
330
47
102
}
330
47
100
AcDbScale
 70
     0
300
100:1
140
100.0
141
1.0
290
     0
  0
SCALE
  5
59
102
{ACAD_REACTORS
330
47
102
}
330
47
100
AcDbScale
 70
     0
300
1/128" = 1'-0"
140
0.0078125
141
12.0
290
     0
  0
SCALE
  5
5A
102
{ACAD_REACTORS
330
47
102
}
330
47
100
AcDbScale
 70
     0
300
1/64" = 1'-0"
140
0.015625
141
12.0
290
     0
  0
SCALE
  5
5B
102
{ACAD_REACTORS
330
47
102
}
330
47
100
AcDbScale
 70
     0
300
1/32" = 1'-0"
140
0.03125
141
12.0
290
     0
  0
SCALE
  5
5C
102
{ACAD_REACTORS
330
47
102
}
330
47
100
AcDbScale
 70
     0
300
1/16" = 1'-0"
140
0.0625
141
12.0
290
     0
  0
SCALE
  5
5D
102
{ACAD_REACTORS
330
47
102
}
330
47
100
AcDbScale
 70
     0
300
3/32" = 1'-0"
140
0.09375
141
12.0
290
     0
  0
SCALE
  5
5E
102
{ACAD_REACTORS
330
47
102
}
330
47
100
AcDbScale
 70
     0
300
1/8" = 1'-0"
140
0.125
141
12.0
290
     0
  0
SCALE
  5
5F
102
{ACAD_REACTORS
330
47
102
}
330
47
100
AcDbScale
 70
     0
300
3/16" = 1'-0"
140
0.1875
141
12.0
290
     0
  0
SCALE
  5
60
102
{ACAD_REACTORS
330
47
102
}
330
47
100
AcDbScale
 70
     0
300
1/4" = 1'-0"
140
0.25
141
12.0
290
     0
  0
SCALE
  5
61
102
{ACAD_REACTORS
330
47
102
}
330
47
100
AcDbScale
 70
     0
300
3/8" = 1'-0"
140
0.375
141
12.0
290
     0
  0
SCALE
  5
62
102
{ACAD_REACTORS
330
47
102
}
330
47
100
AcDbScale
 70
     0
300
1/2" = 1'-0"
140
0.5
141
12.0
290
     0
  0
SCALE
  5
63
102
{ACAD_REACTORS
330
47
102
}
330
47
100
AcDbScale
 70
     0
300
3/4" = 1'-0"
140
0.75
141
12.0
290
     0
  0
SCALE
  5
64
102
{ACAD_REACTORS
330
47
102
}
330
47
100
AcDbScale
 70
     0
300
1" = 1'-0"
140
1.0
141
12.0
290
     0
  0
SCALE
  5
65
102
{ACAD_REACTORS
330
47
102
}
330
47
100
AcDbScale
 70
     0
300
1-1/2" = 1'-0"
140
1.5
141
12.0
290
     0
  0
SCALE
  5
66
102
{ACAD_REACTORS
330
47
102
}
330
47
100
AcDbScale
 70
     0
300
3" = 1'-0"
140
3.0
141
12.0
290
     0
  0
SCALE
  5
67
102
{ACAD_REACTORS
330
47
102
}
330
47
100
AcDbScale
 70
     0
300
6" = 1'-0"
140
6.0
141
12.0
290
     0
  0
SCALE
  5
68
102
{ACAD_REACTORS
330
47
102
}
330
47
100
AcDbScale
 70
     0
300
1'-0" = 1'-0"
140
12.0
141
12.0
290
     0
  0
ENDSEC
  0
EOF
