  0
SECTION
  2
HEADER
  9
$ACADVER
  1
AC1015
  9
$ACADMAINTVER
 70
     6
  9
$DWGCODEPAGE
  3
ANSI_949
  9
$INSBASE
 10
0.0
 20
0.0
 30
0.0
  9
$EXTMIN
 10
1.000000000000000E+20
 20
1.000000000000000E+20
 30
1.000000000000000E+20
  9
$EXTMAX
 10
-1.000000000000000E+20
 20
-1.000000000000000E+20
 30
-1.000000000000000E+20
  9
$LIMMIN
 10
0.0
 20
0.0
  9
$LIMMAX
 10
420.0
 20
297.0
  9
$ORTHOMODE
 70
     1
  9
$REGENMODE
 70
     1
  9
$FILLMODE
 70
     1
  9
$QTEXTMODE
 70
     0
  9
$MIRRTEXT
 70
     1
  9
$LTSCALE
 40
1.0
  9
$ATTMODE
 70
     1
  9
$TEXTSIZE
 40
3.5
  9
$TRACEWID
 40
1.0
  9
$TEXTSTYLE
  7
Standard
  9
$CLAYER
  8
0
  9
$CELTYPE
  6
ByLayer
  9
$CECOLOR
 62
   256
  9
$CELTSCALE
 40
1.0
  9
$DISPSILH
 70
     0
  9
$DIMSCALE
 40
1.0
  9
$DIMASZ
 40
3.302
  9
$DIMEXO
 40
1.0
  9
$DIMDLI
 40
3.75
  9
$DIMRND
 40
0.0
  9
$DIMDLE
 40
0.0
  9
$DIMEXE
 40
1.0
  9
$DIMTP
 40
0.0
  9
$DIMTM
 40
0.0
  9
$DIMTXT
 40
3.5
  9
$DIMCEN
 40
2.5
  9
$DIMTSZ
 40
0.0
  9
$DIMTOL
 70
     0
  9
$DIMLIM
 70
     0
  9
$DIMTIH
 70
     1
  9
$DIMTOH
 70
     1
  9
$DIMSE1
 70
     0
  9
$DIMSE2
 70
     0
  9
$DIMTAD
 70
     1
  9
$DIMZIN
 70
     0
  9
$DIMBLK
  1

  9
$DIMASO
 70
     1
  9
$DIMSHO
 70
     1
  9
$DIMPOST
  1

  9
$DIMAPOST
  1

  9
$DIMALT
 70
     0
  9
$DIMALTD
 70
     3
  9
$DIMALTF
 40
0.0393700787401575
  9
$DIMLFAC
 40
1.0
  9
$DIMTOFL
 70
     1
  9
$DIMTVP
 40
0.0
  9
$DIMTIX
 70
     0
  9
$DIMSOXD
 70
     0
  9
$DIMSAH
 70
     0
  9
$DIMBLK1
  1

  9
$DIMBLK2
  1

  9
$DIMSTYLE
  2
ISO-25
  9
$DIMCLRD
 70
     0
  9
$DIMCLRE
 70
     0
  9
$DIMCLRT
 70
     0
  9
$DIMTFAC
 40
1.0
  9
$DIMGAP
 40
1.524
  9
$DIMJUST
 70
     0
  9
$DIMSD1
 70
     0
  9
$DIMSD2
 70
     0
  9
$DIMTOLJ
 70
     0
  9
$DIMTZIN
 70
     0
  9
$DIMALTZ
 70
     0
  9
$DIMALTTZ
 70
     0
  9
$DIMUPT
 70
     0
  9
$DIMDEC
 70
     2
  9
$DIMTDEC
 70
     2
  9
$DIMALTU
 70
     2
  9
$DIMALTTD
 70
     3
  9
$DIMTXSTY
  7
Standard
  9
$DIMAUNIT
 70
     0
  9
$DIMADEC
 70
     2
  9
$DIMALTRND
 40
0.0
  9
$DIMAZIN
 70
     0
  9
$DIMDSEP
 70
    44
  9
$DIMATFIT
 70
     3
  9
$DIMFRAC
 70
     0
  9
$DIMLDRBLK
  1

  9
$DIMLUNIT
 70
     2
  9
$DIMLWD
 70
    -2
  9
$DIMLWE
 70
    -2
  9
$DIMTMOVE
 70
     0
  9
$LUNITS
 70
     2
  9
$LUPREC
 70
     2
  9
$SKETCHINC
 40
1.0
  9
$FILLETRAD
 40
10.0
  9
$AUNITS
 70
     0
  9
$AUPREC
 70
     2
  9
$MENU
  1
.
  9
$ELEVATION
 40
0.0
  9
$PELEVATION
 40
0.0
  9
$THICKNESS
 40
0.0
  9
$LIMCHECK
 70
     0
  9
$CHAMFERA
 40
0.0
  9
$CHAMFERB
 40
0.0
  9
$CHAMFERC
 40
0.0
  9
$CHAMFERD
 40
0.0
  9
$SKPOLY
 70
     0
  9
$TDCREATE
 40
2458323.678494861
  9
$TDUCREATE
 40
2458323.303494861
  9
$TDUPDATE
 40
2458324.443524166
  9
$TDUUPDATE
 40
2458324.068524166
  9
$TDINDWG
 40
0.0011329514
  9
$TDUSRTIMER
 40
2458324.067391829
  9
$USRTIMER
 70
     1
  9
$ANGBASE
 50
0.0
  9
$ANGDIR
 70
     0
  9
$PDMODE
 70
     0
  9
$PDSIZE
 40
-1.0
  9
$PLINEWID
 40
0.0
  9
$SPLFRAME
 70
     0
  9
$SPLINETYPE
 70
     6
  9
$SPLINESEGS
 70
     8
  9
$HANDSEED
  5
296
  9
$SURFTAB1
 70
     6
  9
$SURFTAB2
 70
     6
  9
$SURFTYPE
 70
     6
  9
$SURFU
 70
     6
  9
$SURFV
 70
     6
  9
$UCSBASE
  2

  9
$UCSNAME
  2

  9
$UCSORG
 10
0.0
 20
0.0
 30
0.0
  9
$UCSXDIR
 10
1.0
 20
0.0
 30
0.0
  9
$UCSYDIR
 10
0.0
 20
1.0
 30
0.0
  9
$UCSORTHOREF
  2

  9
$UCSORTHOVIEW
 70
     0
  9
$UCSORGTOP
 10
0.0
 20
0.0
 30
0.0
  9
$UCSORGBOTTOM
 10
0.0
 20
0.0
 30
0.0
  9
$UCSORGLEFT
 10
0.0
 20
0.0
 30
0.0
  9
$UCSORGRIGHT
 10
0.0
 20
0.0
 30
0.0
  9
$UCSORGFRONT
 10
0.0
 20
0.0
 30
0.0
  9
$UCSORGBACK
 10
0.0
 20
0.0
 30
0.0
  9
$PUCSBASE
  2

  9
$PUCSNAME
  2

  9
$PUCSORG
 10
0.0
 20
0.0
 30
0.0
  9
$PUCSXDIR
 10
1.0
 20
0.0
 30
0.0
  9
$PUCSYDIR
 10
0.0
 20
1.0
 30
0.0
  9
$PUCSORTHOREF
  2

  9
$PUCSORTHOVIEW
 70
     0
  9
$PUCSORGTOP
 10
0.0
 20
0.0
 30
0.0
  9
$PUCSORGBOTTOM
 10
0.0
 20
0.0
 30
0.0
  9
$PUCSORGLEFT
 10
0.0
 20
0.0
 30
0.0
  9
$PUCSORGRIGHT
 10
0.0
 20
0.0
 30
0.0
  9
$PUCSORGFRONT
 10
0.0
 20
0.0
 30
0.0
  9
$PUCSORGBACK
 10
0.0
 20
0.0
 30
0.0
  9
$USERI1
 70
     0
  9
$USERI2
 70
     0
  9
$USERI3
 70
     0
  9
$USERI4
 70
     0
  9
$USERI5
 70
     0
  9
$USERR1
 40
0.0
  9
$USERR2
 40
0.0
  9
$USERR3
 40
0.0
  9
$USERR4
 40
0.0
  9
$USERR5
 40
0.0
  9
$WORLDVIEW
 70
     1
  9
$SHADEDGE
 70
     3
  9
$SHADEDIF
 70
    70
  9
$TILEMODE
 70
     1
  9
$MAXACTVP
 70
    64
  9
$PINSBASE
 10
0.0
 20
0.0
 30
0.0
  9
$PLIMCHECK
 70
     0
  9
$PEXTMIN
 10
1.000000000000000E+20
 20
1.000000000000000E+20
 30
1.000000000000000E+20
  9
$PEXTMAX
 10
-1.000000000000000E+20
 20
-1.000000000000000E+20
 30
-1.000000000000000E+20
  9
$PLIMMIN
 10
0.0
 20
0.0
  9
$PLIMMAX
 10
0.0
 20
0.0
  9
$UNITMODE
 70
     0
  9
$VISRETAIN
 70
     1
  9
$PLINEGEN
 70
     0
  9
$PSLTSCALE
 70
     1
  9
$TREEDEPTH
 70
  3020
  9
$CMLSTYLE
  2
Standard
  9
$CMLJUST
 70
     0
  9
$CMLSCALE
 40
20.0
  9
$PROXYGRAPHICS
 70
     1
  9
$MEASUREMENT
 70
     1
  9
$CELWEIGHT
370
    -1
  9
$ENDCAPS
280
     0
  9
$JOINSTYLE
280
     0
  9
$LWDISPLAY
290
     1
  9
$INSUNITS
 70
     4
  9
$HYPERLINKBASE
  1

  9
$STYLESHEET
  1

  9
$XEDIT
290
     1
  9
$CEPSNTYPE
380
     0
  9
$PSTYLEMODE
290
     1
  9
$FINGERPRINTGUID
  2
{A9AD8004-9419-432A-9EC5-400B395695CA}
  9
$VERSIONGUID
  2
{FAEB1C32-E019-11D5-929B-00C0DF256EC4}
  9
$EXTNAMES
290
     1
  9
$PSVPSCALE
 40
0.0
  9
$OLESTARTUP
290
     0
  0
ENDSEC
  0
SECTION
  2
CLASSES
  0
CLASS
  1
ACDBDICTIONARYWDFLT
  2
AcDbDictionaryWithDefault
  3
ObjectDBX Classes
 90
        0
280
     0
281
     0
  0
CLASS
  1
VISUALSTYLE
  2
AcDbVisualStyle
  3
ObjectDBX Classes
 90
     4095
280
     0
281
     0
  0
CLASS
  1
MATERIAL
  2
AcDbMaterial
  3
ObjectDBX Classes
 90
     1153
280
     0
281
     0
  0
CLASS
  1
SCALE
  2
AcDbScale
  3
ObjectDBX Classes
 90
     1153
280
     0
281
     0
  0
CLASS
  1
SUN
  2
AcDbSun
  3
SCENEOE
 90
     1153
280
     0
281
     0
  0
CLASS
  1
ACDBPLACEHOLDER
  2
AcDbPlaceHolder
  3
ObjectDBX Classes
 90
        0
280
     0
281
     0
  0
CLASS
  1
LAYOUT
  2
AcDbLayout
  3
ObjectDBX Classes
 90
        0
280
     0
281
     0
  0
CLASS
  1
TABLESTYLE
  2
AcDbTableStyle
  3
ObjectDBX Classes
 90
     4095
280
     0
281
     0
  0
CLASS
  1
MLEADERSTYLE
  2
AcDbMLeaderStyle
  3
ACDB_MLEADERSTYLE_CLASS
 90
     4095
280
     0
281
     0
  0
CLASS
  1
RASTERVARIABLES
  2
AcDbRasterVariables
  3
ISM
 90
        0
280
     0
281
     0
  0
ENDSEC
  0
SECTION
  2
TABLES
  0
TABLE
  2
VPORT
  5
8
330
0
100
AcDbSymbolTable
 70
     1
  0
VPORT
  5
29
330
8
100
AcDbSymbolTableRecord
100
AcDbViewportTableRecord
  2
*Active
 70
     0
 10
0.0
 20
0.0
 11
1.0
 21
1.0
 12
9.954474022757282
 22
-8.948031501596859
 13
0.0
 23
0.0
 14
10.0
 24
10.0
 15
10.0
 25
10.0
 16
0.0
 26
0.0
 36
1.0
 17
0.0
 27
0.0
 37
0.0
 40
116.6203979892894
 41
1.632093933463796
 42
50.0
 43
0.0
 44
0.0
 50
0.0
 51
0.0
 71
    16
 72
  2000
 73
     1
 74
     3
 75
     0
 76
     0
 77
     0
 78
     0
281
     0
 65
     1
110
0.0
120
0.0
130
0.0
111
1.0
121
0.0
131
0.0
112
0.0
122
1.0
132
0.0
 79
     0
146
0.0
  0
ENDTAB
  0
TABLE
  2
LTYPE
  5
5
330
0
100
AcDbSymbolTable
 70
     6
  0
LTYPE
  5
14
330
5
100
AcDbSymbolTableRecord
100
AcDbLinetypeTableRecord
  2
ByBlock
 70
     0
  3

 72
    65
 73
     0
 40
0.0
  0
LTYPE
  5
15
330
5
100
AcDbSymbolTableRecord
100
AcDbLinetypeTableRecord
  2
ByLayer
 70
     0
  3

 72
    65
 73
     0
 40
0.0
  0
LTYPE
  5
16
330
5
100
AcDbSymbolTableRecord
100
AcDbLinetypeTableRecord
  2
Continuous
 70
     0
  3
Solid line
 72
    65
 73
     0
 40
0.0
  0
LTYPE
  5
6A
330
5
100
AcDbSymbolTableRecord
100
AcDbLinetypeTableRecord
  2
HIDDEN
 70
     0
  3
Hidden __ __ __ __ __ __ __ __ __ __ __ __ __ __
 72
    65
 73
     2
 40
1.905
 49
1.27
 74
     0
 49
-0.635
 74
     0
  0
LTYPE
  5
6B
330
5
100
AcDbSymbolTableRecord
100
AcDbLinetypeTableRecord
  2
PHANTOM
 70
     0
  3
Phantom ______  __  __  ______  __  __  ______
 72
    65
 73
     6
 40
12.7
 49
6.35
 74
     0
 49
-1.27
 74
     0
 49
1.27
 74
     0
 49
-1.27
 74
     0
 49
1.27
 74
     0
 49
-1.27
 74
     0
  0
LTYPE
  5
6C
330
5
100
AcDbSymbolTableRecord
100
AcDbLinetypeTableRecord
  2
CENTER
 70
     0
  3
Center ____ _ ____ _ ____ _ ____ _ ____ _ ____
 72
    65
 73
     4
 40
10.16
 49
6.35
 74
     0
 49
-1.27
 74
     0
 49
1.27
 74
     0
 49
-1.27
 74
     0
  0
LTYPE
  5
6D
330
5
100
AcDbSymbolTableRecord
100
AcDbLinetypeTableRecord
  2
CENTERX2
 70
     0
  3
Center (2x) ________  __  ________  __  _____
 72
    65
 73
     4
 40
20.32
 49
12.7
 74
     0
 49
-2.54
 74
     0
 49
2.54
 74
     0
 49
-2.54
 74
     0
  0
LTYPE
  5
6E
330
5
100
AcDbSymbolTableRecord
100
AcDbLinetypeTableRecord
  2
DOT2
 70
     0
  3
Dot (.5x) ........................................
 72
    65
 73
     2
 40
0.635
 49
0.0
 74
     0
 49
-0.635
 74
     0
  0
ENDTAB
  0
TABLE
  2
LAYER
  5
2
102
{ACAD_XDICTIONARY
360
1EE
102
}
330
0
100
AcDbSymbolTable
 70
    18
  0
LAYER
  5
10
330
2
100
AcDbSymbolTableRecord
100
AcDbLayerTableRecord
  2
0
 70
     0
 62
     7
  6
Continuous
370
    -3
390
F
  0
LAYER
  5
6F
330
2
100
AcDbSymbolTableRecord
100
AcDbLayerTableRecord
  2
FORMAT
 70
     0
 62
     2
  6
Continuous
370
    -3
390
F
  0
LAYER
  5
70
330
2
100
AcDbSymbolTableRecord
100
AcDbLayerTableRecord
  2
외형선
 70
     0
 62
     4
  6
Continuous
370
    30
390
F
  0
LAYER
  5
71
330
2
100
AcDbSymbolTableRecord
100
AcDbLayerTableRecord
  2
숨은선
 70
     0
 62
     2
  6
HIDDEN
370
    15
390
F
  0
LAYER
  5
72
330
2
100
AcDbSymbolTableRecord
100
AcDbLayerTableRecord
  2
중심선
 70
     0
 62
     1
  6
CENTERX2
370
    -3
390
F
  0
LAYER
  5
73
330
2
100
AcDbSymbolTableRecord
100
AcDbLayerTableRecord
  2
파단선
 70
     0
 62
     4
  6
Continuous
370
    -3
390
F
  0
LAYER
  5
74
330
2
100
AcDbSymbolTableRecord
100
AcDbLayerTableRecord
  2
해칭선
 70
     0
 62
   100
  6
Continuous
370
    -3
390
F
  0
LAYER
  5
75
330
2
100
AcDbSymbolTableRecord
100
AcDbLayerTableRecord
  2
가는실선
 70
     0
 62
     4
  6
Continuous
370
    -3
390
F
  0
LAYER
  5
76
330
2
100
AcDbSymbolTableRecord
100
AcDbLayerTableRecord
  2
치수_보조선
 70
     0
 62
     4
  6
Continuous
370
    -3
390
F
  0
LAYER
  5
77
330
2
100
AcDbSymbolTableRecord
100
AcDbLayerTableRecord
  2
치수문자_일반주서
 70
     0
 62
     7
  6
Continuous
370
    15
390
F
  0
LAYER
  5
78
330
2
100
AcDbSymbolTableRecord
100
AcDbLayerTableRecord
  2
개별주서
 70
     0
 62
   100
  6
Continuous
370
    30
390
F
  0
LAYER
  5
79
330
2
100
AcDbSymbolTableRecord
100
AcDbLayerTableRecord
  2
중간선
 70
     0
 62
     2
  6
Continuous
370
    15
390
F
  0
LAYER
  5
7A
330
2
100
AcDbSymbolTableRecord
100
AcDbLayerTableRecord
  2
윤곽선
 70
     0
 62
     3
  6
Continuous
370
    40
390
F
  0
LAYER
  5
7B
330
2
100
AcDbSymbolTableRecord
100
AcDbLayerTableRecord
  2
중심마크
 70
     0
 62
   100
  6
Continuous
370
    30
390
F
  0
LAYER
  5
7C
330
2
100
AcDbSymbolTableRecord
100
AcDbLayerTableRecord
  2
가상선
 70
     0
 62
     4
  6
PHANTOM
370
    -3
390
F
  0
LAYER
  5
7D
330
2
100
AcDbSymbolTableRecord
100
AcDbLayerTableRecord
  2
특수지정선
 70
     0
 62
     5
  6
CENTERX2
370
    60
390
F
  0
LAYER
  5
7E
330
2
100
AcDbSymbolTableRecord
100
AcDbLayerTableRecord
  2
참조1
 70
     0
 62
    -4
  6
Continuous
370
    -3
390
F
  0
LAYER
  5
156
330
2
100
AcDbSymbolTableRecord
100
AcDbLayerTableRecord
  2
Defpoints
 70
     0
 62
     7
  6
Continuous
290
     0
370
    -3
390
F
  0
ENDTAB
  0
TABLE
  2
STYLE
  5
3
330
0
100
AcDbSymbolTable
 70
     2
  0
STYLE
  5
11
330
3
100
AcDbSymbolTableRecord
100
AcDbTextStyleTableRecord
  2
Standard
 70
     0
 40
0.0
 41
1.0
 50
0.0
 71
     0
 42
3.5
  3
txt
  4

  0
STYLE
  5
94
330
3
100
AcDbSymbolTableRecord
100
AcDbTextStyleTableRecord
  2
SLDTEXTSTYLE0
 70
     0
 40
0.0
 41
0.75
 50
0.0
 71
     0
 42
3.5
  3
TXT
  4

  0
ENDTAB
  0
TABLE
  2
VIEW
  5
6
330
0
100
AcDbSymbolTable
 70
     0
  0
ENDTAB
  0
TABLE
  2
UCS
  5
7
330
0
100
AcDbSymbolTable
 70
     0
  0
ENDTAB
  0
TABLE
  2
APPID
  5
9
330
0
100
AcDbSymbolTable
 70
     1
  0
APPID
  5
12
330
9
100
AcDbSymbolTableRecord
100
AcDbRegAppTableRecord
  2
ACAD
 70
     0
  0
ENDTAB
  0
TABLE
  2
DIMSTYLE
  5
A
330
0
100
AcDbSymbolTable
 70
     4
100
AcDbDimStyleTable
  0
DIMSTYLE
105
27
330
A
100
AcDbSymbolTableRecord
100
AcDbDimStyleTableRecord
  2
ISO-25
 70
     0
 41
2.5
 42
0.625
 43
3.75
 44
1.25
 73
     0
 74
     0
 77
     1
 78
     8
140
2.5
141
2.5
143
0.03937007874016
147
0.625
171
     3
172
     1
178
     0
271
     2
272
     2
274
     3
278
    44
283
     0
284
     8
340
11
  0
DIMSTYLE
105
D3
330
A
100
AcDbSymbolTableRecord
100
AcDbDimStyleTableRecord
  2
SLDDIMSTYLE0
 70
     0
 41
3.302
 44
0.0
 45
0.000000001
 73
     0
 74
     0
 77
     1
 78
    12
 79
     3
140
3.5
143
0.0393700787401575
147
0.875
148
0.000000001
170
     1
173
     1
178
     0
271
     2
272
     2
276
     2
284
    12
340
94
  0
DIMSTYLE
105
FB
102
{ACAD_REACTORS
330
FA
330
1AB
330
1B8
330
1C5
330
1D2
330
D2
330
E7
330
10F
102
}
330
A
100
AcDbSymbolTableRecord
100
AcDbDimStyleTableRecord
  2
SLDDIMSTYLE1
 70
     0
 41
3.302
 44
0.0
 45
0.000000001
 73
     0
 74
     0
 77
     1
 78
    12
 79
     3
140
3.5
143
0.0393700787401575
147
0.875
148
0.000000001
170
     1
172
     1
173
     1
178
     0
271
     2
272
     2
276
     2
284
    12
289
     0
340
94
  0
DIMSTYLE
105
110
330
A
100
AcDbSymbolTableRecord
100
AcDbDimStyleTableRecord
  2
SLDDIMSTYLE2
 70
     0
 41
3.302
 44
0.0
 45
0.000000001
 73
     0
 74
     0
 77
     1
 78
     4
 79
     1
140
3.5
143
0.0393700787401575
147
0.875
148
0.000000001
170
     1
173
     1
178
     0
271
     2
272
     2
276
     2
284
    12
340
94
  0
ENDTAB
  0
TABLE
  2
BLOCK_RECORD
  5
1
330
0
100
AcDbSymbolTable
 70
    16
  0
BLOCK_RECORD
  5
1F
330
1
100
AcDbSymbolTableRecord
100
AcDbBlockTableRecord
  2
*Model_Space
340
22
  0
BLOCK_RECORD
  5
1B
330
1
100
AcDbSymbolTableRecord
100
AcDbBlockTableRecord
  2
*Paper_Space
340
1E
  0
BLOCK_RECORD
  5
23
330
1
100
AcDbSymbolTableRecord
100
AcDbBlockTableRecord
  2
*Paper_Space0
340
26
  0
BLOCK_RECORD
  5
7F
330
1
100
AcDbSymbolTableRecord
100
AcDbBlockTableRecord
  2
블럭10
340
0
102
{BLKREFS
331
CB
102
}
  0
BLOCK_RECORD
  5
D4
330
1
100
AcDbSymbolTableRecord
100
AcDbBlockTableRecord
  2
_D
340
0
  0
BLOCK_RECORD
  5
E8
330
1
100
AcDbSymbolTableRecord
100
AcDbBlockTableRecord
  2
_D_1
340
0
  0
BLOCK_RECORD
  5
FC
330
1
100
AcDbSymbolTableRecord
100
AcDbBlockTableRecord
  2
_D_2
340
0
  0
BLOCK_RECORD
  5
111
330
1
100
AcDbSymbolTableRecord
100
AcDbBlockTableRecord
  2
_D_3
340
0
  0
BLOCK_RECORD
  5
12A
330
1
100
AcDbSymbolTableRecord
100
AcDbBlockTableRecord
  2
SW_DOWELSYMBOL_0
340
0
102
{BLKREFS
331
130
331
1E2
331
0
102
}
  0
BLOCK_RECORD
  5
1F2
330
1
100
AcDbSymbolTableRecord
100
AcDbBlockTableRecord
  2
*D8
340
0
  0
BLOCK_RECORD
  5
1FE
330
1
100
AcDbSymbolTableRecord
100
AcDbBlockTableRecord
  2
*D9
340
0
  0
BLOCK_RECORD
  5
20A
330
1
100
AcDbSymbolTableRecord
100
AcDbBlockTableRecord
  2
*D10
340
0
  0
BLOCK_RECORD
  5
216
330
1
100
AcDbSymbolTableRecord
100
AcDbBlockTableRecord
  2
*D11
340
0
  0
BLOCK_RECORD
  5
25C
330
1
100
AcDbSymbolTableRecord
100
AcDbBlockTableRecord
  2
*D12
340
0
  0
BLOCK_RECORD
  5
268
330
1
100
AcDbSymbolTableRecord
100
AcDbBlockTableRecord
  2
*D13
340
0
  0
BLOCK_RECORD
  5
274
330
1
100
AcDbSymbolTableRecord
100
AcDbBlockTableRecord
  2
*D14
340
0
  0
BLOCK_RECORD
  5
280
330
1
100
AcDbSymbolTableRecord
100
AcDbBlockTableRecord
  2
*D15
340
0
  0
ENDTAB
  0
ENDSEC
  0
SECTION
  2
BLOCKS
  0
BLOCK
  5
20
330
1F
100
AcDbEntity
  8
0
100
AcDbBlockBegin
  2
*Model_Space
 70
     0
 10
0.0
 20
0.0
 30
0.0
  3
*Model_Space
  1
*Model_Space
  0
ENDBLK
  5
21
330
1F
100
AcDbEntity
  8
0
100
AcDbBlockEnd
  0
BLOCK
  5
1C
330
1B
100
AcDbEntity
 67
     1
  8
0
100
AcDbBlockBegin
  2
*Paper_Space
 70
     0
 10
0.0
 20
0.0
 30
0.0
  3
*Paper_Space
  1
*Paper_Space
  0
ENDBLK
  5
1D
330
1B
100
AcDbEntity
 67
     1
  8
0
100
AcDbBlockEnd
  0
BLOCK
  5
24
330
23
100
AcDbEntity
  8
0
100
AcDbBlockBegin
  2
*Paper_Space0
 70
     0
 10
0.0
 20
0.0
 30
0.0
  3
*Paper_Space0
  1
*Paper_Space0
  0
ENDBLK
  5
25
330
23
100
AcDbEntity
  8
0
100
AcDbBlockEnd
  0
BLOCK
  5
80
330
7F
100
AcDbEntity
  8
0
100
AcDbBlockBegin
  2
블럭10
 70
     2
 10
0.0
 20
0.0
 30
0.0
  3
블럭10
  1
블럭10
  0
ELLIPSE
  5
82
330
7F
100
AcDbEntity
  8
중심선
100
AcDbEllipse
 10
20.54032771741204
 20
12.0471743016438
 30
0.0
 11
6.600054785286829
 21
-1.261213355974178E-13
 31
0.0
210
0.0
220
0.0
230
1.0
 40
0.636358354079598
 41
0.9219305317359503
 42
6.513795318482858
  0
ELLIPSE
  5
83
330
7F
100
AcDbEntity
  8
중심선
100
AcDbEllipse
 10
20.54032771746488
 20
12.04717430159265
 30
0.0
 11
3.960054785062283
 21
1.540847449632565E-10
 31
0.0
210
0.0
220
0.0
230
1.0
 40
0.3939339440162632
 41
1.131841032648279
 42
5.62031148352944
  0
LINE
  5
84
330
7F
100
AcDbEntity
  8
중심선
100
AcDbLine
 10
2.268634060543552
 20
16.24717430164393
 30
0.0
 11
5.714909304380834
 21
16.24717430164393
 31
0.0
  0
LINE
  5
85
330
7F
100
AcDbEntity
  8
중심선
100
AcDbLine
 10
5.245725140726316
 20
7.84717430164391
 30
0.0
 11
8.692000384563599
 21
7.84717430164391
 31
0.0
  0
LINE
  5
86
330
7F
100
AcDbEntity
  8
중심선
100
AcDbLine
 10
15.74043728645272
 20
16.24717430164393
 30
0.0
 11
8.692000384563599
 21
7.84717430164391
 31
0.0
  0
LINE
  5
87
330
7F
100
AcDbEntity
  8
중심선
100
AcDbLine
 10
0.1404042013395286
 20
13.71084872107135
 30
0.0
 11
3.58671253028996
 21
13.71088815037384
 31
0.0
  0
LINE
  5
88
330
7F
100
AcDbEntity
  8
중심선
100
AcDbLine
 10
2.750260043222114
 20
10.84717430164391
 30
0.0
 11
6.196535287059397
 21
10.84717430164391
 31
0.0
  0
LINE
  5
89
330
7F
100
AcDbEntity
  8
중심선
100
AcDbLine
 10
12.29416204261559
 20
16.24717430164393
 30
0.0
 11
5.245725140726316
 21
7.84717430164391
 31
0.0
  0
LINE
  5
8A
330
7F
100
AcDbEntity
  8
중심선
100
AcDbLine
 10
10.72767329541681
 20
16.24717430164393
 30
0.0
 11
6.196535287059397
 21
10.84717430164391
 31
0.0
  0
LINE
  5
8B
330
7F
100
AcDbEntity
  8
중심선
100
AcDbLine
 10
7.28139805157953
 20
16.24717430164393
 30
0.0
 11
2.750260043222114
 21
10.84717430164391
 31
0.0
  0
LINE
  5
8C
330
7F
100
AcDbEntity
  8
중심선
100
AcDbLine
 10
5.714909304380834
 20
16.24717430164393
 30
0.0
 11
3.58671253028996
 21
13.71088815037384
 31
0.0
  0
LINE
  5
8D
330
7F
100
AcDbEntity
  8
중심선
100
AcDbLine
 10
2.268634060543552
 20
16.24717430164393
 30
0.0
 11
0.1404042013395286
 21
13.71084872107135
 31
0.0
  0
LINE
  5
8E
330
7F
100
AcDbEntity
  8
중심선
100
AcDbLine
 10
7.28139805157953
 20
16.24717430164393
 30
0.0
 11
10.72767329541681
 21
16.24717430164393
 31
0.0
  0
LINE
  5
8F
330
7F
100
AcDbEntity
  8
중심선
100
AcDbLine
 10
12.29416204261559
 20
16.24717430164393
 30
0.0
 11
15.74043728645272
 21
16.24717430164393
 31
0.0
  0
LINE
  5
90
330
7F
100
AcDbEntity
  8
중심선
100
AcDbLine
 10
19.22036997980202
 20
11.08717430171403
 30
0.0
 11
23.66174974927406
 21
11.08717430171406
 31
0.0
  0
LINE
  5
91
330
7F
100
AcDbEntity
  8
중심선
100
AcDbLine
 10
19.22039502424796
 20
13.00717430171391
 30
0.0
 11
19.22036997980202
 21
11.08717430171403
 31
0.0
  0
LINE
  5
92
330
7F
100
AcDbEntity
  8
중심선
100
AcDbLine
 10
19.22039502424796
 20
13.00717430171391
 30
0.0
 11
26.96566020931264
 21
13.00717430171391
 31
0.0
  0
LINE
  5
93
330
7F
100
AcDbEntity
  8
중심선
100
AcDbLine
 10
22.22332737316547
 20
13.45928029700563
 30
0.0
 11
24.52862924686651
 21
15.39360700705356
 31
0.0
  0
ATTDEF
  5
95
330
7F
100
AcDbEntity
  8
FORMAT
 62
     2
100
AcDbText
 10
4.408487351596664
 20
2.075366912832191
 30
0.0
 40
4.233333333333333
  1
E2021016
 41
0.75
  7
SLDTEXTSTYLE0
 11
4.408487351596664
 21
-0.0412997538344756
 31
0.0
100
AcDbAttributeDefinition
  3

  2
AUTOATTR0
 70
     0
 74
     1
  0
ENDBLK
  5
81
330
7F
100
AcDbEntity
  8
0
100
AcDbBlockEnd
  0
BLOCK
  5
D5
330
D4
100
AcDbEntity
  8
0
100
AcDbBlockBegin
  2
_D
 70
     0
 10
0.0
 20
0.0
 30
0.0
  3
_D
  1
_D
  0
LINE
  5
D7
330
D4
100
AcDbEntity
  8
치수문자_일반주서
 62
     0
370
    -2
100
AcDbLine
 10
40.67463065701561
 20
3.238574928723899
 30
0.0
 11
40.67463065701561
 21
14.76357492872391
 31
0.0
  0
LINE
  5
D8
330
D4
100
AcDbEntity
  8
치수문자_일반주서
 62
     0
370
    -2
100
AcDbLine
 10
8.924630657015616
 20
3.226899156826314
 30
0.0
 11
8.924630657015616
 21
14.76357492872391
 31
0.0
  0
LINE
  5
D9
330
D4
100
AcDbEntity
  8
치수문자_일반주서
 62
     0
370
    -2
100
AcDbLine
 10
37.37263065701561
 20
14.76357492872391
 30
0.0
 11
12.22663065701562
 21
14.76357492872391
 31
0.0
  0
SOLID
  5
DA
330
D4
100
AcDbEntity
  8
치수문자_일반주서
 62
     0
100
AcDbTrace
 10
37.37263065701561
 20
14.21324159539057
 30
0.0
 11
37.37263065701561
 21
15.31390826205724
 31
0.0
 12
40.67463065701561
 22
14.76357492872391
 32
0.0
 13
40.67463065701561
 23
14.76357492872391
 33
0.0
  0
SOLID
  5
DB
330
D4
100
AcDbEntity
  8
치수문자_일반주서
 62
     0
100
AcDbTrace
 10
12.22663065701562
 20
15.31390826205724
 30
0.0
 11
12.22663065701562
 21
14.21324159539057
 31
0.0
 12
8.924630657015616
 22
14.76357492872391
 32
0.0
 13
8.924630657015616
 23
14.76357492872391
 33
0.0
  0
MTEXT
  5
DC
330
D4
100
AcDbEntity
  8
치수문자_일반주서
 62
     0
100
AcDbMText
 10
24.79963065701562
 20
19.13857492872391
 30
0.0
 40
3.5
 41
0.0
 71
     2
 72
     1
  1
\A1;31.75 [1 1/4]
  7
SLDTEXTSTYLE0
 73
     1
 44
1.0
  0
POINT
  5
DD
330
D4
100
AcDbEntity
  8
Defpoints
 62
     0
100
AcDbPoint
 10
40.67463065701561
 20
3.176074928723899
 30
0.0
  0
POINT
  5
DE
330
D4
100
AcDbEntity
  8
Defpoints
 62
     0
100
AcDbPoint
 10
8.924630657015616
 20
3.164399156826314
 30
0.0
  0
POINT
  5
DF
330
D4
100
AcDbEntity
  8
Defpoints
 62
     0
100
AcDbPoint
 10
8.924630657015616
 20
14.76357492872391
 30
0.0
  0
ENDBLK
  5
D6
330
D4
100
AcDbEntity
  8
0
100
AcDbBlockEnd
  0
BLOCK
  5
E9
330
E8
100
AcDbEntity
  8
0
100
AcDbBlockBegin
  2
_D_1
 70
     0
 10
0.0
 20
0.0
 30
0.0
  3
_D_1
  1
_D_1
  0
LINE
  5
EB
330
E8
100
AcDbEntity
  8
치수문자_일반주서
 62
     0
370
    -2
100
AcDbLine
 10
40.67463065701561
 20
3.238574928723899
 30
0.0
 11
40.6746306570156
 21
31.6102217220047
 31
0.0
  0
LINE
  5
EC
330
E8
100
AcDbEntity
  8
치수문자_일반주서
 62
     0
370
    -2
100
AcDbLine
 10
-37.1128693429844
 20
3.873574928723901
 30
0.0
 11
-37.1128693429844
 21
31.6102217220047
 31
0.0
  0
LINE
  5
ED
330
E8
100
AcDbEntity
  8
치수문자_일반주서
 62
     0
370
    -2
100
AcDbLine
 10
37.3726306570156
 20
31.6102217220047
 30
0.0
 11
-33.8108693429844
 21
31.6102217220047
 31
0.0
  0
SOLID
  5
EE
330
E8
100
AcDbEntity
  8
치수문자_일반주서
 62
     0
100
AcDbTrace
 10
37.3726306570156
 20
31.05988838867136
 30
0.0
 11
37.3726306570156
 21
32.16055505533803
 31
0.0
 12
40.6746306570156
 22
31.6102217220047
 32
0.0
 13
40.6746306570156
 23
31.6102217220047
 33
0.0
  0
SOLID
  5
EF
330
E8
100
AcDbEntity
  8
치수문자_일반주서
 62
     0
100
AcDbTrace
 10
-33.8108693429844
 20
32.16055505533803
 30
0.0
 11
-33.8108693429844
 21
31.05988838867136
 31
0.0
 12
-37.1128693429844
 22
31.6102217220047
 32
0.0
 13
-37.1128693429844
 23
31.6102217220047
 33
0.0
  0
MTEXT
  5
F0
330
E8
100
AcDbEntity
  8
치수문자_일반주서
 62
     0
100
AcDbMText
 10
1.78088065701561
 20
35.9852217220047
 30
0.0
 40
3.5
 41
0.0
 71
     2
 72
     1
  1
\A1;77.79 [3 1/16]
  7
SLDTEXTSTYLE0
 73
     1
 44
1.0
  0
POINT
  5
F1
330
E8
100
AcDbEntity
  8
Defpoints
 62
     0
100
AcDbPoint
 10
40.67463065701561
 20
3.176074928723899
 30
0.0
  0
POINT
  5
F2
330
E8
100
AcDbEntity
  8
Defpoints
 62
     0
100
AcDbPoint
 10
-37.1128693429844
 20
3.811074928723901
 30
0.0
  0
POINT
  5
F3
330
E8
100
AcDbEntity
  8
Defpoints
 62
     0
100
AcDbPoint
 10
-37.1128693429844
 20
31.6102217220047
 30
0.0
  0
ENDBLK
  5
EA
330
E8
100
AcDbEntity
  8
0
100
AcDbBlockEnd
  0
BLOCK
  5
FD
330
FC
100
AcDbEntity
  8
0
100
AcDbBlockBegin
  2
_D_2
 70
     0
 10
0.0
 20
0.0
 30
0.0
  3
_D_2
  1
_D_2
  0
LINE
  5
FF
330
FC
100
AcDbEntity
  8
치수문자_일반주서
 62
     0
370
    -2
100
AcDbLine
 10
-36.22286934298438
 20
4.763574928723896
 30
0.0
 11
-50.1128693429844
 21
4.763574928723846
 31
0.0
  0
LINE
  5
100
330
FC
100
AcDbEntity
  8
치수문자_일반주서
 62
     0
370
    -2
100
AcDbLine
 10
-36.22286934298438
 20
-4.761425071276109
 30
0.0
 11
-50.11286934298437
 21
-4.76142507127616
 31
0.0
  0
LINE
  5
101
330
FC
100
AcDbEntity
  8
치수문자_일반주서
 62
     0
370
    -2
100
AcDbLine
 10
-50.11286934298439
 20
1.461574928723846
 30
0.0
 11
-50.11286934298438
 21
-1.459425071276161
 31
0.0
  0
SOLID
  5
102
330
FC
100
AcDbEntity
  8
치수문자_일반주서
 62
     0
100
AcDbTrace
 10
-49.56253600965105
 20
1.461574928723848
 30
0.0
 11
-50.66320267631772
 21
1.461574928723844
 31
0.0
 12
-50.1128693429844
 22
4.763574928723846
 32
0.0
 13
-50.1128693429844
 23
4.763574928723846
 33
0.0
  0
SOLID
  5
103
330
FC
100
AcDbEntity
  8
치수문자_일반주서
 62
     0
100
AcDbTrace
 10
-50.66320267631772
 20
-1.459425071276162
 30
0.0
 11
-49.56253600965105
 21
-1.459425071276159
 31
0.0
 12
-50.11286934298437
 22
-4.76142507127616
 32
0.0
 13
-50.11286934298437
 23
-4.76142507127616
 33
0.0
  0
MTEXT
  5
104
330
FC
100
AcDbEntity
  8
치수문자_일반주서
 62
     0
100
AcDbMText
 10
-54.48786934298439
 20
0.0010749287238777
 30
0.0
 40
3.5
 41
0.0
 71
     2
 72
     1
  1
\A1;%%c9.53 [3/8]
  7
SLDTEXTSTYLE0
 11
-3.729883127349604E-15
 21
1.0
 31
0.0
 73
     1
 44
1.0
  0
POINT
  5
105
330
FC
100
AcDbEntity
  8
Defpoints
 62
     0
100
AcDbPoint
 10
-36.16036934298438
 20
4.763574928723896
 30
0.0
  0
POINT
  5
106
330
FC
100
AcDbEntity
  8
Defpoints
 62
     0
100
AcDbPoint
 10
-36.16036934298438
 20
-4.761425071276109
 30
0.0
  0
POINT
  5
107
330
FC
100
AcDbEntity
  8
Defpoints
 62
     0
100
AcDbPoint
 10
-50.11286934298437
 20
-4.761425071276162
 30
0.0
  0
ENDBLK
  5
FE
330
FC
100
AcDbEntity
  8
0
100
AcDbBlockEnd
  0
BLOCK
  5
112
330
111
100
AcDbEntity
  8
0
100
AcDbBlockBegin
  2
_D_3
 70
     0
 10
0.0
 20
0.0
 30
0.0
  3
_D_3
  1
_D_3
  0
LINE
  5
114
330
111
100
AcDbEntity
  8
치수문자_일반주서
 62
     0
370
    -2
100
AcDbLine
 10
40.73713065701561
 20
3.176074928723899
 30
0.0
 11
49.75967006793525
 21
3.176074928723931
 31
0.0
  0
LINE
  5
115
330
111
100
AcDbEntity
  8
치수문자_일반주서
 62
     0
370
    -2
100
AcDbLine
 10
40.73713065701565
 20
-3.1739250712761
 30
0.0
 11
49.75967006793527
 21
-3.173925071276066
 31
0.0
  0
LINE
  5
116
330
111
100
AcDbEntity
  8
치수문자_일반주서
 62
     0
370
    -2
100
AcDbLine
 10
49.75967006793525
 20
3.176074928723931
 30
0.0
 11
49.75967006793514
 21
35.15507492872393
 31
0.0
  0
LINE
  5
117
330
111
100
AcDbEntity
  8
치수문자_일반주서
 62
     0
370
    -2
100
AcDbLine
 10
49.75967006793525
 20
3.176074928723931
 30
0.0
 11
49.75967006793527
 21
-3.173925071276066
 31
0.0
  0
LINE
  5
118
330
111
100
AcDbEntity
  8
치수문자_일반주서
 62
     0
370
    -2
100
AcDbLine
 10
49.75967006793523
 20
6.478074928723931
 30
0.0
 11
49.75967006793522
 21
9.78007492872393
 31
0.0
  0
LINE
  5
119
330
111
100
AcDbEntity
  8
치수문자_일반주서
 62
     0
370
    -2
100
AcDbLine
 10
49.75967006793528
 20
-6.475925071276066
 30
0.0
 11
49.7596700679353
 21
-9.777925071276066
 31
0.0
  0
SOLID
  5
11A
330
111
100
AcDbEntity
  8
치수문자_일반주서
 62
     0
100
AcDbTrace
 10
49.2093367346019
 20
6.478074928723929
 30
0.0
 11
50.31000340126857
 21
6.478074928723933
 31
0.0
 12
49.75967006793525
 22
3.176074928723931
 32
0.0
 13
49.75967006793525
 23
3.176074928723931
 33
0.0
  0
SOLID
  5
11B
330
111
100
AcDbEntity
  8
치수문자_일반주서
 62
     0
100
AcDbTrace
 10
50.31000340126862
 20
-6.475925071276064
 30
0.0
 11
49.20933673460195
 21
-6.475925071276068
 31
0.0
 12
49.75967006793527
 22
-3.173925071276066
 32
0.0
 13
49.75967006793527
 23
-3.173925071276066
 33
0.0
  0
MTEXT
  5
11C
330
111
100
AcDbEntity
  8
치수문자_일반주서
 62
     0
100
AcDbMText
 10
45.38467006793518
 20
22.46757492872392
 30
0.0
 40
3.5
 41
0.0
 71
     2
 72
     1
  1
\A1;%%c6.35 [1/4]
  7
SLDTEXTSTYLE0
 11
-3.356894814614647E-15
 21
1.0
 31
0.0
 73
     1
 44
1.0
  0
POINT
  5
11D
330
111
100
AcDbEntity
  8
Defpoints
 62
     0
100
AcDbPoint
 10
40.67463065701561
 20
3.176074928723899
 30
0.0
  0
POINT
  5
11E
330
111
100
AcDbEntity
  8
Defpoints
 62
     0
100
AcDbPoint
 10
40.67463065701565
 20
-3.1739250712761
 30
0.0
  0
POINT
  5
11F
330
111
100
AcDbEntity
  8
Defpoints
 62
     0
100
AcDbPoint
 10
49.75967006793527
 20
-3.173925071276066
 30
0.0
  0
ENDBLK
  5
113
330
111
100
AcDbEntity
  8
0
100
AcDbBlockEnd
  0
BLOCK
  5
12B
330
12A
100
AcDbEntity
  8
0
100
AcDbBlockBegin
  2
SW_DOWELSYMBOL_0
 70
     0
 10
0.0
 20
0.0
 30
0.0
  3
SW_DOWELSYMBOL_0
  1
SW_DOWELSYMBOL_0
  0
CIRCLE
  5
12D
330
12A
100
AcDbEntity
  8
해칭선
 62
     0
100
AcDbCircle
 10
0.0
 20
0.0
 30
0.0
 40
3.000000000000001
  0
HATCH
  5
12E
330
12A
100
AcDbEntity
  8
0
  6
Continuous
 62
     0
370
     0
100
AcDbHatch
 10
0.0
 20
0.0
 30
0.0
210
0.0
220
0.0
230
1.0
  2
SOLID
 70
     1
 71
     0
 91
        1
 92
        0
 93
        3
 72
     2
 10
0.0
 20
0.0
 40
3.000000000000001
 50
0.0
 51
90.0
 73
     1
 72
     1
 10
0.0
 20
3.000000000000001
 11
0.0
 21
0.0
 72
     1
 10
0.0
 20
0.0
 11
3.000000000000001
 21
0.0
 97
        0
 75
     0
 76
     1
 98
        1
 10
0.0
 20
0.0
  0
HATCH
  5
12F
330
12A
100
AcDbEntity
  8
0
  6
Continuous
 62
     0
370
     0
100
AcDbHatch
 10
0.0
 20
0.0
 30
0.0
210
0.0
220
0.0
230
1.0
  2
SOLID
 70
     1
 71
     0
 91
        1
 92
        0
 93
        3
 72
     2
 10
0.0
 20
0.0
 40
3.000000000000001
 50
180.0
 51
270.0000000000008
 73
     1
 72
     1
 10
0.0
 20
-3.000000000000001
 11
0.0
 21
0.0
 72
     1
 10
0.0
 20
0.0
 11
-3.000000000000001
 21
0.0
 97
        0
 75
     0
 76
     1
 98
        1
 10
0.0
 20
0.0
  0
ENDBLK
  5
12C
330
12A
100
AcDbEntity
  8
0
100
AcDbBlockEnd
  0
BLOCK
  5
1F3
330
1F2
100
AcDbEntity
  8
0
100
AcDbBlockBegin
  2
*D8
 70
     1
 10
0.0
 20
0.0
 30
0.0
  3
*D8
  1
*D8
  0
LINE
  5
1F5
330
1F2
100
AcDbEntity
  8
치수문자_일반주서
 62
     0
370
    -2
100
AcDbLine
 10
96.75000000000003
 20
16.28125000000002
 30
0.0
 11
96.75000000000003
 21
27.01250000000002
 31
0.0
  0
LINE
  5
1F6
330
1F2
100
AcDbEntity
  8
치수문자_일반주서
 62
     0
370
    -2
100
AcDbLine
 10
61.82500000000004
 20
16.26665528512806
 30
0.0
 11
61.82500000000004
 21
27.01250000000002
 31
0.0
  0
LINE
  5
1F7
330
1F2
100
AcDbEntity
  8
치수문자_일반주서
 62
     0
370
    -2
100
AcDbLine
 10
93.44800000000004
 20
27.01250000000002
 30
0.0
 11
65.12700000000004
 21
27.01250000000002
 31
0.0
  0
SOLID
  5
1F8
330
1F2
100
AcDbEntity
  8
치수문자_일반주서
 62
     0
100
AcDbTrace
 10
93.44800000000004
 20
26.46216666666669
 30
0.0
 11
93.44800000000004
 21
27.56283333333336
 31
0.0
 12
96.75000000000003
 22
27.01250000000002
 32
0.0
 13
96.75000000000003
 23
27.01250000000002
 33
0.0
  0
SOLID
  5
1F9
330
1F2
100
AcDbEntity
  8
치수문자_일반주서
 62
     0
100
AcDbTrace
 10
65.12700000000004
 20
27.56283333333336
 30
0.0
 11
65.12700000000004
 21
26.46216666666669
 31
0.0
 12
61.82500000000004
 22
27.01250000000002
 32
0.0
 13
61.82500000000004
 23
27.01250000000002
 33
0.0
  0
MTEXT
  5
1FA
330
1F2
100
AcDbEntity
  8
치수문자_일반주서
 62
     0
100
AcDbMText
 10
79.28750000000004
 20
31.38750000000002
 30
0.0
 40
3.5
 41
0.0
 71
     2
 72
     1
  1
\A1;34.93 [1 3/8]
  7
SLDTEXTSTYLE0
 73
     1
 44
1.0
  0
POINT
  5
1FB
330
1F2
100
AcDbEntity
  8
Defpoints
 62
     0
100
AcDbPoint
 10
96.75000000000003
 20
16.21875000000002
 30
0.0
  0
POINT
  5
1FC
330
1F2
100
AcDbEntity
  8
Defpoints
 62
     0
100
AcDbPoint
 10
61.82500000000004
 20
16.20415528512806
 30
0.0
  0
POINT
  5
1FD
330
1F2
100
AcDbEntity
  8
Defpoints
 62
     0
100
AcDbPoint
 10
61.82500000000004
 20
27.01250000000002
 30
0.0
  0
ENDBLK
  5
1F4
330
1F2
100
AcDbEntity
  8
0
100
AcDbBlockEnd
  0
BLOCK
  5
1FF
330
1FE
100
AcDbEntity
  8
0
100
AcDbBlockBegin
  2
*D9
 70
     1
 10
0.0
 20
0.0
 30
0.0
  3
*D9
  1
*D9
  0
LINE
  5
201
330
1FE
100
AcDbEntity
  8
치수문자_일반주서
 62
     0
370
    -2
100
AcDbLine
 10
96.75000000000003
 20
16.28125000000002
 30
0.0
 11
96.75000000000003
 21
43.85914679328081
 31
0.0
  0
LINE
  5
202
330
1FE
100
AcDbEntity
  8
치수문자_일반주서
 62
     0
370
    -2
100
AcDbLine
 10
17.37500000000004
 20
16.12250000000002
 30
0.0
 11
17.37500000000004
 21
43.85914679328081
 31
0.0
  0
LINE
  5
203
330
1FE
100
AcDbEntity
  8
치수문자_일반주서
 62
     0
370
    -2
100
AcDbLine
 10
93.44800000000004
 20
43.85914679328081
 30
0.0
 11
20.67700000000004
 21
43.85914679328081
 31
0.0
  0
SOLID
  5
204
330
1FE
100
AcDbEntity
  8
치수문자_일반주서
 62
     0
100
AcDbTrace
 10
93.44800000000004
 20
43.30881345994748
 30
0.0
 11
93.44800000000004
 21
44.40948012661415
 31
0.0
 12
96.75000000000003
 22
43.85914679328081
 32
0.0
 13
96.75000000000003
 23
43.85914679328081
 33
0.0
  0
SOLID
  5
205
330
1FE
100
AcDbEntity
  8
치수문자_일반주서
 62
     0
100
AcDbTrace
 10
20.67700000000004
 20
44.40948012661415
 30
0.0
 11
20.67700000000004
 21
43.30881345994748
 31
0.0
 12
17.37500000000004
 22
43.85914679328081
 32
0.0
 13
17.37500000000004
 23
43.85914679328081
 33
0.0
  0
MTEXT
  5
206
330
1FE
100
AcDbEntity
  8
치수문자_일반주서
 62
     0
100
AcDbMText
 10
57.06250000000004
 20
48.23414679328081
 30
0.0
 40
3.5
 41
0.0
 71
     2
 72
     1
  1
\A1;79.38 [3 1/8]
  7
SLDTEXTSTYLE0
 73
     1
 44
1.0
  0
POINT
  5
207
330
1FE
100
AcDbEntity
  8
Defpoints
 62
     0
100
AcDbPoint
 10
96.75000000000003
 20
16.21875000000002
 30
0.0
  0
POINT
  5
208
330
1FE
100
AcDbEntity
  8
Defpoints
 62
     0
100
AcDbPoint
 10
17.37500000000004
 20
16.06000000000002
 30
0.0
  0
POINT
  5
209
330
1FE
100
AcDbEntity
  8
Defpoints
 62
     0
100
AcDbPoint
 10
17.37500000000004
 20
43.85914679328081
 30
0.0
  0
ENDBLK
  5
200
330
1FE
100
AcDbEntity
  8
0
100
AcDbBlockEnd
  0
BLOCK
  5
20B
330
20A
100
AcDbEntity
  8
0
100
AcDbBlockBegin
  2
*D10
 70
     1
 10
0.0
 20
0.0
 30
0.0
  3
*D10
  1
*D10
  0
LINE
  5
20D
330
20A
100
AcDbEntity
  8
치수문자_일반주서
 62
     0
370
    -2
100
AcDbLine
 10
18.26500000000006
 20
17.01250000000001
 30
0.0
 11
4.375000000000034
 21
17.01249999999996
 31
0.0
  0
LINE
  5
20E
330
20A
100
AcDbEntity
  8
치수문자_일반주서
 62
     0
370
    -2
100
AcDbLine
 10
18.26500000000006
 20
7.487500000000008
 30
0.0
 11
4.375000000000067
 21
7.487499999999958
 31
0.0
  0
LINE
  5
20F
330
20A
100
AcDbEntity
  8
치수문자_일반주서
 62
     0
370
    -2
100
AcDbLine
 10
4.375000000000045
 20
13.71049999999996
 30
0.0
 11
4.375000000000055
 21
10.78949999999996
 31
0.0
  0
SOLID
  5
210
330
20A
100
AcDbEntity
  8
치수문자_일반주서
 62
     0
100
AcDbTrace
 10
4.925333333333379
 20
13.71049999999997
 30
0.0
 11
3.824666666666712
 21
13.71049999999996
 31
0.0
 12
4.375000000000034
 22
17.01249999999996
 32
0.0
 13
4.375000000000034
 23
17.01249999999996
 33
0.0
  0
SOLID
  5
211
330
20A
100
AcDbEntity
  8
치수문자_일반주서
 62
     0
100
AcDbTrace
 10
3.824666666666722
 20
10.78949999999996
 30
0.0
 11
4.925333333333389
 21
10.78949999999996
 31
0.0
 12
4.375000000000067
 22
7.487499999999958
 32
0.0
 13
4.375000000000067
 23
7.487499999999958
 33
0.0
  0
MTEXT
  5
212
330
20A
100
AcDbEntity
  8
치수문자_일반주서
 62
     0
100
AcDbMText
 10
0.0000000000000497
 20
12.25
 30
0.0
 40
3.5
 41
0.0
 71
     2
 72
     1
  1
\A1;%%c9.53 [3/8]
  7
SLDTEXTSTYLE0
 11
-3.450141892798383E-15
 21
1.0
 31
0.0
 73
     1
 44
1.0
  0
POINT
  5
213
330
20A
100
AcDbEntity
  8
Defpoints
 62
     0
100
AcDbPoint
 10
18.32750000000006
 20
17.01250000000001
 30
0.0
  0
POINT
  5
214
330
20A
100
AcDbEntity
  8
Defpoints
 62
     0
100
AcDbPoint
 10
18.32750000000006
 20
7.487500000000008
 30
0.0
  0
POINT
  5
215
330
20A
100
AcDbEntity
  8
Defpoints
 62
     0
100
AcDbPoint
 10
4.375000000000071
 20
7.487499999999955
 30
0.0
  0
ENDBLK
  5
20C
330
20A
100
AcDbEntity
  8
0
100
AcDbBlockEnd
  0
BLOCK
  5
217
330
216
100
AcDbEntity
  8
0
100
AcDbBlockBegin
  2
*D11
 70
     1
 10
0.0
 20
0.0
 30
0.0
  3
*D11
  1
*D11
  0
LINE
  5
219
330
216
100
AcDbEntity
  8
치수문자_일반주서
 62
     0
370
    -2
100
AcDbLine
 10
96.81250000000003
 20
16.21875000000002
 30
0.0
 11
107.4889604090733
 21
16.21875000000006
 31
0.0
  0
LINE
  5
21A
330
216
100
AcDbEntity
  8
치수문자_일반주서
 62
     0
370
    -2
100
AcDbLine
 10
96.81250000000006
 20
8.281250000000018
 30
0.0
 11
107.4889604090733
 21
8.281250000000057
 31
0.0
  0
LINE
  5
21B
330
216
100
AcDbEntity
  8
치수문자_일반주서
 62
     0
370
    -2
100
AcDbLine
 10
107.4889604090733
 20
16.21875000000006
 30
0.0
 11
107.4889604090731
 21
50.82275000000006
 31
0.0
  0
LINE
  5
21C
330
216
100
AcDbEntity
  8
치수문자_일반주서
 62
     0
370
    -2
100
AcDbLine
 10
107.4889604090733
 20
16.21875000000006
 30
0.0
 11
107.4889604090733
 21
8.281250000000057
 31
0.0
  0
LINE
  5
21D
330
216
100
AcDbEntity
  8
치수문자_일반주서
 62
     0
370
    -2
100
AcDbLine
 10
107.4889604090732
 20
19.52075000000006
 30
0.0
 11
107.4889604090732
 21
22.82275000000006
 31
0.0
  0
LINE
  5
21E
330
216
100
AcDbEntity
  8
치수문자_일반주서
 62
     0
370
    -2
100
AcDbLine
 10
107.4889604090733
 20
4.979250000000057
 30
0.0
 11
107.4889604090733
 21
1.677250000000058
 31
0.0
  0
SOLID
  5
21F
330
216
100
AcDbEntity
  8
치수문자_일반주서
 62
     0
100
AcDbTrace
 10
106.9386270757399
 20
19.52075000000005
 30
0.0
 11
108.0392937424066
 21
19.52075000000006
 31
0.0
 12
107.4889604090733
 22
16.21875000000006
 32
0.0
 13
107.4889604090733
 23
16.21875000000006
 33
0.0
  0
SOLID
  5
220
330
216
100
AcDbEntity
  8
치수문자_일반주서
 62
     0
100
AcDbTrace
 10
108.0392937424066
 20
4.979250000000059
 30
0.0
 11
106.93862707574
 21
4.979250000000055
 31
0.0
 12
107.4889604090733
 22
8.281250000000057
 32
0.0
 13
107.4889604090733
 23
8.281250000000057
 33
0.0
  0
MTEXT
  5
221
330
216
100
AcDbEntity
  8
치수문자_일반주서
 62
     0
100
AcDbMText
 10
103.1139604090732
 20
36.82275000000005
 30
0.0
 40
3.5
 41
0.0
 71
     2
 72
     1
  1
\A1;%%c7.94 [5/16]
  7
SLDTEXTSTYLE0
 11
-3.580687802255624E-15
 21
1.0
 31
0.0
 73
     1
 44
1.0
  0
POINT
  5
222
330
216
100
AcDbEntity
  8
Defpoints
 62
     0
100
AcDbPoint
 10
96.75000000000003
 20
16.21875000000002
 30
0.0
  0
POINT
  5
223
330
216
100
AcDbEntity
  8
Defpoints
 62
     0
100
AcDbPoint
 10
96.75000000000006
 20
8.281250000000018
 30
0.0
  0
POINT
  5
224
330
216
100
AcDbEntity
  8
Defpoints
 62
     0
100
AcDbPoint
 10
107.4889604090733
 20
8.281250000000059
 30
0.0
  0
ENDBLK
  5
218
330
216
100
AcDbEntity
  8
0
100
AcDbBlockEnd
  0
BLOCK
  5
25D
330
25C
100
AcDbEntity
  8
0
100
AcDbBlockBegin
  2
*D12
 70
     1
 10
0.0
 20
0.0
 30
0.0
  3
*D12
  1
*D12
  0
LINE
  5
25F
330
25C
100
AcDbEntity
  8
치수문자_일반주서
 62
     0
370
    -2
100
AcDbLine
 10
198.0744570688698
 20
-60.32546082868348
 30
0.0
 11
198.0744570688698
 21
-49.59421082868347
 31
0.0
  0
LINE
  5
260
330
25C
100
AcDbEntity
  8
치수문자_일반주서
 62
     0
370
    -2
100
AcDbLine
 10
163.1494570688698
 20
-60.34005554355544
 30
0.0
 11
163.1494570688698
 21
-49.59421082868347
 31
0.0
  0
LINE
  5
261
330
25C
100
AcDbEntity
  8
치수문자_일반주서
 62
     0
370
    -2
100
AcDbLine
 10
194.7724570688698
 20
-49.59421082868347
 30
0.0
 11
166.4514570688698
 21
-49.59421082868347
 31
0.0
  0
SOLID
  5
262
330
25C
100
AcDbEntity
  8
치수문자_일반주서
 62
     0
100
AcDbTrace
 10
194.7724570688698
 20
-50.1445441620168
 30
0.0
 11
194.7724570688698
 21
-49.04387749535013
 31
0.0
 12
198.0744570688698
 22
-49.59421082868347
 32
0.0
 13
198.0744570688698
 23
-49.59421082868347
 33
0.0
  0
SOLID
  5
263
330
25C
100
AcDbEntity
  8
치수문자_일반주서
 62
     0
100
AcDbTrace
 10
166.4514570688698
 20
-49.04387749535013
 30
0.0
 11
166.4514570688698
 21
-50.1445441620168
 31
0.0
 12
163.1494570688698
 22
-49.59421082868347
 32
0.0
 13
163.1494570688698
 23
-49.59421082868347
 33
0.0
  0
MTEXT
  5
264
330
25C
100
AcDbEntity
  8
치수문자_일반주서
 62
     0
100
AcDbMText
 10
180.6119570688698
 20
-45.21921082868347
 30
0.0
 40
3.5
 41
0.0
 71
     2
 72
     1
  1
\A1;34.93 [1 3/8]
  7
SLDTEXTSTYLE0
 73
     1
 44
1.0
  0
POINT
  5
265
330
25C
100
AcDbEntity
  8
Defpoints
 62
     0
100
AcDbPoint
 10
198.0744570688698
 20
-60.38796082868348
 30
0.0
  0
POINT
  5
266
330
25C
100
AcDbEntity
  8
Defpoints
 62
     0
100
AcDbPoint
 10
163.1494570688698
 20
-60.40255554355544
 30
0.0
  0
POINT
  5
267
330
25C
100
AcDbEntity
  8
Defpoints
 62
     0
100
AcDbPoint
 10
163.1494570688698
 20
-49.59421082868347
 30
0.0
  0
ENDBLK
  5
25E
330
25C
100
AcDbEntity
  8
0
100
AcDbBlockEnd
  0
BLOCK
  5
269
330
268
100
AcDbEntity
  8
0
100
AcDbBlockBegin
  2
*D13
 70
     1
 10
0.0
 20
0.0
 30
0.0
  3
*D13
  1
*D13
  0
LINE
  5
26B
330
268
100
AcDbEntity
  8
치수문자_일반주서
 62
     0
370
    -2
100
AcDbLine
 10
198.0744570688698
 20
-60.32546082868348
 30
0.0
 11
198.0744570688698
 21
-32.74756403540268
 31
0.0
  0
LINE
  5
26C
330
268
100
AcDbEntity
  8
치수문자_일반주서
 62
     0
370
    -2
100
AcDbLine
 10
118.6994570688698
 20
-60.48421082868347
 30
0.0
 11
118.6994570688698
 21
-32.74756403540268
 31
0.0
  0
LINE
  5
26D
330
268
100
AcDbEntity
  8
치수문자_일반주서
 62
     0
370
    -2
100
AcDbLine
 10
194.7724570688698
 20
-32.74756403540268
 30
0.0
 11
122.0014570688698
 21
-32.74756403540268
 31
0.0
  0
SOLID
  5
26E
330
268
100
AcDbEntity
  8
치수문자_일반주서
 62
     0
100
AcDbTrace
 10
194.7724570688698
 20
-33.29789736873601
 30
0.0
 11
194.7724570688698
 21
-32.19723070206934
 31
0.0
 12
198.0744570688698
 22
-32.74756403540268
 32
0.0
 13
198.0744570688698
 23
-32.74756403540268
 33
0.0
  0
SOLID
  5
26F
330
268
100
AcDbEntity
  8
치수문자_일반주서
 62
     0
100
AcDbTrace
 10
122.0014570688698
 20
-32.19723070206934
 30
0.0
 11
122.0014570688698
 21
-33.29789736873601
 31
0.0
 12
118.6994570688698
 22
-32.74756403540268
 32
0.0
 13
118.6994570688698
 23
-32.74756403540268
 33
0.0
  0
MTEXT
  5
270
330
268
100
AcDbEntity
  8
치수문자_일반주서
 62
     0
100
AcDbMText
 10
158.3869570688698
 20
-28.37256403540268
 30
0.0
 40
3.5
 41
0.0
 71
     2
 72
     1
  1
\A1;79.38 [3 1/8]
  7
SLDTEXTSTYLE0
 73
     1
 44
1.0
  0
POINT
  5
271
330
268
100
AcDbEntity
  8
Defpoints
 62
     0
100
AcDbPoint
 10
198.0744570688698
 20
-60.38796082868348
 30
0.0
  0
POINT
  5
272
330
268
100
AcDbEntity
  8
Defpoints
 62
     0
100
AcDbPoint
 10
118.6994570688698
 20
-60.54671082868347
 30
0.0
  0
POINT
  5
273
330
268
100
AcDbEntity
  8
Defpoints
 62
     0
100
AcDbPoint
 10
118.6994570688698
 20
-32.74756403540268
 30
0.0
  0
ENDBLK
  5
26A
330
268
100
AcDbEntity
  8
0
100
AcDbBlockEnd
  0
BLOCK
  5
275
330
274
100
AcDbEntity
  8
0
100
AcDbBlockBegin
  2
*D14
 70
     1
 10
0.0
 20
0.0
 30
0.0
  3
*D14
  1
*D14
  0
LINE
  5
277
330
274
100
AcDbEntity
  8
치수문자_일반주서
 62
     0
370
    -2
100
AcDbLine
 10
119.5894570688698
 20
-59.59421082868347
 30
0.0
 11
105.6994570688698
 21
-59.59421082868352
 31
0.0
  0
LINE
  5
278
330
274
100
AcDbEntity
  8
치수문자_일반주서
 62
     0
370
    -2
100
AcDbLine
 10
119.5894570688698
 20
-69.11921082868348
 30
0.0
 11
105.6994570688698
 21
-69.11921082868352
 31
0.0
  0
LINE
  5
279
330
274
100
AcDbEntity
  8
치수문자_일반주서
 62
     0
370
    -2
100
AcDbLine
 10
105.6994570688698
 20
-62.89621082868352
 30
0.0
 11
105.6994570688698
 21
-65.81721082868353
 31
0.0
  0
SOLID
  5
27A
330
274
100
AcDbEntity
  8
치수문자_일반주서
 62
     0
100
AcDbTrace
 10
106.2497904022031
 20
-62.89621082868352
 30
0.0
 11
105.1491237355365
 21
-62.89621082868352
 31
0.0
 12
105.6994570688698
 22
-59.59421082868352
 32
0.0
 13
105.6994570688698
 23
-59.59421082868352
 33
0.0
  0
SOLID
  5
27B
330
274
100
AcDbEntity
  8
치수문자_일반주서
 62
     0
100
AcDbTrace
 10
105.1491237355365
 20
-65.81721082868353
 30
0.0
 11
106.2497904022031
 21
-65.81721082868353
 31
0.0
 12
105.6994570688698
 22
-69.11921082868352
 32
0.0
 13
105.6994570688698
 23
-69.11921082868352
 33
0.0
  0
MTEXT
  5
27C
330
274
100
AcDbEntity
  8
치수문자_일반주서
 62
     0
100
AcDbMText
 10
101.3244570688698
 20
-64.35671082868349
 30
0.0
 40
3.5
 41
0.0
 71
     2
 72
     1
  1
\A1;%%c9.53 [3/8]
  7
SLDTEXTSTYLE0
 11
-2.983906501879682E-15
 21
1.0
 31
0.0
 73
     1
 44
1.0
  0
POINT
  5
27D
330
274
100
AcDbEntity
  8
Defpoints
 62
     0
100
AcDbPoint
 10
119.6519570688698
 20
-59.59421082868347
 30
0.0
  0
POINT
  5
27E
330
274
100
AcDbEntity
  8
Defpoints
 62
     0
100
AcDbPoint
 10
119.6519570688698
 20
-69.11921082868348
 30
0.0
  0
POINT
  5
27F
330
274
100
AcDbEntity
  8
Defpoints
 62
     0
100
AcDbPoint
 10
105.6994570688698
 20
-69.11921082868353
 30
0.0
  0
ENDBLK
  5
276
330
274
100
AcDbEntity
  8
0
100
AcDbBlockEnd
  0
BLOCK
  5
281
330
280
100
AcDbEntity
  8
0
100
AcDbBlockBegin
  2
*D15
 70
     1
 10
0.0
 20
0.0
 30
0.0
  3
*D15
  1
*D15
  0
LINE
  5
283
330
280
100
AcDbEntity
  8
치수문자_일반주서
 62
     0
370
    -2
100
AcDbLine
 10
198.1369570688698
 20
-60.38796082868348
 30
0.0
 11
208.813417477943
 21
-60.38796082868343
 31
0.0
  0
LINE
  5
284
330
280
100
AcDbEntity
  8
치수문자_일반주서
 62
     0
370
    -2
100
AcDbLine
 10
198.1369570688698
 20
-68.32546082868348
 30
0.0
 11
208.8134174779431
 21
-68.32546082868343
 31
0.0
  0
LINE
  5
285
330
280
100
AcDbEntity
  8
치수문자_일반주서
 62
     0
370
    -2
100
AcDbLine
 10
208.813417477943
 20
-60.38796082868343
 30
0.0
 11
208.8134174779429
 21
-25.78396082868343
 31
0.0
  0
LINE
  5
286
330
280
100
AcDbEntity
  8
치수문자_일반주서
 62
     0
370
    -2
100
AcDbLine
 10
208.813417477943
 20
-60.38796082868343
 30
0.0
 11
208.8134174779431
 21
-68.32546082868343
 31
0.0
  0
LINE
  5
287
330
280
100
AcDbEntity
  8
치수문자_일반주서
 62
     0
370
    -2
100
AcDbLine
 10
208.813417477943
 20
-57.08596082868343
 30
0.0
 11
208.813417477943
 21
-53.78396082868343
 31
0.0
  0
LINE
  5
288
330
280
100
AcDbEntity
  8
치수문자_일반주서
 62
     0
370
    -2
100
AcDbLine
 10
208.8134174779431
 20
-71.62746082868344
 30
0.0
 11
208.8134174779431
 21
-74.92946082868343
 31
0.0
  0
SOLID
  5
289
330
280
100
AcDbEntity
  8
치수문자_일반주서
 62
     0
100
AcDbTrace
 10
208.2630841446097
 20
-57.08596082868343
 30
0.0
 11
209.3637508112764
 21
-57.08596082868343
 31
0.0
 12
208.813417477943
 22
-60.38796082868343
 32
0.0
 13
208.813417477943
 23
-60.38796082868343
 33
0.0
  0
SOLID
  5
28A
330
280
100
AcDbEntity
  8
치수문자_일반주서
 62
     0
100
AcDbTrace
 10
209.3637508112764
 20
-71.62746082868344
 30
0.0
 11
208.2630841446097
 21
-71.62746082868344
 31
0.0
 12
208.8134174779431
 22
-68.32546082868343
 32
0.0
 13
208.8134174779431
 23
-68.32546082868343
 33
0.0
  0
MTEXT
  5
28B
330
280
100
AcDbEntity
  8
치수문자_일반주서
 62
     0
100
AcDbMText
 10
204.4384174779429
 20
-39.78396082868344
 30
0.0
 40
3.5
 41
0.0
 71
     2
 72
     1
  1
\A1;%%c7.94 [5/16]
  7
SLDTEXTSTYLE0
 11
-3.580687802255623E-15
 21
1.0
 31
0.0
 73
     1
 44
1.0
  0
POINT
  5
28C
330
280
100
AcDbEntity
  8
Defpoints
 62
     0
100
AcDbPoint
 10
198.0744570688698
 20
-60.38796082868348
 30
0.0
  0
POINT
  5
28D
330
280
100
AcDbEntity
  8
Defpoints
 62
     0
100
AcDbPoint
 10
198.0744570688698
 20
-68.32546082868348
 30
0.0
  0
POINT
  5
28E
330
280
100
AcDbEntity
  8
Defpoints
 62
     0
100
AcDbPoint
 10
208.813417477943
 20
-68.32546082868343
 30
0.0
  0
ENDBLK
  5
282
330
280
100
AcDbEntity
  8
0
100
AcDbBlockEnd
  0
ENDSEC
  0
SECTION
  2
ENTITIES
  0
LINE
  5
96
330
1F
100
AcDbEntity
  8
0
  6
Continuous
 62
     1
370
    15
100
AcDbLine
 10
16.41050836741581
 20
0.9253347214648241
 30
0.0
 11
16.35826762862728
 21
0.9535759931582505
 31
0.0
  0
LINE
  5
97
330
1F
100
AcDbEntity
  8
0
  6
Continuous
 62
     1
370
    15
100
AcDbLine
 10
12.94332585582855
 20
-0.9166809609357656
 30
0.0
 11
13.00891264688229
 21
-0.9515876704713232
 31
0.0
  0
LINE
  5
98
330
1F
100
AcDbEntity
  8
0
  6
Continuous
 62
     1
370
    15
100
AcDbLine
 10
9.396155156247266
 20
-3.173925071276094
 30
0.0
 11
11.3335906887651
 21
-3.173925071276094
 31
0.0
  0
LINE
  5
99
330
1F
100
AcDbEntity
  8
0
  6
Continuous
 62
     1
370
    15
100
AcDbLine
 10
28.61001053662988
 20
3.17607492872388
 30
0.0
 11
26.67308190646936
 21
3.17607492872388
 31
0.0
  0
LINE
  5
9A
330
1F
100
AcDbEntity
  8
0
  6
Continuous
 62
     1
370
    15
100
AcDbLine
 10
18.03487299352838
 20
-3.173925071276094
 30
0.0
 11
19.96943238996294
 21
-3.173925071276094
 31
0.0
  0
LINE
  5
9B
330
1F
100
AcDbEntity
  8
0
  6
Continuous
 62
     1
370
    15
100
AcDbLine
 10
37.2479317908072
 20
3.17607492872388
 30
0.0
 11
35.30993841676006
 21
3.17607492872388
 31
0.0
  0
LINE
  5
9C
330
1F
100
AcDbEntity
  8
0
  6
Continuous
 62
     1
370
    15
100
AcDbLine
 10
35.30993841676003
 20
-3.173925071276094
 30
0.0
 11
37.24793179080719
 21
-3.173925071276094
 31
0.0
  0
LINE
  5
9D
330
1F
100
AcDbEntity
  8
0
  6
Continuous
 62
     1
370
    15
100
AcDbLine
 10
19.96943238996295
 20
3.17607492872388
 30
0.0
 11
18.03487299352834
 21
3.17607492872388
 31
0.0
  0
LINE
  5
9E
330
1F
100
AcDbEntity
  8
0
  6
Continuous
 62
     1
370
    15
100
AcDbLine
 10
26.67308190646935
 20
-3.173925071276094
 30
0.0
 11
28.61001053662982
 21
-3.173925071276094
 31
0.0
  0
LINE
  5
9F
330
1F
100
AcDbEntity
  8
0
  6
Continuous
 62
     1
370
    15
100
AcDbLine
 10
11.33359068876505
 20
3.17607492872388
 30
0.0
 11
9.396155156247245
 21
3.17607492872388
 31
0.0
  0
ARC
  5
A0
330
1F
100
AcDbEntity
  8
0
  6
Continuous
 62
     1
370
    15
100
AcDbCircle
 10
37.49963065701567
 20
0.0010749287238962
 30
0.0
 40
3.174999999999976
100
AcDbArc
 50
336.1240004338983
 51
0.0
  0
ARC
  5
A1
330
1F
100
AcDbEntity
  8
0
  6
Continuous
 62
     1
370
    15
100
AcDbCircle
 10
37.49963065701567
 20
0.0010749287238962
 30
0.0
 40
3.17499999999998
100
AcDbArc
 50
0.0
 51
23.87711577258685
  0
LINE
  5
A2
330
1F
100
AcDbEntity
  8
외형선
  6
Continuous
370
    15
100
AcDbLine
 10
-36.16036934298438
 20
-4.761425071276109
 30
0.0
 11
2.000000000000014
 21
-4.761425071276109
 31
0.0
  0
LINE
  5
A3
330
1F
100
AcDbEntity
  8
외형선
  6
Continuous
370
    15
100
AcDbLine
 10
2.000000000000014
 20
4.763574928723896
 30
0.0
 11
-12.43041934298426
 21
4.763574928723896
 31
0.0
  0
LINE
  5
A4
330
1F
100
AcDbEntity
  8
외형선
  6
Continuous
370
    15
100
AcDbLine
 10
2.000000000000014
 20
-4.761425071276111
 30
0.0
 11
7.924630657015616
 21
-3.173925071276107
 31
0.0
  0
LINE
  5
A5
330
1F
100
AcDbEntity
  8
외형선
  6
Continuous
370
    15
100
AcDbLine
 10
7.924630657015616
 20
3.176074928723893
 30
0.0
 11
2.000000000000014
 21
4.763574928723898
 31
0.0
  0
LINE
  5
A6
330
1F
100
AcDbEntity
  8
외형선
  6
Continuous
370
    15
100
AcDbLine
 10
-36.16036934298438
 20
4.763574928723894
 30
0.0
 11
-37.11286934298438
 21
3.811074928723897
 31
0.0
  0
LINE
  5
A7
330
1F
100
AcDbEntity
  8
외형선
  6
Continuous
370
    15
100
AcDbLine
 10
-37.11286934298438
 20
-3.80892507127611
 30
0.0
 11
-36.16036934298438
 21
-4.761425071276108
 31
0.0
  0
LINE
  5
A8
330
1F
100
AcDbEntity
  8
외형선
  6
Continuous
370
    15
100
AcDbLine
 10
7.924630657015616
 20
-3.173925071276107
 30
0.0
 11
8.924630657015616
 21
-3.173925071276107
 31
0.0
  0
LINE
  5
A9
330
1F
100
AcDbEntity
  8
외형선
  6
Continuous
370
    15
100
AcDbLine
 10
8.924630657015616
 20
3.176074928723893
 30
0.0
 11
7.924630657015616
 21
3.176074928723893
 31
0.0
  0
LINE
  5
AA
330
1F
100
AcDbEntity
  8
0
  6
Continuous
 62
     1
370
    15
100
AcDbLine
 10
8.924630657015609
 20
-3.162249299378521
 30
0.0
 11
9.396155156247266
 21
-3.152879920650674
 31
0.0
  0
SPLINE
  5
AB
330
1F
100
AcDbEntity
  8
0
  6
Continuous
 62
     1
370
    15
100
AcDbSpline
210
0.0
220
0.0
230
1.0
 70
     8
 71
     3
 72
    19
 73
    15
 74
     0
 42
0.000000001
 43
0.00000001
 40
0.0
 40
0.0
 40
0.0
 40
0.0
 40
0.0110009165255133
 40
0.1043349198909825
 40
0.1976830920468309
 40
0.2910089558286857
 40
0.3843139686219738
 40
0.4776027230371873
 40
0.5708798464990942
 40
0.6641499913984289
 40
0.7480403535539938
 40
0.8319656688769637
 40
0.9159710932631088
 40
1.0
 40
1.0
 40
1.0
 40
1.0
 10
23.32000801074303
 20
2.596765473193951
 30
0.0
 10
23.37200652733225
 20
2.616366492234067
 30
0.0
 10
23.86517098778447
 20
2.802266525798466
 30
0.0
 10
24.79962744774597
 20
3.013672845836065
 30
0.0
 10
26.12328310715096
 20
3.193256843184737
 30
0.0
 10
27.44670972194477
 20
3.174575682052647
 30
0.0
 10
28.76979949690191
 20
2.976942683965988
 30
0.0
 10
30.09262071650748
 20
2.606911901238904
 30
0.0
 10
31.41520942565073
 20
2.087076205364491
 30
0.0
 10
32.69348589639095
 20
1.468645473590397
 30
0.0
 10
33.927120140201
 20
0.7973613807264486
 30
0.0
 10
35.11715531990652
 20
0.1139914359112164
 30
0.0
 10
36.30813457588671
 20
-0.5786148947350468
 30
0.0
 10
37.10242829649442
 20
-1.012195166012287
 30
0.0
 10
37.49963065701545
 20
-1.229015597495627
 30
0.0
  0
SPLINE
  5
AC
330
1F
100
AcDbEntity
  8
0
  6
Continuous
 62
     1
370
    15
100
AcDbSpline
210
0.0
220
0.0
230
1.0
 70
     8
 71
     3
 72
    17
 73
    13
 74
     0
 42
0.000000001
 43
0.00000001
 40
0.0
 40
0.0
 40
0.0
 40
0.0
 40
0.1109729833535951
 40
0.2251973865050618
 40
0.3349958783905188
 40
0.4481258883952648
 40
0.5560361576502004
 40
0.6666474866857466
 40
0.7560338824443885
 40
0.847440640292553
 40
0.959406447810727
 40
1.0
 40
1.0
 40
1.0
 40
1.0
 10
37.49963065701567
 20
-1.229015597495791
 30
0.0
 10
37.64540915028922
 20
-1.302274716255666
 30
0.0
 10
37.94123733028188
 20
-1.45093938745605
 30
0.0
 10
38.38703536383456
 20
-1.597820780169608
 30
0.0
 10
38.82701863377496
 20
-1.676835605343701
 30
0.0
 10
39.2371913953047
 20
-1.683463383500139
 30
0.0
 10
39.61251052448481
 20
-1.626279731228222
 30
0.0
 10
39.91438653815945
 20
-1.53036338754829
 30
0.0
 10
40.14918722634767
 20
-1.421535868126076
 30
0.0
 10
40.32126638273956
 20
-1.322897101958836
 30
0.0
 10
40.41663742077105
 20
-1.253078664436112
 30
0.0
 10
40.4012114378835
 20
-1.275494157587896
 30
0.0
 10
40.39710683595924
 20
-1.281458553956956
 30
0.0
  0
SPLINE
  5
AD
330
1F
100
AcDbEntity
  8
0
  6
Continuous
 62
     1
370
    15
100
AcDbSpline
210
0.0
220
0.0
230
1.0
 70
     8
 71
     3
 72
    24
 73
    20
 74
     0
 42
0.000000001
 43
0.00000001
 40
0.0
 40
0.0
 40
0.0
 40
0.0
 40
0.0625
 40
0.0625
 40
0.125
 40
0.125
 40
0.25
 40
0.25
 40
0.375
 40
0.375
 40
0.5
 40
0.5
 40
0.625
 40
0.625
 40
0.75
 40
0.75
 40
0.875
 40
0.875
 40
1.0
 40
1.0
 40
1.0
 40
1.0
 10
40.3887346548975
 20
-1.297265867729366
 30
0.0
 10
40.37491153504553
 20
-1.313760627063842
 30
0.0
 10
40.35450144210677
 20
-1.337003083377801
 30
0.0
 10
40.30062578869234
 20
-1.397667511455049
 30
0.0
 10
40.26648644319904
 20
-1.435835343616311
 30
0.0
 10
40.14901391665524
 20
-1.566284147295222
 30
0.0
 10
40.04885580123376
 20
-1.676600356732653
 30
0.0
 10
39.82720508709841
 20
-1.910439963665198
 30
0.0
 10
39.70679789994065
 20
-2.032609448754258
 30
0.0
 10
39.4556269165603
 20
-2.269128945855106
 30
0.0
 10
39.32549456381976
 20
-2.382840779585979
 30
0.0
 10
39.06169327414175
 20
-2.590411756374069
 30
0.0
 10
38.92516858502616
 20
-2.686246767342735
 30
0.0
 10
38.65137488374277
 20
-2.851851370031901
 30
0.0
 10
38.51328447962285
 20
-2.922545464245376
 30
0.0
 10
38.23096230694849
 20
-3.039223944134771
 30
0.0
 10
38.08613202741403
 20
-3.085132832802147
 30
0.0
 10
37.79576518634384
 20
-3.148558754864632
 30
0.0
 10
37.64933551518954
 20
-3.166629511761114
 30
0.0
 10
37.49963065701569
 20
-3.170593234288815
 30
0.0
  0
SPLINE
  5
AE
330
1F
100
AcDbEntity
  8
0
  6
Continuous
 62
     1
370
    15
100
AcDbSpline
210
0.0
220
0.0
230
1.0
 70
     8
 71
     3
 72
    21
 73
    17
 74
     0
 42
0.000000001
 43
0.00000001
 40
0.0
 40
0.0
 40
0.0
 40
0.0
 40
0.067968493298656
 40
0.1359179924194606
 40
0.2038026936922955
 40
0.2716591223835066
 40
0.3471025794595928
 40
0.4225516812882039
 40
0.4980101910503765
 40
0.5734818517329189
 40
0.6489703781624001
 40
0.7244769491747188
 40
0.7999720594722514
 40
0.875449047049822
 40
0.9509116153501271
 40
1.0
 40
1.0
 40
1.0
 40
1.0
 10
37.49963065701544
 20
-3.170593234288835
 30
0.0
 10
37.10242829650138
 20
-3.166723987858014
 30
0.0
 10
36.30813457590759
 20
-3.158986576279056
 30
0.0
 10
35.11715531982303
 20
-2.960257681943409
 30
0.0
 10
33.92712014051365
 20
-2.633901066028832
 30
0.0
 10
32.69348589516905
 20
-2.164976761454325
 30
0.0
 10
31.41520943078251
 20
-1.564673490078239
 30
0.0
 10
30.09262069741997
 20
-0.8530837484141071
 30
0.0
 10
28.76979956813438
 20
-0.0923342321164026
 30
0.0
 10
27.44670945603088
 20
0.6738302937571544
 30
0.0
 10
26.12328409989496
 20
1.401444190752622
 30
0.0
 10
24.79962374205637
 20
2.04778896292019
 30
0.0
 10
23.47609868808742
 20
2.578254712766316
 30
0.0
 10
22.15289752168663
 20
2.952930706101367
 30
0.0
 10
20.98404776172361
 20
3.157808496122588
 30
0.0
 10
20.25626733375535
 20
3.155955583434523
 30
0.0
 10
19.96943238996295
 20
3.155225308084558
 30
0.0
  0
SPLINE
  5
AF
330
1F
100
AcDbEntity
  8
0
  6
Continuous
 62
     1
370
    15
100
AcDbSpline
210
0.0
220
0.0
230
1.0
 70
     8
 71
     3
 72
    24
 73
    20
 74
     0
 42
0.000000001
 43
0.00000001
 40
0.0
 40
0.0
 40
0.0
 40
0.0
 40
0.041456749553846
 40
0.1055775514606836
 40
0.1696978236962579
 40
0.233820778047717
 40
0.2979496205321353
 40
0.3620875445130302
 40
0.4262377238747033
 40
0.4904033062853504
 40
0.5545786295048556
 40
0.6187386160864977
 40
0.6828842679586343
 40
0.74701874246496
 40
0.8111452208834078
 40
0.8752669016555992
 40
0.9329401370495011
 40
0.9906374021674346
 40
0.9999999999999999
 40
0.9999999999999999
 40
0.9999999999999999
 40
0.9999999999999999
 10
14.68484531968602
 20
2.587387579518545
 30
0.0
 10
14.96985680706862
 20
2.68238046860639
 30
0.0
 10
15.69569313769892
 20
2.924298051243803
 30
0.0
 10
16.86232995243882
 20
3.130445388619807
 30
0.0
 10
18.18479346827563
 20
3.206665488673592
 30
0.0
 10
19.50732241059366
 20
3.092209004543277
 30
0.0
 10
20.82999722761027
 20
2.801372791660591
 30
0.0
 10
22.15289677392178
 20
2.348806635009779
 30
0.0
 10
23.47609888884023
 20
1.761091481037657
 30
0.0
 10
24.79962368705166
 20
1.07192384400012
 30
0.0
 10
26.12328411910246
 20
0.3211595073721272
 30
0.0
 10
27.44670943420311
 20
-0.44815514997979
 30
0.0
 10
28.76979963622333
 20
-1.191437983754617
 30
0.0
 10
30.09262044694497
 20
-1.866296447013071
 30
0.0
 10
31.41521036445662
 20
-2.432441236275956
 30
0.0
 10
32.6934825592655
 20
-2.848281195306703
 30
0.0
 10
33.92713120696676
 20
-3.089522419761455
 30
0.0
 10
34.7845005814141
 20
-3.190017563559405
 30
0.0
 10
35.24556646265189
 20
-3.167048162051248
 30
0.0
 10
35.30993841676003
 20
-3.1638412770486
 30
0.0
  0
SPLINE
  5
B0
330
1F
100
AcDbEntity
  8
0
  6
Continuous
 62
     1
370
    15
100
AcDbSpline
210
0.0
220
0.0
230
1.0
 70
     8
 71
     3
 72
    24
 73
    20
 74
     0
 42
0.000000001
 43
0.00000001
 40
0.0
 40
0.0
 40
0.0
 40
0.0
 40
0.026447584333087
 40
0.0905691591736907
 40
0.1546987294907327
 40
0.2188394763188831
 40
0.2829945567604017
 40
0.3471649726670331
 40
0.4113256485096599
 40
0.475470922481142
 40
0.5396039420089805
 40
0.6037278807347799
 40
0.6678459317778708
 40
0.7319613009101706
 40
0.7960771996732298
 40
0.8601968384688905
 40
0.9243234196551505
 40
0.9884601306788224
 40
1.0
 40
1.0
 40
1.0
 40
1.0
 10
31.96077091207202
 20
-2.584196455628008
 30
0.0
 10
31.7789345494588
 20
-2.64867867972894
 30
0.0
 10
31.15624000534956
 20
-2.869496609446804
 30
0.0
 10
30.09261432155342
 20
-3.083139058952559
 30
0.0
 10
28.76980127790462
 20
-3.204854018262803
 30
0.0
 10
27.4467089941934
 20
-3.132905953070914
 30
0.0
 10
26.1232842369861
 20
-2.882822282699064
 30
0.0
 10
24.79962365568989
 20
-2.466005968103963
 30
0.0
 10
23.47609889640819
 20
-1.907205619114366
 30
0.0
 10
22.15289677500092
 20
-1.238452858940974
 30
0.0
 10
20.82999721573101
 20
-0.4983801983598813
 30
0.0
 10
19.50732245702311
 20
0.2704395677690585
 30
0.0
 10
18.18479329445469
 20
1.02363379457417
 30
0.0
 10
16.86233060127255
 20
1.718250730271527
 30
0.0
 10
15.53985441328297
 20
2.312812327445585
 30
0.0
 10
14.21728714041316
 20
2.77867229948955
 30
0.0
 10
12.89454270992568
 20
3.068161267942402
 30
0.0
 10
11.93329903676788
 20
3.194737032200133
 30
0.0
 10
11.41293989402705
 20
3.166813089378585
 30
0.0
 10
11.33359068876505
 20
3.162554986678591
 30
0.0
  0
SPLINE
  5
B1
330
1F
100
AcDbEntity
  8
0
  6
Continuous
 62
     1
370
    15
100
AcDbSpline
210
0.0
220
0.0
230
1.0
 70
     8
 71
     3
 72
    21
 73
    17
 74
     0
 42
0.000000001
 43
0.00000001
 40
0.0
 40
0.0
 40
0.0
 40
0.0
 40
0.0745748526712343
 40
0.1491306068689971
 40
0.2236709088231318
 40
0.29819943778287
 40
0.3727198982295324
 40
0.4472360119743625
 40
0.5217515101772321
 40
0.596270125322598
 40
0.6707955831893941
 40
0.7453315948515936
 40
0.8198818487459689
 40
0.894450002843012
 40
0.9690294769360511
 40
1.0
 40
1.0
 40
1.0
 40
1.0
 10
8.924630657015609
 20
3.164399156826307
 30
0.0
 10
9.365871200558795
 20
3.168512113944023
 30
0.0
 10
10.24823928680756
 20
3.176736974859204
 30
0.0
 10
11.57155435587096
 20
2.957309467817621
 30
0.0
 10
12.89454632845232
 20
2.580700658566915
 30
0.0
 10
14.21728617093978
 20
2.052049872122155
 30
0.0
 10
15.53985467329167
 20
1.406252812295521
 30
0.0
 10
16.8623305306065
 20
0.6793101207686786
 30
0.0
 10
18.18479331712023
 20
-0.0866318247749335
 30
0.0
 10
19.50732243702795
 20
-0.8474975473293648
 30
0.0
 10
20.82999727305298
 20
-1.559732674919561
 30
0.0
 10
22.15289656566242
 20
-2.181327181118209
 30
0.0
 10
23.4760996766681
 20
-2.680219245426403
 30
0.0
 10
24.79962074310803
 20
-3.013632088777375
 30
0.0
 10
25.86536902211406
 20
-3.175403216444954
 30
0.0
 10
26.48984725080374
 20
-3.157029910359379
 30
0.0
 10
26.67308190646936
 20
-3.151638807420381
 30
0.0
  0
SPLINE
  5
B2
330
1F
100
AcDbEntity
  8
0
  6
Continuous
 62
     1
370
    15
100
AcDbSpline
210
0.0
220
0.0
230
1.0
 70
     8
 71
     3
 72
    17
 73
    13
 74
     0
 42
0.000000001
 43
0.00000001
 40
0.0
 40
0.0
 40
0.0
 40
0.0
 40
0.0506361179613153
 40
0.1442167424350657
 40
0.2251202441796553
 40
0.3072644289780074
 40
0.4272428781922349
 40
0.5083136065533295
 40
0.591659284091956
 40
0.701382764208296
 40
0.8142245003364752
 40
1.0
 40
1.0
 40
1.0
 40
1.0
 10
40.39710549398905
 20
1.283610945146402
 30
0.0
 10
40.39708664119338
 20
1.286105330865292
 30
0.0
 10
40.39703294654046
 20
1.293209591563746
 30
0.0
 10
40.29167198231854
 20
1.409669355243
 30
0.0
 10
40.11061341983212
 20
1.611360269692957
 30
0.0
 10
39.85437845300282
 20
1.886948511181822
 30
0.0
 10
39.56081741132986
 20
2.178954780764327
 30
0.0
 10
39.25069130828818
 20
2.448329796749008
 30
0.0
 10
38.94244113255129
 20
2.681048943025638
 30
0.0
 10
38.58790180398116
 20
2.893829623318642
 30
0.0
 10
38.10231847608142
 20
3.105979938708589
 30
0.0
 10
37.7307749796547
 20
3.147137922201523
 30
0.0
 10
37.49963065701569
 20
3.172743091736601
 30
0.0
  0
LINE
  5
B3
330
1F
100
AcDbEntity
  8
0
  6
Continuous
 62
     1
370
    15
100
AcDbLine
 10
37.49963065701544
 20
3.172743091736622
 30
0.0
 11
37.2479317908072
 21
3.163699259160107
 31
0.0
  0
SPLINE
  5
B4
330
1F
100
AcDbEntity
  8
0
  6
Continuous
 62
     1
370
    15
100
AcDbSpline
210
0.0
220
0.0
230
1.0
 70
     8
 71
     3
 72
    18
 73
    14
 74
     0
 42
0.000000001
 43
0.00000001
 40
0.0
 40
0.0
 40
0.0
 40
0.0
 40
0.0810772774189602
 40
0.1729730661391443
 40
0.2648558430368422
 40
0.3567301835120823
 40
0.4486006810947026
 40
0.5404719375818112
 40
0.6323485531374353
 40
0.7242351163996297
 40
0.8161361946403083
 40
0.9080563240226313
 40
1.0
 40
1.0
 40
1.0
 40
1.0
 10
23.32000801074304
 20
-2.594615615746165
 30
0.0
 10
22.93094250569307
 20
-2.715105282935875
 30
0.0
 10
22.10089670889464
 20
-2.972162103729109
 30
0.0
 10
20.8299982035329
 20
-3.163143390634191
 30
0.0
 10
19.50732218774666
 20
-3.194001545834305
 30
0.0
 10
18.18479338390921
 20
-3.037039481645953
 30
0.0
 10
16.86233051271063
 20
-2.706173678786047
 30
0.0
 10
15.53985467808717
 20
-2.219115062809572
 30
0.0
 10
14.21728616965468
 20
-1.604378760886947
 30
0.0
 10
12.89454632879661
 20
-0.8967405163820965
 30
0.0
 10
11.57155435577912
 20
-0.1388457964840323
 30
0.0
 10
10.24823928683051
 20
0.63274848695997
 30
0.0
 10
9.36587120056644
 20
1.108992484275848
 30
0.0
 10
8.924630657015609
 20
1.347144978127025
 30
0.0
  0
SPLINE
  5
B5
330
1F
100
AcDbEntity
  8
0
  6
Continuous
 62
     1
370
    15
100
AcDbSpline
210
0.0
220
0.0
230
1.0
 70
     8
 71
     3
 72
    14
 73
    10
 74
     0
 42
0.000000001
 43
0.00000001
 40
0.0
 40
0.0
 40
0.0
 40
0.0
 40
0.1452837323450467
 40
0.290530257811251
 40
0.4357466798371266
 40
0.5809401661882336
 40
0.7261179337862738
 40
0.8712872333144087
 40
1.0
 40
1.0
 40
1.0
 40
1.0
 10
8.924630657015609
 20
0.2731132126109278
 30
0.0
 10
9.365871200773746
 20
0.0178959568623261
 30
0.0
 10
10.2482392874524
 20
-0.4924731939963539
 30
0.0
 10
11.57155435329263
 20
-1.233942868662685
 30
0.0
 10
12.89454633811824
 20
-1.902752824756074
 30
0.0
 10
14.21728613486149
 20
-2.463405332891146
 30
0.0
 10
15.53985480792222
 20
-2.877459931981185
 30
0.0
 10
16.81236214499627
 20
-3.13281237743552
 30
0.0
 10
17.64402656242909
 20
-3.154522134522583
 30
0.0
 10
18.03487299352839
 20
-3.164724784653634
 30
0.0
  0
SPLINE
  5
B6
330
1F
100
AcDbEntity
  8
0
  6
Continuous
 62
     1
370
    15
100
AcDbSpline
210
0.0
220
0.0
230
1.0
 70
     8
 71
     3
 72
    12
 73
     8
 74
     0
 42
0.000000001
 43
0.00000001
 40
0.0
 40
0.0
 40
0.0
 40
0.0
 40
0.1402725558038414
 40
0.3550197489005533
 40
0.5698564170501459
 40
0.7848981528143782
 40
1.0
 40
1.0
 40
1.0
 40
1.0
 10
31.96077091207204
 20
2.586346313075794
 30
0.0
 10
32.2197717640808
 20
2.674211109205317
 30
0.0
 10
32.87528429052084
 20
2.896590588073039
 30
0.0
 10
33.9271162049937
 20
3.097048352532786
 30
0.0
 10
35.11715637058867
 20
3.198321414738721
 30
0.0
 10
36.30813431302604
 20
3.154405279274657
 30
0.0
 10
37.10242820886604
 20
3.00354514172825
 30
0.0
 10
37.49963065701544
 20
2.928104531803605
 30
0.0
  0
SPLINE
  5
B7
330
1F
100
AcDbEntity
  8
0
  6
Continuous
 62
     1
370
    15
100
AcDbSpline
210
0.0
220
0.0
230
1.0
 70
     8
 71
     3
 72
    42
 73
    38
 74
     0
 42
0.000000001
 43
0.00000001
 40
0.0
 40
0.0
 40
0.0
 40
0.0
 40
0.0625000000000002
 40
0.0625000000000002
 40
0.1250000000000005
 40
0.1250000000000005
 40
0.1875000000000007
 40
0.1875000000000007
 40
0.2500000000000009
 40
0.2500000000000009
 40
0.3125000000000012
 40
0.3125000000000012
 40
0.3750000000000014
 40
0.3750000000000014
 40
0.4375000000000017
 40
0.4375000000000017
 40
0.4687500000000025
 40
0.4687500000000025
 40
0.5000000000000033
 40
0.5000000000000033
 40
0.562500000000005
 40
0.562500000000005
 40
0.5937500000000058
 40
0.5937500000000058
 40
0.6250000000000066
 40
0.6250000000000066
 40
0.6875000000000056
 40
0.6875000000000056
 40
0.7500000000000046
 40
0.7500000000000046
 40
0.8125000000000034
 40
0.8125000000000034
 40
0.8750000000000023
 40
0.8750000000000023
 40
0.9375000000000012
 40
0.9375000000000012
 40
1.0
 40
1.0
 40
1.0
 40
1.0
 10
37.49963065701567
 20
2.928104531803616
 30
0.0
 10
37.66085075490733
 20
2.891996082596671
 30
0.0
 10
37.8211194067943
 20
2.842419970848261
 30
0.0
 10
38.1432297834894
 20
2.72004175874433
 30
0.0
 10
38.30625290980808
 20
2.646460112465621
 30
0.0
 10
38.62857669158296
 20
2.478317822760851
 30
0.0
 10
38.78549428005616
 20
2.38520656015855
 30
0.0
 10
39.09047050901528
 20
2.180680167822177
 30
0.0
 10
39.23987301984825
 20
2.067954661304254
 30
0.0
 10
39.5193315231008
 20
1.828528755321432
 30
0.0
 10
39.64952747247898
 20
1.701925437131391
 30
0.0
 10
39.88815158450575
 20
1.430296913381364
 30
0.0
 10
39.99695260753242
 20
1.284277642481854
 30
0.0
 10
40.18070553309207
 20
0.9769574790393482
 30
0.0
 10
40.25717997413267
 20
0.8139710512701118
 30
0.0
 10
40.34112198971657
 20
0.552445074661883
 30
0.0
 10
40.36351402221651
 20
0.4637343870700165
 30
0.0
 10
40.39599023075389
 20
0.282599800407606
 30
0.0
 10
40.40609804987719
 20
0.1891630919119932
 30
0.0
 10
40.41423842684743
 20
-0.0895377603993688
 30
0.0
 10
40.38928976745829
 20
-0.2775184662871825
 30
0.0
 10
40.30538633936944
 20
-0.5235458959284118
 30
0.0
 10
40.26909489059651
 20
-0.6013463760163779
 30
0.0
 10
40.18469688280004
 20
-0.7376396009801134
 30
0.0
 10
40.13622518642619
 20
-0.7972822699377949
 30
0.0
 10
39.97617024548625
 20
-0.9481529557261725
 30
0.0
 10
39.85234365433696
 20
-1.008852076252227
 30
0.0
 10
39.59288576987532
 20
-1.065300453590427
 30
0.0
 10
39.45413552960972
 20
-1.06195032066337
 30
0.0
 10
39.17396212550304
 20
-1.011538757796181
 30
0.0
 10
39.02946771042646
 20
-0.9642440062091422
 30
0.0
 10
38.73560717887269
 20
-0.8427897191042467
 30
0.0
 10
38.58784252035682
 20
-0.769304194587893
 30
0.0
 10
38.28580891661434
 20
-0.6064364140394385
 30
0.0
 10
38.13040366765872
 20
-0.5162267424484551
 30
0.0
 10
37.81820831705556
 20
-0.3320357034288807
 30
0.0
 10
37.6608088424904
 20
-0.237419835593578
 30
0.0
 10
37.49963065701569
 20
-0.1443419331987102
 30
0.0
  0
SPLINE
  5
B8
330
1F
100
AcDbEntity
  8
0
  6
Continuous
 62
     1
370
    15
100
AcDbSpline
210
0.0
220
0.0
230
1.0
 70
     8
 71
     3
 72
    15
 73
    11
 74
     0
 42
0.000000001
 43
0.00000001
 40
0.0
 40
0.0
 40
0.0
 40
0.0
 40
0.1340260381255262
 40
0.2680146219206511
 40
0.4018754318249477
 40
0.5356804914555723
 40
0.6844462969585898
 40
0.8332232332632539
 40
0.9820187209290119
 40
1.0
 40
1.0
 40
1.0
 40
1.0
 10
37.49963065701544
 20
-0.1443419331985761
 30
0.0
 10
37.10242829751049
 20
0.0852262791128196
 30
0.0
 10
36.30813457893462
 20
0.5442985496071012
 30
0.0
 10
35.11715530772367
 20
1.209092463909651
 30
0.0
 10
33.92712018583045
 20
1.817463988301966
 30
0.0
 10
32.69348571806877
 20
2.359440340256554
 30
0.0
 10
31.41521017457183
 20
2.801553957400728
 30
0.0
 10
30.09261793093389
 20
3.079527499566202
 30
0.0
 10
29.15753116653594
 20
3.198713003177638
 30
0.0
 10
28.663297099607
 20
3.169496998124559
 30
0.0
 10
28.61001053662988
 20
3.166347032152212
 30
0.0
  0
SPLINE
  5
B9
330
1F
100
AcDbEntity
  8
0
  6
Continuous
 62
     1
370
    15
100
AcDbSpline
210
0.0
220
0.0
230
1.0
 70
     8
 71
     3
 72
    12
 73
     8
 74
     0
 42
0.000000001
 43
0.00000001
 40
0.0
 40
0.0
 40
0.0
 40
0.0
 40
0.0811688466550704
 40
0.3108109101355518
 40
0.5404892493182919
 40
0.7702152009410187
 40
1.0
 40
1.0
 40
1.0
 40
1.0
 10
14.68484531968606
 20
-2.585237722070759
 30
0.0
 10
14.52900695595328
 20
-2.641262182779997
 30
0.0
 10
13.93227230144168
 20
-2.855790469684071
 30
0.0
 10
12.894545375032
 20
-3.070664178147978
 30
0.0
 10
11.57155461019
 20
-3.201342319041396
 30
0.0
 10
10.2482392232033
 20
-3.149609560392527
 30
0.0
 10
9.36587117935556
 20
-2.966186586952809
 30
0.0
 10
8.924630657015602
 20
-2.874463355163088
 30
0.0
  0
LINE
  5
BA
330
1F
100
AcDbEntity
  8
외형선
  6
Continuous
370
    15
100
AcDbLine
 10
8.924630657015616
 20
-3.162249299378521
 30
0.0
 11
8.924630657015602
 21
-2.874463355163088
 31
0.0
  0
LINE
  5
BB
330
1F
100
AcDbEntity
  8
외형선
  6
Continuous
370
    15
100
AcDbLine
 10
8.924630657015616
 20
0.2731132126109279
 30
0.0
 11
8.924630657015602
 21
1.347144978127025
 31
0.0
  0
LINE
  5
BC
330
1F
100
AcDbEntity
  8
외형선
  6
Continuous
370
    15
100
AcDbLine
 10
2.000000000000014
 20
0.0010749287238931
 30
0.0
 11
2.000000000000014
 21
4.763574928723896
 31
0.0
  0
LINE
  5
BD
330
1F
100
AcDbEntity
  8
외형선
  6
Continuous
370
    15
100
AcDbLine
 10
2.000000000000014
 20
-4.761425071276109
 30
0.0
 11
2.000000000000014
 21
0.0010749287238931
 31
0.0
  0
LINE
  5
BE
330
1F
100
AcDbEntity
  8
외형선
  6
Continuous
370
    15
100
AcDbLine
 10
-36.16036934298438
 20
0.0010749287238931
 30
0.0
 11
-36.16036934298438
 21
4.763574928723896
 31
0.0
  0
LINE
  5
BF
330
1F
100
AcDbEntity
  8
외형선
  6
Continuous
370
    15
100
AcDbLine
 10
-36.16036934298438
 20
-4.761425071276109
 30
0.0
 11
-36.16036934298438
 21
0.0010749287238931
 31
0.0
  0
LINE
  5
C0
330
1F
100
AcDbEntity
  8
외형선
  6
Continuous
370
    15
100
AcDbLine
 10
7.924630657015616
 20
0.0010749287238931
 30
0.0
 11
7.924630657015616
 21
3.176074928723893
 31
0.0
  0
LINE
  5
C1
330
1F
100
AcDbEntity
  8
외형선
  6
Continuous
370
    15
100
AcDbLine
 10
7.924630657015616
 20
-3.173925071276109
 30
0.0
 11
7.924630657015616
 21
0.0010749287238931
 31
0.0
  0
LINE
  5
C2
330
1F
100
AcDbEntity
  8
외형선
  6
Continuous
370
    15
100
AcDbLine
 10
-37.11286934298438
 20
0.0010749287238931
 30
0.0
 11
-37.11286934298438
 21
3.811074928723897
 31
0.0
  0
LINE
  5
C3
330
1F
100
AcDbEntity
  8
외형선
  6
Continuous
370
    15
100
AcDbLine
 10
-37.11286934298438
 20
-3.808925071276114
 30
0.0
 11
-37.11286934298438
 21
0.0010749287238931
 31
0.0
  0
LINE
  5
C4
330
1F
100
AcDbEntity
  8
외형선
  6
Continuous
370
    15
100
AcDbLine
 10
8.924630657015616
 20
0.0010749287238931
 30
0.0
 11
8.924630657015616
 21
3.176074928723893
 31
0.0
  0
LINE
  5
C5
330
1F
100
AcDbEntity
  8
외형선
  6
Continuous
370
    15
100
AcDbLine
 10
8.924630657015616
 20
-3.173925071276109
 30
0.0
 11
8.924630657015616
 21
0.0010749287238931
 31
0.0
  0
LINE
  5
C6
330
1F
100
AcDbEntity
  8
중심선
 48
0.8
100
AcDbLine
 10
-40.1128693429844
 20
0.0010749287238931
 30
0.0
 11
43.67463065701563
 21
0.0010749287238999
 31
0.0
  0
LINE
  5
C7
330
1F
100
AcDbEntity
  8
참조1
100
AcDbLine
 10
43.42426131403119
 20
0.0010749287238892
 30
0.0
 11
43.42426131403119
 21
1.655200094750598
 31
0.0
  0
LINE
  5
C8
330
1F
100
AcDbEntity
  8
참조1
100
AcDbLine
 10
4.530511314031184
 20
0.0010749287238892
 30
0.0
 11
4.530511314031187
 21
-39.99892507127611
 31
0.0
  0
LINE
  5
C9
330
1F
100
AcDbEntity
  8
참조1
100
AcDbLine
 10
4.530511314031187
 20
-39.99892507127611
 30
0.0
 11
-20.1533455002775
 21
-39.9989250712761
 31
0.0
  0
CIRCLE
  5
CA
330
1F
100
AcDbEntity
  8
해칭선
100
AcDbCircle
 10
0.0
 20
0.0
 30
0.0
 40
3.000000000000001
  0
INSERT
  5
CB
330
1F
100
AcDbEntity
  8
0
  6
Continuous
 62
     7
100
AcDbBlockReference
 66
     1
  2
블럭10
 10
-12.15939227510959
 20
-52.04609937292004
 30
0.0
  0
ATTRIB
  5
CC
330
CB
100
AcDbEntity
  8
FORMAT
 62
     2
100
AcDbText
 10
-21.34068756385087
 20
-49.97073246008785
 30
0.0
 40
4.233333333333333
  1
E2021016 [ 4 FLUTE ]
 41
0.75
  7
SLDTEXTSTYLE0
 11
-21.34068756385087
 21
-52.08739912675452
 31
0.0
100
AcDbAttribute
  2
AUTOATTR0
 70
     0
 74
     1
  0
SEQEND
  5
CD
330
CB
100
AcDbEntity
  8
0
  6
Continuous
 62
     7
  0
HATCH
  5
CE
330
1F
100
AcDbEntity
  8
중심선
100
AcDbHatch
 10
0.0
 20
0.0
 30
0.0
210
0.0
220
0.0
230
1.0
  2
SOLID
 70
     1
 71
     0
 91
        1
 92
        0
 93
        4
 72
     1
 10
-6.44448297072873
 20
-35.7989250712761
 11
-9.890758214566013
 21
-35.7989250712761
 72
     1
 10
-9.890758214566013
 20
-35.7989250712761
 11
-12.01898807377004
 21
-38.33525065184873
 72
     1
 10
-12.01898807377004
 20
-38.33525065184873
 11
-8.572679744819576
 21
-38.33521122254624
 72
     1
 10
-8.572679744819576
 20
-38.33521122254624
 11
-6.44448297072873
 21
-35.7989250712761
 97
        0
 75
     0
 76
     1
 98
        1
 10
-2.749630657015565
 20
0.0
  0
HATCH
  5
CF
330
1F
100
AcDbEntity
  8
중심선
100
AcDbHatch
 10
0.0
 20
0.0
 30
0.0
210
0.0
220
0.0
230
1.0
  2
SOLID
 70
     1
 71
     0
 91
        1
 92
        0
 93
        4
 72
     1
 10
-1.431718979692779
 20
-35.79892507127613
 11
-4.87799422353006
 21
-35.7989250712761
 72
     1
 10
-4.877994223530061
 20
-35.7989250712761
 11
-9.40913223188745
 21
-41.19892507127612
 72
     1
 10
-9.40913223188745
 20
-41.19892507127612
 11
-5.962856988050167
 21
-41.19892507127612
 72
     1
 10
-5.962856988050167
 20
-41.19892507127612
 11
-1.431718979692779
 21
-35.79892507127613
 97
        0
 75
     0
 76
     1
 98
        1
 10
-2.749630657015565
 20
0.0
  0
HATCH
  5
D0
330
1F
100
AcDbEntity
  8
중심선
100
AcDbHatch
 10
0.0
 20
0.0
 30
0.0
210
0.0
220
0.0
230
1.0
  2
SOLID
 70
     1
 71
     0
 91
        1
 92
        0
 93
        4
 72
     1
 10
3.581045011343145
 20
-35.79892507127608
 11
0.1347697675060568
 21
-35.79892507127608
 72
     1
 10
0.1347697675060568
 20
-35.79892507127608
 11
-6.913667134383248
 21
-44.19892507127612
 72
     1
 10
-6.913667134383248
 20
-44.19892507127612
 11
-3.467391890545966
 21
-44.19892507127612
 72
     1
 10
-3.467391890545966
 20
-44.19892507127612
 11
3.581045011343145
 21
-35.79892507127608
 97
        0
 75
     0
 76
     1
 98
        1
 10
-2.749630657015565
 20
0.0
  0
HATCH
  5
D1
330
1F
100
AcDbEntity
  8
중심선
100
AcDbHatch
 10
0.0
 20
0.0
 30
0.0
210
0.0
220
0.0
230
1.0
  2
SOLID
 70
     1
 71
     0
 91
        1
 92
        0
 93
        6
 72
     3
 10
8.380935442355316
 20
-39.99892507132738
 11
3.960054785062283
 21
1.540882976769353E-10
 40
0.3939339440162628
 50
17.09539180608437
 51
320.0019657685079
 73
     0
 72
     1
 10
10.06393509805591
 20
-38.58681907591441
 11
12.36923697175695
 21
-36.65249236586646
 72
     3
 10
8.38093544230247
 20
-39.99892507127625
 11
6.600054785286829
 21
-1.278976924368180E-13
 40
0.636358354079598
 50
39.9987384933743
 51
368.4976242363725
 73
     1
 72
     1
 10
14.80626793420308
 20
-39.03892507120613
 11
7.061002749138419
 21
-39.03892507120613
 72
     1
 10
7.061002749138419
 20
-39.03892507120613
 11
7.060977704692458
 21
-40.95892507120602
 72
     1
 10
7.060977704692458
 20
-40.95892507120602
 11
11.50235747416449
 21
-40.95892507120599
 97
        0
 75
     0
 76
     1
 98
        1
 10
-2.749630657015565
 20
0.0
  0
DIMENSION
  5
D2
330
1F
100
AcDbEntity
  8
치수문자_일반주서
100
AcDbDimension
  2
_D
 10
8.924630657015616
 20
14.76357492872391
 30
0.0
 11
24.79963065701562
 21
14.76357492872391
 31
0.0
 70
   160
  1
<>
 71
     2
 42
31.74999999999999
  3
SLDDIMSTYLE1
100
AcDbAlignedDimension
 13
40.67463065701561
 23
3.176074928723899
 33
0.0
 14
8.924630657015616
 24
3.164399156826314
 34
0.0
100
AcDbRotatedDimension
1001
ACAD
1000
DSTYLE
1002
{
1070
   171
1070
     6
1070
   273
1070
     7
1002
}
  0
DIMENSION
  5
E7
330
1F
100
AcDbEntity
  8
치수문자_일반주서
100
AcDbDimension
  2
_D_1
 10
-37.1128693429844
 20
31.6102217220047
 30
0.0
 11
1.78088065701561
 21
31.6102217220047
 31
0.0
 70
   160
  1
<>
 71
     2
 42
77.7875
  3
SLDDIMSTYLE1
100
AcDbAlignedDimension
 13
40.67463065701561
 23
3.176074928723899
 33
0.0
 14
-37.1128693429844
 24
3.811074928723901
 34
0.0
 50
0.0000000000000052
100
AcDbRotatedDimension
1001
ACAD
1000
DSTYLE
1002
{
1070
   171
1070
     6
1070
   273
1070
     7
1002
}
  0
DIMENSION
  5
FA
330
1F
100
AcDbEntity
  8
치수문자_일반주서
100
AcDbDimension
  2
_D_2
 10
-50.11286934298437
 20
-4.76142507127616
 30
0.0
 11
-50.11286934298439
 21
0.001074928723894
 31
0.0
 70
   160
  1
%%c<>
 71
     2
 42
9.525000000000006
 52
-270.0
  3
SLDDIMSTYLE1
100
AcDbAlignedDimension
 13
-36.16036934298438
 23
4.763574928723896
 33
0.0
 14
-36.16036934298438
 24
-4.761425071276109
 34
0.0
 50
90.0000000000002
100
AcDbRotatedDimension
1001
ACAD
1000
DSTYLE
1002
{
1070
   171
1070
     6
1070
   273
1070
     7
1002
}
  0
DIMENSION
  5
10F
330
1F
100
AcDbEntity
  8
치수문자_일반주서
100
AcDbDimension
  2
_D_3
 10
49.75967006793527
 20
-3.173925071276066
 30
0.0
 11
49.75967006793518
 21
22.46757492872393
 31
0.0
 70
   160
  1
%%c<>
 71
     2
 42
6.35
 52
-270.0
  3
SLDDIMSTYLE1
100
AcDbAlignedDimension
 13
40.67463065701561
 23
3.176074928723899
 33
0.0
 14
40.67463065701565
 24
-3.1739250712761
 34
0.0
 50
90.0000000000002
100
AcDbRotatedDimension
1001
ACAD
1000
DSTYLE
1002
{
1070
   171
1070
     6
1070
   273
1070
     7
1002
}
  0
LINE
  5
123
330
1F
100
AcDbEntity
  8
참조1
100
AcDbLine
 10
77.81899512937676
 20
7.441074928723896
 30
0.0
 11
77.81899512937676
 21
-7.438925071276109
 31
0.0
  0
LINE
  5
124
330
1F
100
AcDbEntity
  8
참조1
100
AcDbLine
 10
90.51899512937676
 20
5.441074928723896
 30
0.0
 11
77.81899512937676
 21
5.441074928723896
 31
0.0
  0
SOLID
  5
125
330
1F
100
AcDbEntity
  8
참조1
100
AcDbTrace
 10
77.81899512937676
 20
5.441074928723896
 30
0.0
 11
84.16899512937675
 21
4.425074928723896
 31
0.0
 12
84.16899512937675
 22
6.457074928723896
 32
0.0
 13
84.16899512937675
 23
6.457074928723896
 33
0.0
  0
LINE
  5
126
330
1F
100
AcDbEntity
  8
참조1
100
AcDbLine
 10
90.51899512937676
 20
-5.438925071276109
 30
0.0
 11
77.81899512937676
 21
-5.438925071276109
 31
0.0
  0
SOLID
  5
127
330
1F
100
AcDbEntity
  8
참조1
100
AcDbTrace
 10
77.81899512937676
 20
-5.438925071276109
 30
0.0
 11
84.16899512937675
 21
-6.454925071276109
 31
0.0
 12
84.16899512937675
 22
-4.422925071276109
 32
0.0
 13
84.16899512937675
 23
-4.422925071276109
 33
0.0
  0
MTEXT
  5
128
330
1F
100
AcDbEntity
  8
참조1
100
AcDbMText
 10
87.21648522184704
 20
10.98929157337383
 30
0.0
 40
3.5
 41
0.0
 71
     1
 72
     1
  1
A
  7
SLDTEXTSTYLE0
 73
     1
 44
1.0
  0
MTEXT
  5
129
330
1F
100
AcDbEntity
  8
참조1
100
AcDbMText
 10
87.21648522184704
 20
0.1092915733738259
 30
0.0
 40
3.5
 41
0.0
 71
     1
 72
     1
  1
A
  7
SLDTEXTSTYLE0
 73
     1
 44
1.0
  0
INSERT
  5
130
330
1F
100
AcDbEntity
  8
해칭선
100
AcDbBlockReference
  2
SW_DOWELSYMBOL_0
 10
0.0
 20
0.0
 30
0.0
  0
LINE
  5
257
330
1F
100
AcDbEntity
  8
외형선
  6
Continuous
370
    15
100
AcDbLine
 10
-20.8378193429845
 20
3.493574928723902
 30
0.0
 11
-13.70041934298437
 21
3.493574928723902
 31
0.0
  0
LINE
  5
258
330
1F
100
AcDbEntity
  8
외형선
  6
Continuous
370
    15
100
AcDbLine
 10
-20.8378193429845
 20
3.493574928723902
 30
0.0
 11
-22.10781934298448
 21
4.763574928723884
 31
0.0
  0
LINE
  5
259
330
1F
100
AcDbEntity
  8
외형선
  6
Continuous
370
    15
100
AcDbLine
 10
-13.70041934298437
 20
3.493574928723902
 30
0.0
 11
-12.43041934298427
 21
4.763574928723884
 31
0.0
  0
LINE
  5
294
330
1F
100
AcDbEntity
  8
외형선
  6
Continuous
370
    15
100
AcDbLine
 10
-22.10781934298449
 20
4.763574928723896
 30
0.0
 11
-36.16036934298438
 21
4.763574928723896
 31
0.0
  0
ENDSEC
  0
SECTION
  2
OBJECTS
  0
DICTIONARY
  5
C
330
0
100
AcDbDictionary
281
     1
  3
ACAD_GROUP
350
D
  3
ACAD_IMAGE_VARS
350
154
  3
ACAD_LAYOUT
350
1A
  3
ACAD_MLINESTYLE
350
17
  3
ACAD_PLOTSETTINGS
350
19
  3
ACAD_PLOTSTYLENAME
350
E
  3
ACAD_SCALELIST
350
47
  3
APPDATA
350
152
  3
DWGPROPS
350
295
  0
DICTIONARY
  5
1EE
330
2
100
AcDbDictionary
280
     1
281
     1
  3
ACAD_LAYERSTATES
360
1EF
  0
DICTIONARY
  5
D
102
{ACAD_REACTORS
330
C
102
}
330
C
100
AcDbDictionary
281
     1
  0
RASTERVARIABLES
  5
154
102
{ACAD_REACTORS
330
C
102
}
330
C
100
AcDbRasterVariables
 90
        0
 70
     1
 71
     1
 72
     1
  0
DICTIONARY
  5
1A
102
{ACAD_REACTORS
330
C
102
}
330
C
100
AcDbDictionary
281
     1
  3
Layout1
350
1E
  3
Layout2
350
26
  3
Model
350
22
  0
DICTIONARY
  5
17
102
{ACAD_REACTORS
330
C
102
}
330
C
100
AcDbDictionary
281
     1
  3
Standard
350
18
  0
DICTIONARY
  5
19
102
{ACAD_REACTORS
330
C
102
}
330
C
100
AcDbDictionary
281
     1
  0
ACDBDICTIONARYWDFLT
  5
E
102
{ACAD_REACTORS
330
C
102
}
330
C
100
AcDbDictionary
281
     1
  3
Normal
350
F
100
AcDbDictionaryWithDefault
340
F
  0
DICTIONARY
  5
47
102
{ACAD_REACTORS
330
C
102
}
330
C
100
AcDbDictionary
281
     1
  3
A0
350
48
  3
A1
350
49
  3
A2
350
4A
  3
A3
350
4B
  3
A4
350
4C
  3
A5
350
4D
  3
A6
350
4E
  3
A7
350
4F
  3
A8
350
50
  3
A9
350
51
  3
B0
350
52
  3
B1
350
53
  3
B2
350
54
  3
B3
350
55
  3
B4
350
56
  3
B5
350
57
  3
B6
350
58
  3
B7
350
59
  3
B8
350
5A
  3
B9
350
5B
  3
C0
350
5C
  3
C1
350
5D
  3
C2
350
5E
  3
C3
350
5F
  3
C4
350
60
  3
C5
350
61
  3
C6
350
62
  3
C7
350
63
  3
C8
350
64
  3
C9
350
65
  3
D0
350
66
  3
D1
350
67
  3
D2
350
68
  0
DICTIONARY
  5
152
102
{ACAD_REACTORS
330
C
102
}
330
C
100
AcDbDictionary
281
     1
  0
XRECORD
  5
295
102
{ACAD_REACTORS
330
C
102
}
330
C
100
AcDbXrecord
280
     1
  1
DWGPROPS COOKIE
  2

  3

  4

  6

  7

  8
12017012
  9

300
=
301
=
302
=
303
=
304
=
305
=
306
=
307
=
308
=
309
=
 40
0.0
 41
2458323.303494861
 42
2458324.068524166
  1

 90
        0
  0
DICTIONARY
  5
1EF
102
{ACAD_REACTORS
330
1EE
102
}
330
1EE
100
AcDbDictionary
281
     1
  0
LAYOUT
  5
1E
102
{ACAD_REACTORS
330
1A
102
}
330
1A
100
AcDbPlotSettings
  1

  2
none_device
  4

  6

 40
0.0
 41
0.0
 42
0.0
 43
0.0
 44
0.0
 45
0.0
 46
0.0
 47
0.0
 48
0.0
 49
0.0
140
0.0
141
0.0
142
1.0
143
1.0
 70
   688
 72
     1
 73
     0
 74
     5
  7

 75
    16
147
1.0
148
0.0
149
0.0
100
AcDbLayout
  1
Layout1
 70
     1
 71
     1
 10
0.0
 20
0.0
 11
420.0
 21
297.0
 12
0.0
 22
0.0
 32
0.0
 14
1.000000000000000E+20
 24
1.000000000000000E+20
 34
1.000000000000000E+20
 15
-1.000000000000000E+20
 25
-1.000000000000000E+20
 35
-1.000000000000000E+20
146
0.0
 13
0.0
 23
0.0
 33
0.0
 16
1.0
 26
0.0
 36
0.0
 17
0.0
 27
1.0
 37
0.0
 76
     0
330
1B
  0
LAYOUT
  5
26
102
{ACAD_REACTORS
330
1A
102
}
330
1A
100
AcDbPlotSettings
  1

  2
none_device
  4

  6

 40
0.0
 41
0.0
 42
0.0
 43
0.0
 44
0.0
 45
0.0
 46
0.0
 47
0.0
 48
0.0
 49
0.0
140
0.0
141
0.0
142
1.0
143
1.0
 70
   688
 72
     1
 73
     0
 74
     5
  7

 75
    16
147
1.0
148
0.0
149
0.0
100
AcDbLayout
  1
Layout2
 70
     1
 71
     2
 10
0.0
 20
0.0
 11
0.0
 21
0.0
 12
0.0
 22
0.0
 32
0.0
 14
0.0
 24
0.0
 34
0.0
 15
0.0
 25
0.0
 35
0.0
146
0.0
 13
0.0
 23
0.0
 33
0.0
 16
1.0
 26
0.0
 36
0.0
 17
0.0
 27
1.0
 37
0.0
 76
     0
330
23
  0
LAYOUT
  5
22
102
{ACAD_REACTORS
330
1A
102
}
330
1A
100
AcDbPlotSettings
  1

  2
none_device
  4
ANSI_A_(11.00_x_8.50_Inches)
  6

 40
6.35
 41
19.05
 42
6.35000508
 43
19.05000254
 44
279.4
 45
215.9
 46
100.7457054717439
 47
43.17679658125459
 48
0.0
 49
0.0
140
0.0
141
0.0
142
0.0474689590334287
143
1.0
 70
  1696
 72
     0
 73
     0
 74
     0
  7

 75
     0
147
0.0235690232323232
148
0.0
149
0.0
100
AcDbLayout
  1
Model
 70
     1
 71
     0
 10
0.0
 20
0.0
 11
420.0
 21
297.0
 12
0.0
 22
0.0
 32
0.0
 14
1.000000000000000E+20
 24
1.000000000000000E+20
 34
1.000000000000000E+20
 15
-1.000000000000000E+20
 25
-1.000000000000000E+20
 35
-1.000000000000000E+20
146
0.0
 13
0.0
 23
0.0
 33
0.0
 16
1.0
 26
0.0
 36
0.0
 17
0.0
 27
1.0
 37
0.0
 76
     0
330
1F
331
29
  0
MLINESTYLE
  5
18
102
{ACAD_REACTORS
330
17
102
}
330
17
100
AcDbMlineStyle
  2
Standard
 70
     0
  3

 62
   256
 51
90.0
 52
90.0
 71
     2
 49
0.5
 62
   256
  6
BYLAYER
 49
-0.5
 62
   256
  6
BYLAYER
  0
ACDBPLACEHOLDER
  5
F
102
{ACAD_REACTORS
330
E
102
}
330
E
  0
SCALE
  5
48
102
{ACAD_REACTORS
330
47
102
}
330
47
100
AcDbScale
 70
     0
300
1:1
140
1.0
141
1.0
290
     1
  0
SCALE
  5
49
102
{ACAD_REACTORS
330
47
102
}
330
47
100
AcDbScale
 70
     0
300
1:2
140
1.0
141
2.0
290
     0
  0
SCALE
  5
4A
102
{ACAD_REACTORS
330
47
102
}
330
47
100
AcDbScale
 70
     0
300
1:4
140
1.0
141
4.0
290
     0
  0
SCALE
  5
4B
102
{ACAD_REACTORS
330
47
102
}
330
47
100
AcDbScale
 70
     0
300
1:5
140
1.0
141
5.0
290
     0
  0
SCALE
  5
4C
102
{ACAD_REACTORS
330
47
102
}
330
47
100
AcDbScale
 70
     0
300
1:8
140
1.0
141
8.0
290
     0
  0
SCALE
  5
4D
102
{ACAD_REACTORS
330
47
102
}
330
47
100
AcDbScale
 70
     0
300
1:10
140
1.0
141
10.0
290
     0
  0
SCALE
  5
4E
102
{ACAD_REACTORS
330
47
102
}
330
47
100
AcDbScale
 70
     0
300
1:16
140
1.0
141
16.0
290
     0
  0
SCALE
  5
4F
102
{ACAD_REACTORS
330
47
102
}
330
47
100
AcDbScale
 70
     0
300
1:20
140
1.0
141
20.0
290
     0
  0
SCALE
  5
50
102
{ACAD_REACTORS
330
47
102
}
330
47
100
AcDbScale
 70
     0
300
1:30
140
1.0
141
30.0
290
     0
  0
SCALE
  5
51
102
{ACAD_REACTORS
330
47
102
}
330
47
100
AcDbScale
 70
     0
300
1:40
140
1.0
141
40.0
290
     0
  0
SCALE
  5
52
102
{ACAD_REACTORS
330
47
102
}
330
47
100
AcDbScale
 70
     0
300
1:50
140
1.0
141
50.0
290
     0
  0
SCALE
  5
53
102
{ACAD_REACTORS
330
47
102
}
330
47
100
AcDbScale
 70
     0
300
1:100
140
1.0
141
100.0
290
     0
  0
SCALE
  5
54
102
{ACAD_REACTORS
330
47
102
}
330
47
100
AcDbScale
 70
     0
300
2:1
140
2.0
141
1.0
290
     0
  0
SCALE
  5
55
102
{ACAD_REACTORS
330
47
102
}
330
47
100
AcDbScale
 70
     0
300
4:1
140
4.0
141
1.0
290
     0
  0
SCALE
  5
56
102
{ACAD_REACTORS
330
47
102
}
330
47
100
AcDbScale
 70
     0
300
8:1
140
8.0
141
1.0
290
     0
  0
SCALE
  5
57
102
{ACAD_REACTORS
330
47
102
}
330
47
100
AcDbScale
 70
     0
300
10:1
140
10.0
141
1.0
290
     0
  0
SCALE
  5
58
102
{ACAD_REACTORS
330
47
102
}
330
47
100
AcDbScale
 70
     0
300
100:1
140
100.0
141
1.0
290
     0
  0
SCALE
  5
59
102
{ACAD_REACTORS
330
47
102
}
330
47
100
AcDbScale
 70
     0
300
1/128" = 1'-0"
140
0.0078125
141
12.0
290
     0
  0
SCALE
  5
5A
102
{ACAD_REACTORS
330
47
102
}
330
47
100
AcDbScale
 70
     0
300
1/64" = 1'-0"
140
0.015625
141
12.0
290
     0
  0
SCALE
  5
5B
102
{ACAD_REACTORS
330
47
102
}
330
47
100
AcDbScale
 70
     0
300
1/32" = 1'-0"
140
0.03125
141
12.0
290
     0
  0
SCALE
  5
5C
102
{ACAD_REACTORS
330
47
102
}
330
47
100
AcDbScale
 70
     0
300
1/16" = 1'-0"
140
0.0625
141
12.0
290
     0
  0
SCALE
  5
5D
102
{ACAD_REACTORS
330
47
102
}
330
47
100
AcDbScale
 70
     0
300
3/32" = 1'-0"
140
0.09375
141
12.0
290
     0
  0
SCALE
  5
5E
102
{ACAD_REACTORS
330
47
102
}
330
47
100
AcDbScale
 70
     0
300
1/8" = 1'-0"
140
0.125
141
12.0
290
     0
  0
SCALE
  5
5F
102
{ACAD_REACTORS
330
47
102
}
330
47
100
AcDbScale
 70
     0
300
3/16" = 1'-0"
140
0.1875
141
12.0
290
     0
  0
SCALE
  5
60
102
{ACAD_REACTORS
330
47
102
}
330
47
100
AcDbScale
 70
     0
300
1/4" = 1'-0"
140
0.25
141
12.0
290
     0
  0
SCALE
  5
61
102
{ACAD_REACTORS
330
47
102
}
330
47
100
AcDbScale
 70
     0
300
3/8" = 1'-0"
140
0.375
141
12.0
290
     0
  0
SCALE
  5
62
102
{ACAD_REACTORS
330
47
102
}
330
47
100
AcDbScale
 70
     0
300
1/2" = 1'-0"
140
0.5
141
12.0
290
     0
  0
SCALE
  5
63
102
{ACAD_REACTORS
330
47
102
}
330
47
100
AcDbScale
 70
     0
300
3/4" = 1'-0"
140
0.75
141
12.0
290
     0
  0
SCALE
  5
64
102
{ACAD_REACTORS
330
47
102
}
330
47
100
AcDbScale
 70
     0
300
1" = 1'-0"
140
1.0
141
12.0
290
     0
  0
SCALE
  5
65
102
{ACAD_REACTORS
330
47
102
}
330
47
100
AcDbScale
 70
     0
300
1-1/2" = 1'-0"
140
1.5
141
12.0
290
     0
  0
SCALE
  5
66
102
{ACAD_REACTORS
330
47
102
}
330
47
100
AcDbScale
 70
     0
300
3" = 1'-0"
140
3.0
141
12.0
290
     0
  0
SCALE
  5
67
102
{ACAD_REACTORS
330
47
102
}
330
47
100
AcDbScale
 70
     0
300
6" = 1'-0"
140
6.0
141
12.0
290
     0
  0
SCALE
  5
68
102
{ACAD_REACTORS
330
47
102
}
330
47
100
AcDbScale
 70
     0
300
1'-0" = 1'-0"
140
12.0
141
12.0
290
     0
  0
ENDSEC
  0
EOF
