  0
SECTION
  2
HEADER
  9
$ACADVER
  1
AC1015
  9
$ACADMAINTVER
 70
     6
  9
$DWGCODEPAGE
  3
ANSI_949
  9
$INSBASE
 10
0.0
 20
0.0
 30
0.0
  9
$EXTMIN
 10
1.000000000000000E+20
 20
1.000000000000000E+20
 30
1.000000000000000E+20
  9
$EXTMAX
 10
-1.000000000000000E+20
 20
-1.000000000000000E+20
 30
-1.000000000000000E+20
  9
$LIMMIN
 10
0.0
 20
0.0
  9
$LIMMAX
 10
420.0
 20
297.0
  9
$ORTHOMODE
 70
     1
  9
$REGENMODE
 70
     1
  9
$FILLMODE
 70
     1
  9
$QTEXTMODE
 70
     0
  9
$MIRRTEXT
 70
     1
  9
$LTSCALE
 40
1.0
  9
$ATTMODE
 70
     1
  9
$TEXTSIZE
 40
3.5
  9
$TRACEWID
 40
1.0
  9
$TEXTSTYLE
  7
Standard
  9
$CLAYER
  8
0
  9
$CELTYPE
  6
ByLayer
  9
$CECOLOR
 62
   256
  9
$CELTSCALE
 40
1.0
  9
$DISPSILH
 70
     0
  9
$DIMSCALE
 40
1.0
  9
$DIMASZ
 40
3.302
  9
$DIMEXO
 40
1.0
  9
$DIMDLI
 40
3.75
  9
$DIMRND
 40
0.0
  9
$DIMDLE
 40
0.0
  9
$DIMEXE
 40
1.0
  9
$DIMTP
 40
0.0
  9
$DIMTM
 40
0.0
  9
$DIMTXT
 40
3.5
  9
$DIMCEN
 40
2.5
  9
$DIMTSZ
 40
0.0
  9
$DIMTOL
 70
     0
  9
$DIMLIM
 70
     0
  9
$DIMTIH
 70
     1
  9
$DIMTOH
 70
     1
  9
$DIMSE1
 70
     0
  9
$DIMSE2
 70
     0
  9
$DIMTAD
 70
     1
  9
$DIMZIN
 70
     0
  9
$DIMBLK
  1

  9
$DIMASO
 70
     1
  9
$DIMSHO
 70
     1
  9
$DIMPOST
  1

  9
$DIMAPOST
  1

  9
$DIMALT
 70
     0
  9
$DIMALTD
 70
     3
  9
$DIMALTF
 40
0.0393700787401575
  9
$DIMLFAC
 40
1.0
  9
$DIMTOFL
 70
     1
  9
$DIMTVP
 40
0.0
  9
$DIMTIX
 70
     0
  9
$DIMSOXD
 70
     0
  9
$DIMSAH
 70
     0
  9
$DIMBLK1
  1

  9
$DIMBLK2
  1

  9
$DIMSTYLE
  2
ISO-25
  9
$DIMCLRD
 70
     0
  9
$DIMCLRE
 70
     0
  9
$DIMCLRT
 70
     0
  9
$DIMTFAC
 40
1.0
  9
$DIMGAP
 40
1.524
  9
$DIMJUST
 70
     0
  9
$DIMSD1
 70
     0
  9
$DIMSD2
 70
     0
  9
$DIMTOLJ
 70
     0
  9
$DIMTZIN
 70
     0
  9
$DIMALTZ
 70
     0
  9
$DIMALTTZ
 70
     0
  9
$DIMUPT
 70
     0
  9
$DIMDEC
 70
     2
  9
$DIMTDEC
 70
     2
  9
$DIMALTU
 70
     2
  9
$DIMALTTD
 70
     3
  9
$DIMTXSTY
  7
Standard
  9
$DIMAUNIT
 70
     0
  9
$DIMADEC
 70
     2
  9
$DIMALTRND
 40
0.0
  9
$DIMAZIN
 70
     0
  9
$DIMDSEP
 70
    44
  9
$DIMATFIT
 70
     3
  9
$DIMFRAC
 70
     0
  9
$DIMLDRBLK
  1

  9
$DIMLUNIT
 70
     2
  9
$DIMLWD
 70
    -2
  9
$DIMLWE
 70
    -2
  9
$DIMTMOVE
 70
     0
  9
$LUNITS
 70
     2
  9
$LUPREC
 70
     2
  9
$SKETCHINC
 40
1.0
  9
$FILLETRAD
 40
10.0
  9
$AUNITS
 70
     0
  9
$AUPREC
 70
     2
  9
$MENU
  1
.
  9
$ELEVATION
 40
0.0
  9
$PELEVATION
 40
0.0
  9
$THICKNESS
 40
0.0
  9
$LIMCHECK
 70
     0
  9
$CHAMFERA
 40
0.0
  9
$CHAMFERB
 40
0.0
  9
$CHAMFERC
 40
0.0
  9
$CHAMFERD
 40
0.0
  9
$SKPOLY
 70
     0
  9
$TDCREATE
 40
2458323.67870647
  9
$TDUCREATE
 40
2458323.30370647
  9
$TDUPDATE
 40
2458324.442386516
  9
$TDUUPDATE
 40
2458324.067386516
  9
$TDINDWG
 40
0.0012794097
  9
$TDUSRTIMER
 40
2458324.066107535
  9
$USRTIMER
 70
     1
  9
$ANGBASE
 50
0.0
  9
$ANGDIR
 70
     0
  9
$PDMODE
 70
     0
  9
$PDSIZE
 40
-1.0
  9
$PLINEWID
 40
0.0
  9
$SPLFRAME
 70
     0
  9
$SPLINETYPE
 70
     6
  9
$SPLINESEGS
 70
     8
  9
$HANDSEED
  5
27E
  9
$SURFTAB1
 70
     6
  9
$SURFTAB2
 70
     6
  9
$SURFTYPE
 70
     6
  9
$SURFU
 70
     6
  9
$SURFV
 70
     6
  9
$UCSBASE
  2

  9
$UCSNAME
  2

  9
$UCSORG
 10
0.0
 20
0.0
 30
0.0
  9
$UCSXDIR
 10
1.0
 20
0.0
 30
0.0
  9
$UCSYDIR
 10
0.0
 20
1.0
 30
0.0
  9
$UCSORTHOREF
  2

  9
$UCSORTHOVIEW
 70
     0
  9
$UCSORGTOP
 10
0.0
 20
0.0
 30
0.0
  9
$UCSORGBOTTOM
 10
0.0
 20
0.0
 30
0.0
  9
$UCSORGLEFT
 10
0.0
 20
0.0
 30
0.0
  9
$UCSORGRIGHT
 10
0.0
 20
0.0
 30
0.0
  9
$UCSORGFRONT
 10
0.0
 20
0.0
 30
0.0
  9
$UCSORGBACK
 10
0.0
 20
0.0
 30
0.0
  9
$PUCSBASE
  2

  9
$PUCSNAME
  2

  9
$PUCSORG
 10
0.0
 20
0.0
 30
0.0
  9
$PUCSXDIR
 10
1.0
 20
0.0
 30
0.0
  9
$PUCSYDIR
 10
0.0
 20
1.0
 30
0.0
  9
$PUCSORTHOREF
  2

  9
$PUCSORTHOVIEW
 70
     0
  9
$PUCSORGTOP
 10
0.0
 20
0.0
 30
0.0
  9
$PUCSORGBOTTOM
 10
0.0
 20
0.0
 30
0.0
  9
$PUCSORGLEFT
 10
0.0
 20
0.0
 30
0.0
  9
$PUCSORGRIGHT
 10
0.0
 20
0.0
 30
0.0
  9
$PUCSORGFRONT
 10
0.0
 20
0.0
 30
0.0
  9
$PUCSORGBACK
 10
0.0
 20
0.0
 30
0.0
  9
$USERI1
 70
     0
  9
$USERI2
 70
     0
  9
$USERI3
 70
     0
  9
$USERI4
 70
     0
  9
$USERI5
 70
     0
  9
$USERR1
 40
0.0
  9
$USERR2
 40
0.0
  9
$USERR3
 40
0.0
  9
$USERR4
 40
0.0
  9
$USERR5
 40
0.0
  9
$WORLDVIEW
 70
     1
  9
$SHADEDGE
 70
     3
  9
$SHADEDIF
 70
    70
  9
$TILEMODE
 70
     1
  9
$MAXACTVP
 70
    64
  9
$PINSBASE
 10
0.0
 20
0.0
 30
0.0
  9
$PLIMCHECK
 70
     0
  9
$PEXTMIN
 10
1.000000000000000E+20
 20
1.000000000000000E+20
 30
1.000000000000000E+20
  9
$PEXTMAX
 10
-1.000000000000000E+20
 20
-1.000000000000000E+20
 30
-1.000000000000000E+20
  9
$PLIMMIN
 10
0.0
 20
0.0
  9
$PLIMMAX
 10
0.0
 20
0.0
  9
$UNITMODE
 70
     0
  9
$VISRETAIN
 70
     1
  9
$PLINEGEN
 70
     0
  9
$PSLTSCALE
 70
     1
  9
$TREEDEPTH
 70
  3020
  9
$CMLSTYLE
  2
Standard
  9
$CMLJUST
 70
     0
  9
$CMLSCALE
 40
20.0
  9
$PROXYGRAPHICS
 70
     1
  9
$MEASUREMENT
 70
     1
  9
$CELWEIGHT
370
    -1
  9
$ENDCAPS
280
     0
  9
$JOINSTYLE
280
     0
  9
$LWDISPLAY
290
     1
  9
$INSUNITS
 70
     4
  9
$HYPERLINKBASE
  1

  9
$STYLESHEET
  1

  9
$XEDIT
290
     1
  9
$CEPSNTYPE
380
     0
  9
$PSTYLEMODE
290
     1
  9
$FINGERPRINTGUID
  2
{A63999D4-0F7F-489A-A684-A6FBFB10D4E8}
  9
$VERSIONGUID
  2
{FAEB1C32-E019-11D5-929B-00C0DF256EC4}
  9
$EXTNAMES
290
     1
  9
$PSVPSCALE
 40
0.0
  9
$OLESTARTUP
290
     0
  0
ENDSEC
  0
SECTION
  2
CLASSES
  0
CLASS
  1
ACDBDICTIONARYWDFLT
  2
AcDbDictionaryWithDefault
  3
ObjectDBX Classes
 90
        0
280
     0
281
     0
  0
CLASS
  1
VISUALSTYLE
  2
AcDbVisualStyle
  3
ObjectDBX Classes
 90
     4095
280
     0
281
     0
  0
CLASS
  1
MATERIAL
  2
AcDbMaterial
  3
ObjectDBX Classes
 90
     1153
280
     0
281
     0
  0
CLASS
  1
SCALE
  2
AcDbScale
  3
ObjectDBX Classes
 90
     1153
280
     0
281
     0
  0
CLASS
  1
SUN
  2
AcDbSun
  3
SCENEOE
 90
     1153
280
     0
281
     0
  0
CLASS
  1
ACDBPLACEHOLDER
  2
AcDbPlaceHolder
  3
ObjectDBX Classes
 90
        0
280
     0
281
     0
  0
CLASS
  1
LAYOUT
  2
AcDbLayout
  3
ObjectDBX Classes
 90
        0
280
     0
281
     0
  0
CLASS
  1
TABLESTYLE
  2
AcDbTableStyle
  3
ObjectDBX Classes
 90
     4095
280
     0
281
     0
  0
CLASS
  1
MLEADERSTYLE
  2
AcDbMLeaderStyle
  3
ACDB_MLEADERSTYLE_CLASS
 90
     4095
280
     0
281
     0
  0
CLASS
  1
RASTERVARIABLES
  2
AcDbRasterVariables
  3
ISM
 90
        0
280
     0
281
     0
  0
ENDSEC
  0
SECTION
  2
TABLES
  0
TABLE
  2
VPORT
  5
8
330
0
100
AcDbSymbolTable
 70
     1
  0
VPORT
  5
29
330
8
100
AcDbSymbolTableRecord
100
AcDbViewportTableRecord
  2
*Active
 70
     0
 10
0.0
 20
0.0
 11
1.0
 21
1.0
 12
16.82686980004299
 22
-8.62322263301039
 13
0.0
 23
0.0
 14
10.0
 24
10.0
 15
10.0
 25
10.0
 16
0.0
 26
0.0
 36
1.0
 17
0.0
 27
0.0
 37
0.0
 40
145.7754974866119
 41
1.632093933463796
 42
50.0
 43
0.0
 44
0.0
 50
0.0
 51
0.0
 71
    16
 72
  2000
 73
     1
 74
     3
 75
     0
 76
     0
 77
     0
 78
     0
281
     0
 65
     1
110
0.0
120
0.0
130
0.0
111
1.0
121
0.0
131
0.0
112
0.0
122
1.0
132
0.0
 79
     0
146
0.0
  0
ENDTAB
  0
TABLE
  2
LTYPE
  5
5
330
0
100
AcDbSymbolTable
 70
     6
  0
LTYPE
  5
14
330
5
100
AcDbSymbolTableRecord
100
AcDbLinetypeTableRecord
  2
ByBlock
 70
     0
  3

 72
    65
 73
     0
 40
0.0
  0
LTYPE
  5
15
330
5
100
AcDbSymbolTableRecord
100
AcDbLinetypeTableRecord
  2
ByLayer
 70
     0
  3

 72
    65
 73
     0
 40
0.0
  0
LTYPE
  5
16
330
5
100
AcDbSymbolTableRecord
100
AcDbLinetypeTableRecord
  2
Continuous
 70
     0
  3
Solid line
 72
    65
 73
     0
 40
0.0
  0
LTYPE
  5
6A
330
5
100
AcDbSymbolTableRecord
100
AcDbLinetypeTableRecord
  2
HIDDEN
 70
     0
  3
Hidden __ __ __ __ __ __ __ __ __ __ __ __ __ __
 72
    65
 73
     2
 40
1.905
 49
1.27
 74
     0
 49
-0.635
 74
     0
  0
LTYPE
  5
6B
330
5
100
AcDbSymbolTableRecord
100
AcDbLinetypeTableRecord
  2
PHANTOM
 70
     0
  3
Phantom ______  __  __  ______  __  __  ______
 72
    65
 73
     6
 40
12.7
 49
6.35
 74
     0
 49
-1.27
 74
     0
 49
1.27
 74
     0
 49
-1.27
 74
     0
 49
1.27
 74
     0
 49
-1.27
 74
     0
  0
LTYPE
  5
6C
330
5
100
AcDbSymbolTableRecord
100
AcDbLinetypeTableRecord
  2
CENTER
 70
     0
  3
Center ____ _ ____ _ ____ _ ____ _ ____ _ ____
 72
    65
 73
     4
 40
10.16
 49
6.35
 74
     0
 49
-1.27
 74
     0
 49
1.27
 74
     0
 49
-1.27
 74
     0
  0
LTYPE
  5
6D
330
5
100
AcDbSymbolTableRecord
100
AcDbLinetypeTableRecord
  2
CENTERX2
 70
     0
  3
Center (2x) ________  __  ________  __  _____
 72
    65
 73
     4
 40
20.32
 49
12.7
 74
     0
 49
-2.54
 74
     0
 49
2.54
 74
     0
 49
-2.54
 74
     0
  0
LTYPE
  5
6E
330
5
100
AcDbSymbolTableRecord
100
AcDbLinetypeTableRecord
  2
DOT2
 70
     0
  3
Dot (.5x) ........................................
 72
    65
 73
     2
 40
0.635
 49
0.0
 74
     0
 49
-0.635
 74
     0
  0
ENDTAB
  0
TABLE
  2
LAYER
  5
2
102
{ACAD_XDICTIONARY
360
1DE
102
}
330
0
100
AcDbSymbolTable
 70
    18
  0
LAYER
  5
10
330
2
100
AcDbSymbolTableRecord
100
AcDbLayerTableRecord
  2
0
 70
     0
 62
     7
  6
Continuous
370
    -3
390
F
  0
LAYER
  5
6F
330
2
100
AcDbSymbolTableRecord
100
AcDbLayerTableRecord
  2
FORMAT
 70
     0
 62
     2
  6
Continuous
370
    -3
390
F
  0
LAYER
  5
70
330
2
100
AcDbSymbolTableRecord
100
AcDbLayerTableRecord
  2
외형선
 70
     0
 62
     4
  6
Continuous
370
    30
390
F
  0
LAYER
  5
71
330
2
100
AcDbSymbolTableRecord
100
AcDbLayerTableRecord
  2
숨은선
 70
     0
 62
     2
  6
HIDDEN
370
    15
390
F
  0
LAYER
  5
72
330
2
100
AcDbSymbolTableRecord
100
AcDbLayerTableRecord
  2
중심선
 70
     0
 62
     1
  6
CENTERX2
370
    -3
390
F
  0
LAYER
  5
73
330
2
100
AcDbSymbolTableRecord
100
AcDbLayerTableRecord
  2
파단선
 70
     0
 62
     4
  6
Continuous
370
    -3
390
F
  0
LAYER
  5
74
330
2
100
AcDbSymbolTableRecord
100
AcDbLayerTableRecord
  2
해칭선
 70
     0
 62
   100
  6
Continuous
370
    -3
390
F
  0
LAYER
  5
75
330
2
100
AcDbSymbolTableRecord
100
AcDbLayerTableRecord
  2
가는실선
 70
     0
 62
     4
  6
Continuous
370
    -3
390
F
  0
LAYER
  5
76
330
2
100
AcDbSymbolTableRecord
100
AcDbLayerTableRecord
  2
치수_보조선
 70
     0
 62
     4
  6
Continuous
370
    -3
390
F
  0
LAYER
  5
77
330
2
100
AcDbSymbolTableRecord
100
AcDbLayerTableRecord
  2
치수문자_일반주서
 70
     0
 62
     7
  6
Continuous
370
    15
390
F
  0
LAYER
  5
78
330
2
100
AcDbSymbolTableRecord
100
AcDbLayerTableRecord
  2
개별주서
 70
     0
 62
   100
  6
Continuous
370
    30
390
F
  0
LAYER
  5
79
330
2
100
AcDbSymbolTableRecord
100
AcDbLayerTableRecord
  2
중간선
 70
     0
 62
     2
  6
Continuous
370
    15
390
F
  0
LAYER
  5
7A
330
2
100
AcDbSymbolTableRecord
100
AcDbLayerTableRecord
  2
윤곽선
 70
     0
 62
     3
  6
Continuous
370
    40
390
F
  0
LAYER
  5
7B
330
2
100
AcDbSymbolTableRecord
100
AcDbLayerTableRecord
  2
중심마크
 70
     0
 62
   100
  6
Continuous
370
    30
390
F
  0
LAYER
  5
7C
330
2
100
AcDbSymbolTableRecord
100
AcDbLayerTableRecord
  2
가상선
 70
     0
 62
     4
  6
PHANTOM
370
    -3
390
F
  0
LAYER
  5
7D
330
2
100
AcDbSymbolTableRecord
100
AcDbLayerTableRecord
  2
특수지정선
 70
     0
 62
     5
  6
CENTERX2
370
    60
390
F
  0
LAYER
  5
7E
330
2
100
AcDbSymbolTableRecord
100
AcDbLayerTableRecord
  2
참조1
 70
     0
 62
    -4
  6
Continuous
370
    -3
390
F
  0
LAYER
  5
151
330
2
100
AcDbSymbolTableRecord
100
AcDbLayerTableRecord
  2
Defpoints
 70
     0
 62
     7
  6
Continuous
290
     0
370
    -3
390
F
  0
ENDTAB
  0
TABLE
  2
STYLE
  5
3
330
0
100
AcDbSymbolTable
 70
     2
  0
STYLE
  5
11
330
3
100
AcDbSymbolTableRecord
100
AcDbTextStyleTableRecord
  2
Standard
 70
     0
 40
0.0
 41
1.0
 50
0.0
 71
     0
 42
3.5
  3
txt
  4

  0
STYLE
  5
94
330
3
100
AcDbSymbolTableRecord
100
AcDbTextStyleTableRecord
  2
SLDTEXTSTYLE0
 70
     0
 40
0.0
 41
0.75
 50
0.0
 71
     0
 42
3.5
  3
TXT
  4

  0
ENDTAB
  0
TABLE
  2
VIEW
  5
6
330
0
100
AcDbSymbolTable
 70
     0
  0
ENDTAB
  0
TABLE
  2
UCS
  5
7
330
0
100
AcDbSymbolTable
 70
     0
  0
ENDTAB
  0
TABLE
  2
APPID
  5
9
330
0
100
AcDbSymbolTable
 70
     1
  0
APPID
  5
12
330
9
100
AcDbSymbolTableRecord
100
AcDbRegAppTableRecord
  2
ACAD
 70
     0
  0
ENDTAB
  0
TABLE
  2
DIMSTYLE
  5
A
330
0
100
AcDbSymbolTable
 70
     4
100
AcDbDimStyleTable
  0
DIMSTYLE
105
27
330
A
100
AcDbSymbolTableRecord
100
AcDbDimStyleTableRecord
  2
ISO-25
 70
     0
 41
2.5
 42
0.625
 43
3.75
 44
1.25
 73
     0
 74
     0
 77
     1
 78
     8
140
2.5
141
2.5
143
0.03937007874016
147
0.625
171
     3
172
     1
178
     0
271
     2
272
     2
274
     3
278
    44
283
     0
284
     8
340
11
  0
DIMSTYLE
105
CE
330
A
100
AcDbSymbolTableRecord
100
AcDbDimStyleTableRecord
  2
SLDDIMSTYLE0
 70
     0
 41
3.302
 44
0.0
 45
0.000000001
 73
     0
 74
     0
 77
     1
 78
    12
 79
     3
140
3.5
143
0.0393700787401575
147
0.875
148
0.000000001
170
     1
173
     1
178
     0
271
     2
272
     2
276
     2
284
    12
340
94
  0
DIMSTYLE
105
F6
102
{ACAD_REACTORS
330
F5
330
19D
330
1AA
330
1B7
330
1C4
330
CD
330
E2
330
10A
102
}
330
A
100
AcDbSymbolTableRecord
100
AcDbDimStyleTableRecord
  2
SLDDIMSTYLE1
 70
     0
 41
3.302
 44
0.0
 45
0.000000001
 73
     0
 74
     0
 77
     1
 78
    12
 79
     3
140
3.5
143
0.0393700787401575
147
0.875
148
0.000000001
170
     1
172
     1
173
     1
178
     0
271
     2
272
     2
276
     2
284
    12
289
     0
340
94
  0
DIMSTYLE
105
10B
330
A
100
AcDbSymbolTableRecord
100
AcDbDimStyleTableRecord
  2
SLDDIMSTYLE2
 70
     0
 41
3.302
 44
0.0
 45
0.000000001
 73
     0
 74
     0
 77
     1
 78
     4
 79
     1
140
3.5
143
0.0393700787401575
147
0.875
148
0.000000001
170
     1
173
     1
178
     0
271
     2
272
     2
276
     2
284
    12
340
94
  0
ENDTAB
  0
TABLE
  2
BLOCK_RECORD
  5
1
330
0
100
AcDbSymbolTable
 70
    16
  0
BLOCK_RECORD
  5
1F
330
1
100
AcDbSymbolTableRecord
100
AcDbBlockTableRecord
  2
*Model_Space
340
22
  0
BLOCK_RECORD
  5
1B
330
1
100
AcDbSymbolTableRecord
100
AcDbBlockTableRecord
  2
*Paper_Space
340
1E
  0
BLOCK_RECORD
  5
23
330
1
100
AcDbSymbolTableRecord
100
AcDbBlockTableRecord
  2
*Paper_Space0
340
26
  0
BLOCK_RECORD
  5
7F
330
1
100
AcDbSymbolTableRecord
100
AcDbBlockTableRecord
  2
블럭10
340
0
102
{BLKREFS
331
C6
102
}
  0
BLOCK_RECORD
  5
CF
330
1
100
AcDbSymbolTableRecord
100
AcDbBlockTableRecord
  2
_D
340
0
  0
BLOCK_RECORD
  5
E3
330
1
100
AcDbSymbolTableRecord
100
AcDbBlockTableRecord
  2
_D_1
340
0
  0
BLOCK_RECORD
  5
F7
330
1
100
AcDbSymbolTableRecord
100
AcDbBlockTableRecord
  2
_D_2
340
0
  0
BLOCK_RECORD
  5
10C
330
1
100
AcDbSymbolTableRecord
100
AcDbBlockTableRecord
  2
_D_3
340
0
  0
BLOCK_RECORD
  5
125
330
1
100
AcDbSymbolTableRecord
100
AcDbBlockTableRecord
  2
SW_DOWELSYMBOL_0
340
0
102
{BLKREFS
331
12B
331
1D2
331
0
102
}
  0
BLOCK_RECORD
  5
1E2
330
1
100
AcDbSymbolTableRecord
100
AcDbBlockTableRecord
  2
*D8
340
0
  0
BLOCK_RECORD
  5
1EE
330
1
100
AcDbSymbolTableRecord
100
AcDbBlockTableRecord
  2
*D9
340
0
  0
BLOCK_RECORD
  5
1FA
330
1
100
AcDbSymbolTableRecord
100
AcDbBlockTableRecord
  2
*D10
340
0
  0
BLOCK_RECORD
  5
206
330
1
100
AcDbSymbolTableRecord
100
AcDbBlockTableRecord
  2
*D11
340
0
  0
BLOCK_RECORD
  5
243
330
1
100
AcDbSymbolTableRecord
100
AcDbBlockTableRecord
  2
*D12
340
0
  0
BLOCK_RECORD
  5
24F
330
1
100
AcDbSymbolTableRecord
100
AcDbBlockTableRecord
  2
*D13
340
0
  0
BLOCK_RECORD
  5
25B
330
1
100
AcDbSymbolTableRecord
100
AcDbBlockTableRecord
  2
*D14
340
0
  0
BLOCK_RECORD
  5
267
330
1
100
AcDbSymbolTableRecord
100
AcDbBlockTableRecord
  2
*D15
340
0
  0
ENDTAB
  0
ENDSEC
  0
SECTION
  2
BLOCKS
  0
BLOCK
  5
20
330
1F
100
AcDbEntity
  8
0
100
AcDbBlockBegin
  2
*Model_Space
 70
     0
 10
0.0
 20
0.0
 30
0.0
  3
*Model_Space
  1
*Model_Space
  0
ENDBLK
  5
21
330
1F
100
AcDbEntity
  8
0
100
AcDbBlockEnd
  0
BLOCK
  5
1C
330
1B
100
AcDbEntity
 67
     1
  8
0
100
AcDbBlockBegin
  2
*Paper_Space
 70
     0
 10
0.0
 20
0.0
 30
0.0
  3
*Paper_Space
  1
*Paper_Space
  0
ENDBLK
  5
1D
330
1B
100
AcDbEntity
 67
     1
  8
0
100
AcDbBlockEnd
  0
BLOCK
  5
24
330
23
100
AcDbEntity
  8
0
100
AcDbBlockBegin
  2
*Paper_Space0
 70
     0
 10
0.0
 20
0.0
 30
0.0
  3
*Paper_Space0
  1
*Paper_Space0
  0
ENDBLK
  5
25
330
23
100
AcDbEntity
  8
0
100
AcDbBlockEnd
  0
BLOCK
  5
80
330
7F
100
AcDbEntity
  8
0
100
AcDbBlockBegin
  2
블럭10
 70
     2
 10
0.0
 20
0.0
 30
0.0
  3
블럭10
  1
블럭10
  0
ELLIPSE
  5
82
330
7F
100
AcDbEntity
  8
중심선
100
AcDbEllipse
 10
20.54032771741204
 20
12.0471743016438
 30
0.0
 11
6.600054785286829
 21
-1.261213355974178E-13
 31
0.0
210
0.0
220
0.0
230
1.0
 40
0.636358354079598
 41
0.9219305317359503
 42
6.513795318482858
  0
ELLIPSE
  5
83
330
7F
100
AcDbEntity
  8
중심선
100
AcDbEllipse
 10
20.54032771746488
 20
12.04717430159265
 30
0.0
 11
3.960054785062283
 21
1.540847449632565E-10
 31
0.0
210
0.0
220
0.0
230
1.0
 40
0.3939339440162632
 41
1.131841032648279
 42
5.62031148352944
  0
LINE
  5
84
330
7F
100
AcDbEntity
  8
중심선
100
AcDbLine
 10
2.268634060543552
 20
16.24717430164393
 30
0.0
 11
5.714909304380834
 21
16.24717430164393
 31
0.0
  0
LINE
  5
85
330
7F
100
AcDbEntity
  8
중심선
100
AcDbLine
 10
5.245725140726316
 20
7.84717430164391
 30
0.0
 11
8.692000384563599
 21
7.84717430164391
 31
0.0
  0
LINE
  5
86
330
7F
100
AcDbEntity
  8
중심선
100
AcDbLine
 10
15.74043728645272
 20
16.24717430164393
 30
0.0
 11
8.692000384563599
 21
7.84717430164391
 31
0.0
  0
LINE
  5
87
330
7F
100
AcDbEntity
  8
중심선
100
AcDbLine
 10
0.1404042013395286
 20
13.71084872107135
 30
0.0
 11
3.58671253028996
 21
13.71088815037384
 31
0.0
  0
LINE
  5
88
330
7F
100
AcDbEntity
  8
중심선
100
AcDbLine
 10
2.750260043222114
 20
10.84717430164391
 30
0.0
 11
6.196535287059397
 21
10.84717430164391
 31
0.0
  0
LINE
  5
89
330
7F
100
AcDbEntity
  8
중심선
100
AcDbLine
 10
12.29416204261559
 20
16.24717430164393
 30
0.0
 11
5.245725140726316
 21
7.84717430164391
 31
0.0
  0
LINE
  5
8A
330
7F
100
AcDbEntity
  8
중심선
100
AcDbLine
 10
10.72767329541681
 20
16.24717430164393
 30
0.0
 11
6.196535287059397
 21
10.84717430164391
 31
0.0
  0
LINE
  5
8B
330
7F
100
AcDbEntity
  8
중심선
100
AcDbLine
 10
7.28139805157953
 20
16.24717430164393
 30
0.0
 11
2.750260043222114
 21
10.84717430164391
 31
0.0
  0
LINE
  5
8C
330
7F
100
AcDbEntity
  8
중심선
100
AcDbLine
 10
5.714909304380834
 20
16.24717430164393
 30
0.0
 11
3.58671253028996
 21
13.71088815037384
 31
0.0
  0
LINE
  5
8D
330
7F
100
AcDbEntity
  8
중심선
100
AcDbLine
 10
2.268634060543552
 20
16.24717430164393
 30
0.0
 11
0.1404042013395286
 21
13.71084872107135
 31
0.0
  0
LINE
  5
8E
330
7F
100
AcDbEntity
  8
중심선
100
AcDbLine
 10
7.28139805157953
 20
16.24717430164393
 30
0.0
 11
10.72767329541681
 21
16.24717430164393
 31
0.0
  0
LINE
  5
8F
330
7F
100
AcDbEntity
  8
중심선
100
AcDbLine
 10
12.29416204261559
 20
16.24717430164393
 30
0.0
 11
15.74043728645272
 21
16.24717430164393
 31
0.0
  0
LINE
  5
90
330
7F
100
AcDbEntity
  8
중심선
100
AcDbLine
 10
19.22036997980202
 20
11.08717430171403
 30
0.0
 11
23.66174974927406
 21
11.08717430171406
 31
0.0
  0
LINE
  5
91
330
7F
100
AcDbEntity
  8
중심선
100
AcDbLine
 10
19.22039502424796
 20
13.00717430171391
 30
0.0
 11
19.22036997980202
 21
11.08717430171403
 31
0.0
  0
LINE
  5
92
330
7F
100
AcDbEntity
  8
중심선
100
AcDbLine
 10
19.22039502424796
 20
13.00717430171391
 30
0.0
 11
26.96566020931264
 21
13.00717430171391
 31
0.0
  0
LINE
  5
93
330
7F
100
AcDbEntity
  8
중심선
100
AcDbLine
 10
22.22332737316547
 20
13.45928029700563
 30
0.0
 11
24.52862924686651
 21
15.39360700705356
 31
0.0
  0
ATTDEF
  5
95
330
7F
100
AcDbEntity
  8
FORMAT
 62
     2
100
AcDbText
 10
4.408487351596664
 20
2.075366912832191
 30
0.0
 40
4.233333333333333
  1
E2021020
 41
0.75
  7
SLDTEXTSTYLE0
 11
4.408487351596664
 21
-0.0412997538344756
 31
0.0
100
AcDbAttributeDefinition
  3

  2
AUTOATTR0
 70
     0
 74
     1
  0
ENDBLK
  5
81
330
7F
100
AcDbEntity
  8
0
100
AcDbBlockEnd
  0
BLOCK
  5
D0
330
CF
100
AcDbEntity
  8
0
100
AcDbBlockBegin
  2
_D
 70
     0
 10
0.0
 20
0.0
 30
0.0
  3
_D
  1
_D
  0
LINE
  5
D2
330
CF
100
AcDbEntity
  8
치수문자_일반주서
 62
     0
370
    -2
100
AcDbLine
 10
40.88731532850778
 20
4.0323249287239
 30
0.0
 11
40.88731532850778
 21
14.76357492872391
 31
0.0
  0
LINE
  5
D3
330
CF
100
AcDbEntity
  8
치수문자_일반주서
 62
     0
370
    -2
100
AcDbLine
 10
5.962315328507798
 20
4.01773021385194
 30
0.0
 11
5.962315328507799
 21
14.76357492872391
 31
0.0
  0
LINE
  5
D4
330
CF
100
AcDbEntity
  8
치수문자_일반주서
 62
     0
370
    -2
100
AcDbLine
 10
37.58531532850778
 20
14.76357492872391
 30
0.0
 11
9.264315328507799
 21
14.76357492872391
 31
0.0
  0
SOLID
  5
D5
330
CF
100
AcDbEntity
  8
치수문자_일반주서
 62
     0
100
AcDbTrace
 10
37.58531532850778
 20
14.21324159539057
 30
0.0
 11
37.58531532850778
 21
15.31390826205724
 31
0.0
 12
40.88731532850778
 22
14.76357492872391
 32
0.0
 13
40.88731532850778
 23
14.76357492872391
 33
0.0
  0
SOLID
  5
D6
330
CF
100
AcDbEntity
  8
치수문자_일반주서
 62
     0
100
AcDbTrace
 10
9.264315328507799
 20
15.31390826205724
 30
0.0
 11
9.264315328507799
 21
14.21324159539057
 31
0.0
 12
5.962315328507799
 22
14.76357492872391
 32
0.0
 13
5.962315328507799
 23
14.76357492872391
 33
0.0
  0
MTEXT
  5
D7
330
CF
100
AcDbEntity
  8
치수문자_일반주서
 62
     0
100
AcDbMText
 10
23.42481532850779
 20
19.13857492872391
 30
0.0
 40
3.5
 41
0.0
 71
     2
 72
     1
  1
\A1;34.93 [1 3/8]
  7
SLDTEXTSTYLE0
 73
     1
 44
1.0
  0
POINT
  5
D8
330
CF
100
AcDbEntity
  8
Defpoints
 62
     0
100
AcDbPoint
 10
40.88731532850778
 20
3.9698249287239
 30
0.0
  0
POINT
  5
D9
330
CF
100
AcDbEntity
  8
Defpoints
 62
     0
100
AcDbPoint
 10
5.962315328507798
 20
3.95523021385194
 30
0.0
  0
POINT
  5
DA
330
CF
100
AcDbEntity
  8
Defpoints
 62
     0
100
AcDbPoint
 10
5.962315328507798
 20
14.76357492872391
 30
0.0
  0
ENDBLK
  5
D1
330
CF
100
AcDbEntity
  8
0
100
AcDbBlockEnd
  0
BLOCK
  5
E4
330
E3
100
AcDbEntity
  8
0
100
AcDbBlockBegin
  2
_D_1
 70
     0
 10
0.0
 20
0.0
 30
0.0
  3
_D_1
  1
_D_1
  0
LINE
  5
E6
330
E3
100
AcDbEntity
  8
치수문자_일반주서
 62
     0
370
    -2
100
AcDbLine
 10
40.88731532850778
 20
4.0323249287239
 30
0.0
 11
40.88731532850777
 21
31.6102217220047
 31
0.0
  0
LINE
  5
E7
330
E3
100
AcDbEntity
  8
치수문자_일반주서
 62
     0
370
    -2
100
AcDbLine
 10
-38.4876846714922
 20
3.873574928723901
 30
0.0
 11
-38.4876846714922
 21
31.6102217220047
 31
0.0
  0
LINE
  5
E8
330
E3
100
AcDbEntity
  8
치수문자_일반주서
 62
     0
370
    -2
100
AcDbLine
 10
37.58531532850778
 20
31.6102217220047
 30
0.0
 11
-35.1856846714922
 21
31.6102217220047
 31
0.0
  0
SOLID
  5
E9
330
E3
100
AcDbEntity
  8
치수문자_일반주서
 62
     0
100
AcDbTrace
 10
37.58531532850778
 20
31.05988838867136
 30
0.0
 11
37.58531532850778
 21
32.16055505533803
 31
0.0
 12
40.88731532850777
 22
31.6102217220047
 32
0.0
 13
40.88731532850777
 23
31.6102217220047
 33
0.0
  0
SOLID
  5
EA
330
E3
100
AcDbEntity
  8
치수문자_일반주서
 62
     0
100
AcDbTrace
 10
-35.1856846714922
 20
32.16055505533803
 30
0.0
 11
-35.1856846714922
 21
31.05988838867136
 31
0.0
 12
-38.4876846714922
 22
31.6102217220047
 32
0.0
 13
-38.4876846714922
 23
31.6102217220047
 33
0.0
  0
MTEXT
  5
EB
330
E3
100
AcDbEntity
  8
치수문자_일반주서
 62
     0
100
AcDbMText
 10
1.199815328507794
 20
35.9852217220047
 30
0.0
 40
3.5
 41
0.0
 71
     2
 72
     1
  1
\A1;79.38 [3 1/8]
  7
SLDTEXTSTYLE0
 73
     1
 44
1.0
  0
POINT
  5
EC
330
E3
100
AcDbEntity
  8
Defpoints
 62
     0
100
AcDbPoint
 10
40.88731532850778
 20
3.9698249287239
 30
0.0
  0
POINT
  5
ED
330
E3
100
AcDbEntity
  8
Defpoints
 62
     0
100
AcDbPoint
 10
-38.4876846714922
 20
3.811074928723901
 30
0.0
  0
POINT
  5
EE
330
E3
100
AcDbEntity
  8
Defpoints
 62
     0
100
AcDbPoint
 10
-38.4876846714922
 20
31.6102217220047
 30
0.0
  0
ENDBLK
  5
E5
330
E3
100
AcDbEntity
  8
0
100
AcDbBlockEnd
  0
BLOCK
  5
F8
330
F7
100
AcDbEntity
  8
0
100
AcDbBlockBegin
  2
_D_2
 70
     0
 10
0.0
 20
0.0
 30
0.0
  3
_D_2
  1
_D_2
  0
LINE
  5
FA
330
F7
100
AcDbEntity
  8
치수문자_일반주서
 62
     0
370
    -2
100
AcDbLine
 10
-37.59768467149218
 20
4.763574928723896
 30
0.0
 11
-51.4876846714922
 21
4.763574928723846
 31
0.0
  0
LINE
  5
FB
330
F7
100
AcDbEntity
  8
치수문자_일반주서
 62
     0
370
    -2
100
AcDbLine
 10
-37.59768467149218
 20
-4.761425071276109
 30
0.0
 11
-51.48768467149217
 21
-4.76142507127616
 31
0.0
  0
LINE
  5
FC
330
F7
100
AcDbEntity
  8
치수문자_일반주서
 62
     0
370
    -2
100
AcDbLine
 10
-51.48768467149219
 20
1.461574928723846
 30
0.0
 11
-51.48768467149218
 21
-1.459425071276161
 31
0.0
  0
SOLID
  5
FD
330
F7
100
AcDbEntity
  8
치수문자_일반주서
 62
     0
100
AcDbTrace
 10
-50.93735133815886
 20
1.461574928723848
 30
0.0
 11
-52.03801800482552
 21
1.461574928723844
 31
0.0
 12
-51.4876846714922
 22
4.763574928723846
 32
0.0
 13
-51.4876846714922
 23
4.763574928723846
 33
0.0
  0
SOLID
  5
FE
330
F7
100
AcDbEntity
  8
치수문자_일반주서
 62
     0
100
AcDbTrace
 10
-52.03801800482552
 20
-1.459425071276162
 30
0.0
 11
-50.93735133815885
 21
-1.459425071276159
 31
0.0
 12
-51.48768467149217
 22
-4.76142507127616
 32
0.0
 13
-51.48768467149217
 23
-4.76142507127616
 33
0.0
  0
MTEXT
  5
FF
330
F7
100
AcDbEntity
  8
치수문자_일반주서
 62
     0
100
AcDbMText
 10
-55.86268467149219
 20
0.0010749287238777
 30
0.0
 40
3.5
 41
0.0
 71
     2
 72
     1
  1
\A1;%%c9.53 [3/8]
  7
SLDTEXTSTYLE0
 11
-3.729883127349604E-15
 21
1.0
 31
0.0
 73
     1
 44
1.0
  0
POINT
  5
100
330
F7
100
AcDbEntity
  8
Defpoints
 62
     0
100
AcDbPoint
 10
-37.53518467149218
 20
4.763574928723896
 30
0.0
  0
POINT
  5
101
330
F7
100
AcDbEntity
  8
Defpoints
 62
     0
100
AcDbPoint
 10
-37.53518467149218
 20
-4.761425071276109
 30
0.0
  0
POINT
  5
102
330
F7
100
AcDbEntity
  8
Defpoints
 62
     0
100
AcDbPoint
 10
-51.48768467149217
 20
-4.761425071276162
 30
0.0
  0
ENDBLK
  5
F9
330
F7
100
AcDbEntity
  8
0
100
AcDbBlockEnd
  0
BLOCK
  5
10D
330
10C
100
AcDbEntity
  8
0
100
AcDbBlockBegin
  2
_D_3
 70
     0
 10
0.0
 20
0.0
 30
0.0
  3
_D_3
  1
_D_3
  0
LINE
  5
10F
330
10C
100
AcDbEntity
  8
치수문자_일반주서
 62
     0
370
    -2
100
AcDbLine
 10
40.94981532850778
 20
3.969824928723901
 30
0.0
 11
51.62627573758102
 21
3.969824928723941
 31
0.0
  0
LINE
  5
110
330
10C
100
AcDbEntity
  8
치수문자_일반주서
 62
     0
370
    -2
100
AcDbLine
 10
40.94981532850782
 20
-3.967675071276099
 30
0.0
 11
51.62627573758105
 21
-3.967675071276059
 31
0.0
  0
LINE
  5
111
330
10C
100
AcDbEntity
  8
치수문자_일반주서
 62
     0
370
    -2
100
AcDbLine
 10
51.62627573758102
 20
3.969824928723941
 30
0.0
 11
51.6262757375809
 21
38.57382492872395
 31
0.0
  0
LINE
  5
112
330
10C
100
AcDbEntity
  8
치수문자_일반주서
 62
     0
370
    -2
100
AcDbLine
 10
51.62627573758102
 20
3.969824928723941
 30
0.0
 11
51.62627573758105
 21
-3.967675071276059
 31
0.0
  0
LINE
  5
113
330
10C
100
AcDbEntity
  8
치수문자_일반주서
 62
     0
370
    -2
100
AcDbLine
 10
51.626275737581
 20
7.271824928723941
 30
0.0
 11
51.62627573758099
 21
10.57382492872394
 31
0.0
  0
LINE
  5
114
330
10C
100
AcDbEntity
  8
치수문자_일반주서
 62
     0
370
    -2
100
AcDbLine
 10
51.62627573758106
 20
-7.269675071276058
 30
0.0
 11
51.62627573758108
 21
-10.57167507127606
 31
0.0
  0
SOLID
  5
115
330
10C
100
AcDbEntity
  8
치수문자_일반주서
 62
     0
100
AcDbTrace
 10
51.07594240424767
 20
7.271824928723939
 30
0.0
 11
52.17660907091434
 21
7.271824928723943
 31
0.0
 12
51.62627573758102
 22
3.969824928723941
 32
0.0
 13
51.62627573758102
 23
3.969824928723941
 33
0.0
  0
SOLID
  5
116
330
10C
100
AcDbEntity
  8
치수문자_일반주서
 62
     0
100
AcDbTrace
 10
52.1766090709144
 20
-7.269675071276056
 30
0.0
 11
51.07594240424773
 21
-7.26967507127606
 31
0.0
 12
51.62627573758105
 22
-3.967675071276059
 32
0.0
 13
51.62627573758105
 23
-3.967675071276059
 33
0.0
  0
MTEXT
  5
117
330
10C
100
AcDbEntity
  8
치수문자_일반주서
 62
     0
100
AcDbMText
 10
47.25127573758095
 20
24.57382492872393
 30
0.0
 40
3.5
 41
0.0
 71
     2
 72
     1
  1
\A1;%%c7.94 [5/16]
  7
SLDTEXTSTYLE0
 11
-3.580687802255623E-15
 21
1.0
 31
0.0
 73
     1
 44
1.0
  0
POINT
  5
118
330
10C
100
AcDbEntity
  8
Defpoints
 62
     0
100
AcDbPoint
 10
40.88731532850778
 20
3.9698249287239
 30
0.0
  0
POINT
  5
119
330
10C
100
AcDbEntity
  8
Defpoints
 62
     0
100
AcDbPoint
 10
40.88731532850782
 20
-3.9676750712761
 30
0.0
  0
POINT
  5
11A
330
10C
100
AcDbEntity
  8
Defpoints
 62
     0
100
AcDbPoint
 10
51.62627573758105
 20
-3.96767507127606
 30
0.0
  0
ENDBLK
  5
10E
330
10C
100
AcDbEntity
  8
0
100
AcDbBlockEnd
  0
BLOCK
  5
126
330
125
100
AcDbEntity
  8
0
100
AcDbBlockBegin
  2
SW_DOWELSYMBOL_0
 70
     0
 10
0.0
 20
0.0
 30
0.0
  3
SW_DOWELSYMBOL_0
  1
SW_DOWELSYMBOL_0
  0
CIRCLE
  5
128
330
125
100
AcDbEntity
  8
해칭선
 62
     0
100
AcDbCircle
 10
0.0
 20
0.0
 30
0.0
 40
3.000000000000001
  0
HATCH
  5
129
330
125
100
AcDbEntity
  8
0
  6
Continuous
 62
     0
370
     0
100
AcDbHatch
 10
0.0
 20
0.0
 30
0.0
210
0.0
220
0.0
230
1.0
  2
SOLID
 70
     1
 71
     0
 91
        1
 92
        0
 93
        3
 72
     2
 10
0.0
 20
0.0
 40
3.000000000000001
 50
0.0
 51
90.0
 73
     1
 72
     1
 10
0.0
 20
3.000000000000001
 11
0.0
 21
0.0
 72
     1
 10
0.0
 20
0.0
 11
3.000000000000001
 21
0.0
 97
        0
 75
     0
 76
     1
 98
        1
 10
0.0
 20
0.0
  0
HATCH
  5
12A
330
125
100
AcDbEntity
  8
0
  6
Continuous
 62
     0
370
     0
100
AcDbHatch
 10
0.0
 20
0.0
 30
0.0
210
0.0
220
0.0
230
1.0
  2
SOLID
 70
     1
 71
     0
 91
        1
 92
        0
 93
        3
 72
     2
 10
0.0
 20
0.0
 40
3.000000000000001
 50
180.0
 51
270.0000000000008
 73
     1
 72
     1
 10
0.0
 20
-3.000000000000001
 11
0.0
 21
0.0
 72
     1
 10
0.0
 20
0.0
 11
-3.000000000000001
 21
0.0
 97
        0
 75
     0
 76
     1
 98
        1
 10
0.0
 20
0.0
  0
ENDBLK
  5
127
330
125
100
AcDbEntity
  8
0
100
AcDbBlockEnd
  0
BLOCK
  5
1E3
330
1E2
100
AcDbEntity
  8
0
100
AcDbBlockBegin
  2
*D8
 70
     1
 10
0.0
 20
0.0
 30
0.0
  3
*D8
  1
*D8
  0
LINE
  5
1E5
330
1E2
100
AcDbEntity
  8
치수문자_일반주서
 62
     0
370
    -2
100
AcDbLine
 10
99.92500000000007
 20
17.07500000000002
 30
0.0
 11
99.92500000000007
 21
27.01250000000003
 31
0.0
  0
LINE
  5
1E6
330
1E2
100
AcDbEntity
  8
치수문자_일반주서
 62
     0
370
    -2
100
AcDbLine
 10
61.82500000000003
 20
17.05748634215366
 30
0.0
 11
61.82500000000003
 21
27.01250000000003
 31
0.0
  0
LINE
  5
1E7
330
1E2
100
AcDbEntity
  8
치수문자_일반주서
 62
     0
370
    -2
100
AcDbLine
 10
96.62300000000008
 20
27.01250000000003
 30
0.0
 11
65.12700000000004
 21
27.01250000000003
 31
0.0
  0
SOLID
  5
1E8
330
1E2
100
AcDbEntity
  8
치수문자_일반주서
 62
     0
100
AcDbTrace
 10
96.62300000000008
 20
26.46216666666669
 30
0.0
 11
96.62300000000008
 21
27.56283333333336
 31
0.0
 12
99.92500000000007
 22
27.01250000000003
 32
0.0
 13
99.92500000000007
 23
27.01250000000003
 33
0.0
  0
SOLID
  5
1E9
330
1E2
100
AcDbEntity
  8
치수문자_일반주서
 62
     0
100
AcDbTrace
 10
65.12700000000004
 20
27.56283333333336
 30
0.0
 11
65.12700000000004
 21
26.46216666666669
 31
0.0
 12
61.82500000000003
 22
27.01250000000003
 32
0.0
 13
61.82500000000003
 23
27.01250000000003
 33
0.0
  0
MTEXT
  5
1EA
330
1E2
100
AcDbEntity
  8
치수문자_일반주서
 62
     0
100
AcDbMText
 10
78.33653561008205
 20
31.38750000000003
 30
0.0
 40
3.5
 41
0.0
 71
     2
 72
     1
  1
\A1;38.1 [1 1/2]
  7
SLDTEXTSTYLE0
 73
     1
 44
1.0
  0
POINT
  5
1EB
330
1E2
100
AcDbEntity
  8
Defpoints
 62
     0
100
AcDbPoint
 10
99.92500000000007
 20
17.01250000000002
 30
0.0
  0
POINT
  5
1EC
330
1E2
100
AcDbEntity
  8
Defpoints
 62
     0
100
AcDbPoint
 10
61.82500000000003
 20
16.99498634215366
 30
0.0
  0
POINT
  5
1ED
330
1E2
100
AcDbEntity
  8
Defpoints
 62
     0
100
AcDbPoint
 10
61.82500000000003
 20
27.01250000000003
 30
0.0
  0
ENDBLK
  5
1E4
330
1E2
100
AcDbEntity
  8
0
100
AcDbBlockEnd
  0
BLOCK
  5
1EF
330
1EE
100
AcDbEntity
  8
0
100
AcDbBlockBegin
  2
*D9
 70
     1
 10
0.0
 20
0.0
 30
0.0
  3
*D9
  1
*D9
  0
LINE
  5
1F1
330
1EE
100
AcDbEntity
  8
치수문자_일반주서
 62
     0
370
    -2
100
AcDbLine
 10
99.92500000000007
 20
17.07500000000002
 30
0.0
 11
99.92500000000007
 21
43.85914679328082
 31
0.0
  0
LINE
  5
1F2
330
1EE
100
AcDbEntity
  8
치수문자_일반주서
 62
     0
370
    -2
100
AcDbLine
 10
17.37500000000004
 20
16.12250000000002
 30
0.0
 11
17.37500000000004
 21
43.85914679328082
 31
0.0
  0
LINE
  5
1F3
330
1EE
100
AcDbEntity
  8
치수문자_일반주서
 62
     0
370
    -2
100
AcDbLine
 10
96.62300000000008
 20
43.85914679328082
 30
0.0
 11
20.67700000000004
 21
43.85914679328082
 31
0.0
  0
SOLID
  5
1F4
330
1EE
100
AcDbEntity
  8
치수문자_일반주서
 62
     0
100
AcDbTrace
 10
96.62300000000008
 20
43.30881345994749
 30
0.0
 11
96.62300000000008
 21
44.40948012661416
 31
0.0
 12
99.92500000000007
 22
43.85914679328082
 32
0.0
 13
99.92500000000007
 23
43.85914679328082
 33
0.0
  0
SOLID
  5
1F5
330
1EE
100
AcDbEntity
  8
치수문자_일반주서
 62
     0
100
AcDbTrace
 10
20.67700000000004
 20
44.40948012661416
 30
0.0
 11
20.67700000000004
 21
43.30881345994749
 31
0.0
 12
17.37500000000004
 22
43.85914679328082
 32
0.0
 13
17.37500000000004
 23
43.85914679328082
 33
0.0
  0
MTEXT
  5
1F6
330
1EE
100
AcDbEntity
  8
치수문자_일반주서
 62
     0
100
AcDbMText
 10
58.65000000000005
 20
48.23414679328082
 30
0.0
 40
3.5
 41
0.0
 71
     2
 72
     1
  1
\A1;82.55 [3 1/4]
  7
SLDTEXTSTYLE0
 73
     1
 44
1.0
  0
POINT
  5
1F7
330
1EE
100
AcDbEntity
  8
Defpoints
 62
     0
100
AcDbPoint
 10
99.92500000000007
 20
17.01250000000002
 30
0.0
  0
POINT
  5
1F8
330
1EE
100
AcDbEntity
  8
Defpoints
 62
     0
100
AcDbPoint
 10
17.37500000000004
 20
16.06000000000002
 30
0.0
  0
POINT
  5
1F9
330
1EE
100
AcDbEntity
  8
Defpoints
 62
     0
100
AcDbPoint
 10
17.37500000000004
 20
43.85914679328082
 30
0.0
  0
ENDBLK
  5
1F0
330
1EE
100
AcDbEntity
  8
0
100
AcDbBlockEnd
  0
BLOCK
  5
1FB
330
1FA
100
AcDbEntity
  8
0
100
AcDbBlockBegin
  2
*D10
 70
     1
 10
0.0
 20
0.0
 30
0.0
  3
*D10
  1
*D10
  0
LINE
  5
1FD
330
1FA
100
AcDbEntity
  8
치수문자_일반주서
 62
     0
370
    -2
100
AcDbLine
 10
18.26500000000006
 20
17.01250000000002
 30
0.0
 11
4.375000000000034
 21
17.01249999999997
 31
0.0
  0
LINE
  5
1FE
330
1FA
100
AcDbEntity
  8
치수문자_일반주서
 62
     0
370
    -2
100
AcDbLine
 10
18.26500000000006
 20
7.487500000000014
 30
0.0
 11
4.375000000000067
 21
7.487499999999961
 31
0.0
  0
LINE
  5
1FF
330
1FA
100
AcDbEntity
  8
치수문자_일반주서
 62
     0
370
    -2
100
AcDbLine
 10
4.375000000000045
 20
13.71049999999997
 30
0.0
 11
4.375000000000055
 21
10.78949999999996
 31
0.0
  0
SOLID
  5
200
330
1FA
100
AcDbEntity
  8
치수문자_일반주서
 62
     0
100
AcDbTrace
 10
4.925333333333379
 20
13.71049999999997
 30
0.0
 11
3.824666666666712
 21
13.71049999999997
 31
0.0
 12
4.375000000000034
 22
17.01249999999997
 32
0.0
 13
4.375000000000034
 23
17.01249999999997
 33
0.0
  0
SOLID
  5
201
330
1FA
100
AcDbEntity
  8
치수문자_일반주서
 62
     0
100
AcDbTrace
 10
3.824666666666722
 20
10.78949999999996
 30
0.0
 11
4.925333333333389
 21
10.78949999999996
 31
0.0
 12
4.375000000000067
 22
7.487499999999961
 32
0.0
 13
4.375000000000067
 23
7.487499999999961
 33
0.0
  0
MTEXT
  5
202
330
1FA
100
AcDbEntity
  8
치수문자_일반주서
 62
     0
100
AcDbMText
 10
0.0000000000000497
 20
12.25
 30
0.0
 40
3.5
 41
0.0
 71
     2
 72
     1
  1
\A1;%%c9.53 [3/8]
  7
SLDTEXTSTYLE0
 11
-3.450141892798385E-15
 21
1.0
 31
0.0
 73
     1
 44
1.0
  0
POINT
  5
203
330
1FA
100
AcDbEntity
  8
Defpoints
 62
     0
100
AcDbPoint
 10
18.32750000000006
 20
17.01250000000002
 30
0.0
  0
POINT
  5
204
330
1FA
100
AcDbEntity
  8
Defpoints
 62
     0
100
AcDbPoint
 10
18.32750000000006
 20
7.487500000000014
 30
0.0
  0
POINT
  5
205
330
1FA
100
AcDbEntity
  8
Defpoints
 62
     0
100
AcDbPoint
 10
4.375000000000071
 20
7.487499999999962
 30
0.0
  0
ENDBLK
  5
1FC
330
1FA
100
AcDbEntity
  8
0
100
AcDbBlockEnd
  0
BLOCK
  5
207
330
206
100
AcDbEntity
  8
0
100
AcDbBlockBegin
  2
*D11
 70
     1
 10
0.0
 20
0.0
 30
0.0
  3
*D11
  1
*D11
  0
LINE
  5
209
330
206
100
AcDbEntity
  8
치수문자_일반주서
 62
     0
370
    -2
100
AcDbLine
 10
99.98750000000007
 20
17.01250000000002
 30
0.0
 11
114.0545730095625
 21
17.01250000000008
 31
0.0
  0
LINE
  5
20A
330
206
100
AcDbEntity
  8
치수문자_일반주서
 62
     0
370
    -2
100
AcDbLine
 10
99.98750000000007
 20
7.487500000000025
 30
0.0
 11
114.0545730095626
 21
7.487500000000079
 31
0.0
  0
LINE
  5
20B
330
206
100
AcDbEntity
  8
치수문자_일반주서
 62
     0
370
    -2
100
AcDbLine
 10
114.0545730095625
 20
17.01250000000008
 30
0.0
 11
114.0545730095624
 21
49.86650000000007
 31
0.0
  0
LINE
  5
20C
330
206
100
AcDbEntity
  8
치수문자_일반주서
 62
     0
370
    -2
100
AcDbLine
 10
114.0545730095625
 20
17.01250000000008
 30
0.0
 11
114.0545730095626
 21
7.487500000000079
 31
0.0
  0
LINE
  5
20D
330
206
100
AcDbEntity
  8
치수문자_일반주서
 62
     0
370
    -2
100
AcDbLine
 10
114.0545730095625
 20
20.31450000000008
 30
0.0
 11
114.0545730095625
 21
23.61650000000008
 31
0.0
  0
LINE
  5
20E
330
206
100
AcDbEntity
  8
치수문자_일반주서
 62
     0
370
    -2
100
AcDbLine
 10
114.0545730095626
 20
4.185500000000079
 30
0.0
 11
114.0545730095626
 21
0.8835000000000797
 31
0.0
  0
SOLID
  5
20F
330
206
100
AcDbEntity
  8
치수문자_일반주서
 62
     0
100
AcDbTrace
 10
113.5042396762292
 20
20.31450000000008
 30
0.0
 11
114.6049063428958
 21
20.31450000000008
 31
0.0
 12
114.0545730095625
 22
17.01250000000008
 32
0.0
 13
114.0545730095625
 23
17.01250000000008
 33
0.0
  0
SOLID
  5
210
330
206
100
AcDbEntity
  8
치수문자_일반주서
 62
     0
100
AcDbTrace
 10
114.6049063428959
 20
4.185500000000081
 30
0.0
 11
113.5042396762292
 21
4.185500000000077
 31
0.0
 12
114.0545730095626
 22
7.487500000000079
 32
0.0
 13
114.0545730095626
 23
7.487500000000079
 33
0.0
  0
MTEXT
  5
211
330
206
100
AcDbEntity
  8
치수문자_일반주서
 62
     0
100
AcDbMText
 10
109.6795730095625
 20
36.74150000000006
 30
0.0
 40
3.5
 41
0.0
 71
     2
 72
     1
  1
\A1;%%c9.53 [3/8]
  7
SLDTEXTSTYLE0
 11
-2.983906501879686E-15
 21
1.0
 31
0.0
 73
     1
 44
1.0
  0
POINT
  5
212
330
206
100
AcDbEntity
  8
Defpoints
 62
     0
100
AcDbPoint
 10
99.92500000000007
 20
17.01250000000002
 30
0.0
  0
POINT
  5
213
330
206
100
AcDbEntity
  8
Defpoints
 62
     0
100
AcDbPoint
 10
99.92500000000007
 20
7.487500000000025
 30
0.0
  0
POINT
  5
214
330
206
100
AcDbEntity
  8
Defpoints
 62
     0
100
AcDbPoint
 10
114.0545730095626
 20
7.487500000000077
 30
0.0
  0
ENDBLK
  5
208
330
206
100
AcDbEntity
  8
0
100
AcDbBlockEnd
  0
BLOCK
  5
244
330
243
100
AcDbEntity
  8
0
100
AcDbBlockBegin
  2
*D12
 70
     1
 10
0.0
 20
0.0
 30
0.0
  3
*D12
  1
*D12
  0
LINE
  5
246
330
243
100
AcDbEntity
  8
치수문자_일반주서
 62
     0
370
    -2
100
AcDbLine
 10
176.5553445420893
 20
-48.65560350641912
 30
0.0
 11
176.5553445420893
 21
-38.71810350641911
 31
0.0
  0
LINE
  5
247
330
243
100
AcDbEntity
  8
치수문자_일반주서
 62
     0
370
    -2
100
AcDbLine
 10
138.4553445420893
 20
-48.67311716426548
 30
0.0
 11
138.4553445420893
 21
-38.71810350641911
 31
0.0
  0
LINE
  5
248
330
243
100
AcDbEntity
  8
치수문자_일반주서
 62
     0
370
    -2
100
AcDbLine
 10
173.2533445420893
 20
-38.71810350641911
 30
0.0
 11
141.7573445420893
 21
-38.71810350641911
 31
0.0
  0
SOLID
  5
249
330
243
100
AcDbEntity
  8
치수문자_일반주서
 62
     0
100
AcDbTrace
 10
173.2533445420893
 20
-39.26843683975245
 30
0.0
 11
173.2533445420893
 21
-38.16777017308578
 31
0.0
 12
176.5553445420893
 22
-38.71810350641911
 32
0.0
 13
176.5553445420893
 23
-38.71810350641911
 33
0.0
  0
SOLID
  5
24A
330
243
100
AcDbEntity
  8
치수문자_일반주서
 62
     0
100
AcDbTrace
 10
141.7573445420893
 20
-38.16777017308578
 30
0.0
 11
141.7573445420893
 21
-39.26843683975245
 31
0.0
 12
138.4553445420893
 22
-38.71810350641911
 32
0.0
 13
138.4553445420893
 23
-38.71810350641911
 33
0.0
  0
MTEXT
  5
24B
330
243
100
AcDbEntity
  8
치수문자_일반주서
 62
     0
100
AcDbMText
 10
154.9668801521713
 20
-34.34310350641911
 30
0.0
 40
3.5
 41
0.0
 71
     2
 72
     1
  1
\A1;38.1 [1 1/2]
  7
SLDTEXTSTYLE0
 73
     1
 44
1.0
  0
POINT
  5
24C
330
243
100
AcDbEntity
  8
Defpoints
 62
     0
100
AcDbPoint
 10
176.5553445420893
 20
-48.71810350641912
 30
0.0
  0
POINT
  5
24D
330
243
100
AcDbEntity
  8
Defpoints
 62
     0
100
AcDbPoint
 10
138.4553445420893
 20
-48.73561716426548
 30
0.0
  0
POINT
  5
24E
330
243
100
AcDbEntity
  8
Defpoints
 62
     0
100
AcDbPoint
 10
138.4553445420893
 20
-38.71810350641911
 30
0.0
  0
ENDBLK
  5
245
330
243
100
AcDbEntity
  8
0
100
AcDbBlockEnd
  0
BLOCK
  5
250
330
24F
100
AcDbEntity
  8
0
100
AcDbBlockBegin
  2
*D13
 70
     1
 10
0.0
 20
0.0
 30
0.0
  3
*D13
  1
*D13
  0
LINE
  5
252
330
24F
100
AcDbEntity
  8
치수문자_일반주서
 62
     0
370
    -2
100
AcDbLine
 10
176.5553445420893
 20
-48.65560350641912
 30
0.0
 11
176.5553445420893
 21
-21.87145671313832
 31
0.0
  0
LINE
  5
253
330
24F
100
AcDbEntity
  8
치수문자_일반주서
 62
     0
370
    -2
100
AcDbLine
 10
94.00534454208929
 20
-49.60810350641912
 30
0.0
 11
94.00534454208929
 21
-21.87145671313832
 31
0.0
  0
LINE
  5
254
330
24F
100
AcDbEntity
  8
치수문자_일반주서
 62
     0
370
    -2
100
AcDbLine
 10
173.2533445420893
 20
-21.87145671313832
 30
0.0
 11
97.30734454208928
 21
-21.87145671313832
 31
0.0
  0
SOLID
  5
255
330
24F
100
AcDbEntity
  8
치수문자_일반주서
 62
     0
100
AcDbTrace
 10
173.2533445420893
 20
-22.42179004647166
 30
0.0
 11
173.2533445420893
 21
-21.32112337980499
 31
0.0
 12
176.5553445420893
 22
-21.87145671313832
 32
0.0
 13
176.5553445420893
 23
-21.87145671313832
 33
0.0
  0
SOLID
  5
256
330
24F
100
AcDbEntity
  8
치수문자_일반주서
 62
     0
100
AcDbTrace
 10
97.30734454208928
 20
-21.32112337980499
 30
0.0
 11
97.30734454208928
 21
-22.42179004647166
 31
0.0
 12
94.00534454208929
 22
-21.87145671313832
 32
0.0
 13
94.00534454208929
 23
-21.87145671313832
 33
0.0
  0
MTEXT
  5
257
330
24F
100
AcDbEntity
  8
치수문자_일반주서
 62
     0
100
AcDbMText
 10
135.2803445420893
 20
-17.49645671313832
 30
0.0
 40
3.5
 41
0.0
 71
     2
 72
     1
  1
\A1;82.55 [3 1/4]
  7
SLDTEXTSTYLE0
 73
     1
 44
1.0
  0
POINT
  5
258
330
24F
100
AcDbEntity
  8
Defpoints
 62
     0
100
AcDbPoint
 10
176.5553445420893
 20
-48.71810350641912
 30
0.0
  0
POINT
  5
259
330
24F
100
AcDbEntity
  8
Defpoints
 62
     0
100
AcDbPoint
 10
94.00534454208929
 20
-49.67060350641912
 30
0.0
  0
POINT
  5
25A
330
24F
100
AcDbEntity
  8
Defpoints
 62
     0
100
AcDbPoint
 10
94.00534454208929
 20
-21.87145671313832
 30
0.0
  0
ENDBLK
  5
251
330
24F
100
AcDbEntity
  8
0
100
AcDbBlockEnd
  0
BLOCK
  5
25C
330
25B
100
AcDbEntity
  8
0
100
AcDbBlockBegin
  2
*D14
 70
     1
 10
0.0
 20
0.0
 30
0.0
  3
*D14
  1
*D14
  0
LINE
  5
25E
330
25B
100
AcDbEntity
  8
치수문자_일반주서
 62
     0
370
    -2
100
AcDbLine
 10
94.8953445420893
 20
-48.71810350641913
 30
0.0
 11
81.00534454208928
 21
-48.71810350641918
 31
0.0
  0
LINE
  5
25F
330
25B
100
AcDbEntity
  8
치수문자_일반주서
 62
     0
370
    -2
100
AcDbLine
 10
94.8953445420893
 20
-58.24310350641913
 30
0.0
 11
81.0053445420893
 21
-58.24310350641918
 31
0.0
  0
LINE
  5
260
330
25B
100
AcDbEntity
  8
치수문자_일반주서
 62
     0
370
    -2
100
AcDbLine
 10
81.00534454208929
 20
-52.02010350641918
 30
0.0
 11
81.00534454208929
 21
-54.94110350641918
 31
0.0
  0
SOLID
  5
261
330
25B
100
AcDbEntity
  8
치수문자_일반주서
 62
     0
100
AcDbTrace
 10
81.55567787542262
 20
-52.02010350641918
 30
0.0
 11
80.45501120875596
 21
-52.02010350641918
 31
0.0
 12
81.00534454208928
 22
-48.71810350641918
 32
0.0
 13
81.00534454208928
 23
-48.71810350641918
 33
0.0
  0
SOLID
  5
262
330
25B
100
AcDbEntity
  8
치수문자_일반주서
 62
     0
100
AcDbTrace
 10
80.45501120875596
 20
-54.94110350641918
 30
0.0
 11
81.55567787542262
 21
-54.94110350641918
 31
0.0
 12
81.0053445420893
 22
-58.24310350641918
 32
0.0
 13
81.0053445420893
 23
-58.24310350641918
 33
0.0
  0
MTEXT
  5
263
330
25B
100
AcDbEntity
  8
치수문자_일반주서
 62
     0
100
AcDbMText
 10
76.63034454208929
 20
-53.48060350641914
 30
0.0
 40
3.5
 41
0.0
 71
     2
 72
     1
  1
\A1;%%c9.53 [3/8]
  7
SLDTEXTSTYLE0
 11
-2.983906501879684E-15
 21
1.0
 31
0.0
 73
     1
 44
1.0
  0
POINT
  5
264
330
25B
100
AcDbEntity
  8
Defpoints
 62
     0
100
AcDbPoint
 10
94.9578445420893
 20
-48.71810350641913
 30
0.0
  0
POINT
  5
265
330
25B
100
AcDbEntity
  8
Defpoints
 62
     0
100
AcDbPoint
 10
94.9578445420893
 20
-58.24310350641913
 30
0.0
  0
POINT
  5
266
330
25B
100
AcDbEntity
  8
Defpoints
 62
     0
100
AcDbPoint
 10
81.00534454208932
 20
-58.24310350641918
 30
0.0
  0
ENDBLK
  5
25D
330
25B
100
AcDbEntity
  8
0
100
AcDbBlockEnd
  0
BLOCK
  5
268
330
267
100
AcDbEntity
  8
0
100
AcDbBlockBegin
  2
*D15
 70
     1
 10
0.0
 20
0.0
 30
0.0
  3
*D15
  1
*D15
  0
LINE
  5
26A
330
267
100
AcDbEntity
  8
치수문자_일반주서
 62
     0
370
    -2
100
AcDbLine
 10
176.6178445420893
 20
-48.71810350641912
 30
0.0
 11
190.6849175516518
 21
-48.71810350641907
 31
0.0
  0
LINE
  5
26B
330
267
100
AcDbEntity
  8
치수문자_일반주서
 62
     0
370
    -2
100
AcDbLine
 10
176.6178445420893
 20
-58.24310350641912
 30
0.0
 11
190.6849175516518
 21
-58.24310350641907
 31
0.0
  0
LINE
  5
26C
330
267
100
AcDbEntity
  8
치수문자_일반주서
 62
     0
370
    -2
100
AcDbLine
 10
190.6849175516518
 20
-48.71810350641907
 30
0.0
 11
190.6849175516517
 21
-15.86410350641907
 31
0.0
  0
LINE
  5
26D
330
267
100
AcDbEntity
  8
치수문자_일반주서
 62
     0
370
    -2
100
AcDbLine
 10
190.6849175516518
 20
-48.71810350641907
 30
0.0
 11
190.6849175516518
 21
-58.24310350641907
 31
0.0
  0
LINE
  5
26E
330
267
100
AcDbEntity
  8
치수문자_일반주서
 62
     0
370
    -2
100
AcDbLine
 10
190.6849175516518
 20
-45.41610350641907
 30
0.0
 11
190.6849175516518
 21
-42.11410350641907
 31
0.0
  0
LINE
  5
26F
330
267
100
AcDbEntity
  8
치수문자_일반주서
 62
     0
370
    -2
100
AcDbLine
 10
190.6849175516518
 20
-61.54510350641907
 30
0.0
 11
190.6849175516518
 21
-64.84710350641907
 31
0.0
  0
SOLID
  5
270
330
267
100
AcDbEntity
  8
치수문자_일반주서
 62
     0
100
AcDbTrace
 10
190.1345842183185
 20
-45.41610350641907
 30
0.0
 11
191.2352508849851
 21
-45.41610350641907
 31
0.0
 12
190.6849175516518
 22
-48.71810350641907
 32
0.0
 13
190.6849175516518
 23
-48.71810350641907
 33
0.0
  0
SOLID
  5
271
330
267
100
AcDbEntity
  8
치수문자_일반주서
 62
     0
100
AcDbTrace
 10
191.2352508849851
 20
-61.54510350641907
 30
0.0
 11
190.1345842183185
 21
-61.54510350641907
 31
0.0
 12
190.6849175516518
 22
-58.24310350641907
 32
0.0
 13
190.6849175516518
 23
-58.24310350641907
 33
0.0
  0
MTEXT
  5
272
330
267
100
AcDbEntity
  8
치수문자_일반주서
 62
     0
100
AcDbMText
 10
186.3099175516517
 20
-28.98910350641908
 30
0.0
 40
3.5
 41
0.0
 71
     2
 72
     1
  1
\A1;%%c9.53 [3/8]
  7
SLDTEXTSTYLE0
 11
-2.983906501879686E-15
 21
1.0
 31
0.0
 73
     1
 44
1.0
  0
POINT
  5
273
330
267
100
AcDbEntity
  8
Defpoints
 62
     0
100
AcDbPoint
 10
176.5553445420893
 20
-48.71810350641912
 30
0.0
  0
POINT
  5
274
330
267
100
AcDbEntity
  8
Defpoints
 62
     0
100
AcDbPoint
 10
176.5553445420893
 20
-58.24310350641912
 30
0.0
  0
POINT
  5
275
330
267
100
AcDbEntity
  8
Defpoints
 62
     0
100
AcDbPoint
 10
190.6849175516518
 20
-58.24310350641907
 30
0.0
  0
ENDBLK
  5
269
330
267
100
AcDbEntity
  8
0
100
AcDbBlockEnd
  0
ENDSEC
  0
SECTION
  2
ENTITIES
  0
LINE
  5
96
330
1F
100
AcDbEntity
  8
0
  6
Continuous
 62
     1
370
    15
100
AcDbLine
 10
36.9356354959168
 20
1.146509803638857
 30
0.0
 11
36.85109113872685
 21
1.19177548757403
 31
0.0
  0
ARC
  5
97
330
1F
100
AcDbEntity
  8
0
  6
Continuous
 62
     1
370
    15
100
AcDbCircle
 10
36.91856532850779
 20
0.0010749287238963
 30
0.0
 40
3.968750000000021
100
AcDbArc
 50
304.9004013128101
 51
0.0
  0
ARC
  5
98
330
1F
100
AcDbEntity
  8
0
  6
Continuous
 62
     1
370
    15
100
AcDbCircle
 10
36.91856532850779
 20
0.0010749287238963
 30
0.0
 40
3.968750000000021
100
AcDbArc
 50
0.0
 51
55.22460322757418
  0
LINE
  5
99
330
1F
100
AcDbEntity
  8
0
  6
Continuous
 62
     1
370
    15
100
AcDbLine
 10
17.35013220764708
 20
-3.967675071276117
 30
0.0
 11
19.77031256074504
 21
-3.967675071276117
 31
0.0
  0
LINE
  5
9A
330
1F
100
AcDbEntity
  8
0
  6
Continuous
 62
     1
370
    15
100
AcDbLine
 10
28.14649404386117
 20
-3.967675071276117
 30
0.0
 11
30.56833302142529
 21
-3.967675071276117
 31
0.0
  0
LINE
  5
9B
330
1F
100
AcDbEntity
  8
0
  6
Continuous
 62
     1
370
    15
100
AcDbLine
 10
8.972315534681002
 20
3.969824928723904
 30
0.0
 11
6.552037099416013
 21
3.969824928723904
 31
0.0
  0
LINE
  5
9C
330
1F
100
AcDbEntity
  8
0
  6
Continuous
 62
     1
370
    15
100
AcDbLine
 10
19.77031256074503
 20
3.969824928723904
 30
0.0
 11
17.35013220764703
 21
3.969824928723904
 31
0.0
  0
LINE
  5
9D
330
1F
100
AcDbEntity
  8
0
  6
Continuous
 62
     1
370
    15
100
AcDbLine
 10
6.552037099416039
 20
-3.967675071276117
 30
0.0
 11
8.972315534681048
 21
-3.967675071276117
 31
0.0
  0
LINE
  5
9E
330
1F
100
AcDbEntity
  8
0
  6
Continuous
 62
     1
370
    15
100
AcDbLine
 10
30.56833302142535
 20
3.969824928723904
 30
0.0
 11
28.14649404386116
 21
3.969824928723904
 31
0.0
  0
LINE
  5
9F
330
1F
100
AcDbEntity
  8
외형선
  6
Continuous
370
    15
100
AcDbLine
 10
-37.53518467149218
 20
-4.761425071276109
 30
0.0
 11
2.000000000000014
 21
-4.761425071276109
 31
0.0
  0
LINE
  5
A0
330
1F
100
AcDbEntity
  8
외형선
  6
Continuous
370
    15
100
AcDbLine
 10
2.000000000000014
 20
4.763574928723896
 30
0.0
 11
-13.80523467149207
 21
4.763574928723896
 31
0.0
  0
LINE
  5
A1
330
1F
100
AcDbEntity
  8
외형선
  6
Continuous
370
    15
100
AcDbLine
 10
2.000000000000014
 20
-4.761425071276112
 30
0.0
 11
4.962315328507827
 21
-3.967675071276107
 31
0.0
  0
LINE
  5
A2
330
1F
100
AcDbEntity
  8
외형선
  6
Continuous
370
    15
100
AcDbLine
 10
4.962315328507827
 20
3.969824928723893
 30
0.0
 11
2.000000000000014
 21
4.763574928723899
 31
0.0
  0
LINE
  5
A3
330
1F
100
AcDbEntity
  8
외형선
  6
Continuous
370
    15
100
AcDbLine
 10
-37.53518467149218
 20
4.763574928723894
 30
0.0
 11
-38.48768467149218
 21
3.811074928723897
 31
0.0
  0
LINE
  5
A4
330
1F
100
AcDbEntity
  8
외형선
  6
Continuous
370
    15
100
AcDbLine
 10
-38.48768467149218
 20
-3.80892507127611
 30
0.0
 11
-37.53518467149218
 21
-4.761425071276108
 31
0.0
  0
LINE
  5
A5
330
1F
100
AcDbEntity
  8
외형선
  6
Continuous
370
    15
100
AcDbLine
 10
4.962315328507827
 20
-3.967675071276107
 30
0.0
 11
5.962315328507827
 21
-3.967675071276107
 31
0.0
  0
LINE
  5
A6
330
1F
100
AcDbEntity
  8
외형선
  6
Continuous
370
    15
100
AcDbLine
 10
5.962315328507827
 20
3.969824928723893
 30
0.0
 11
4.962315328507827
 21
3.969824928723893
 31
0.0
  0
SPLINE
  5
A7
330
1F
100
AcDbEntity
  8
0
  6
Continuous
 62
     1
370
    15
100
AcDbSpline
210
0.0
220
0.0
230
1.0
 70
     8
 71
     3
 72
    15
 73
    11
 74
     0
 42
0.000000001
 43
0.00000001
 40
0.0
 40
0.0
 40
0.0
 40
0.0
 40
0.1278593247010913
 40
0.2556571452397716
 40
0.3834135951410105
 40
0.5111489835635402
 40
0.6388837092967128
 40
0.7666381739524405
 40
0.894432695131755
 40
1.0
 40
1.0
 40
1.0
 40
1.0
 10
5.962315328507834
 20
0.3411227835826811
 30
0.0
 10
6.447728869517248
 20
0.0605797921842044
 30
0.0
 10
7.418322453092901
 20
-0.5003712410363563
 30
0.0
 10
8.87374964307045
 20
-1.323615814404715
 30
0.0
 10
10.32862523778462
 20
-2.086592312355159
 30
0.0
 10
11.78321008928802
 20
-2.756259330545905
 30
0.0
 10
13.23778553993679
 20
-3.304111558414323
 30
0.0
 10
14.69263509118926
 20
-3.699421042192042
 30
0.0
 10
16.06341160288911
 20
-3.933899717499895
 30
0.0
 10
16.94935336047126
 20
-3.948356790344163
 30
0.0
 10
17.35013220764708
 20
-3.954896824086195
 30
0.0
  0
SPLINE
  5
A8
330
1F
100
AcDbEntity
  8
0
  6
Continuous
 62
     1
370
    15
100
AcDbSpline
210
0.0
220
0.0
230
1.0
 70
     8
 71
     3
 72
     9
 73
     5
 74
     0
 42
0.000000001
 43
0.00000001
 40
0.0
 40
0.0
 40
0.0
 40
0.0
 40
0.2660994683090745
 40
1.0
 40
1.0
 40
1.0
 40
1.0
 10
34.75614597175534
 20
3.235429464729865
 30
0.0
 10
34.9479530923175
 20
3.304459615522592
 30
0.0
 10
35.66876295255888
 20
3.563874454760636
 30
0.0
 10
36.38956691628459
 20
3.69917909462246
 30
0.0
 10
36.9185653285078
 20
3.798479241757301
 30
0.0
  0
SPLINE
  5
A9
330
1F
100
AcDbEntity
  8
0
  6
Continuous
 62
     1
370
    15
100
AcDbSpline
210
0.0
220
0.0
230
1.0
 70
     8
 71
     3
 72
    44
 73
    40
 74
     0
 42
0.000000001
 43
0.00000001
 40
0.0
 40
0.0
 40
0.0
 40
0.0
 40
0.0625000000000007
 40
0.0625000000000007
 40
0.1250000000000014
 40
0.1250000000000014
 40
0.1875000000000021
 40
0.1875000000000021
 40
0.2500000000000028
 40
0.2500000000000028
 40
0.3125000000000036
 40
0.3125000000000036
 40
0.3750000000000042
 40
0.3750000000000042
 40
0.4375000000000049
 40
0.4375000000000049
 40
0.4687500000000048
 40
0.4687500000000048
 40
0.5000000000000046
 40
0.5000000000000046
 40
0.5312500000000043
 40
0.5312500000000043
 40
0.5625000000000041
 40
0.5625000000000041
 40
0.593750000000004
 40
0.593750000000004
 40
0.6250000000000038
 40
0.6250000000000038
 40
0.6875000000000031
 40
0.6875000000000031
 40
0.7500000000000024
 40
0.7500000000000024
 40
0.8125000000000019
 40
0.8125000000000019
 40
0.8750000000000012
 40
0.8750000000000012
 40
0.9375000000000007
 40
0.9375000000000007
 40
1.0
 40
1.0
 40
1.0
 40
1.0
 10
36.9185653285078
 20
3.798479241757339
 30
0.0
 10
37.12025715655786
 20
3.832261296696711
 30
0.0
 10
37.32097836312779
 20
3.845050804623871
 30
0.0
 10
37.72321051611593
 20
3.828917096585271
 30
0.0
 10
37.92679997586362
 20
3.79931131201844
 30
0.0
 10
38.32972470176393
 20
3.696570441488892
 30
0.0
 10
38.52590237401422
 20
3.62460859564941
 30
0.0
 10
38.90720822675056
 20
3.441178005756044
 30
0.0
 10
39.09400561582419
 20
3.328307976904123
 30
0.0
 10
39.44328774757033
 20
3.06957958627449
 30
0.0
 10
39.60600457826936
 20
2.924192305301423
 30
0.0
 10
39.90421435066116
 20
2.604011061720568
 30
0.0
 10
40.04021864075501
 20
2.427876544139015
 30
0.0
 10
40.26992991460301
 20
2.06138913979147
 30
0.0
 10
40.36549526605433
 20
1.868987371678196
 30
0.0
 10
40.47044073696007
 20
1.57573264529545
 30
0.0
 10
40.49843042713572
 20
1.478768323150938
 30
0.0
 10
40.53902016530364
 20
1.28830249972266
 30
0.0
 10
40.55165210917351
 20
1.193831244108351
 30
0.0
 10
40.55843283409514
 20
1.016298272174406
 30
0.0
 10
40.55281300730877
 20
0.9333537143677852
 30
0.0
 10
40.52137553128189
 20
0.7824175513364
 30
0.0
 10
40.49566971683725
 20
0.7163159193558533
 30
0.0
 10
40.42575333334324
 20
0.60891679120513
 30
0.0
 10
40.38039939514001
 20
0.5664894659971098
 30
0.0
 10
40.27489988172452
 20
0.5101952221860563
 30
0.0
 10
40.21433201709129
 20
0.4955517691522147
 30
0.0
 10
40.01424640338535
 20
0.4894257429441862
 30
0.0
 10
39.859471268276
 20
0.5358936951111977
 30
0.0
 10
39.53517559374378
 20
0.687005612395399
 30
0.0
 10
39.36177003659679
 20
0.7931323799772644
 30
0.0
 10
39.01168632519872
 20
1.029238324121637
 30
0.0
 10
38.83096698416542
 20
1.161013069143414
 30
0.0
 10
38.46342540139401
 20
1.429669336654154
 30
0.0
 10
38.27870032300821
 20
1.565048677672751
 30
0.0
 10
37.90131419849458
 20
1.828624087589589
 30
0.0
 10
37.70723241484279
 20
1.957745809156385
 30
0.0
 10
37.3173447836773
 20
2.193598694739467
 30
0.0
 10
37.12019506403524
 20
2.300526705227085
 30
0.0
 10
36.91856532850777
 20
2.393237747374096
 30
0.0
  0
SPLINE
  5
AA
330
1F
100
AcDbEntity
  8
0
  6
Continuous
 62
     1
370
    15
100
AcDbSpline
210
0.0
220
0.0
230
1.0
 70
     8
 71
     3
 72
    12
 73
     8
 74
     0
 42
0.000000001
 43
0.00000001
 40
0.0
 40
0.0
 40
0.0
 40
0.0
 40
0.2499109631494127
 40
0.4998287417169283
 40
0.749755024750107
 40
0.9789617461373671
 40
0.9999999999999999
 40
0.9999999999999999
 40
0.9999999999999999
 40
0.9999999999999999
 10
36.91856532850779
 20
2.393237747374086
 30
0.0
 10
36.38956527866363
 20
2.624338125876572
 30
0.0
 10
35.33155075241129
 20
3.08654518530895
 30
0.0
 10
33.74451416998156
 20
3.587300962651082
 30
0.0
 10
32.20121205222848
 20
3.877699240001972
 30
0.0
 10
31.14260837697476
 20
3.993608378649059
 30
0.0
 10
30.6128685821256
 20
3.964849496398164
 30
0.0
 10
30.56833302142535
 20
3.962431718918334
 30
0.0
  0
SPLINE
  5
AB
330
1F
100
AcDbEntity
  8
0
  6
Continuous
 62
     1
370
    15
100
AcDbSpline
210
0.0
220
0.0
230
1.0
 70
     8
 71
     3
 72
    12
 73
     8
 74
     0
 42
0.000000001
 43
0.00000001
 40
0.0
 40
0.0
 40
0.0
 40
0.0
 40
0.1912843903491997
 40
0.3933812463419997
 40
0.5955114248046542
 40
0.7977070579221259
 40
1.0
 40
1.0
 40
1.0
 40
1.0
 10
13.15990788833618
 20
-3.249620521072869
 30
0.0
 10
12.70100877084944
 20
-3.390213662292381
 30
0.0
 10
11.75727098622091
 20
-3.67934705691545
 30
0.0
 10
10.32862584674788
 20
-3.918364771186021
 30
0.0
 10
8.873749480612847
 20
-3.995618981810258
 30
0.0
 10
7.418322493735578
 20
-3.90273672125406
 30
0.0
 10
6.447728883066973
 20
-3.696494063301078
 30
0.0
 10
5.962315328507827
 20
-3.593347926134856
 30
0.0
  0
SPLINE
  5
AC
330
1F
100
AcDbEntity
  8
0
  6
Continuous
 62
     1
370
    15
100
AcDbSpline
210
0.0
220
0.0
230
1.0
 70
     8
 71
     3
 72
    24
 73
    20
 74
     0
 42
0.000000001
 43
0.00000001
 40
0.0
 40
0.0
 40
0.0
 40
0.0
 40
0.0032754161228582
 40
0.0645116210725838
 40
0.1257670262083424
 40
0.1870512887826795
 40
0.2483398363781583
 40
0.3095984451508588
 40
0.3708365943112897
 40
0.4320640143735356
 40
0.4932904815061526
 40
0.5545257759364322
 40
0.6157796403181786
 40
0.6770617384369948
 40
0.7383520775926627
 40
0.7996123491910158
 40
0.866410355311925
 40
0.9332060884372027
 40
1.0
 40
1.0
 40
1.0
 40
1.0
 10
13.15990788833613
 20
3.251770378520654
 30
0.0
 10
13.18584487430741
 20
3.261506007052317
 30
0.0
 10
13.6966920302052
 20
3.453256048934021
 30
0.0
 10
14.69263595098381
 20
3.694956360127168
 30
0.0
 10
16.14801761911965
 20
3.941337147624561
 30
0.0
 10
17.60399309860586
 20
3.996145453744807
 30
0.0
 10
19.06002996281476
 20
3.876769057051241
 30
0.0
 10
20.51550009600885
 20
3.583171003081068
 30
0.0
 10
21.9704045288055
 20
3.129977450506083
 30
0.0
 10
23.42499928436146
 20
2.537058202298224
 30
0.0
 10
24.8795675676275
 20
1.830960733268881
 30
0.0
 10
26.33438867891781
 20
1.043124367339018
 30
0.0
 10
27.78973239396523
 20
0.2086674114519672
 30
0.0
 10
29.24566981198719
 20
-0.6350966550705149
 30
0.0
 10
30.70174837928161
 20
-1.450120552524957
 30
0.0
 10
32.20122296145422
 20
-2.224143302758133
 30
0.0
 10
33.74451115544323
 20
-2.907961744898013
 30
0.0
 10
35.33155150601122
 20
-3.471291478603388
 30
0.0
 10
36.38956552986133
 20
-3.687984400646733
 30
0.0
 10
36.9185653285078
 20
-3.796329384309522
 30
0.0
  0
SPLINE
  5
AD
330
1F
100
AcDbEntity
  8
0
  6
Continuous
 62
     1
370
    15
100
AcDbSpline
210
0.0
220
0.0
230
1.0
 70
     8
 71
     3
 72
    12
 73
     8
 74
     0
 42
0.000000001
 43
0.00000001
 40
0.0
 40
0.0
 40
0.0
 40
0.0
 40
0.2368330472523426
 40
0.4806116323169213
 40
0.7144454889760985
 40
0.9554332195131543
 40
1.0
 40
1.0
 40
1.0
 40
1.0
 10
36.9185653285078
 20
-3.796329384309561
 30
0.0
 10
37.10164397443602
 20
-3.817012604727544
 30
0.0
 10
37.47317036352221
 20
-3.858985616695195
 30
0.0
 10
38.03246443084691
 20
-3.787305119754608
 30
0.0
 10
38.58022422331106
 20
-3.606021895519987
 30
0.0
 10
38.96874691470542
 20
-3.41957526800217
 30
0.0
 10
39.15585659288603
 20
-3.271057814286994
 30
0.0
 10
39.18505898903987
 20
-3.247878545521614
 30
0.0
  0
SPLINE
  5
AE
330
1F
100
AcDbEntity
  8
0
  6
Continuous
 62
     1
370
    15
100
AcDbSpline
210
0.0
220
0.0
230
1.0
 70
     8
 71
     3
 72
    25
 73
    21
 74
     0
 42
0.000000001
 43
0.00000001
 40
0.0
 40
0.0
 40
0.0
 40
0.0
 40
0.0392324555405605
 40
0.1007826643195728
 40
0.1572301951023436
 40
0.2137054312694158
 40
0.270173073833501
 40
0.3266147007646037
 40
0.383039216640209
 40
0.4394555987099474
 40
0.4958728588450811
 40
0.552300005176999
 40
0.6087460037693326
 40
0.6652195891250994
 40
0.7216892261003506
 40
0.7781322727404627
 40
0.8345576276031169
 40
0.8909742643695953
 40
0.9473911938262911
 40
1.0
 40
1.0
 40
1.0
 40
1.0
 10
34.75614597175529
 20
-3.233279607282075
 30
0.0
 10
34.41893824385269
 20
-3.345905445092417
 30
0.0
 10
33.55269898406336
 20
-3.635225393317819
 30
0.0
 10
32.20122229991612
 20
-3.883817283783998
 30
0.0
 10
30.70174855011265
 20
-3.99773114548423
 30
0.0
 10
29.24566976620581
 20
-3.923483049650036
 30
0.0
 10
27.78973240624022
 20
-3.675672610090367
 30
0.0
 10
26.33438867557541
 20
-3.263206785238012
 30
0.0
 10
24.8795675687284
 20
-2.705176147499042
 30
0.0
 10
23.4249992832995
 20
-2.026337947935269
 30
0.0
 10
21.97040453195286
 20
-1.25699985665904
 30
0.0
 10
20.51550008447771
 20
-0.4314479199373914
 30
0.0
 10
19.06003000581546
 20
0.4135596091382078
 30
0.0
 10
17.60399293806018
 20
1.23999289829819
 30
0.0
 10
16.14801821810402
 20
2.011234565460974
 30
0.0
 10
14.69263371701022
 20
2.692476522032389
 30
0.0
 10
13.23778617986345
 20
3.25452461687611
 30
0.0
 10
11.78320890351291
 20
3.667302996803868
 30
0.0
 10
10.3614354134482
 20
3.925411675305463
 30
0.0
 10
9.424446234211029
 20
3.951597780276458
 30
0.0
 10
8.972315534681002
 20
3.964233509931462
 30
0.0
  0
LINE
  5
AF
330
1F
100
AcDbEntity
  8
0
  6
Continuous
 62
     1
370
    15
100
AcDbLine
 10
5.962315328507827
 20
-3.953080356404151
 30
0.0
 11
6.552037099416039
 21
-3.946257963985096
 31
0.0
  0
SPLINE
  5
B0
330
1F
100
AcDbEntity
  8
0
  6
Continuous
 62
     1
370
    15
100
AcDbSpline
210
0.0
220
0.0
230
1.0
 70
     8
 71
     3
 72
    16
 73
    12
 74
     0
 42
0.000000001
 43
0.00000001
 40
0.0
 40
0.0
 40
0.0
 40
0.0
 40
0.0710271483189007
 40
0.1832925074925695
 40
0.2955919117752013
 40
0.4079430782100765
 40
0.5203093533003557
 40
0.632620504215062
 40
0.7550842274488422
 40
0.8775437834997365
 40
1.0
 40
1.0
 40
1.0
 40
1.0
 10
23.95915163120996
 20
3.238529243653152
 30
0.0
 10
24.26593488155858
 20
3.341041748020194
 30
0.0
 10
25.05761908321974
 20
3.605585298190828
 30
0.0
 10
26.33438909656906
 20
3.857613570728221
 30
0.0
 10
27.78973228198621
 20
3.995208241782063
 30
0.0
 10
29.24566984199642
 20
3.948398274746272
 30
0.0
 10
30.70174837126795
 20
3.726909171485671
 30
0.0
 10
32.2012229638173
 20
3.327111878619173
 30
0.0
 10
33.74451115479027
 20
2.749285831259713
 30
0.0
 10
35.33155150617443
 20
2.013564277190809
 30
0.0
 10
36.38956552991574
 20
1.440941060601151
 30
0.0
 10
36.9185653285078
 20
1.154633356310143
 30
0.0
  0
SPLINE
  5
B1
330
1F
100
AcDbEntity
  8
0
  6
Continuous
 62
     1
370
    15
100
AcDbSpline
210
0.0
220
0.0
230
1.0
 70
     8
 71
     3
 72
    44
 73
    40
 74
     0
 42
0.000000001
 43
0.00000001
 40
0.0
 40
0.0
 40
0.0
 40
0.0
 40
0.0625000000000006
 40
0.0625000000000006
 40
0.1250000000000012
 40
0.1250000000000012
 40
0.1875000000000017
 40
0.1875000000000017
 40
0.2500000000000023
 40
0.2500000000000023
 40
0.3125000000000029
 40
0.3125000000000029
 40
0.3750000000000035
 40
0.3750000000000035
 40
0.4375000000000041
 40
0.4375000000000041
 40
0.4687500000000038
 40
0.4687500000000038
 40
0.5000000000000036
 40
0.5000000000000036
 40
0.5312500000000033
 40
0.5312500000000033
 40
0.562500000000003
 40
0.562500000000003
 40
0.5937500000000028
 40
0.5937500000000028
 40
0.6250000000000024
 40
0.6250000000000024
 40
0.6875000000000021
 40
0.6875000000000021
 40
0.7500000000000017
 40
0.7500000000000017
 40
0.8125000000000012
 40
0.8125000000000012
 40
0.8750000000000008
 40
0.8750000000000008
 40
0.9375000000000004
 40
0.9375000000000004
 40
1.0
 40
1.0
 40
1.0
 40
1.0
 10
36.9185653285078
 20
1.154633356310139
 30
0.0
 10
37.12025715655789
 20
1.043426053704468
 30
0.0
 10
37.32097836312774
 20
0.9314315657937908
 30
0.0
 10
37.72321051611589
 20
0.7108782233587173
 30
0.0
 10
37.9267999758637
 20
0.6024258287626825
 30
0.0
 10
38.32972470176393
 20
0.3969306737799198
 30
0.0
 10
38.52590237401418
 20
0.3014346831391144
 30
0.0
 10
38.90720822675053
 20
0.122462069455075
 30
0.0
 10
39.09400561582421
 20
0.0381114473964927
 30
0.0
 10
39.44328774757034
 20
-0.1191239796345735
 30
0.0
 10
39.60600457826936
 20
-0.1918334331883909
 30
0.0
 10
39.90421435066116
 20
-0.3377199333376238
 30
0.0
 10
40.04021864075503
 20
-0.4113083935293546
 30
0.0
 10
40.26992991460304
 20
-0.5712940516180801
 30
0.0
 10
40.36549526605433
 20
-0.6583569196337434
 30
0.0
 10
40.47044073696004
 20
-0.8169622912304789
 30
0.0
 10
40.49843042713572
 20
-0.8737696149182982
 30
0.0
 10
40.53902016530366
 20
-0.9987834727661394
 30
0.0
 10
40.55165210917352
 20
-1.067798466415649
 30
0.0
 10
40.55843283409514
 20
-1.217597965557783
 30
0.0
 10
40.55281300730879
 20
-1.298040366889149
 30
0.0
 10
40.5213755312819
 20
-1.473327602881226
 30
0.0
 10
40.49566971683726
 20
-1.566412034601911
 30
0.0
 10
40.42575333334324
 20
-1.758021836333725
 30
0.0
 10
40.38039939514001
 20
-1.859155921624434
 30
0.0
 10
40.27489988172456
 20
-2.058114818266691
 30
0.0
 10
40.21433201709129
 20
-2.15717815484563
 30
0.0
 10
40.01424640338534
 20
-2.445128172723508
 30
0.0
 10
39.85947126827597
 20
-2.619875701195783
 30
0.0
 10
39.53517559374374
 20
-2.912203444686386
 30
0.0
 10
39.36177003659674
 20
-3.03331537957706
 30
0.0
 10
39.01168632519865
 20
-3.218529599848034
 30
0.0
 10
38.83096698416539
 20
-3.285552693135562
 30
0.0
 10
38.46342540139398
 20
-3.371933087833988
 30
0.0
 10
38.2787003230082
 20
-3.391264833045348
 30
0.0
 10
37.90131419849457
 20
-3.38982744091393
 30
0.0
 10
37.70723241484279
 20
-3.368469159931092
 30
0.0
 10
37.31734478367727
 20
-3.291067011469743
 30
0.0
 10
37.12019506403525
 20
-3.235744198972899
 30
0.0
 10
36.91856532850777
 20
-3.165711077871407
 30
0.0
  0
SPLINE
  5
B2
330
1F
100
AcDbEntity
  8
0
  6
Continuous
 62
     1
370
    15
100
AcDbSpline
210
0.0
220
0.0
230
1.0
 70
     8
 71
     3
 72
    19
 73
    15
 74
     0
 42
0.000000001
 43
0.00000001
 40
0.0
 40
0.0
 40
0.0
 40
0.0
 40
0.0925414584958272
 40
0.1850854407254016
 40
0.2776325721391745
 40
0.3625072972289354
 40
0.4474236802414339
 40
0.5323286454831813
 40
0.6171944935187936
 40
0.7020346133053366
 40
0.7868625030699934
 40
0.8716917130971665
 40
0.9565357880479706
 40
1.0
 40
1.0
 40
1.0
 40
1.0
 10
36.91856532850779
 20
-3.165711077871409
 30
0.0
 10
36.38956552987273
 20
-2.965291141953795
 30
0.0
 10
35.33155150604546
 20
-2.564445804389324
 30
0.0
 10
33.74451115530627
 20
-1.781987584234268
 30
0.0
 10
32.20122296194984
 20
-0.9408588450356362
 30
0.0
 10
30.70174837760081
 20
-0.0764872510992756
 30
0.0
 10
29.24566981828132
 20
0.7650547841186947
 30
0.0
 10
27.78973237047874
 20
1.572734071077758
 30
0.0
 10
26.33438876651605
 20
2.310374256733533
 30
0.0
 10
24.87956724083119
 20
2.944172315199615
 30
0.0
 10
23.42500050380803
 20
3.448981456426367
 30
0.0
 10
21.97039997732741
 20
3.79081851986324
 30
0.0
 10
20.75219008528496
 20
3.96372986227453
 30
0.0
 10
20.01876055516814
 20
3.951699403186621
 30
0.0
 10
19.77031256074503
 20
3.94762410582042
 30
0.0
  0
SPLINE
  5
B3
330
1F
100
AcDbEntity
  8
0
  6
Continuous
 62
     1
370
    15
100
AcDbSpline
210
0.0
220
0.0
230
1.0
 70
     8
 71
     3
 72
    23
 73
    19
 74
     0
 42
0.000000001
 43
0.00000001
 40
0.0
 40
0.0
 40
0.0
 40
0.0
 40
0.0656339316089713
 40
0.1312362913322095
 40
0.1968174142970433
 40
0.262387725788749
 40
0.3279576971026221
 40
0.393537800982861
 40
0.4591384670484215
 40
0.5247700376062059
 40
0.5904061971507153
 40
0.6560102941088924
 40
0.7215924801158754
 40
0.7871631759370424
 40
0.8527328512308254
 40
0.9183119800023046
 40
0.9839109960177311
 40
1.0
 40
1.0
 40
1.0
 40
1.0
 10
5.962315328507827
 20
3.955230213851937
 30
0.0
 10
6.447728870071471
 20
3.962112238323497
 30
0.0
 10
7.41832245475532
 20
3.975872976806843
 30
0.0
 10
8.87374963642539
 20
3.771704416008566
 30
0.0
 10
10.3286252626932
 20
3.411876316145648
 30
0.0
 10
11.78320999631218
 20
2.896420098101231
 30
0.0
 10
13.2377858869588
 20
2.252626741827287
 30
0.0
 10
14.69263379568793
 20
1.508038733190645
 30
0.0
 10
16.14801819640045
 20
0.6961117677163273
 30
0.0
 10
17.60399294614803
 20
-0.1468027420531831
 30
0.0
 10
19.06002999517609
 20
-0.9830819761553605
 30
0.0
 10
20.51550011892681
 20
-1.775472643953338
 30
0.0
 10
21.97040440484347
 20
-2.488683676035977
 30
0.0
 10
23.42499975721288
 20
-3.089681988958405
 30
0.0
 10
24.87956580007117
 20
-3.55653029407576
 30
0.0
 10
26.33439527817925
 20
-3.850310524137255
 30
0.0
 10
27.42337730564606
 20
-3.981364861210802
 30
0.0
 10
28.02750670299905
 20
-3.956196224034038
 30
0.0
 10
28.14649404386117
 20
-3.951239091962814
 30
0.0
  0
SPLINE
  5
B4
330
1F
100
AcDbEntity
  8
0
  6
Continuous
 62
     1
370
    15
100
AcDbSpline
210
0.0
220
0.0
230
1.0
 70
     8
 71
     3
 72
    20
 73
    16
 74
     0
 42
0.000000001
 43
0.00000001
 40
0.0
 40
0.0
 40
0.0
 40
0.0
 40
0.0296823566430946
 40
0.1105098203601681
 40
0.1913514477606597
 40
0.2722200842784161
 40
0.3531282435967326
 40
0.434030746178403
 40
0.5148951535150451
 40
0.5957342143265788
 40
0.6765607849604496
 40
0.7573877749235802
 40
0.8382280919368683
 40
0.9190945870057324
 40
1.0
 40
1.0
 40
1.0
 40
1.0
 10
23.95915163120996
 20
-3.236379386205365
 30
0.0
 10
23.78110306133865
 20
-3.299618399843195
 30
0.0
 10
23.11821379993486
 20
-3.535062374892143
 30
0.0
 10
21.97040522943935
 20
-3.788444233511943
 30
0.0
 10
20.51549989788198
 20
-3.975552727420579
 30
0.0
 10
19.06003005444568
 20
-3.975678876637562
 30
0.0
 10
17.60399293026452
 20
-3.800765142434304
 30
0.0
 10
16.14801820065415
 20
-3.455415420651151
 30
0.0
 10
14.69263379454875
 20
-2.95586719389738
 30
0.0
 10
13.23778588726396
 20
-2.324292683156575
 30
0.0
 10
11.78320999623043
 20
-1.589067601262759
 30
0.0
 10
10.32862526271509
 20
-0.7824670352975177
 30
0.0
 10
8.87374963641959
 20
0.0577170731360645
 30
0.0
 10
7.418322454756777
 20
0.900893542178907
 30
0.0
 10
6.447728870071958
 20
1.422697663747137
 30
0.0
 10
5.962315328507827
 20
1.683662490477829
 30
0.0
  0
LINE
  5
B5
330
1F
100
AcDbEntity
  8
외형선
  6
Continuous
370
    15
100
AcDbLine
 10
5.962315328507827
 20
0.3411227835826808
 30
0.0
 11
5.962315328507827
 21
1.683662490477829
 31
0.0
  0
LINE
  5
B6
330
1F
100
AcDbEntity
  8
외형선
  6
Continuous
370
    15
100
AcDbLine
 10
5.962315328507827
 20
-3.953080356404151
 30
0.0
 11
5.962315328507827
 21
-3.593347926134855
 31
0.0
  0
LINE
  5
B7
330
1F
100
AcDbEntity
  8
외형선
  6
Continuous
370
    15
100
AcDbLine
 10
2.000000000000014
 20
0.0010749287238931
 30
0.0
 11
2.000000000000014
 21
4.763574928723896
 31
0.0
  0
LINE
  5
B8
330
1F
100
AcDbEntity
  8
외형선
  6
Continuous
370
    15
100
AcDbLine
 10
2.000000000000014
 20
-4.761425071276109
 30
0.0
 11
2.000000000000014
 21
0.0010749287238931
 31
0.0
  0
LINE
  5
B9
330
1F
100
AcDbEntity
  8
외형선
  6
Continuous
370
    15
100
AcDbLine
 10
-37.53518467149218
 20
0.0010749287238931
 30
0.0
 11
-37.53518467149218
 21
4.763574928723896
 31
0.0
  0
LINE
  5
BA
330
1F
100
AcDbEntity
  8
외형선
  6
Continuous
370
    15
100
AcDbLine
 10
-37.53518467149218
 20
-4.761425071276109
 30
0.0
 11
-37.53518467149218
 21
0.0010749287238931
 31
0.0
  0
LINE
  5
BB
330
1F
100
AcDbEntity
  8
외형선
  6
Continuous
370
    15
100
AcDbLine
 10
4.962315328507827
 20
0.0010749287238931
 30
0.0
 11
4.962315328507827
 21
3.969824928723893
 31
0.0
  0
LINE
  5
BC
330
1F
100
AcDbEntity
  8
외형선
  6
Continuous
370
    15
100
AcDbLine
 10
4.962315328507827
 20
-3.967675071276107
 30
0.0
 11
4.962315328507827
 21
0.0010749287238931
 31
0.0
  0
LINE
  5
BD
330
1F
100
AcDbEntity
  8
외형선
  6
Continuous
370
    15
100
AcDbLine
 10
-38.48768467149218
 20
0.0010749287238931
 30
0.0
 11
-38.48768467149218
 21
3.811074928723897
 31
0.0
  0
LINE
  5
BE
330
1F
100
AcDbEntity
  8
외형선
  6
Continuous
370
    15
100
AcDbLine
 10
-38.48768467149218
 20
-3.808925071276114
 30
0.0
 11
-38.48768467149218
 21
0.0010749287238931
 31
0.0
  0
LINE
  5
BF
330
1F
100
AcDbEntity
  8
외형선
  6
Continuous
370
    15
100
AcDbLine
 10
5.962315328507827
 20
0.0010749287238931
 30
0.0
 11
5.962315328507827
 21
3.969824928723893
 31
0.0
  0
LINE
  5
C0
330
1F
100
AcDbEntity
  8
외형선
  6
Continuous
370
    15
100
AcDbLine
 10
5.962315328507827
 20
-3.967675071276107
 30
0.0
 11
5.962315328507827
 21
0.0010749287238931
 31
0.0
  0
LINE
  5
C1
330
1F
100
AcDbEntity
  8
중심선
 48
0.8
100
AcDbLine
 10
-41.4876846714922
 20
0.0010749287238931
 30
0.0
 11
43.8873153285078
 21
0.0010749287238997
 31
0.0
  0
LINE
  5
C2
330
1F
100
AcDbEntity
  8
참조1
100
AcDbLine
 10
45.01176131403116
 20
0.0010749287238931
 30
0.0
 11
45.01176131403116
 21
1.655200094750598
 31
0.0
  0
LINE
  5
C3
330
1F
100
AcDbEntity
  8
참조1
100
AcDbLine
 10
5.324261314031166
 20
0.0010749287238892
 30
0.0
 11
5.324261314031171
 21
-39.99892507127611
 31
0.0
  0
LINE
  5
C4
330
1F
100
AcDbEntity
  8
참조1
100
AcDbLine
 10
5.324261314031171
 20
-39.99892507127611
 30
0.0
 11
-20.1533455002775
 21
-39.9989250712761
 31
0.0
  0
CIRCLE
  5
C5
330
1F
100
AcDbEntity
  8
해칭선
100
AcDbCircle
 10
0.0
 20
0.0
 30
0.0
 40
3.000000000000002
  0
INSERT
  5
C6
330
1F
100
AcDbEntity
  8
0
  6
Continuous
 62
     7
100
AcDbBlockReference
 66
     1
  2
블럭10
 10
-12.7404576036174
 20
-52.04609937292004
 30
0.0
  0
ATTRIB
  5
C7
330
C6
100
AcDbEntity
  8
FORMAT
 62
     2
100
AcDbText
 10
-21.92175289235868
 20
-49.97073246008785
 30
0.0
 40
4.233333333333333
  1
E2021020 [ 4 FLUTE ]
 41
0.75
  7
SLDTEXTSTYLE0
 11
-21.92175289235868
 21
-52.08739912675452
 31
0.0
100
AcDbAttribute
  2
AUTOATTR0
 70
     0
 74
     1
  0
SEQEND
  5
C8
330
C6
100
AcDbEntity
  8
0
  6
Continuous
 62
     7
  0
HATCH
  5
C9
330
1F
100
AcDbEntity
  8
중심선
100
AcDbHatch
 10
0.0
 20
0.0
 30
0.0
210
0.0
220
0.0
230
1.0
  2
SOLID
 70
     1
 71
     0
 91
        1
 92
        0
 93
        4
 72
     1
 10
-7.025548299236546
 20
-35.7989250712761
 11
-10.47182354307383
 21
-35.7989250712761
 72
     1
 10
-10.47182354307383
 20
-35.7989250712761
 11
-12.60005340227788
 21
-38.3352506518487
 72
     1
 10
-12.60005340227788
 20
-38.3352506518487
 11
-9.153745073327421
 21
-38.33521122254621
 72
     1
 10
-9.15374507332742
 20
-38.33521122254621
 11
-7.025548299236546
 21
-35.7989250712761
 97
        0
 75
     0
 76
     1
 98
        1
 10
-4.124445985523363
 20
0.0
  0
HATCH
  5
CA
330
1F
100
AcDbEntity
  8
중심선
100
AcDbHatch
 10
0.0
 20
0.0
 30
0.0
210
0.0
220
0.0
230
1.0
  2
SOLID
 70
     1
 71
     0
 91
        1
 92
        0
 93
        4
 72
     1
 10
-2.012784308200567
 20
-35.7989250712761
 11
-5.45905955203785
 21
-35.7989250712761
 72
     1
 10
-5.45905955203785
 20
-35.7989250712761
 11
-9.990197560395266
 21
-41.19892507127612
 72
     1
 10
-9.990197560395266
 20
-41.19892507127612
 11
-6.543922316557984
 21
-41.19892507127612
 72
     1
 10
-6.543922316557984
 20
-41.19892507127612
 11
-2.012784308200567
 21
-35.7989250712761
 97
        0
 75
     0
 76
     1
 98
        1
 10
-4.124445985523363
 20
0.0
  0
HATCH
  5
CB
330
1F
100
AcDbEntity
  8
중심선
100
AcDbHatch
 10
0.0
 20
0.0
 30
0.0
210
0.0
220
0.0
230
1.0
  2
SOLID
 70
     1
 71
     0
 91
        1
 92
        0
 93
        4
 72
     1
 10
2.999979682835328
 20
-35.79892507127608
 11
-0.4462955610018149
 21
-35.7989250712761
 72
     1
 10
-0.4462955610018149
 20
-35.7989250712761
 11
-7.494732462891064
 21
-44.19892507127612
 72
     1
 10
-7.494732462891064
 20
-44.19892507127612
 11
-4.048457219053782
 21
-44.19892507127612
 72
     1
 10
-4.048457219053782
 20
-44.19892507127612
 11
2.999979682835328
 21
-35.79892507127608
 97
        0
 75
     0
 76
     1
 98
        1
 10
-4.124445985523363
 20
0.0
  0
HATCH
  5
CC
330
1F
100
AcDbEntity
  8
중심선
100
AcDbHatch
 10
0.0
 20
0.0
 30
0.0
210
0.0
220
0.0
230
1.0
  2
SOLID
 70
     1
 71
     0
 91
        1
 92
        0
 93
        6
 72
     3
 10
7.7998701138475
 20
-39.99892507132738
 11
3.960054785062284
 21
1.540882976769353E-10
 40
0.3939339440162627
 50
17.09539180608437
 51
320.0019657685086
 73
     0
 72
     1
 10
9.482869769548095
 20
-38.58681907591443
 11
11.78817164324913
 21
-36.65249236586649
 72
     3
 10
7.799870113794653
 20
-39.99892507127625
 11
6.60005478528683
 21
-1.278976924368180E-13
 40
0.636358354079598
 50
39.9987384933741
 51
368.4976242363725
 73
     1
 72
     1
 10
14.22520260569526
 20
-39.03892507120613
 11
6.479937420630577
 21
-39.03892507120613
 72
     1
 10
6.479937420630576
 20
-39.03892507120613
 11
6.479912376184642
 21
-40.95892507120602
 72
     1
 10
6.479912376184642
 20
-40.95892507120602
 11
10.92129214565668
 21
-40.95892507120599
 97
        0
 75
     0
 76
     1
 98
        1
 10
-4.124445985523363
 20
0.0
  0
DIMENSION
  5
CD
330
1F
100
AcDbEntity
  8
치수문자_일반주서
100
AcDbDimension
  2
_D
 10
5.962315328507799
 20
14.76357492872391
 30
0.0
 11
23.42481532850779
 21
14.76357492872391
 31
0.0
 70
   160
  1
<>
 71
     2
 42
34.92499999999998
  3
SLDDIMSTYLE1
100
AcDbAlignedDimension
 13
40.88731532850778
 23
3.9698249287239
 33
0.0
 14
5.962315328507798
 24
3.95523021385194
 34
0.0
 50
0.0000000000000058
100
AcDbRotatedDimension
1001
ACAD
1000
DSTYLE
1002
{
1070
   171
1070
     6
1070
   273
1070
     7
1002
}
  0
DIMENSION
  5
E2
330
1F
100
AcDbEntity
  8
치수문자_일반주서
100
AcDbDimension
  2
_D_1
 10
-38.4876846714922
 20
31.6102217220047
 30
0.0
 11
1.199815328507794
 21
31.6102217220047
 31
0.0
 70
   160
  1
<>
 71
     2
 42
79.37499999999997
  3
SLDDIMSTYLE1
100
AcDbAlignedDimension
 13
40.88731532850778
 23
3.9698249287239
 33
0.0
 14
-38.4876846714922
 24
3.811074928723901
 34
0.0
 50
0.0000000000000051
100
AcDbRotatedDimension
1001
ACAD
1000
DSTYLE
1002
{
1070
   171
1070
     6
1070
   273
1070
     7
1002
}
  0
DIMENSION
  5
F5
330
1F
100
AcDbEntity
  8
치수문자_일반주서
100
AcDbDimension
  2
_D_2
 10
-51.48768467149217
 20
-4.76142507127616
 30
0.0
 11
-51.48768467149219
 21
0.001074928723894
 31
0.0
 70
   160
  1
%%c<>
 71
     2
 42
9.525000000000006
 52
-270.0
  3
SLDDIMSTYLE1
100
AcDbAlignedDimension
 13
-37.53518467149218
 23
4.763574928723896
 33
0.0
 14
-37.53518467149218
 24
-4.761425071276109
 34
0.0
 50
90.0000000000002
100
AcDbRotatedDimension
1001
ACAD
1000
DSTYLE
1002
{
1070
   171
1070
     6
1070
   273
1070
     7
1002
}
  0
DIMENSION
  5
10A
330
1F
100
AcDbEntity
  8
치수문자_일반주서
100
AcDbDimension
  2
_D_3
 10
51.62627573758105
 20
-3.967675071276059
 30
0.0
 11
51.62627573758095
 21
24.57382492872394
 31
0.0
 70
   160
  1
%%c<>
 71
     2
 42
7.9375
 52
-270.0
  3
SLDDIMSTYLE1
100
AcDbAlignedDimension
 13
40.88731532850778
 23
3.9698249287239
 33
0.0
 14
40.88731532850782
 24
-3.9676750712761
 34
0.0
 50
90.0000000000002
100
AcDbRotatedDimension
1001
ACAD
1000
DSTYLE
1002
{
1070
   171
1070
     6
1070
   273
1070
     7
1002
}
  0
LINE
  5
11E
330
1F
100
AcDbEntity
  8
참조1
100
AcDbLine
 10
77.81899512937676
 20
7.441074928723896
 30
0.0
 11
77.81899512937676
 21
-7.438925071276109
 31
0.0
  0
LINE
  5
11F
330
1F
100
AcDbEntity
  8
참조1
100
AcDbLine
 10
90.51899512937676
 20
5.441074928723896
 30
0.0
 11
77.81899512937676
 21
5.441074928723896
 31
0.0
  0
SOLID
  5
120
330
1F
100
AcDbEntity
  8
참조1
100
AcDbTrace
 10
77.81899512937676
 20
5.441074928723896
 30
0.0
 11
84.16899512937675
 21
4.425074928723896
 31
0.0
 12
84.16899512937675
 22
6.457074928723896
 32
0.0
 13
84.16899512937675
 23
6.457074928723896
 33
0.0
  0
LINE
  5
121
330
1F
100
AcDbEntity
  8
참조1
100
AcDbLine
 10
90.51899512937676
 20
-5.438925071276109
 30
0.0
 11
77.81899512937676
 21
-5.438925071276109
 31
0.0
  0
SOLID
  5
122
330
1F
100
AcDbEntity
  8
참조1
100
AcDbTrace
 10
77.81899512937676
 20
-5.438925071276109
 30
0.0
 11
84.16899512937675
 21
-6.454925071276109
 31
0.0
 12
84.16899512937675
 22
-4.422925071276109
 32
0.0
 13
84.16899512937675
 23
-4.422925071276109
 33
0.0
  0
MTEXT
  5
123
330
1F
100
AcDbEntity
  8
참조1
100
AcDbMText
 10
87.21648522184704
 20
10.98929157337383
 30
0.0
 40
3.5
 41
0.0
 71
     1
 72
     1
  1
A
  7
SLDTEXTSTYLE0
 73
     1
 44
1.0
  0
MTEXT
  5
124
330
1F
100
AcDbEntity
  8
참조1
100
AcDbMText
 10
87.21648522184704
 20
0.1092915733738259
 30
0.0
 40
3.5
 41
0.0
 71
     1
 72
     1
  1
A
  7
SLDTEXTSTYLE0
 73
     1
 44
1.0
  0
INSERT
  5
12B
330
1F
100
AcDbEntity
  8
해칭선
100
AcDbBlockReference
  2
SW_DOWELSYMBOL_0
 10
0.0
 20
0.0
 30
0.0
  0
LINE
  5
23E
330
1F
100
AcDbEntity
  8
외형선
  6
Continuous
370
    15
100
AcDbLine
 10
-22.21263467149231
 20
3.493574928723902
 30
0.0
 11
-15.07523467149218
 21
3.493574928723902
 31
0.0
  0
LINE
  5
23F
330
1F
100
AcDbEntity
  8
외형선
  6
Continuous
370
    15
100
AcDbLine
 10
-22.21263467149231
 20
3.493574928723902
 30
0.0
 11
-23.48263467149229
 21
4.763574928723884
 31
0.0
  0
LINE
  5
240
330
1F
100
AcDbEntity
  8
외형선
  6
Continuous
370
    15
100
AcDbLine
 10
-15.07523467149218
 20
3.493574928723902
 30
0.0
 11
-13.80523467149208
 21
4.763574928723884
 31
0.0
  0
LINE
  5
27C
330
1F
100
AcDbEntity
  8
외형선
  6
Continuous
370
    15
100
AcDbLine
 10
-23.4826346714923
 20
4.763574928723896
 30
0.0
 11
-37.53518467149218
 21
4.763574928723896
 31
0.0
  0
ENDSEC
  0
SECTION
  2
OBJECTS
  0
DICTIONARY
  5
C
330
0
100
AcDbDictionary
281
     1
  3
ACAD_GROUP
350
D
  3
ACAD_IMAGE_VARS
350
14F
  3
ACAD_LAYOUT
350
1A
  3
ACAD_MLINESTYLE
350
17
  3
ACAD_PLOTSETTINGS
350
19
  3
ACAD_PLOTSTYLENAME
350
E
  3
ACAD_SCALELIST
350
47
  3
APPDATA
350
14D
  3
DWGPROPS
350
27D
  0
DICTIONARY
  5
1DE
330
2
100
AcDbDictionary
280
     1
281
     1
  3
ACAD_LAYERSTATES
360
1DF
  0
DICTIONARY
  5
D
102
{ACAD_REACTORS
330
C
102
}
330
C
100
AcDbDictionary
281
     1
  0
RASTERVARIABLES
  5
14F
102
{ACAD_REACTORS
330
C
102
}
330
C
100
AcDbRasterVariables
 90
        0
 70
     1
 71
     1
 72
     1
  0
DICTIONARY
  5
1A
102
{ACAD_REACTORS
330
C
102
}
330
C
100
AcDbDictionary
281
     1
  3
Layout1
350
1E
  3
Layout2
350
26
  3
Model
350
22
  0
DICTIONARY
  5
17
102
{ACAD_REACTORS
330
C
102
}
330
C
100
AcDbDictionary
281
     1
  3
Standard
350
18
  0
DICTIONARY
  5
19
102
{ACAD_REACTORS
330
C
102
}
330
C
100
AcDbDictionary
281
     1
  0
ACDBDICTIONARYWDFLT
  5
E
102
{ACAD_REACTORS
330
C
102
}
330
C
100
AcDbDictionary
281
     1
  3
Normal
350
F
100
AcDbDictionaryWithDefault
340
F
  0
DICTIONARY
  5
47
102
{ACAD_REACTORS
330
C
102
}
330
C
100
AcDbDictionary
281
     1
  3
A0
350
48
  3
A1
350
49
  3
A2
350
4A
  3
A3
350
4B
  3
A4
350
4C
  3
A5
350
4D
  3
A6
350
4E
  3
A7
350
4F
  3
A8
350
50
  3
A9
350
51
  3
B0
350
52
  3
B1
350
53
  3
B2
350
54
  3
B3
350
55
  3
B4
350
56
  3
B5
350
57
  3
B6
350
58
  3
B7
350
59
  3
B8
350
5A
  3
B9
350
5B
  3
C0
350
5C
  3
C1
350
5D
  3
C2
350
5E
  3
C3
350
5F
  3
C4
350
60
  3
C5
350
61
  3
C6
350
62
  3
C7
350
63
  3
C8
350
64
  3
C9
350
65
  3
D0
350
66
  3
D1
350
67
  3
D2
350
68
  0
DICTIONARY
  5
14D
102
{ACAD_REACTORS
330
C
102
}
330
C
100
AcDbDictionary
281
     1
  0
XRECORD
  5
27D
102
{ACAD_REACTORS
330
C
102
}
330
C
100
AcDbXrecord
280
     1
  1
DWGPROPS COOKIE
  2

  3

  4

  6

  7

  8
12017012
  9

300
=
301
=
302
=
303
=
304
=
305
=
306
=
307
=
308
=
309
=
 40
0.0
 41
2458323.30370647
 42
2458324.067386516
  1

 90
        0
  0
DICTIONARY
  5
1DF
102
{ACAD_REACTORS
330
1DE
102
}
330
1DE
100
AcDbDictionary
281
     1
  0
LAYOUT
  5
1E
102
{ACAD_REACTORS
330
1A
102
}
330
1A
100
AcDbPlotSettings
  1

  2
none_device
  4

  6

 40
0.0
 41
0.0
 42
0.0
 43
0.0
 44
0.0
 45
0.0
 46
0.0
 47
0.0
 48
0.0
 49
0.0
140
0.0
141
0.0
142
1.0
143
1.0
 70
   688
 72
     1
 73
     0
 74
     5
  7

 75
    16
147
1.0
148
0.0
149
0.0
100
AcDbLayout
  1
Layout1
 70
     1
 71
     1
 10
0.0
 20
0.0
 11
420.0
 21
297.0
 12
0.0
 22
0.0
 32
0.0
 14
1.000000000000000E+20
 24
1.000000000000000E+20
 34
1.000000000000000E+20
 15
-1.000000000000000E+20
 25
-1.000000000000000E+20
 35
-1.000000000000000E+20
146
0.0
 13
0.0
 23
0.0
 33
0.0
 16
1.0
 26
0.0
 36
0.0
 17
0.0
 27
1.0
 37
0.0
 76
     0
330
1B
  0
LAYOUT
  5
26
102
{ACAD_REACTORS
330
1A
102
}
330
1A
100
AcDbPlotSettings
  1

  2
none_device
  4

  6

 40
0.0
 41
0.0
 42
0.0
 43
0.0
 44
0.0
 45
0.0
 46
0.0
 47
0.0
 48
0.0
 49
0.0
140
0.0
141
0.0
142
1.0
143
1.0
 70
   688
 72
     1
 73
     0
 74
     5
  7

 75
    16
147
1.0
148
0.0
149
0.0
100
AcDbLayout
  1
Layout2
 70
     1
 71
     2
 10
0.0
 20
0.0
 11
0.0
 21
0.0
 12
0.0
 22
0.0
 32
0.0
 14
0.0
 24
0.0
 34
0.0
 15
0.0
 25
0.0
 35
0.0
146
0.0
 13
0.0
 23
0.0
 33
0.0
 16
1.0
 26
0.0
 36
0.0
 17
0.0
 27
1.0
 37
0.0
 76
     0
330
23
  0
LAYOUT
  5
22
102
{ACAD_REACTORS
330
1A
102
}
330
1A
100
AcDbPlotSettings
  1

  2
none_device
  4
ANSI_A_(11.00_x_8.50_Inches)
  6

 40
6.35
 41
19.05
 42
6.35000508
 43
19.05000254
 44
279.4
 45
215.9
 46
100.7457054717439
 47
43.17679658125459
 48
0.0
 49
0.0
140
0.0
141
0.0
142
0.0474689590334287
143
1.0
 70
  1696
 72
     0
 73
     0
 74
     0
  7

 75
     0
147
0.0235690232323232
148
0.0
149
0.0
100
AcDbLayout
  1
Model
 70
     1
 71
     0
 10
0.0
 20
0.0
 11
420.0
 21
297.0
 12
0.0
 22
0.0
 32
0.0
 14
1.000000000000000E+20
 24
1.000000000000000E+20
 34
1.000000000000000E+20
 15
-1.000000000000000E+20
 25
-1.000000000000000E+20
 35
-1.000000000000000E+20
146
0.0
 13
0.0
 23
0.0
 33
0.0
 16
1.0
 26
0.0
 36
0.0
 17
0.0
 27
1.0
 37
0.0
 76
     0
330
1F
331
29
  0
MLINESTYLE
  5
18
102
{ACAD_REACTORS
330
17
102
}
330
17
100
AcDbMlineStyle
  2
Standard
 70
     0
  3

 62
   256
 51
90.0
 52
90.0
 71
     2
 49
0.5
 62
   256
  6
BYLAYER
 49
-0.5
 62
   256
  6
BYLAYER
  0
ACDBPLACEHOLDER
  5
F
102
{ACAD_REACTORS
330
E
102
}
330
E
  0
SCALE
  5
48
102
{ACAD_REACTORS
330
47
102
}
330
47
100
AcDbScale
 70
     0
300
1:1
140
1.0
141
1.0
290
     1
  0
SCALE
  5
49
102
{ACAD_REACTORS
330
47
102
}
330
47
100
AcDbScale
 70
     0
300
1:2
140
1.0
141
2.0
290
     0
  0
SCALE
  5
4A
102
{ACAD_REACTORS
330
47
102
}
330
47
100
AcDbScale
 70
     0
300
1:4
140
1.0
141
4.0
290
     0
  0
SCALE
  5
4B
102
{ACAD_REACTORS
330
47
102
}
330
47
100
AcDbScale
 70
     0
300
1:5
140
1.0
141
5.0
290
     0
  0
SCALE
  5
4C
102
{ACAD_REACTORS
330
47
102
}
330
47
100
AcDbScale
 70
     0
300
1:8
140
1.0
141
8.0
290
     0
  0
SCALE
  5
4D
102
{ACAD_REACTORS
330
47
102
}
330
47
100
AcDbScale
 70
     0
300
1:10
140
1.0
141
10.0
290
     0
  0
SCALE
  5
4E
102
{ACAD_REACTORS
330
47
102
}
330
47
100
AcDbScale
 70
     0
300
1:16
140
1.0
141
16.0
290
     0
  0
SCALE
  5
4F
102
{ACAD_REACTORS
330
47
102
}
330
47
100
AcDbScale
 70
     0
300
1:20
140
1.0
141
20.0
290
     0
  0
SCALE
  5
50
102
{ACAD_REACTORS
330
47
102
}
330
47
100
AcDbScale
 70
     0
300
1:30
140
1.0
141
30.0
290
     0
  0
SCALE
  5
51
102
{ACAD_REACTORS
330
47
102
}
330
47
100
AcDbScale
 70
     0
300
1:40
140
1.0
141
40.0
290
     0
  0
SCALE
  5
52
102
{ACAD_REACTORS
330
47
102
}
330
47
100
AcDbScale
 70
     0
300
1:50
140
1.0
141
50.0
290
     0
  0
SCALE
  5
53
102
{ACAD_REACTORS
330
47
102
}
330
47
100
AcDbScale
 70
     0
300
1:100
140
1.0
141
100.0
290
     0
  0
SCALE
  5
54
102
{ACAD_REACTORS
330
47
102
}
330
47
100
AcDbScale
 70
     0
300
2:1
140
2.0
141
1.0
290
     0
  0
SCALE
  5
55
102
{ACAD_REACTORS
330
47
102
}
330
47
100
AcDbScale
 70
     0
300
4:1
140
4.0
141
1.0
290
     0
  0
SCALE
  5
56
102
{ACAD_REACTORS
330
47
102
}
330
47
100
AcDbScale
 70
     0
300
8:1
140
8.0
141
1.0
290
     0
  0
SCALE
  5
57
102
{ACAD_REACTORS
330
47
102
}
330
47
100
AcDbScale
 70
     0
300
10:1
140
10.0
141
1.0
290
     0
  0
SCALE
  5
58
102
{ACAD_REACTORS
330
47
102
}
330
47
100
AcDbScale
 70
     0
300
100:1
140
100.0
141
1.0
290
     0
  0
SCALE
  5
59
102
{ACAD_REACTORS
330
47
102
}
330
47
100
AcDbScale
 70
     0
300
1/128" = 1'-0"
140
0.0078125
141
12.0
290
     0
  0
SCALE
  5
5A
102
{ACAD_REACTORS
330
47
102
}
330
47
100
AcDbScale
 70
     0
300
1/64" = 1'-0"
140
0.015625
141
12.0
290
     0
  0
SCALE
  5
5B
102
{ACAD_REACTORS
330
47
102
}
330
47
100
AcDbScale
 70
     0
300
1/32" = 1'-0"
140
0.03125
141
12.0
290
     0
  0
SCALE
  5
5C
102
{ACAD_REACTORS
330
47
102
}
330
47
100
AcDbScale
 70
     0
300
1/16" = 1'-0"
140
0.0625
141
12.0
290
     0
  0
SCALE
  5
5D
102
{ACAD_REACTORS
330
47
102
}
330
47
100
AcDbScale
 70
     0
300
3/32" = 1'-0"
140
0.09375
141
12.0
290
     0
  0
SCALE
  5
5E
102
{ACAD_REACTORS
330
47
102
}
330
47
100
AcDbScale
 70
     0
300
1/8" = 1'-0"
140
0.125
141
12.0
290
     0
  0
SCALE
  5
5F
102
{ACAD_REACTORS
330
47
102
}
330
47
100
AcDbScale
 70
     0
300
3/16" = 1'-0"
140
0.1875
141
12.0
290
     0
  0
SCALE
  5
60
102
{ACAD_REACTORS
330
47
102
}
330
47
100
AcDbScale
 70
     0
300
1/4" = 1'-0"
140
0.25
141
12.0
290
     0
  0
SCALE
  5
61
102
{ACAD_REACTORS
330
47
102
}
330
47
100
AcDbScale
 70
     0
300
3/8" = 1'-0"
140
0.375
141
12.0
290
     0
  0
SCALE
  5
62
102
{ACAD_REACTORS
330
47
102
}
330
47
100
AcDbScale
 70
     0
300
1/2" = 1'-0"
140
0.5
141
12.0
290
     0
  0
SCALE
  5
63
102
{ACAD_REACTORS
330
47
102
}
330
47
100
AcDbScale
 70
     0
300
3/4" = 1'-0"
140
0.75
141
12.0
290
     0
  0
SCALE
  5
64
102
{ACAD_REACTORS
330
47
102
}
330
47
100
AcDbScale
 70
     0
300
1" = 1'-0"
140
1.0
141
12.0
290
     0
  0
SCALE
  5
65
102
{ACAD_REACTORS
330
47
102
}
330
47
100
AcDbScale
 70
     0
300
1-1/2" = 1'-0"
140
1.5
141
12.0
290
     0
  0
SCALE
  5
66
102
{ACAD_REACTORS
330
47
102
}
330
47
100
AcDbScale
 70
     0
300
3" = 1'-0"
140
3.0
141
12.0
290
     0
  0
SCALE
  5
67
102
{ACAD_REACTORS
330
47
102
}
330
47
100
AcDbScale
 70
     0
300
6" = 1'-0"
140
6.0
141
12.0
290
     0
  0
SCALE
  5
68
102
{ACAD_REACTORS
330
47
102
}
330
47
100
AcDbScale
 70
     0
300
1'-0" = 1'-0"
140
12.0
141
12.0
290
     0
  0
ENDSEC
  0
EOF
