  0
SECTION
  2
HEADER
  9
$ACADVER
  1
AC1015
  9
$ACADMAINTVER
 70
     6
  9
$DWGCODEPAGE
  3
ANSI_949
  9
$INSBASE
 10
0.0
 20
0.0
 30
0.0
  9
$EXTMIN
 10
1.000000000000000E+20
 20
1.000000000000000E+20
 30
1.000000000000000E+20
  9
$EXTMAX
 10
-1.000000000000000E+20
 20
-1.000000000000000E+20
 30
-1.000000000000000E+20
  9
$LIMMIN
 10
0.0
 20
0.0
  9
$LIMMAX
 10
420.0
 20
297.0
  9
$ORTHOMODE
 70
     1
  9
$REGENMODE
 70
     1
  9
$FILLMODE
 70
     1
  9
$QTEXTMODE
 70
     0
  9
$MIRRTEXT
 70
     1
  9
$LTSCALE
 40
1.0
  9
$ATTMODE
 70
     1
  9
$TEXTSIZE
 40
3.5
  9
$TRACEWID
 40
1.0
  9
$TEXTSTYLE
  7
Standard
  9
$CLAYER
  8
0
  9
$CELTYPE
  6
ByLayer
  9
$CECOLOR
 62
   256
  9
$CELTSCALE
 40
1.0
  9
$DISPSILH
 70
     0
  9
$DIMSCALE
 40
1.0
  9
$DIMASZ
 40
3.302
  9
$DIMEXO
 40
1.0
  9
$DIMDLI
 40
3.75
  9
$DIMRND
 40
0.0
  9
$DIMDLE
 40
0.0
  9
$DIMEXE
 40
1.0
  9
$DIMTP
 40
0.0
  9
$DIMTM
 40
0.0
  9
$DIMTXT
 40
3.5
  9
$DIMCEN
 40
2.5
  9
$DIMTSZ
 40
0.0
  9
$DIMTOL
 70
     0
  9
$DIMLIM
 70
     0
  9
$DIMTIH
 70
     1
  9
$DIMTOH
 70
     1
  9
$DIMSE1
 70
     0
  9
$DIMSE2
 70
     0
  9
$DIMTAD
 70
     1
  9
$DIMZIN
 70
     0
  9
$DIMBLK
  1

  9
$DIMASO
 70
     1
  9
$DIMSHO
 70
     1
  9
$DIMPOST
  1

  9
$DIMAPOST
  1

  9
$DIMALT
 70
     0
  9
$DIMALTD
 70
     3
  9
$DIMALTF
 40
0.0393700787401575
  9
$DIMLFAC
 40
1.0
  9
$DIMTOFL
 70
     1
  9
$DIMTVP
 40
0.0
  9
$DIMTIX
 70
     0
  9
$DIMSOXD
 70
     0
  9
$DIMSAH
 70
     0
  9
$DIMBLK1
  1

  9
$DIMBLK2
  1

  9
$DIMSTYLE
  2
ISO-25
  9
$DIMCLRD
 70
     0
  9
$DIMCLRE
 70
     0
  9
$DIMCLRT
 70
     0
  9
$DIMTFAC
 40
1.0
  9
$DIMGAP
 40
1.524
  9
$DIMJUST
 70
     0
  9
$DIMSD1
 70
     0
  9
$DIMSD2
 70
     0
  9
$DIMTOLJ
 70
     0
  9
$DIMTZIN
 70
     0
  9
$DIMALTZ
 70
     0
  9
$DIMALTTZ
 70
     0
  9
$DIMUPT
 70
     0
  9
$DIMDEC
 70
     2
  9
$DIMTDEC
 70
     2
  9
$DIMALTU
 70
     2
  9
$DIMALTTD
 70
     3
  9
$DIMTXSTY
  7
Standard
  9
$DIMAUNIT
 70
     0
  9
$DIMADEC
 70
     2
  9
$DIMALTRND
 40
0.0
  9
$DIMAZIN
 70
     0
  9
$DIMDSEP
 70
    44
  9
$DIMATFIT
 70
     3
  9
$DIMFRAC
 70
     0
  9
$DIMLDRBLK
  1

  9
$DIMLUNIT
 70
     2
  9
$DIMLWD
 70
    -2
  9
$DIMLWE
 70
    -2
  9
$DIMTMOVE
 70
     0
  9
$LUNITS
 70
     2
  9
$LUPREC
 70
     2
  9
$SKETCHINC
 40
1.0
  9
$FILLETRAD
 40
10.0
  9
$AUNITS
 70
     0
  9
$AUPREC
 70
     2
  9
$MENU
  1
.
  9
$ELEVATION
 40
0.0
  9
$PELEVATION
 40
0.0
  9
$THICKNESS
 40
0.0
  9
$LIMCHECK
 70
     0
  9
$CHAMFERA
 40
0.0
  9
$CHAMFERB
 40
0.0
  9
$CHAMFERC
 40
0.0
  9
$CHAMFERD
 40
0.0
  9
$SKPOLY
 70
     0
  9
$TDCREATE
 40
2458323.679342037
  9
$TDUCREATE
 40
2458323.304342037
  9
$TDUPDATE
 40
2458324.438520625
  9
$TDUUPDATE
 40
2458324.063520625
  9
$TDINDWG
 40
0.0002021875
  9
$TDUSRTIMER
 40
2458324.063318935
  9
$USRTIMER
 70
     1
  9
$ANGBASE
 50
0.0
  9
$ANGDIR
 70
     0
  9
$PDMODE
 70
     0
  9
$PDSIZE
 40
-1.0
  9
$PLINEWID
 40
0.0
  9
$SPLFRAME
 70
     0
  9
$SPLINETYPE
 70
     6
  9
$SPLINESEGS
 70
     8
  9
$HANDSEED
  5
2CF
  9
$SURFTAB1
 70
     6
  9
$SURFTAB2
 70
     6
  9
$SURFTYPE
 70
     6
  9
$SURFU
 70
     6
  9
$SURFV
 70
     6
  9
$UCSBASE
  2

  9
$UCSNAME
  2

  9
$UCSORG
 10
0.0
 20
0.0
 30
0.0
  9
$UCSXDIR
 10
1.0
 20
0.0
 30
0.0
  9
$UCSYDIR
 10
0.0
 20
1.0
 30
0.0
  9
$UCSORTHOREF
  2

  9
$UCSORTHOVIEW
 70
     0
  9
$UCSORGTOP
 10
0.0
 20
0.0
 30
0.0
  9
$UCSORGBOTTOM
 10
0.0
 20
0.0
 30
0.0
  9
$UCSORGLEFT
 10
0.0
 20
0.0
 30
0.0
  9
$UCSORGRIGHT
 10
0.0
 20
0.0
 30
0.0
  9
$UCSORGFRONT
 10
0.0
 20
0.0
 30
0.0
  9
$UCSORGBACK
 10
0.0
 20
0.0
 30
0.0
  9
$PUCSBASE
  2

  9
$PUCSNAME
  2

  9
$PUCSORG
 10
0.0
 20
0.0
 30
0.0
  9
$PUCSXDIR
 10
1.0
 20
0.0
 30
0.0
  9
$PUCSYDIR
 10
0.0
 20
1.0
 30
0.0
  9
$PUCSORTHOREF
  2

  9
$PUCSORTHOVIEW
 70
     0
  9
$PUCSORGTOP
 10
0.0
 20
0.0
 30
0.0
  9
$PUCSORGBOTTOM
 10
0.0
 20
0.0
 30
0.0
  9
$PUCSORGLEFT
 10
0.0
 20
0.0
 30
0.0
  9
$PUCSORGRIGHT
 10
0.0
 20
0.0
 30
0.0
  9
$PUCSORGFRONT
 10
0.0
 20
0.0
 30
0.0
  9
$PUCSORGBACK
 10
0.0
 20
0.0
 30
0.0
  9
$USERI1
 70
     0
  9
$USERI2
 70
     0
  9
$USERI3
 70
     0
  9
$USERI4
 70
     0
  9
$USERI5
 70
     0
  9
$USERR1
 40
0.0
  9
$USERR2
 40
0.0
  9
$USERR3
 40
0.0
  9
$USERR4
 40
0.0
  9
$USERR5
 40
0.0
  9
$WORLDVIEW
 70
     1
  9
$SHADEDGE
 70
     3
  9
$SHADEDIF
 70
    70
  9
$TILEMODE
 70
     1
  9
$MAXACTVP
 70
    64
  9
$PINSBASE
 10
0.0
 20
0.0
 30
0.0
  9
$PLIMCHECK
 70
     0
  9
$PEXTMIN
 10
1.000000000000000E+20
 20
1.000000000000000E+20
 30
1.000000000000000E+20
  9
$PEXTMAX
 10
-1.000000000000000E+20
 20
-1.000000000000000E+20
 30
-1.000000000000000E+20
  9
$PLIMMIN
 10
0.0
 20
0.0
  9
$PLIMMAX
 10
0.0
 20
0.0
  9
$UNITMODE
 70
     0
  9
$VISRETAIN
 70
     1
  9
$PLINEGEN
 70
     0
  9
$PSLTSCALE
 70
     1
  9
$TREEDEPTH
 70
  3020
  9
$CMLSTYLE
  2
Standard
  9
$CMLJUST
 70
     0
  9
$CMLSCALE
 40
20.0
  9
$PROXYGRAPHICS
 70
     1
  9
$MEASUREMENT
 70
     1
  9
$CELWEIGHT
370
    -1
  9
$ENDCAPS
280
     0
  9
$JOINSTYLE
280
     0
  9
$LWDISPLAY
290
     1
  9
$INSUNITS
 70
     4
  9
$HYPERLINKBASE
  1

  9
$STYLESHEET
  1

  9
$XEDIT
290
     1
  9
$CEPSNTYPE
380
     0
  9
$PSTYLEMODE
290
     1
  9
$FINGERPRINTGUID
  2
{8A2866F3-078C-425A-8BB8-59F98A9C06BB}
  9
$VERSIONGUID
  2
{FAEB1C32-E019-11D5-929B-00C0DF256EC4}
  9
$EXTNAMES
290
     1
  9
$PSVPSCALE
 40
0.0
  9
$OLESTARTUP
290
     0
  0
ENDSEC
  0
SECTION
  2
CLASSES
  0
CLASS
  1
ACDBDICTIONARYWDFLT
  2
AcDbDictionaryWithDefault
  3
ObjectDBX Classes
 90
        0
280
     0
281
     0
  0
CLASS
  1
VISUALSTYLE
  2
AcDbVisualStyle
  3
ObjectDBX Classes
 90
     4095
280
     0
281
     0
  0
CLASS
  1
MATERIAL
  2
AcDbMaterial
  3
ObjectDBX Classes
 90
     1153
280
     0
281
     0
  0
CLASS
  1
SCALE
  2
AcDbScale
  3
ObjectDBX Classes
 90
     1153
280
     0
281
     0
  0
CLASS
  1
SUN
  2
AcDbSun
  3
SCENEOE
 90
     1153
280
     0
281
     0
  0
CLASS
  1
ACDBPLACEHOLDER
  2
AcDbPlaceHolder
  3
ObjectDBX Classes
 90
        0
280
     0
281
     0
  0
CLASS
  1
LAYOUT
  2
AcDbLayout
  3
ObjectDBX Classes
 90
        0
280
     0
281
     0
  0
CLASS
  1
TABLESTYLE
  2
AcDbTableStyle
  3
ObjectDBX Classes
 90
     4095
280
     0
281
     0
  0
CLASS
  1
MLEADERSTYLE
  2
AcDbMLeaderStyle
  3
ACDB_MLEADERSTYLE_CLASS
 90
     4095
280
     0
281
     0
  0
CLASS
  1
RASTERVARIABLES
  2
AcDbRasterVariables
  3
ISM
 90
        0
280
     0
281
     0
  0
ENDSEC
  0
SECTION
  2
TABLES
  0
TABLE
  2
VPORT
  5
8
330
0
100
AcDbSymbolTable
 70
     1
  0
VPORT
  5
29
330
8
100
AcDbSymbolTableRecord
100
AcDbViewportTableRecord
  2
*Active
 70
     0
 10
0.0
 20
0.0
 11
1.0
 21
1.0
 12
51.22525835824111
 22
14.28845769390152
 13
0.0
 23
0.0
 14
10.0
 24
10.0
 15
10.0
 25
10.0
 16
0.0
 26
0.0
 36
1.0
 17
0.0
 27
0.0
 37
0.0
 40
182.2193718582649
 41
1.632093933463796
 42
50.0
 43
0.0
 44
0.0
 50
0.0
 51
0.0
 71
    16
 72
  2000
 73
     1
 74
     3
 75
     0
 76
     0
 77
     0
 78
     0
281
     0
 65
     1
110
0.0
120
0.0
130
0.0
111
1.0
121
0.0
131
0.0
112
0.0
122
1.0
132
0.0
 79
     0
146
0.0
  0
ENDTAB
  0
TABLE
  2
LTYPE
  5
5
330
0
100
AcDbSymbolTable
 70
     6
  0
LTYPE
  5
14
330
5
100
AcDbSymbolTableRecord
100
AcDbLinetypeTableRecord
  2
ByBlock
 70
     0
  3

 72
    65
 73
     0
 40
0.0
  0
LTYPE
  5
15
330
5
100
AcDbSymbolTableRecord
100
AcDbLinetypeTableRecord
  2
ByLayer
 70
     0
  3

 72
    65
 73
     0
 40
0.0
  0
LTYPE
  5
16
330
5
100
AcDbSymbolTableRecord
100
AcDbLinetypeTableRecord
  2
Continuous
 70
     0
  3
Solid line
 72
    65
 73
     0
 40
0.0
  0
LTYPE
  5
6A
330
5
100
AcDbSymbolTableRecord
100
AcDbLinetypeTableRecord
  2
HIDDEN
 70
     0
  3
Hidden __ __ __ __ __ __ __ __ __ __ __ __ __ __
 72
    65
 73
     2
 40
1.905
 49
1.27
 74
     0
 49
-0.635
 74
     0
  0
LTYPE
  5
6B
330
5
100
AcDbSymbolTableRecord
100
AcDbLinetypeTableRecord
  2
PHANTOM
 70
     0
  3
Phantom ______  __  __  ______  __  __  ______
 72
    65
 73
     6
 40
12.7
 49
6.35
 74
     0
 49
-1.27
 74
     0
 49
1.27
 74
     0
 49
-1.27
 74
     0
 49
1.27
 74
     0
 49
-1.27
 74
     0
  0
LTYPE
  5
6C
330
5
100
AcDbSymbolTableRecord
100
AcDbLinetypeTableRecord
  2
CENTER
 70
     0
  3
Center ____ _ ____ _ ____ _ ____ _ ____ _ ____
 72
    65
 73
     4
 40
10.16
 49
6.35
 74
     0
 49
-1.27
 74
     0
 49
1.27
 74
     0
 49
-1.27
 74
     0
  0
LTYPE
  5
6D
330
5
100
AcDbSymbolTableRecord
100
AcDbLinetypeTableRecord
  2
CENTERX2
 70
     0
  3
Center (2x) ________  __  ________  __  _____
 72
    65
 73
     4
 40
20.32
 49
12.7
 74
     0
 49
-2.54
 74
     0
 49
2.54
 74
     0
 49
-2.54
 74
     0
  0
LTYPE
  5
6E
330
5
100
AcDbSymbolTableRecord
100
AcDbLinetypeTableRecord
  2
DOT2
 70
     0
  3
Dot (.5x) ........................................
 72
    65
 73
     2
 40
0.635
 49
0.0
 74
     0
 49
-0.635
 74
     0
  0
ENDTAB
  0
TABLE
  2
LAYER
  5
2
102
{ACAD_XDICTIONARY
360
1D5
102
}
330
0
100
AcDbSymbolTable
 70
    18
  0
LAYER
  5
10
330
2
100
AcDbSymbolTableRecord
100
AcDbLayerTableRecord
  2
0
 70
     0
 62
     7
  6
Continuous
370
    -3
390
F
  0
LAYER
  5
6F
330
2
100
AcDbSymbolTableRecord
100
AcDbLayerTableRecord
  2
FORMAT
 70
     0
 62
     2
  6
Continuous
370
    -3
390
F
  0
LAYER
  5
70
330
2
100
AcDbSymbolTableRecord
100
AcDbLayerTableRecord
  2
외형선
 70
     0
 62
     4
  6
Continuous
370
    30
390
F
  0
LAYER
  5
71
330
2
100
AcDbSymbolTableRecord
100
AcDbLayerTableRecord
  2
숨은선
 70
     0
 62
     2
  6
HIDDEN
370
    15
390
F
  0
LAYER
  5
72
330
2
100
AcDbSymbolTableRecord
100
AcDbLayerTableRecord
  2
중심선
 70
     0
 62
     1
  6
CENTERX2
370
    -3
390
F
  0
LAYER
  5
73
330
2
100
AcDbSymbolTableRecord
100
AcDbLayerTableRecord
  2
파단선
 70
     0
 62
     4
  6
Continuous
370
    -3
390
F
  0
LAYER
  5
74
330
2
100
AcDbSymbolTableRecord
100
AcDbLayerTableRecord
  2
해칭선
 70
     0
 62
   100
  6
Continuous
370
    -3
390
F
  0
LAYER
  5
75
330
2
100
AcDbSymbolTableRecord
100
AcDbLayerTableRecord
  2
가는실선
 70
     0
 62
     4
  6
Continuous
370
    -3
390
F
  0
LAYER
  5
76
330
2
100
AcDbSymbolTableRecord
100
AcDbLayerTableRecord
  2
치수_보조선
 70
     0
 62
     4
  6
Continuous
370
    -3
390
F
  0
LAYER
  5
77
330
2
100
AcDbSymbolTableRecord
100
AcDbLayerTableRecord
  2
치수문자_일반주서
 70
     0
 62
     7
  6
Continuous
370
    15
390
F
  0
LAYER
  5
78
330
2
100
AcDbSymbolTableRecord
100
AcDbLayerTableRecord
  2
개별주서
 70
     0
 62
   100
  6
Continuous
370
    30
390
F
  0
LAYER
  5
79
330
2
100
AcDbSymbolTableRecord
100
AcDbLayerTableRecord
  2
중간선
 70
     0
 62
     2
  6
Continuous
370
    15
390
F
  0
LAYER
  5
7A
330
2
100
AcDbSymbolTableRecord
100
AcDbLayerTableRecord
  2
윤곽선
 70
     0
 62
     3
  6
Continuous
370
    40
390
F
  0
LAYER
  5
7B
330
2
100
AcDbSymbolTableRecord
100
AcDbLayerTableRecord
  2
중심마크
 70
     0
 62
   100
  6
Continuous
370
    30
390
F
  0
LAYER
  5
7C
330
2
100
AcDbSymbolTableRecord
100
AcDbLayerTableRecord
  2
가상선
 70
     0
 62
     4
  6
PHANTOM
370
    -3
390
F
  0
LAYER
  5
7D
330
2
100
AcDbSymbolTableRecord
100
AcDbLayerTableRecord
  2
특수지정선
 70
     0
 62
     5
  6
CENTERX2
370
    60
390
F
  0
LAYER
  5
7E
330
2
100
AcDbSymbolTableRecord
100
AcDbLayerTableRecord
  2
참조1
 70
     0
 62
    -4
  6
Continuous
370
    -3
390
F
  0
LAYER
  5
148
330
2
100
AcDbSymbolTableRecord
100
AcDbLayerTableRecord
  2
Defpoints
 70
     0
 62
     7
  6
Continuous
290
     0
370
    -3
390
F
  0
ENDTAB
  0
TABLE
  2
STYLE
  5
3
330
0
100
AcDbSymbolTable
 70
     2
  0
STYLE
  5
11
330
3
100
AcDbSymbolTableRecord
100
AcDbTextStyleTableRecord
  2
Standard
 70
     0
 40
0.0
 41
1.0
 50
0.0
 71
     0
 42
3.5
  3
txt
  4

  0
STYLE
  5
94
330
3
100
AcDbSymbolTableRecord
100
AcDbTextStyleTableRecord
  2
SLDTEXTSTYLE0
 70
     0
 40
0.0
 41
0.75
 50
0.0
 71
     0
 42
3.5
  3
TXT
  4

  0
ENDTAB
  0
TABLE
  2
VIEW
  5
6
330
0
100
AcDbSymbolTable
 70
     0
  0
ENDTAB
  0
TABLE
  2
UCS
  5
7
330
0
100
AcDbSymbolTable
 70
     0
  0
ENDTAB
  0
TABLE
  2
APPID
  5
9
330
0
100
AcDbSymbolTable
 70
     1
  0
APPID
  5
12
330
9
100
AcDbSymbolTableRecord
100
AcDbRegAppTableRecord
  2
ACAD
 70
     0
  0
ENDTAB
  0
TABLE
  2
DIMSTYLE
  5
A
330
0
100
AcDbSymbolTable
 70
     4
100
AcDbDimStyleTable
  0
DIMSTYLE
105
27
330
A
100
AcDbSymbolTableRecord
100
AcDbDimStyleTableRecord
  2
ISO-25
 70
     0
 41
2.5
 42
0.625
 43
3.75
 44
1.25
 73
     0
 74
     0
 77
     1
 78
     8
140
2.5
141
2.5
143
0.03937007874016
147
0.625
171
     3
172
     1
178
     0
271
     2
272
     2
274
     3
278
    44
283
     0
284
     8
340
11
  0
DIMSTYLE
105
C5
330
A
100
AcDbSymbolTableRecord
100
AcDbDimStyleTableRecord
  2
SLDDIMSTYLE0
 70
     0
 41
3.302
 44
0.0
 45
0.000000001
 73
     0
 74
     0
 77
     1
 78
     4
 79
     1
140
3.5
143
0.0393700787401575
147
0.875
148
0.000000001
170
     1
173
     1
178
     0
271
     2
272
     2
276
     2
284
    12
340
94
  0
DIMSTYLE
105
DA
102
{ACAD_REACTORS
330
D9
330
194
330
1A1
330
1AE
330
1BB
330
231
330
C4
330
102
330
ED
102
}
330
A
100
AcDbSymbolTableRecord
100
AcDbDimStyleTableRecord
  2
SLDDIMSTYLE1
 70
     0
 41
3.302
 44
0.0
 45
0.000000001
 73
     0
 74
     0
 77
     1
 78
    12
 79
     3
140
3.5
143
0.0393700787401575
147
0.875
148
0.000000001
170
     1
173
     1
178
     0
271
     2
272
     2
276
     2
284
    12
340
94
  0
DIMSTYLE
105
EE
330
A
100
AcDbSymbolTableRecord
100
AcDbDimStyleTableRecord
  2
SLDDIMSTYLE2
 70
     0
 41
3.302
 44
0.0
 45
0.000000001
 73
     0
 74
     0
 77
     1
 78
    12
 79
     3
140
3.5
143
0.0393700787401575
147
0.875
148
0.000000001
170
     1
172
     1
173
     1
178
     0
271
     2
272
     2
276
     2
284
    12
289
     0
340
94
  0
ENDTAB
  0
TABLE
  2
BLOCK_RECORD
  5
1
330
0
100
AcDbSymbolTable
 70
    18
  0
BLOCK_RECORD
  5
1F
330
1
100
AcDbSymbolTableRecord
100
AcDbBlockTableRecord
  2
*Model_Space
340
22
  0
BLOCK_RECORD
  5
1B
330
1
100
AcDbSymbolTableRecord
100
AcDbBlockTableRecord
  2
*Paper_Space
340
1E
  0
BLOCK_RECORD
  5
23
330
1
100
AcDbSymbolTableRecord
100
AcDbBlockTableRecord
  2
*Paper_Space0
340
26
  0
BLOCK_RECORD
  5
7F
330
1
100
AcDbSymbolTableRecord
100
AcDbBlockTableRecord
  2
블럭10
340
0
102
{BLKREFS
331
BD
102
}
  0
BLOCK_RECORD
  5
C6
330
1
100
AcDbSymbolTableRecord
100
AcDbBlockTableRecord
  2
_D
340
0
  0
BLOCK_RECORD
  5
DB
330
1
100
AcDbSymbolTableRecord
100
AcDbBlockTableRecord
  2
_D_1
340
0
  0
BLOCK_RECORD
  5
EF
330
1
100
AcDbSymbolTableRecord
100
AcDbBlockTableRecord
  2
_D_2
340
0
  0
BLOCK_RECORD
  5
103
330
1
100
AcDbSymbolTableRecord
100
AcDbBlockTableRecord
  2
_D_3
340
0
  0
BLOCK_RECORD
  5
11C
330
1
100
AcDbSymbolTableRecord
100
AcDbBlockTableRecord
  2
SW_DOWELSYMBOL_0
340
0
102
{BLKREFS
331
122
331
1C9
331
0
102
}
  0
BLOCK_RECORD
  5
1D9
330
1
100
AcDbSymbolTableRecord
100
AcDbBlockTableRecord
  2
*D8
340
0
  0
BLOCK_RECORD
  5
1E5
330
1
100
AcDbSymbolTableRecord
100
AcDbBlockTableRecord
  2
*D9
340
0
  0
BLOCK_RECORD
  5
1F1
330
1
100
AcDbSymbolTableRecord
100
AcDbBlockTableRecord
  2
*D10
340
0
  0
BLOCK_RECORD
  5
1FD
330
1
100
AcDbSymbolTableRecord
100
AcDbBlockTableRecord
  2
*D11
340
0
  0
BLOCK_RECORD
  5
238
330
1
100
AcDbSymbolTableRecord
100
AcDbBlockTableRecord
  2
*D12
340
0
  0
BLOCK_RECORD
  5
244
330
1
100
AcDbSymbolTableRecord
100
AcDbBlockTableRecord
  2
*D13
340
0
  0
BLOCK_RECORD
  5
250
330
1
100
AcDbSymbolTableRecord
100
AcDbBlockTableRecord
  2
*D14
340
0
  0
BLOCK_RECORD
  5
25C
330
1
100
AcDbSymbolTableRecord
100
AcDbBlockTableRecord
  2
*D15
340
0
  0
ENDTAB
  0
ENDSEC
  0
SECTION
  2
BLOCKS
  0
BLOCK
  5
20
330
1F
100
AcDbEntity
  8
0
100
AcDbBlockBegin
  2
*Model_Space
 70
     0
 10
0.0
 20
0.0
 30
0.0
  3
*Model_Space
  1
*Model_Space
  0
ENDBLK
  5
21
330
1F
100
AcDbEntity
  8
0
100
AcDbBlockEnd
  0
BLOCK
  5
1C
330
1B
100
AcDbEntity
 67
     1
  8
0
100
AcDbBlockBegin
  2
*Paper_Space
 70
     0
 10
0.0
 20
0.0
 30
0.0
  3
*Paper_Space
  1
*Paper_Space
  0
ENDBLK
  5
1D
330
1B
100
AcDbEntity
 67
     1
  8
0
100
AcDbBlockEnd
  0
BLOCK
  5
24
330
23
100
AcDbEntity
  8
0
100
AcDbBlockBegin
  2
*Paper_Space0
 70
     0
 10
0.0
 20
0.0
 30
0.0
  3
*Paper_Space0
  1
*Paper_Space0
  0
ENDBLK
  5
25
330
23
100
AcDbEntity
  8
0
100
AcDbBlockEnd
  0
BLOCK
  5
80
330
7F
100
AcDbEntity
  8
0
100
AcDbBlockBegin
  2
블럭10
 70
     2
 10
0.0
 20
0.0
 30
0.0
  3
블럭10
  1
블럭10
  0
ELLIPSE
  5
82
330
7F
100
AcDbEntity
  8
중심선
100
AcDbEllipse
 10
20.54032771741204
 20
12.0471743016438
 30
0.0
 11
6.600054785286829
 21
-1.261213355974178E-13
 31
0.0
210
0.0
220
0.0
230
1.0
 40
0.636358354079598
 41
0.9219305317359503
 42
6.513795318482858
  0
ELLIPSE
  5
83
330
7F
100
AcDbEntity
  8
중심선
100
AcDbEllipse
 10
20.54032771746488
 20
12.04717430159265
 30
0.0
 11
3.960054785062283
 21
1.540847449632565E-10
 31
0.0
210
0.0
220
0.0
230
1.0
 40
0.3939339440162632
 41
1.131841032648279
 42
5.62031148352944
  0
LINE
  5
84
330
7F
100
AcDbEntity
  8
중심선
100
AcDbLine
 10
2.268634060543552
 20
16.24717430164393
 30
0.0
 11
5.714909304380834
 21
16.24717430164393
 31
0.0
  0
LINE
  5
85
330
7F
100
AcDbEntity
  8
중심선
100
AcDbLine
 10
5.245725140726316
 20
7.84717430164391
 30
0.0
 11
8.692000384563599
 21
7.84717430164391
 31
0.0
  0
LINE
  5
86
330
7F
100
AcDbEntity
  8
중심선
100
AcDbLine
 10
15.74043728645272
 20
16.24717430164393
 30
0.0
 11
8.692000384563599
 21
7.84717430164391
 31
0.0
  0
LINE
  5
87
330
7F
100
AcDbEntity
  8
중심선
100
AcDbLine
 10
0.1404042013395286
 20
13.71084872107135
 30
0.0
 11
3.58671253028996
 21
13.71088815037384
 31
0.0
  0
LINE
  5
88
330
7F
100
AcDbEntity
  8
중심선
100
AcDbLine
 10
2.750260043222114
 20
10.84717430164391
 30
0.0
 11
6.196535287059397
 21
10.84717430164391
 31
0.0
  0
LINE
  5
89
330
7F
100
AcDbEntity
  8
중심선
100
AcDbLine
 10
12.29416204261559
 20
16.24717430164393
 30
0.0
 11
5.245725140726316
 21
7.84717430164391
 31
0.0
  0
LINE
  5
8A
330
7F
100
AcDbEntity
  8
중심선
100
AcDbLine
 10
10.72767329541681
 20
16.24717430164393
 30
0.0
 11
6.196535287059397
 21
10.84717430164391
 31
0.0
  0
LINE
  5
8B
330
7F
100
AcDbEntity
  8
중심선
100
AcDbLine
 10
7.28139805157953
 20
16.24717430164393
 30
0.0
 11
2.750260043222114
 21
10.84717430164391
 31
0.0
  0
LINE
  5
8C
330
7F
100
AcDbEntity
  8
중심선
100
AcDbLine
 10
5.714909304380834
 20
16.24717430164393
 30
0.0
 11
3.58671253028996
 21
13.71088815037384
 31
0.0
  0
LINE
  5
8D
330
7F
100
AcDbEntity
  8
중심선
100
AcDbLine
 10
2.268634060543552
 20
16.24717430164393
 30
0.0
 11
0.1404042013395286
 21
13.71084872107135
 31
0.0
  0
LINE
  5
8E
330
7F
100
AcDbEntity
  8
중심선
100
AcDbLine
 10
7.28139805157953
 20
16.24717430164393
 30
0.0
 11
10.72767329541681
 21
16.24717430164393
 31
0.0
  0
LINE
  5
8F
330
7F
100
AcDbEntity
  8
중심선
100
AcDbLine
 10
12.29416204261559
 20
16.24717430164393
 30
0.0
 11
15.74043728645272
 21
16.24717430164393
 31
0.0
  0
LINE
  5
90
330
7F
100
AcDbEntity
  8
중심선
100
AcDbLine
 10
19.22036997980202
 20
11.08717430171403
 30
0.0
 11
23.66174974927406
 21
11.08717430171406
 31
0.0
  0
LINE
  5
91
330
7F
100
AcDbEntity
  8
중심선
100
AcDbLine
 10
19.22039502424796
 20
13.00717430171391
 30
0.0
 11
19.22036997980202
 21
11.08717430171403
 31
0.0
  0
LINE
  5
92
330
7F
100
AcDbEntity
  8
중심선
100
AcDbLine
 10
19.22039502424796
 20
13.00717430171391
 30
0.0
 11
26.96566020931264
 21
13.00717430171391
 31
0.0
  0
LINE
  5
93
330
7F
100
AcDbEntity
  8
중심선
100
AcDbLine
 10
22.22332737316547
 20
13.45928029700563
 30
0.0
 11
24.52862924686651
 21
15.39360700705356
 31
0.0
  0
ATTDEF
  5
95
330
7F
100
AcDbEntity
  8
FORMAT
 62
     2
100
AcDbText
 10
4.408487351596664
 20
2.075366912832191
 30
0.0
 40
4.233333333333333
  1
E2021040
 41
0.75
  7
SLDTEXTSTYLE0
 11
4.408487351596664
 21
-0.0412997538344756
 31
0.0
100
AcDbAttributeDefinition
  3

  2
AUTOATTR0
 70
     0
 74
     1
  0
ENDBLK
  5
81
330
7F
100
AcDbEntity
  8
0
100
AcDbBlockEnd
  0
BLOCK
  5
C7
330
C6
100
AcDbEntity
  8
0
100
AcDbBlockBegin
  2
_D
 70
     0
 10
0.0
 20
0.0
 30
0.0
  3
_D
  1
_D
  0
LINE
  5
C9
330
C6
100
AcDbEntity
  8
치수문자_일반주서
 62
     0
370
    -2
100
AcDbLine
 10
78.9873153285078
 20
8.001074928723904
 30
0.0
 11
78.9873153285078
 21
14.76357492872391
 31
0.0
  0
LINE
  5
CA
330
C6
100
AcDbEntity
  8
치수문자_일반주서
 62
     0
370
    -2
100
AcDbLine
 10
15.4873153285078
 20
7.97188549897996
 30
0.0
 11
15.4873153285078
 21
14.76357492872391
 31
0.0
  0
LINE
  5
CB
330
C6
100
AcDbEntity
  8
치수문자_일반주서
 62
     0
370
    -2
100
AcDbLine
 10
75.68531532850781
 20
14.76357492872391
 30
0.0
 11
18.7893153285078
 21
14.76357492872391
 31
0.0
  0
SOLID
  5
CC
330
C6
100
AcDbEntity
  8
치수문자_일반주서
 62
     0
100
AcDbTrace
 10
75.68531532850781
 20
14.21324159539057
 30
0.0
 11
75.68531532850781
 21
15.31390826205724
 31
0.0
 12
78.9873153285078
 22
14.76357492872391
 32
0.0
 13
78.9873153285078
 23
14.76357492872391
 33
0.0
  0
SOLID
  5
CD
330
C6
100
AcDbEntity
  8
치수문자_일반주서
 62
     0
100
AcDbTrace
 10
18.7893153285078
 20
15.31390826205724
 30
0.0
 11
18.7893153285078
 21
14.21324159539057
 31
0.0
 12
15.4873153285078
 22
14.76357492872391
 32
0.0
 13
15.4873153285078
 23
14.76357492872391
 33
0.0
  0
MTEXT
  5
CE
330
C6
100
AcDbEntity
  8
치수문자_일반주서
 62
     0
100
AcDbMText
 10
47.2373153285078
 20
19.13857492872391
 30
0.0
 40
3.5
 41
0.0
 71
     2
 72
     1
  1
\A1;63.5 [2 1/2]
  7
SLDTEXTSTYLE0
 73
     1
 44
1.0
  0
POINT
  5
CF
330
C6
100
AcDbEntity
  8
Defpoints
 62
     0
100
AcDbPoint
 10
78.9873153285078
 20
7.938574928723904
 30
0.0
  0
POINT
  5
D0
330
C6
100
AcDbEntity
  8
Defpoints
 62
     0
100
AcDbPoint
 10
15.4873153285078
 20
7.90938549897996
 30
0.0
  0
POINT
  5
D1
330
C6
100
AcDbEntity
  8
Defpoints
 62
     0
100
AcDbPoint
 10
15.4873153285078
 20
14.76357492872391
 30
0.0
  0
ENDBLK
  5
C8
330
C6
100
AcDbEntity
  8
0
100
AcDbBlockEnd
  0
BLOCK
  5
DC
330
DB
100
AcDbEntity
  8
0
100
AcDbBlockBegin
  2
_D_1
 70
     0
 10
0.0
 20
0.0
 30
0.0
  3
_D_1
  1
_D_1
  0
LINE
  5
DE
330
DB
100
AcDbEntity
  8
치수문자_일반주서
 62
     0
370
    -2
100
AcDbLine
 10
78.9873153285078
 20
8.001074928723904
 30
0.0
 11
78.9873153285078
 21
31.6102217220047
 31
0.0
  0
LINE
  5
DF
330
DB
100
AcDbEntity
  8
치수문자_일반주서
 62
     0
370
    -2
100
AcDbLine
 10
-38.4876846714922
 20
6.413574928723888
 30
0.0
 11
-38.48768467149219
 21
31.6102217220047
 31
0.0
  0
LINE
  5
E0
330
DB
100
AcDbEntity
  8
치수문자_일반주서
 62
     0
370
    -2
100
AcDbLine
 10
75.68531532850781
 20
31.6102217220047
 30
0.0
 11
-35.18568467149219
 21
31.6102217220047
 31
0.0
  0
SOLID
  5
E1
330
DB
100
AcDbEntity
  8
치수문자_일반주서
 62
     0
100
AcDbTrace
 10
75.68531532850781
 20
31.05988838867136
 30
0.0
 11
75.68531532850781
 21
32.16055505533803
 31
0.0
 12
78.9873153285078
 22
31.6102217220047
 32
0.0
 13
78.9873153285078
 23
31.6102217220047
 33
0.0
  0
SOLID
  5
E2
330
DB
100
AcDbEntity
  8
치수문자_일반주서
 62
     0
100
AcDbTrace
 10
-35.18568467149219
 20
32.16055505533803
 30
0.0
 11
-35.18568467149219
 21
31.05988838867136
 31
0.0
 12
-38.48768467149219
 22
31.6102217220047
 32
0.0
 13
-38.48768467149219
 23
31.6102217220047
 33
0.0
  0
MTEXT
  5
E3
330
DB
100
AcDbEntity
  8
치수문자_일반주서
 62
     0
100
AcDbMText
 10
20.2498153285078
 20
35.9852217220047
 30
0.0
 40
3.5
 41
0.0
 71
     2
 72
     1
  1
\A1;117.48 [4 5/8]
  7
SLDTEXTSTYLE0
 73
     1
 44
1.0
  0
POINT
  5
E4
330
DB
100
AcDbEntity
  8
Defpoints
 62
     0
100
AcDbPoint
 10
78.9873153285078
 20
7.938574928723904
 30
0.0
  0
POINT
  5
E5
330
DB
100
AcDbEntity
  8
Defpoints
 62
     0
100
AcDbPoint
 10
-38.4876846714922
 20
6.351074928723888
 30
0.0
  0
POINT
  5
E6
330
DB
100
AcDbEntity
  8
Defpoints
 62
     0
100
AcDbPoint
 10
-38.4876846714922
 20
31.6102217220047
 30
0.0
  0
ENDBLK
  5
DD
330
DB
100
AcDbEntity
  8
0
100
AcDbBlockEnd
  0
BLOCK
  5
F0
330
EF
100
AcDbEntity
  8
0
100
AcDbBlockBegin
  2
_D_2
 70
     0
 10
0.0
 20
0.0
 30
0.0
  3
_D_2
  1
_D_2
  0
LINE
  5
F2
330
EF
100
AcDbEntity
  8
치수문자_일반주서
 62
     0
370
    -2
100
AcDbLine
 10
-36.96268467149219
 20
7.938574928723908
 30
0.0
 11
-50.85268467149222
 21
7.938574928723857
 31
0.0
  0
LINE
  5
F3
330
EF
100
AcDbEntity
  8
치수문자_일반주서
 62
     0
370
    -2
100
AcDbLine
 10
-36.96268467149219
 20
-7.936425071276121
 30
0.0
 11
-50.85268467149216
 21
-7.936425071276171
 31
0.0
  0
LINE
  5
F4
330
EF
100
AcDbEntity
  8
치수문자_일반주서
 62
     0
370
    -2
100
AcDbLine
 10
-50.85268467149221
 20
4.636574928723857
 30
0.0
 11
-50.85268467149218
 21
-4.634425071276172
 31
0.0
  0
SOLID
  5
F5
330
EF
100
AcDbEntity
  8
치수문자_일반주서
 62
     0
100
AcDbTrace
 10
-50.30235133815887
 20
4.636574928723859
 30
0.0
 11
-51.40301800482554
 21
4.636574928723856
 31
0.0
 12
-50.85268467149222
 22
7.938574928723857
 32
0.0
 13
-50.85268467149222
 23
7.938574928723857
 33
0.0
  0
SOLID
  5
F6
330
EF
100
AcDbEntity
  8
치수문자_일반주서
 62
     0
100
AcDbTrace
 10
-51.40301800482551
 20
-4.634425071276174
 30
0.0
 11
-50.30235133815884
 21
-4.63442507127617
 31
0.0
 12
-50.85268467149216
 22
-7.936425071276171
 32
0.0
 13
-50.85268467149216
 23
-7.936425071276171
 33
0.0
  0
MTEXT
  5
F7
330
EF
100
AcDbEntity
  8
치수문자_일반주서
 62
     0
100
AcDbMText
 10
-55.22768467149219
 20
0.0010749287238976
 30
0.0
 40
3.5
 41
0.0
 71
     2
 72
     1
  1
\A1;%%c15.88 [5/8]
  7
SLDTEXTSTYLE0
 11
-3.580687802255616E-15
 21
1.0
 31
0.0
 73
     1
 44
1.0
  0
POINT
  5
F8
330
EF
100
AcDbEntity
  8
Defpoints
 62
     0
100
AcDbPoint
 10
-36.90018467149219
 20
7.938574928723908
 30
0.0
  0
POINT
  5
F9
330
EF
100
AcDbEntity
  8
Defpoints
 62
     0
100
AcDbPoint
 10
-36.90018467149219
 20
-7.936425071276121
 30
0.0
  0
POINT
  5
FA
330
EF
100
AcDbEntity
  8
Defpoints
 62
     0
100
AcDbPoint
 10
-50.85268467149216
 20
-7.936425071276173
 30
0.0
  0
ENDBLK
  5
F1
330
EF
100
AcDbEntity
  8
0
100
AcDbBlockEnd
  0
BLOCK
  5
104
330
103
100
AcDbEntity
  8
0
100
AcDbBlockBegin
  2
_D_3
 70
     0
 10
0.0
 20
0.0
 30
0.0
  3
_D_3
  1
_D_3
  0
LINE
  5
106
330
103
100
AcDbEntity
  8
치수문자_일반주서
 62
     0
370
    -2
100
AcDbLine
 10
79.0498153285078
 20
7.938574928723904
 30
0.0
 11
94.35318390439575
 21
7.938574928723963
 31
0.0
  0
LINE
  5
107
330
103
100
AcDbEntity
  8
치수문자_일반주서
 62
     0
370
    -2
100
AcDbLine
 10
79.04981532850789
 20
-7.936425071276096
 30
0.0
 11
94.3531839043958
 21
-7.936425071276037
 31
0.0
  0
LINE
  5
108
330
103
100
AcDbEntity
  8
치수문자_일반주서
 62
     0
370
    -2
100
AcDbLine
 10
94.35318390439575
 20
7.938574928723963
 30
0.0
 11
94.3531839043956
 21
45.54024610658199
 31
0.0
  0
LINE
  5
109
330
103
100
AcDbEntity
  8
치수문자_일반주서
 62
     0
370
    -2
100
AcDbLine
 10
94.35318390439576
 20
4.636574928723963
 30
0.0
 11
94.35318390439579
 21
-4.634425071276038
 31
0.0
  0
SOLID
  5
10A
330
103
100
AcDbEntity
  8
치수문자_일반주서
 62
     0
100
AcDbTrace
 10
94.90351723772909
 20
4.636574928723965
 30
0.0
 11
93.80285057106244
 21
4.636574928723961
 31
0.0
 12
94.35318390439575
 22
7.938574928723963
 32
0.0
 13
94.35318390439575
 23
7.938574928723963
 33
0.0
  0
SOLID
  5
10B
330
103
100
AcDbEntity
  8
치수문자_일반주서
 62
     0
100
AcDbTrace
 10
93.80285057106246
 20
-4.63442507127604
 30
0.0
 11
94.90351723772912
 21
-4.634425071276036
 31
0.0
 12
94.3531839043958
 22
-7.936425071276037
 32
0.0
 13
94.3531839043958
 23
-7.936425071276037
 33
0.0
  0
MTEXT
  5
10C
330
103
100
AcDbEntity
  8
치수문자_일반주서
 62
     0
100
AcDbMText
 10
89.97818390439566
 20
31.54024610658197
 30
0.0
 40
3.5
 41
0.0
 71
     2
 72
     1
  1
\A1;%%c15.88 [5/8]
  7
SLDTEXTSTYLE0
 11
-3.580687802255623E-15
 21
1.0
 31
0.0
 73
     1
 44
1.0
  0
POINT
  5
10D
330
103
100
AcDbEntity
  8
Defpoints
 62
     0
100
AcDbPoint
 10
78.9873153285078
 20
7.938574928723904
 30
0.0
  0
POINT
  5
10E
330
103
100
AcDbEntity
  8
Defpoints
 62
     0
100
AcDbPoint
 10
78.98731532850789
 20
-7.936425071276096
 30
0.0
  0
POINT
  5
10F
330
103
100
AcDbEntity
  8
Defpoints
 62
     0
100
AcDbPoint
 10
94.3531839043958
 20
-7.936425071276038
 30
0.0
  0
ENDBLK
  5
105
330
103
100
AcDbEntity
  8
0
100
AcDbBlockEnd
  0
BLOCK
  5
11D
330
11C
100
AcDbEntity
  8
0
100
AcDbBlockBegin
  2
SW_DOWELSYMBOL_0
 70
     0
 10
0.0
 20
0.0
 30
0.0
  3
SW_DOWELSYMBOL_0
  1
SW_DOWELSYMBOL_0
  0
CIRCLE
  5
11F
330
11C
100
AcDbEntity
  8
해칭선
 62
     0
100
AcDbCircle
 10
0.0
 20
0.0
 30
0.0
 40
3.000000000000001
  0
HATCH
  5
120
330
11C
100
AcDbEntity
  8
0
  6
Continuous
 62
     0
370
     0
100
AcDbHatch
 10
0.0
 20
0.0
 30
0.0
210
0.0
220
0.0
230
1.0
  2
SOLID
 70
     1
 71
     0
 91
        1
 92
        0
 93
        3
 72
     2
 10
0.0
 20
0.0
 40
3.000000000000001
 50
0.0
 51
90.0
 73
     1
 72
     1
 10
0.0
 20
3.000000000000001
 11
0.0
 21
0.0
 72
     1
 10
0.0
 20
0.0
 11
3.000000000000001
 21
0.0
 97
        0
 75
     0
 76
     1
 98
        1
 10
0.0
 20
0.0
  0
HATCH
  5
121
330
11C
100
AcDbEntity
  8
0
  6
Continuous
 62
     0
370
     0
100
AcDbHatch
 10
0.0
 20
0.0
 30
0.0
210
0.0
220
0.0
230
1.0
  2
SOLID
 70
     1
 71
     0
 91
        1
 92
        0
 93
        3
 72
     2
 10
0.0
 20
0.0
 40
3.000000000000001
 50
180.0
 51
270.0000000000008
 73
     1
 72
     1
 10
0.0
 20
-3.000000000000001
 11
0.0
 21
0.0
 72
     1
 10
0.0
 20
0.0
 11
-3.000000000000001
 21
0.0
 97
        0
 75
     0
 76
     1
 98
        1
 10
0.0
 20
0.0
  0
ENDBLK
  5
11E
330
11C
100
AcDbEntity
  8
0
100
AcDbBlockEnd
  0
BLOCK
  5
1DA
330
1D9
100
AcDbEntity
  8
0
100
AcDbBlockBegin
  2
*D8
 70
     1
 10
0.0
 20
0.0
 30
0.0
  3
*D8
  1
*D8
  0
LINE
  5
1DC
330
1D9
100
AcDbEntity
  8
치수문자_일반주서
 62
     0
370
    -2
100
AcDbLine
 10
149.7725
 20
22.49375000000003
 30
0.0
 11
149.7725
 21
29.2883527676406
 31
0.0
  0
LINE
  5
1DD
330
1D9
100
AcDbEntity
  8
치수문자_일반주서
 62
     0
370
    -2
100
AcDbLine
 10
73.57250000000002
 20
22.4587226843073
 30
0.0
 11
73.57250000000002
 21
29.2883527676406
 31
0.0
  0
LINE
  5
1DE
330
1D9
100
AcDbEntity
  8
치수문자_일반주서
 62
     0
370
    -2
100
AcDbLine
 10
146.4705
 20
29.2883527676406
 30
0.0
 11
76.87450000000001
 21
29.2883527676406
 31
0.0
  0
SOLID
  5
1DF
330
1D9
100
AcDbEntity
  8
치수문자_일반주서
 62
     0
100
AcDbTrace
 10
146.4705
 20
28.73801943430727
 30
0.0
 11
146.4705
 21
29.83868610097394
 31
0.0
 12
149.7725
 22
29.2883527676406
 32
0.0
 13
149.7725
 23
29.2883527676406
 33
0.0
  0
SOLID
  5
1E0
330
1D9
100
AcDbEntity
  8
치수문자_일반주서
 62
     0
100
AcDbTrace
 10
76.87450000000001
 20
29.83868610097394
 30
0.0
 11
76.87450000000001
 21
28.73801943430727
 31
0.0
 12
73.57250000000002
 22
29.2883527676406
 32
0.0
 13
73.57250000000002
 23
29.2883527676406
 33
0.0
  0
MTEXT
  5
1E1
330
1D9
100
AcDbEntity
  8
치수문자_일반주서
 62
     0
100
AcDbMText
 10
112.9775878473757
 20
33.6633527676406
 30
0.0
 40
3.5
 41
0.0
 71
     2
 72
     1
  1
\A1;76.2 [3]
  7
SLDTEXTSTYLE0
 73
     1
 44
1.0
  0
POINT
  5
1E2
330
1D9
100
AcDbEntity
  8
Defpoints
 62
     0
100
AcDbPoint
 10
149.7725
 20
22.43125000000003
 30
0.0
  0
POINT
  5
1E3
330
1D9
100
AcDbEntity
  8
Defpoints
 62
     0
100
AcDbPoint
 10
73.57250000000002
 20
22.3962226843073
 30
0.0
  0
POINT
  5
1E4
330
1D9
100
AcDbEntity
  8
Defpoints
 62
     0
100
AcDbPoint
 10
73.57250000000002
 20
29.2883527676406
 30
0.0
  0
ENDBLK
  5
1DB
330
1D9
100
AcDbEntity
  8
0
100
AcDbBlockEnd
  0
BLOCK
  5
1E6
330
1E5
100
AcDbEntity
  8
0
100
AcDbBlockBegin
  2
*D9
 70
     1
 10
0.0
 20
0.0
 30
0.0
  3
*D9
  1
*D9
  0
LINE
  5
1E8
330
1E5
100
AcDbEntity
  8
치수문자_일반주서
 62
     0
370
    -2
100
AcDbLine
 10
149.7725
 20
22.49375000000003
 30
0.0
 11
149.7725
 21
44.51539679328082
 31
0.0
  0
LINE
  5
1E9
330
1E5
100
AcDbEntity
  8
치수문자_일반주서
 62
     0
370
    -2
100
AcDbLine
 10
16.42250000000004
 20
20.58875000000003
 30
0.0
 11
16.42250000000004
 21
44.51539679328082
 31
0.0
  0
LINE
  5
1EA
330
1E5
100
AcDbEntity
  8
치수문자_일반주서
 62
     0
370
    -2
100
AcDbLine
 10
146.4705
 20
44.51539679328082
 30
0.0
 11
19.72450000000004
 21
44.51539679328082
 31
0.0
  0
SOLID
  5
1EB
330
1E5
100
AcDbEntity
  8
치수문자_일반주서
 62
     0
100
AcDbTrace
 10
146.4705
 20
43.96506345994749
 30
0.0
 11
146.4705
 21
45.06573012661416
 31
0.0
 12
149.7725
 22
44.51539679328082
 32
0.0
 13
149.7725
 23
44.51539679328082
 33
0.0
  0
SOLID
  5
1EC
330
1E5
100
AcDbEntity
  8
치수문자_일반주서
 62
     0
100
AcDbTrace
 10
19.72450000000004
 20
45.06573012661416
 30
0.0
 11
19.72450000000004
 21
43.96506345994749
 31
0.0
 12
16.42250000000004
 22
44.51539679328082
 32
0.0
 13
16.42250000000004
 23
44.51539679328082
 33
0.0
  0
MTEXT
  5
1ED
330
1E5
100
AcDbEntity
  8
치수문자_일반주서
 62
     0
100
AcDbMText
 10
83.09750000000005
 20
48.89039679328082
 30
0.0
 40
3.5
 41
0.0
 71
     2
 72
     1
  1
\A1;133.35 [5 1/4]
  7
SLDTEXTSTYLE0
 73
     1
 44
1.0
  0
POINT
  5
1EE
330
1E5
100
AcDbEntity
  8
Defpoints
 62
     0
100
AcDbPoint
 10
149.7725
 20
22.43125000000003
 30
0.0
  0
POINT
  5
1EF
330
1E5
100
AcDbEntity
  8
Defpoints
 62
     0
100
AcDbPoint
 10
16.42250000000004
 20
20.52625000000003
 30
0.0
  0
POINT
  5
1F0
330
1E5
100
AcDbEntity
  8
Defpoints
 62
     0
100
AcDbPoint
 10
16.42250000000004
 20
44.51539679328082
 30
0.0
  0
ENDBLK
  5
1E7
330
1E5
100
AcDbEntity
  8
0
100
AcDbBlockEnd
  0
BLOCK
  5
1F2
330
1F1
100
AcDbEntity
  8
0
100
AcDbBlockBegin
  2
*D10
 70
     1
 10
0.0
 20
0.0
 30
0.0
  3
*D10
  1
*D10
  0
LINE
  5
1F4
330
1F1
100
AcDbEntity
  8
치수문자_일반주서
 62
     0
370
    -2
100
AcDbLine
 10
18.26500000000004
 20
22.43125000000002
 30
0.0
 11
4.37500000000001
 21
22.43124999999997
 31
0.0
  0
LINE
  5
1F5
330
1F1
100
AcDbEntity
  8
치수문자_일반주서
 62
     0
370
    -2
100
AcDbLine
 10
18.26500000000004
 20
3.381250000000006
 30
0.0
 11
4.375000000000076
 21
3.381249999999953
 31
0.0
  0
LINE
  5
1F6
330
1F1
100
AcDbEntity
  8
치수문자_일반주서
 62
     0
370
    -2
100
AcDbLine
 10
4.375000000000021
 20
19.12924999999997
 30
0.0
 11
4.375000000000065
 21
6.683249999999953
 31
0.0
  0
SOLID
  5
1F7
330
1F1
100
AcDbEntity
  8
치수문자_일반주서
 62
     0
100
AcDbTrace
 10
4.925333333333355
 20
19.12924999999997
 30
0.0
 11
3.824666666666688
 21
19.12924999999996
 31
0.0
 12
4.37500000000001
 22
22.43124999999997
 32
0.0
 13
4.37500000000001
 23
22.43124999999997
 33
0.0
  0
SOLID
  5
1F8
330
1F1
100
AcDbEntity
  8
치수문자_일반주서
 62
     0
100
AcDbTrace
 10
3.824666666666732
 20
6.683249999999951
 30
0.0
 11
4.925333333333398
 21
6.683249999999955
 31
0.0
 12
4.375000000000076
 22
3.381249999999953
 32
0.0
 13
4.375000000000076
 23
3.381249999999953
 33
0.0
  0
MTEXT
  5
1F9
330
1F1
100
AcDbEntity
  8
치수문자_일반주서
 62
     0
100
AcDbMText
 10
0.0000000000000426
 20
12.90625
 30
0.0
 40
3.5
 41
0.0
 71
     2
 72
     1
  1
\A1;%%c19.05 [3/4]
  7
SLDTEXTSTYLE0
 11
-3.496765431890255E-15
 21
1.0
 31
0.0
 73
     1
 44
1.0
  0
POINT
  5
1FA
330
1F1
100
AcDbEntity
  8
Defpoints
 62
     0
100
AcDbPoint
 10
18.32750000000004
 20
22.43125000000002
 30
0.0
  0
POINT
  5
1FB
330
1F1
100
AcDbEntity
  8
Defpoints
 62
     0
100
AcDbPoint
 10
18.32750000000004
 20
3.381250000000007
 30
0.0
  0
POINT
  5
1FC
330
1F1
100
AcDbEntity
  8
Defpoints
 62
     0
100
AcDbPoint
 10
4.375000000000078
 20
3.381249999999955
 30
0.0
  0
ENDBLK
  5
1F3
330
1F1
100
AcDbEntity
  8
0
100
AcDbBlockEnd
  0
BLOCK
  5
1FE
330
1FD
100
AcDbEntity
  8
0
100
AcDbBlockBegin
  2
*D11
 70
     1
 10
0.0
 20
0.0
 30
0.0
  3
*D11
  1
*D11
  0
LINE
  5
200
330
1FD
100
AcDbEntity
  8
치수문자_일반주서
 62
     0
370
    -2
100
AcDbLine
 10
149.835
 20
22.43125000000003
 30
0.0
 11
168.6204660954456
 21
22.4312500000001
 31
0.0
  0
LINE
  5
201
330
1FD
100
AcDbEntity
  8
치수문자_일반주서
 62
     0
370
    -2
100
AcDbLine
 10
149.835
 20
3.381250000000025
 30
0.0
 11
168.6204660954456
 21
3.381250000000094
 31
0.0
  0
LINE
  5
202
330
1FD
100
AcDbEntity
  8
치수문자_일반주서
 62
     0
370
    -2
100
AcDbLine
 10
168.6204660954456
 20
22.4312500000001
 30
0.0
 11
168.6204660954455
 21
58.26049365054095
 31
0.0
  0
LINE
  5
203
330
1FD
100
AcDbEntity
  8
치수문자_일반주서
 62
     0
370
    -2
100
AcDbLine
 10
168.6204660954456
 20
19.1292500000001
 30
0.0
 11
168.6204660954456
 21
6.683250000000093
 31
0.0
  0
SOLID
  5
204
330
1FD
100
AcDbEntity
  8
치수문자_일반주서
 62
     0
100
AcDbTrace
 10
169.1707994287789
 20
19.1292500000001
 30
0.0
 11
168.0701327621123
 21
19.1292500000001
 31
0.0
 12
168.6204660954456
 22
22.4312500000001
 32
0.0
 13
168.6204660954456
 23
22.4312500000001
 33
0.0
  0
SOLID
  5
205
330
1FD
100
AcDbEntity
  8
치수문자_일반주서
 62
     0
100
AcDbTrace
 10
168.0701327621123
 20
6.683250000000092
 30
0.0
 11
169.170799428779
 21
6.683250000000095
 31
0.0
 12
168.6204660954456
 22
3.381250000000094
 32
0.0
 13
168.6204660954456
 23
3.381250000000094
 33
0.0
  0
MTEXT
  5
206
330
1FD
100
AcDbEntity
  8
치수문자_일반주서
 62
     0
100
AcDbMText
 10
164.2454660954455
 20
44.47924365054094
 30
0.0
 40
3.5
 41
0.0
 71
     2
 72
     1
  1
\A1;%%c19.05 [3/4]
  7
SLDTEXTSTYLE0
 11
-2.983906501879685E-15
 21
1.0
 31
0.0
 73
     1
 44
1.0
  0
POINT
  5
207
330
1FD
100
AcDbEntity
  8
Defpoints
 62
     0
100
AcDbPoint
 10
149.7725
 20
22.43125000000003
 30
0.0
  0
POINT
  5
208
330
1FD
100
AcDbEntity
  8
Defpoints
 62
     0
100
AcDbPoint
 10
149.7725
 20
3.381250000000025
 30
0.0
  0
POINT
  5
209
330
1FD
100
AcDbEntity
  8
Defpoints
 62
     0
100
AcDbPoint
 10
168.6204660954457
 20
3.381250000000095
 30
0.0
  0
ENDBLK
  5
1FF
330
1FD
100
AcDbEntity
  8
0
100
AcDbBlockEnd
  0
BLOCK
  5
239
330
238
100
AcDbEntity
  8
0
100
AcDbBlockBegin
  2
*D12
 70
     1
 10
0.0
 20
0.0
 30
0.0
  3
*D12
  1
*D12
  0
LINE
  5
23B
330
238
100
AcDbEntity
  8
치수문자_일반주서
 62
     0
370
    -2
100
AcDbLine
 10
279.7725
 20
-37.50624999999996
 30
0.0
 11
279.7725
 21
-30.71164723235938
 31
0.0
  0
LINE
  5
23C
330
238
100
AcDbEntity
  8
치수문자_일반주서
 62
     0
370
    -2
100
AcDbLine
 10
203.5725
 20
-37.54127731569268
 30
0.0
 11
203.5725
 21
-30.71164723235938
 31
0.0
  0
LINE
  5
23D
330
238
100
AcDbEntity
  8
치수문자_일반주서
 62
     0
370
    -2
100
AcDbLine
 10
276.4705
 20
-30.71164723235938
 30
0.0
 11
206.8745
 21
-30.71164723235938
 31
0.0
  0
SOLID
  5
23E
330
238
100
AcDbEntity
  8
치수문자_일반주서
 62
     0
100
AcDbTrace
 10
276.4705
 20
-31.26198056569272
 30
0.0
 11
276.4705
 21
-30.16131389902605
 31
0.0
 12
279.7725
 22
-30.71164723235938
 32
0.0
 13
279.7725
 23
-30.71164723235938
 33
0.0
  0
SOLID
  5
23F
330
238
100
AcDbEntity
  8
치수문자_일반주서
 62
     0
100
AcDbTrace
 10
206.8745
 20
-30.16131389902605
 30
0.0
 11
206.8745
 21
-31.26198056569272
 31
0.0
 12
203.5725
 22
-30.71164723235938
 32
0.0
 13
203.5725
 23
-30.71164723235938
 33
0.0
  0
MTEXT
  5
240
330
238
100
AcDbEntity
  8
치수문자_일반주서
 62
     0
100
AcDbMText
 10
242.9775878473757
 20
-26.33664723235938
 30
0.0
 40
3.5
 41
0.0
 71
     2
 72
     1
  1
\A1;76.2 [3]
  7
SLDTEXTSTYLE0
 73
     1
 44
1.0
  0
POINT
  5
241
330
238
100
AcDbEntity
  8
Defpoints
 62
     0
100
AcDbPoint
 10
279.7725
 20
-37.56874999999996
 30
0.0
  0
POINT
  5
242
330
238
100
AcDbEntity
  8
Defpoints
 62
     0
100
AcDbPoint
 10
203.5725
 20
-37.60377731569268
 30
0.0
  0
POINT
  5
243
330
238
100
AcDbEntity
  8
Defpoints
 62
     0
100
AcDbPoint
 10
203.5725
 20
-30.71164723235938
 30
0.0
  0
ENDBLK
  5
23A
330
238
100
AcDbEntity
  8
0
100
AcDbBlockEnd
  0
BLOCK
  5
245
330
244
100
AcDbEntity
  8
0
100
AcDbBlockBegin
  2
*D13
 70
     1
 10
0.0
 20
0.0
 30
0.0
  3
*D13
  1
*D13
  0
LINE
  5
247
330
244
100
AcDbEntity
  8
치수문자_일반주서
 62
     0
370
    -2
100
AcDbLine
 10
279.7725
 20
-37.50624999999996
 30
0.0
 11
279.7725
 21
-15.48460320671916
 31
0.0
  0
LINE
  5
248
330
244
100
AcDbEntity
  8
치수문자_일반주서
 62
     0
370
    -2
100
AcDbLine
 10
146.4225
 20
-39.41124999999996
 30
0.0
 11
146.4225
 21
-15.48460320671916
 31
0.0
  0
LINE
  5
249
330
244
100
AcDbEntity
  8
치수문자_일반주서
 62
     0
370
    -2
100
AcDbLine
 10
276.4705
 20
-15.48460320671916
 30
0.0
 11
149.7245
 21
-15.48460320671916
 31
0.0
  0
SOLID
  5
24A
330
244
100
AcDbEntity
  8
치수문자_일반주서
 62
     0
100
AcDbTrace
 10
276.4705
 20
-16.0349365400525
 30
0.0
 11
276.4705
 21
-14.93426987338583
 31
0.0
 12
279.7725
 22
-15.48460320671916
 32
0.0
 13
279.7725
 23
-15.48460320671916
 33
0.0
  0
SOLID
  5
24B
330
244
100
AcDbEntity
  8
치수문자_일반주서
 62
     0
100
AcDbTrace
 10
149.7245
 20
-14.93426987338583
 30
0.0
 11
149.7245
 21
-16.0349365400525
 31
0.0
 12
146.4225
 22
-15.48460320671916
 32
0.0
 13
146.4225
 23
-15.48460320671916
 33
0.0
  0
MTEXT
  5
24C
330
244
100
AcDbEntity
  8
치수문자_일반주서
 62
     0
100
AcDbMText
 10
213.0975
 20
-11.10960320671916
 30
0.0
 40
3.5
 41
0.0
 71
     2
 72
     1
  1
\A1;133.35 [5 1/4]
  7
SLDTEXTSTYLE0
 73
     1
 44
1.0
  0
POINT
  5
24D
330
244
100
AcDbEntity
  8
Defpoints
 62
     0
100
AcDbPoint
 10
279.7725
 20
-37.56874999999996
 30
0.0
  0
POINT
  5
24E
330
244
100
AcDbEntity
  8
Defpoints
 62
     0
100
AcDbPoint
 10
146.4225
 20
-39.47374999999996
 30
0.0
  0
POINT
  5
24F
330
244
100
AcDbEntity
  8
Defpoints
 62
     0
100
AcDbPoint
 10
146.4225
 20
-15.48460320671916
 30
0.0
  0
ENDBLK
  5
246
330
244
100
AcDbEntity
  8
0
100
AcDbBlockEnd
  0
BLOCK
  5
251
330
250
100
AcDbEntity
  8
0
100
AcDbBlockBegin
  2
*D14
 70
     1
 10
0.0
 20
0.0
 30
0.0
  3
*D14
  1
*D14
  0
LINE
  5
253
330
250
100
AcDbEntity
  8
치수문자_일반주서
 62
     0
370
    -2
100
AcDbLine
 10
148.265
 20
-37.56874999999997
 30
0.0
 11
134.375
 21
-37.56875000000002
 31
0.0
  0
LINE
  5
254
330
250
100
AcDbEntity
  8
치수문자_일반주서
 62
     0
370
    -2
100
AcDbLine
 10
148.265
 20
-56.61874999999998
 30
0.0
 11
134.375
 21
-56.61875000000003
 31
0.0
  0
LINE
  5
255
330
250
100
AcDbEntity
  8
치수문자_일반주서
 62
     0
370
    -2
100
AcDbLine
 10
134.375
 20
-40.87075000000002
 30
0.0
 11
134.375
 21
-53.31675000000003
 31
0.0
  0
SOLID
  5
256
330
250
100
AcDbEntity
  8
치수문자_일반주서
 62
     0
100
AcDbTrace
 10
134.9253333333333
 20
-40.87075000000002
 30
0.0
 11
133.8246666666666
 21
-40.87075000000002
 31
0.0
 12
134.375
 22
-37.56875000000002
 32
0.0
 13
134.375
 23
-37.56875000000002
 33
0.0
  0
SOLID
  5
257
330
250
100
AcDbEntity
  8
치수문자_일반주서
 62
     0
100
AcDbTrace
 10
133.8246666666667
 20
-53.31675000000003
 30
0.0
 11
134.9253333333334
 21
-53.31675000000003
 31
0.0
 12
134.375
 22
-56.61875000000003
 32
0.0
 13
134.375
 23
-56.61875000000003
 33
0.0
  0
MTEXT
  5
258
330
250
100
AcDbEntity
  8
치수문자_일반주서
 62
     0
100
AcDbMText
 10
130.0
 20
-47.09374999999999
 30
0.0
 40
3.5
 41
0.0
 71
     2
 72
     1
  1
\A1;%%c19.05 [3/4]
  7
SLDTEXTSTYLE0
 11
-2.983906501879685E-15
 21
1.0
 31
0.0
 73
     1
 44
1.0
  0
POINT
  5
259
330
250
100
AcDbEntity
  8
Defpoints
 62
     0
100
AcDbPoint
 10
148.3275
 20
-37.56874999999997
 30
0.0
  0
POINT
  5
25A
330
250
100
AcDbEntity
  8
Defpoints
 62
     0
100
AcDbPoint
 10
148.3275
 20
-56.61874999999998
 30
0.0
  0
POINT
  5
25B
330
250
100
AcDbEntity
  8
Defpoints
 62
     0
100
AcDbPoint
 10
134.3750000000001
 20
-56.61875000000003
 30
0.0
  0
ENDBLK
  5
252
330
250
100
AcDbEntity
  8
0
100
AcDbBlockEnd
  0
BLOCK
  5
25D
330
25C
100
AcDbEntity
  8
0
100
AcDbBlockBegin
  2
*D15
 70
     1
 10
0.0
 20
0.0
 30
0.0
  3
*D15
  1
*D15
  0
LINE
  5
25F
330
25C
100
AcDbEntity
  8
치수문자_일반주서
 62
     0
370
    -2
100
AcDbLine
 10
279.835
 20
-37.56874999999996
 30
0.0
 11
298.6204660954456
 21
-37.56874999999989
 31
0.0
  0
LINE
  5
260
330
25C
100
AcDbEntity
  8
치수문자_일반주서
 62
     0
370
    -2
100
AcDbLine
 10
279.835
 20
-56.61874999999996
 30
0.0
 11
298.6204660954456
 21
-56.61874999999989
 31
0.0
  0
LINE
  5
261
330
25C
100
AcDbEntity
  8
치수문자_일반주서
 62
     0
370
    -2
100
AcDbLine
 10
298.6204660954456
 20
-37.56874999999989
 30
0.0
 11
298.6204660954455
 21
-1.739506349459035
 31
0.0
  0
LINE
  5
262
330
25C
100
AcDbEntity
  8
치수문자_일반주서
 62
     0
370
    -2
100
AcDbLine
 10
298.6204660954456
 20
-40.87074999999989
 30
0.0
 11
298.6204660954456
 21
-53.31674999999989
 31
0.0
  0
SOLID
  5
263
330
25C
100
AcDbEntity
  8
치수문자_일반주서
 62
     0
100
AcDbTrace
 10
299.1707994287789
 20
-40.87074999999989
 30
0.0
 11
298.0701327621122
 21
-40.87074999999989
 31
0.0
 12
298.6204660954456
 22
-37.56874999999989
 32
0.0
 13
298.6204660954456
 23
-37.56874999999989
 33
0.0
  0
SOLID
  5
264
330
25C
100
AcDbEntity
  8
치수문자_일반주서
 62
     0
100
AcDbTrace
 10
298.0701327621123
 20
-53.31674999999989
 30
0.0
 11
299.170799428779
 21
-53.31674999999989
 31
0.0
 12
298.6204660954456
 22
-56.61874999999989
 32
0.0
 13
298.6204660954456
 23
-56.61874999999989
 33
0.0
  0
MTEXT
  5
265
330
25C
100
AcDbEntity
  8
치수문자_일반주서
 62
     0
100
AcDbMText
 10
294.2454660954455
 20
-15.52075634945905
 30
0.0
 40
3.5
 41
0.0
 71
     2
 72
     1
  1
\A1;%%c19.05 [3/4]
  7
SLDTEXTSTYLE0
 11
-2.983906501879685E-15
 21
1.0
 31
0.0
 73
     1
 44
1.0
  0
POINT
  5
266
330
25C
100
AcDbEntity
  8
Defpoints
 62
     0
100
AcDbPoint
 10
279.7725
 20
-37.56874999999996
 30
0.0
  0
POINT
  5
267
330
25C
100
AcDbEntity
  8
Defpoints
 62
     0
100
AcDbPoint
 10
279.7725
 20
-56.61874999999996
 30
0.0
  0
POINT
  5
268
330
25C
100
AcDbEntity
  8
Defpoints
 62
     0
100
AcDbPoint
 10
298.6204660954456
 20
-56.61874999999989
 30
0.0
  0
ENDBLK
  5
25E
330
25C
100
AcDbEntity
  8
0
100
AcDbBlockEnd
  0
ENDSEC
  0
SECTION
  2
ENTITIES
  0
LINE
  5
96
330
1F
100
AcDbEntity
  8
0
  6
Continuous
 62
     1
370
    15
100
AcDbLine
 10
59.85924423929392
 20
-7.9364250712761
 30
0.0
 11
64.69843939551122
 21
-7.9364250712761
 31
0.0
  0
LINE
  5
97
330
1F
100
AcDbEntity
  8
0
  6
Continuous
 62
     1
370
    15
100
AcDbLine
 10
21.50602984443437
 20
7.938574928723886
 30
0.0
 11
16.66657476214729
 21
7.938574928723886
 31
0.0
  0
LINE
  5
98
330
1F
100
AcDbEntity
  8
0
  6
Continuous
 62
     1
370
    15
100
AcDbLine
 10
43.10255361809685
 20
7.938574928723886
 30
0.0
 11
38.26349812813493
 21
7.938574928723886
 31
0.0
  0
LINE
  5
99
330
1F
100
AcDbEntity
  8
0
  6
Continuous
 62
     1
370
    15
100
AcDbLine
 10
38.26349812813499
 20
-7.9364250712761
 30
0.0
 11
43.10255361809682
 21
-7.9364250712761
 31
0.0
  0
ARC
  5
9A
330
1F
100
AcDbEntity
  8
0
  6
Continuous
 62
     1
370
    15
100
AcDbCircle
 10
71.04981532850786
 20
0.0010749287239014
 30
0.0
 40
7.937499999999986
100
AcDbArc
 50
333.0191207555056
 51
0.0
  0
ARC
  5
9B
330
1F
100
AcDbEntity
  8
0
  6
Continuous
 62
     1
370
    15
100
AcDbCircle
 10
71.04981532850786
 20
0.0010749287239014
 30
0.0
 40
7.937499999999986
100
AcDbArc
 50
0.0
 51
26.98015936999955
  0
LINE
  5
9C
330
1F
100
AcDbEntity
  8
0
  6
Continuous
 62
     1
370
    15
100
AcDbLine
 10
16.66657476214734
 20
-7.9364250712761
 30
0.0
 11
21.50602984443444
 21
-7.9364250712761
 31
0.0
  0
LINE
  5
9D
330
1F
100
AcDbEntity
  8
0
  6
Continuous
 62
     1
370
    15
100
AcDbLine
 10
64.6984393955113
 20
7.938574928723886
 30
0.0
 11
59.85924423929384
 21
7.938574928723886
 31
0.0
  0
LINE
  5
9E
330
1F
100
AcDbEntity
  8
외형선
  6
Continuous
370
    15
100
AcDbLine
 10
-36.90018467149218
 20
-7.936425071276107
 30
0.0
 11
15.48731532850782
 21
-7.936425071276107
 31
0.0
  0
LINE
  5
9F
330
1F
100
AcDbEntity
  8
외형선
  6
Continuous
370
    15
100
AcDbLine
 10
15.48731532850782
 20
7.938574928723893
 30
0.0
 11
-7.534609671492256
 21
7.938574928723893
 31
0.0
  0
LINE
  5
A0
330
1F
100
AcDbEntity
  8
외형선
  6
Continuous
370
    15
100
AcDbLine
 10
-36.90018467149218
 20
7.93857492872389
 30
0.0
 11
-38.48768467149218
 21
6.351074928723895
 31
0.0
  0
LINE
  5
A1
330
1F
100
AcDbEntity
  8
외형선
  6
Continuous
370
    15
100
AcDbLine
 10
-38.48768467149218
 20
-6.348925071276108
 30
0.0
 11
-36.90018467149218
 21
-7.936425071276103
 31
0.0
  0
SPLINE
  5
A2
330
1F
100
AcDbEntity
  8
0
  6
Continuous
 62
     1
370
    15
100
AcDbSpline
210
0.0
220
0.0
230
1.0
 70
     8
 71
     3
 72
    16
 73
    12
 74
     0
 42
0.000000001
 43
0.00000001
 40
0.0
 40
0.0
 40
0.0
 40
0.0
 40
0.1161763543286118
 40
0.232351630152143
 40
0.348525871490251
 40
0.4646991224375501
 40
0.5808714271604583
 40
0.6970428298940391
 40
0.8132133749388305
 40
0.9293831066576598
 40
1.0
 40
1.0
 40
1.0
 40
1.0
 10
15.48731532850781
 20
0.681170638441475
 30
0.0
 10
16.36933931285744
 20
0.1714117674674151
 30
0.0
 10
18.13337909342448
 20
-0.8481012422136666
 30
0.0
 10
20.77942054553399
 20
-2.352764109683702
 30
0.0
 10
23.42543409776096
 20
-3.768638587690234
 30
0.0
 10
26.07142049334283
 20
-5.046041396855297
 30
0.0
 10
28.7173810495535
 20
-6.136040496421816
 30
0.0
 10
31.36331699120279
 20
-7.002862430015349
 30
0.0
 10
34.00922935067139
 20
-7.598384291174431
 30
0.0
 10
36.30928760655107
 20
-7.913276843350034
 30
0.0
 10
37.72737384814424
 20
-7.904671878269292
 30
0.0
 10
38.26349812813499
 20
-7.901418669421378
 30
0.0
  0
LWPOLYLINE
  5
A3
330
1F
100
AcDbEntity
  8
0
  6
Continuous
 62
     1
370
    15
100
AcDbPolyline
 90
       25
 70
   128
 43
0.0
 10
73.07656984248021
 20
6.234992797396026
 10
73.28576603198299
 20
6.262085909390931
 10
74.35638923634878
 20
6.192523544620797
 10
75.40353132983698
 20
5.909930208641388
 10
76.31108200409497
 20
5.463042791130555
 10
77.1161245091791
 20
4.863557517016729
 10
77.64841042132669
 20
4.310937114872558
 10
78.05517280453384
 20
3.728295215377255
 10
78.21969849168292
 20
3.392114622542025
 10
78.3112876770081
 20
3.086739566126792
 10
78.32188906818428
 20
2.892112430222198
 10
78.27207504801414
 20
2.747519290548482
 10
78.16174742465208
 20
2.673322108752137
 10
77.98425621086692
 20
2.675323727287381
 10
77.55808236419819
 20
2.861510890947128
 10
77.01124320755723
 20
3.239654432528174
 10
76.56956622426
 20
3.591737190111272
 10
76.08994544528514
 20
3.992644725405767
 10
75.42542876729375
 20
4.551377050123884
 10
74.72026813350364
 20
5.121645021425815
 10
73.7675025280487
 20
5.817179285928492
 10
72.7594096364101
 20
6.426782565290543
 10
71.91996462912505
 20
6.819599708851777
 10
71.04981532850786
 20
7.106353467854858
 10
71.04981532850786
 20
7.106353467854858
  0
SPLINE
  5
A4
330
1F
100
AcDbEntity
  8
0
  6
Continuous
 62
     1
370
    15
100
AcDbSpline
210
0.0
220
0.0
230
1.0
 70
     8
 71
     3
 72
    10
 73
     6
 74
     0
 42
0.000000001
 43
0.00000001
 40
0.0
 40
0.0
 40
0.0
 40
0.0
 40
0.4165358730595748
 40
0.8330725829364138
 40
1.0
 40
1.0
 40
1.0
 40
1.0
 10
71.04981532850789
 20
7.106353467854872
 30
0.0
 10
70.16795702188244
 20
7.304499059564439
 30
0.0
 10
68.40423863698518
 20
7.700790641056489
 30
0.0
 10
66.28711332180089
 20
7.941671304911806
 30
0.0
 10
65.05184587668876
 20
7.911843856512384
 30
0.0
 10
64.6984393955113
 20
7.903310308880206
 30
0.0
  0
SPLINE
  5
A5
330
1F
100
AcDbEntity
  8
0
  6
Continuous
 62
     1
370
    15
100
AcDbSpline
210
0.0
220
0.0
230
1.0
 70
     8
 71
     3
 72
    13
 73
     9
 74
     0
 42
0.000000001
 43
0.00000001
 40
0.0
 40
0.0
 40
0.0
 40
0.0
 40
0.0811279062346173
 40
0.2648991917325383
 40
0.4486719740491105
 40
0.6324463230505524
 40
0.8162223084894954
 40
1.0
 40
1.0
 40
1.0
 40
1.0
 10
29.88547439919637
 20
-6.477978147765922
 30
0.0
 10
29.4961120854564
 20
-6.613384251214625
 30
0.0
 10
28.22476456783957
 20
-7.055512848191882
 30
0.0
 10
26.07142034654888
 20
-7.540528277962427
 30
0.0
 10
23.42543413708126
 20
-7.911111854807767
 30
0.0
 10
20.77942053504845
 20
-7.970586927765273
 30
0.0
 10
18.13337909604594
 20
-7.758462691275795
 30
0.0
 10
16.36933931373126
 20
-7.378002006414965
 30
0.0
 10
15.48731532850782
 20
-7.187770780993582
 30
0.0
  0
SPLINE
  5
A6
330
1F
100
AcDbEntity
  8
0
  6
Continuous
 62
     1
370
    15
100
AcDbSpline
210
0.0
220
0.0
230
1.0
 70
     8
 71
     3
 72
    23
 73
    19
 74
     0
 42
0.000000001
 43
0.00000001
 40
0.0
 40
0.0
 40
0.0
 40
0.0
 40
0.0359008703940907
 40
0.1001772117272882
 40
0.1644531030529806
 40
0.228728568949508
 40
0.2930036340261377
 40
0.3572783229212932
 40
0.4215526603007684
 40
0.4858266708559487
 40
0.5501003793020196
 40
0.6143738103761743
 40
0.6786469888358203
 40
0.7429199394567783
 40
0.8071926870314818
 40
0.8714619371512566
 40
0.9357310331335513
 40
1.0
 40
1.0
 40
1.0
 40
1.0
 10
29.88547439919628
 20
6.48012800521371
 30
0.0
 10
30.37809065574703
 20
6.647265837482851
 30
0.0
 10
31.75267914040149
 20
7.11364455830689
 30
0.0
 10
34.00922932378997
 20
7.601339202347409
 30
0.0
 10
36.6551197238419
 20
7.93507182706873
 30
0.0
 10
39.30098892204106
 20
7.964463266104274
 30
0.0
 10
41.94683837468191
 20
7.702875162139174
 30
0.0
 10
44.59266923371137
 20
7.156097921813772
 30
0.0
 10
47.23848273447911
 20
6.345358389706229
 30
0.0
 10
49.8842800915316
 20
5.300316671856716
 30
0.0
 10
52.53006252713759
 20
4.059626639027151
 30
0.0
 10
55.17583126083898
 20
2.669105010066325
 30
0.0
 10
57.82158752216749
 20
1.179998626295683
 30
0.0
 10
60.46733250967213
 20
-0.3523398191286496
 30
0.0
 10
63.11302199727304
 20
-1.872699661891539
 30
0.0
 10
65.75865685098309
 20
-3.319752897041052
 30
0.0
 10
68.40423868776485
 20
-4.659478568036348
 30
0.0
 10
70.16795703880896
 20
-5.399864854721295
 30
0.0
 10
71.04981532850786
 20
-5.770057626206593
 30
0.0
  0
SPLINE
  5
A7
330
1F
100
AcDbEntity
  8
0
  6
Continuous
 62
     1
370
    15
100
AcDbSpline
210
0.0
220
0.0
230
1.0
 70
     8
 71
     3
 72
    16
 73
    12
 74
     0
 42
0.000000001
 43
0.00000001
 40
0.0
 40
0.0
 40
0.0
 40
0.0
 40
0.1280299091428545
 40
0.2598117781387209
 40
0.3863519175550351
 40
0.5167576195638353
 40
0.6406825539326156
 40
0.7676903108361067
 40
0.8704836955001068
 40
0.9755960562017434
 40
1.0
 40
1.0
 40
1.0
 40
1.0
 10
71.04981532850789
 20
-5.770057626206577
 30
0.0
 10
71.41565307080171
 20
-5.897829789769587
 30
0.0
 10
72.15804955434176
 20
-6.1571185234271
 30
0.0
 10
73.2743065352292
 20
-6.293957148652525
 30
0.0
 10
74.37612000623211
 20
-6.224184482943261
 30
0.0
 10
75.40203845993742
 20
-5.944939850533279
 30
0.0
 10
76.33817222991894
 20
-5.480524339198489
 30
0.0
 10
77.09368796761329
 20
-4.914573017746605
 30
0.0
 10
77.66931119592921
 20
-4.309906406803093
 30
0.0
 10
77.99126944494905
 20
-3.866231992992544
 30
0.0
 10
78.0979656824803
 20
-3.640213243044066
 30
0.0
 10
78.11806978438668
 20
-3.597625949557019
 30
0.0
  0
SPLINE
  5
A8
330
1F
100
AcDbEntity
  8
0
  6
Continuous
 62
     1
370
    15
100
AcDbSpline
210
0.0
220
0.0
230
1.0
 70
     8
 71
     3
 72
    10
 73
     6
 74
     0
 42
0.000000001
 43
0.00000001
 40
0.0
 40
0.0
 40
0.0
 40
0.0
 40
0.160891124139314
 40
0.5770765503490832
 40
1.0
 40
1.0
 40
1.0
 40
1.0
 10
73.07656984248013
 20
-6.232842939948258
 30
0.0
 10
72.97114280510777
 20
-6.298269398904695
 30
0.0
 10
72.59300217512698
 20
-6.532937876970918
 30
0.0
 10
71.91813505683541
 20
-6.839501371730686
 30
0.0
 10
71.34080056516204
 20
-7.015498446800445
 30
0.0
 10
71.04981532850786
 20
-7.104203610407047
 30
0.0
  0
SPLINE
  5
A9
330
1F
100
AcDbEntity
  8
0
  6
Continuous
 62
     1
370
    15
100
AcDbSpline
210
0.0
220
0.0
230
1.0
 70
     8
 71
     3
 72
    26
 73
    22
 74
     0
 42
0.000000001
 43
0.00000001
 40
0.0
 40
0.0
 40
0.0
 40
0.0
 40
0.0533991230018753
 40
0.1067983532821651
 40
0.1601977116305831
 40
0.2135999759075554
 40
0.2670024088894628
 40
0.3204050311755819
 40
0.373807863351387
 40
0.4272109259870503
 40
0.4806142396359533
 40
0.5340178248331867
 40
0.5874217020940707
 40
0.6408258919126598
 40
0.6942304147602684
 40
0.747635291083986
 40
0.8010405413052043
 40
0.8544461858181461
 40
0.9078522449883987
 40
0.9612587391514479
 40
0.9999999999999999
 40
0.9999999999999999
 40
0.9999999999999999
 40
0.9999999999999999
 10
71.04981532850789
 20
-7.104203610407059
 30
0.0
 10
70.16795703880896
 20
-7.305765400769219
 30
0.0
 10
68.40423868776485
 20
-7.708889386429578
 30
0.0
 10
65.75865685098313
 20
-7.958653191924722
 30
0.0
 10
63.11302199727299
 20
-7.933393121005718
 30
0.0
 10
60.46733250967242
 20
-7.610143323605814
 30
0.0
 10
57.82158752216655
 20
-7.007218948970867
 30
0.0
 10
55.17583126084222
 20
-6.145170912926561
 30
0.0
 10
52.53006252712564
 20
-5.056286037110439
 30
0.0
 10
49.88428009157617
 20
-3.780643931362182
 30
0.0
 10
47.23848273431298
 20
-2.365376488947236
 30
0.0
 10
44.5926692343313
 20
-0.862727832517524
 30
0.0
 10
41.9468383723683
 20
0.6718138129901848
 30
0.0
 10
39.30098893067559
 20
2.181607700704079
 30
0.0
 10
36.6551196916172
 20
3.610840858406184
 30
0.0
 10
34.00922944405556
 20
4.906989730268022
 30
0.0
 10
31.36331695976077
 20
6.021266822108648
 30
0.0
 10
28.71738108193678
 20
6.915992035645887
 30
0.0
 10
26.07142039525106
 20
7.545196938819623
 30
0.0
 10
23.66763472146584
 20
7.898321535574578
 30
0.0
 10
22.14583371065072
 20
7.906071654509335
 30
0.0
 10
21.50602984443436
 20
7.909330001706408
 30
0.0
  0
SPLINE
  5
AA
330
1F
100
AcDbEntity
  8
0
  6
Continuous
 62
     1
370
    15
100
AcDbSpline
210
0.0
220
0.0
230
1.0
 70
     8
 71
     3
 72
    24
 73
    20
 74
     0
 42
0.000000001
 43
0.00000001
 40
0.0
 40
0.0
 40
0.0
 40
0.0
 40
0.0596331980591271
 40
0.1192658425227532
 40
0.1788979559861212
 40
0.2385295610829493
 40
0.2981606804838126
 40
0.3577913368945217
 40
0.4174215530544952
 40
0.4770513517351248
 40
0.5366807557381398
 40
0.5963097878939612
 40
0.6559384710600586
 40
0.7155668281192937
 40
0.7751948819782695
 40
0.8348226555656691
 40
0.8944501718305926
 40
0.9540774537408927
 40
1.0
 40
1.0
 40
1.0
 40
1.0
 10
15.48731532850782
 20
7.909385498979956
 30
0.0
 10
16.36933931286792
 20
7.924741630501326
 30
0.0
 10
18.13337909345594
 20
7.95545375098782
 30
0.0
 10
20.77942054540821
 20
7.629564417416991
 30
0.0
 10
23.42543409823262
 20
7.042963154304258
 30
0.0
 10
26.07142049158195
 20
6.190729935400689
 30
0.0
 10
28.71738105612523
 20
5.111457846128897
 30
0.0
 10
31.36331696667707
 20
3.843091123481917
 30
0.0
 10
34.00922944220151
 20
2.432975593859094
 30
0.0
 10
36.65511969211705
 20
0.9330402584369067
 30
0.0
 10
39.30098893053005
 20
-0.6012909383662242
 30
0.0
 10
41.94683837245051
 20
-2.113392117822347
 30
0.0
 10
44.59266923414806
 20
-3.547368949767684
 30
0.0
 10
47.23848273496372
 20
-4.850504708390884
 30
0.0
 10
49.88428008915643
 20
-5.973834315771448
 30
0.0
 10
52.53006253615373
 20
-6.879058769739568
 30
0.0
 10
55.17583122714993
 20
-7.520904825376577
 30
0.0
 10
57.61889056423097
 20
-7.889338004547037
 30
0.0
 10
59.18002635769668
 20
-7.904045307399987
 30
0.0
 10
59.85924423929391
 20
-7.910444150556108
 30
0.0
  0
SPLINE
  5
AB
330
1F
100
AcDbEntity
  8
0
  6
Continuous
 62
     1
370
    15
100
AcDbSpline
210
0.0
220
0.0
230
1.0
 70
     8
 71
     3
 72
    21
 73
    17
 74
     0
 42
0.000000001
 43
0.00000001
 40
0.0
 40
0.0
 40
0.0
 40
0.0
 40
0.0443314739385633
 40
0.1178415752925576
 40
0.1913520504350665
 40
0.2648629276055974
 40
0.3383742350143853
 40
0.4118860008403631
 40
0.4853982532291183
 40
0.5589110202908646
 40
0.6324243300984178
 40
0.7059382106851764
 40
0.7794526900431048
 40
0.8529677961207305
 40
0.926483556821143
 40
1.0
 40
1.0
 40
1.0
 40
1.0
 10
51.47987368961988
 20
-6.478847971330129
 30
0.0
 10
50.94801048013067
 20
-6.657534655861057
 30
0.0
 10
49.53421588053705
 20
-7.132518195052878
 30
0.0
 10
47.2384826696002
 20
-7.620326615944967
 30
0.0
 10
44.59266925166231
 20
-7.940492251168166
 30
0.0
 10
41.94683836775754
 20
-7.956884091352064
 30
0.0
 10
39.30098893178756
 20
-7.682271969455929
 30
0.0
 10
36.65511969178013
 20
-7.123209867181474
 30
0.0
 10
34.00922944229181
 20
-6.301294178077191
 30
0.0
 10
31.36331696665291
 20
-5.24662885276954
 30
0.0
 10
28.71738105613171
 20
-3.998164479436545
 30
0.0
 10
26.07142049158024
 20
-2.602196407257644
 30
0.0
 10
23.4254340982331
 20
-1.109460700010274
 30
0.0
 10
20.7794205454081
 20
0.4218957286574053
 30
0.0
 10
18.13337909345598
 20
1.946640745382118
 30
0.0
 10
16.36933931286794
 20
2.893045485641583
 30
0.0
 10
15.48731532850782
 20
3.366250052231744
 30
0.0
  0
LINE
  5
AC
330
1F
100
AcDbEntity
  8
0
  6
Continuous
 62
     1
370
    15
100
AcDbLine
 10
15.48731532850781
 20
-7.907235641532168
 30
0.0
 11
16.66657476214734
 21
-7.900138283119929
 31
0.0
  0
SPLINE
  5
AD
330
1F
100
AcDbEntity
  8
0
  6
Continuous
 62
     1
370
    15
100
AcDbSpline
210
0.0
220
0.0
230
1.0
 70
     8
 71
     3
 72
    15
 73
    11
 74
     0
 42
0.000000001
 43
0.00000001
 40
0.0
 40
0.0
 40
0.0
 40
0.0
 40
0.053663390491697
 40
0.1888586608273724
 40
0.3240533998037249
 40
0.4592476595351933
 40
0.5944414921711608
 40
0.7296279681224657
 40
0.8648141198549147
 40
0.9999999999999999
 40
0.9999999999999999
 40
0.9999999999999999
 40
0.9999999999999999
 10
51.47987368961986
 20
6.480997828777915
 30
0.0
 10
51.8299378153524
 20
6.603819118601939
 30
0.0
 10
53.06192560784536
 20
7.036066580134306
 30
0.0
 10
55.17583116818074
 20
7.51957554239682
 30
0.0
 10
57.821587546995
 20
7.902766940257216
 30
0.0
 10
60.46733250301983
 20
7.979047733867912
 30
0.0
 10
63.11302199905482
 20
7.765796071929898
 30
0.0
 10
65.75865685050795
 20
7.260939438640945
 30
0.0
 10
68.40423868788365
 20
6.502802412558706
 30
0.0
 10
70.16795703884854
 20
5.801371323521849
 30
0.0
 10
71.04981532850786
 20
5.450656131295445
 30
0.0
  0
SPLINE
  5
AE
330
1F
100
AcDbEntity
  8
0
  6
Continuous
 62
     1
370
    15
100
AcDbSpline
210
0.0
220
0.0
230
1.0
 70
     8
 71
     3
 72
    52
 73
    48
 74
     0
 42
0.000000001
 43
0.00000001
 40
0.0
 40
0.0
 40
0.0
 40
0.0
 40
0.0625000000000003
 40
0.0625000000000003
 40
0.0937499999999997
 40
0.0937499999999997
 40
0.124999999999999
 40
0.124999999999999
 40
0.1874999999999977
 40
0.1874999999999977
 40
0.2187499999999978
 40
0.2187499999999978
 40
0.2499999999999979
 40
0.2499999999999979
 40
0.3124999999999982
 40
0.3124999999999982
 40
0.3749999999999984
 40
0.3749999999999984
 40
0.4374999999999987
 40
0.4374999999999987
 40
0.4687499999999991
 40
0.4687499999999991
 40
0.4999999999999996
 40
0.4999999999999996
 40
0.53125
 40
0.53125
 40
0.5625000000000006
 40
0.5625000000000006
 40
0.593750000000001
 40
0.593750000000001
 40
0.6250000000000016
 40
0.6250000000000016
 40
0.656250000000002
 40
0.656250000000002
 40
0.6875000000000026
 40
0.6875000000000026
 40
0.750000000000002
 40
0.750000000000002
 40
0.7812500000000018
 40
0.7812500000000018
 40
0.8125000000000014
 40
0.8125000000000014
 40
0.875000000000001
 40
0.875000000000001
 40
0.9375000000000006
 40
0.9375000000000006
 40
1.0
 40
1.0
 40
1.0
 40
1.0
 10
71.04981532850789
 20
5.450656131295435
 30
0.0
 10
71.45310192605172
 20
5.281615920258321
 30
0.0
 10
71.8544199801645
 20
5.092414397829876
 30
0.0
 10
72.45799981401188
 20
4.785936282907049
 30
0.0
 10
72.6595857469566
 20
4.680150959917698
 30
0.0
 10
73.06394620831665
 20
4.461760702616901
 30
0.0
 10
73.26784971293044
 20
4.348505374011262
 30
0.0
 10
73.87207086509622
 20
4.003897661202966
 30
0.0
 10
74.26425525792281
 20
3.768593510226217
 30
0.0
 10
74.83590383628164
 20
3.405164196299197
 30
0.0
 10
75.02362827692193
 20
3.282191056430046
 30
0.0
 10
75.39310049690478
 20
3.032114441819659
 30
0.0
 10
75.57484886385201
 20
2.904828607938966
 30
0.0
 10
76.09905444377654
 20
2.521551783293867
 30
0.0
 10
76.42453945835733
 20
2.261891461227007
 30
0.0
 10
77.02095796452953
 20
1.71512367271458
 30
0.0
 10
77.29287644812482
 20
1.426119210420229
 30
0.0
 10
77.75214110647103
 20
0.8126488483182749
 30
0.0
 10
77.9432957953849
 20
0.4853001368617977
 30
0.0
 10
78.15328755755735
 20
-0.0599001779994658
 30
0.0
 10
78.20931127255324
 20
-0.2479770326348442
 30
0.0
 10
78.29058670107888
 20
-0.6414618481638533
 30
0.0
 10
78.31590239689064
 20
-0.8491805585984541
 30
0.0
 10
78.32957432479864
 20
-1.27551730520682
 30
0.0
 10
78.3183945980326
 20
-1.493431101831471
 30
0.0
 10
78.25564942656642
 20
-1.941743346580876
 30
0.0
 10
78.2043080478484
 20
-2.167301310461698
 30
0.0
 10
78.06460617175802
 20
-2.606085372936567
 30
0.0
 10
77.97395439292718
 20
-2.825002117804866
 30
0.0
 10
77.76303206845012
 20
-3.231421511952911
 30
0.0
 10
77.6419198476531
 20
-3.42181142153473
 30
0.0
 10
77.37514946869177
 20
-3.769052687684627
 30
0.0
 10
77.23244336119237
 20
-3.92264985680373
 30
0.0
 10
76.92884573764198
 20
-4.194884082224966
 30
0.0
 10
76.77013885320268
 20
-4.311154327803841
 30
0.0
 10
76.28374179358079
 20
-4.602763711653533
 30
0.0
 10
75.9369055726455
 20
-4.725323816016505
 30
0.0
 10
75.41139275240846
 20
-4.817289285678751
 30
0.0
 10
75.23431586779104
 20
-4.833205644432141
 30
0.0
 10
74.87474981715496
 20
-4.83906095160263
 30
0.0
 10
74.69123721108696
 20
-4.828790760944444
 30
0.0
 10
74.14016343354082
 20
-4.764775447832651
 30
0.0
 10
73.77078559298988
 20
-4.678570109135425
 30
0.0
 10
73.01594465810041
 20
-4.44105576318205
 30
0.0
 10
72.62759873117626
 20
-4.287937541778034
 30
0.0
 10
71.8473737699934
 20
-3.939681491314913
 30
0.0
 10
71.45307799763638
 20
-3.745239962838262
 30
0.0
 10
71.04981532850788
 20
-3.53713410005962
 30
0.0
  0
SPLINE
  5
AF
330
1F
100
AcDbEntity
  8
0
  6
Continuous
 62
     1
370
    15
100
AcDbSpline
210
0.0
220
0.0
230
1.0
 70
     8
 71
     3
 72
    18
 73
    14
 74
     0
 42
0.000000001
 43
0.00000001
 40
0.0
 40
0.0
 40
0.0
 40
0.0
 40
0.0946634097556674
 40
0.1893270096893751
 40
0.2839908366561318
 40
0.3786598151139612
 40
0.4733290926438257
 40
0.5679987057631374
 40
0.6626686909648397
 40
0.7573390847147496
 40
0.8520099234489183
 40
0.9466812435709717
 40
1.0
 40
1.0
 40
1.0
 40
1.0
 10
71.04981532850789
 20
-3.537134100059634
 30
0.0
 10
70.16795703880827
 20
-3.068717810703393
 30
0.0
 10
68.4042386877627
 20
-2.131884290946298
 30
0.0
 10
65.7586568509918
 20
-0.612888426326785
 30
0.0
 10
63.11302199724051
 20
0.9194182610546859
 30
0.0
 10
60.46733250979369
 20
2.420380457797691
 30
0.0
 10
57.82158752171389
 20
3.831300838241184
 30
0.0
 10
55.17583126253178
 20
5.101248046451164
 30
0.0
 10
52.53006252082007
 20
6.181853968133635
 30
0.0
 10
49.88428011510913
 20
7.037944783391404
 30
0.0
 10
47.238482646486
 20
7.620487385770275
 30
0.0
 10
44.97790594213317
 20
7.921621036788876
 30
0.0
 10
43.5992603562149
 20
7.907522963157514
 30
0.0
 10
43.10255361809685
 20
7.902443624247857
 30
0.0
  0
LINE
  5
B0
330
1F
100
AcDbEntity
  8
외형선
  6
Continuous
370
    15
100
AcDbLine
 10
15.48731532850782
 20
0.6811706384414746
 30
0.0
 11
15.48731532850782
 21
3.366250052231744
 31
0.0
  0
LINE
  5
B1
330
1F
100
AcDbEntity
  8
외형선
  6
Continuous
370
    15
100
AcDbLine
 10
15.48731532850782
 20
-7.907235641532168
 30
0.0
 11
15.48731532850782
 21
-7.187770780993581
 31
0.0
  0
LINE
  5
B2
330
1F
100
AcDbEntity
  8
외형선
  6
Continuous
370
    15
100
AcDbLine
 10
-36.90018467149218
 20
0.0010749287238931
 30
0.0
 11
-36.90018467149218
 21
7.938574928723893
 31
0.0
  0
LINE
  5
B3
330
1F
100
AcDbEntity
  8
외형선
  6
Continuous
370
    15
100
AcDbLine
 10
-36.90018467149218
 20
-7.936425071276107
 30
0.0
 11
-36.90018467149218
 21
0.0010749287238931
 31
0.0
  0
LINE
  5
B4
330
1F
100
AcDbEntity
  8
외형선
  6
Continuous
370
    15
100
AcDbLine
 10
15.48731532850782
 20
0.0010749287238931
 30
0.0
 11
15.48731532850782
 21
7.938574928723893
 31
0.0
  0
LINE
  5
B5
330
1F
100
AcDbEntity
  8
외형선
  6
Continuous
370
    15
100
AcDbLine
 10
15.48731532850782
 20
-7.936425071276107
 30
0.0
 11
15.48731532850782
 21
0.0010749287238931
 31
0.0
  0
LINE
  5
B6
330
1F
100
AcDbEntity
  8
외형선
  6
Continuous
370
    15
100
AcDbLine
 10
-38.48768467149218
 20
0.0010749287238931
 30
0.0
 11
-38.48768467149218
 21
6.351074928723895
 31
0.0
  0
LINE
  5
B7
330
1F
100
AcDbEntity
  8
외형선
  6
Continuous
370
    15
100
AcDbLine
 10
-38.48768467149218
 20
-6.348925071276108
 30
0.0
 11
-38.48768467149218
 21
0.0010749287238931
 31
0.0
  0
LINE
  5
B8
330
1F
100
AcDbEntity
  8
중심선
 48
0.8
100
AcDbLine
 10
-41.4876846714922
 20
0.0010749287238931
 30
0.0
 11
81.98731532850783
 21
0.0010749287239039
 31
0.0
  0
LINE
  5
B9
330
1F
100
AcDbEntity
  8
참조1
100
AcDbLine
 10
83.1117613140312
 20
0.0010749287238892
 30
0.0
 11
83.1117613140312
 21
1.655200094750598
 31
0.0
  0
LINE
  5
BA
330
1F
100
AcDbEntity
  8
참조1
100
AcDbLine
 10
24.37426131403118
 20
0.0010749287238892
 30
0.0
 11
24.37426131403119
 21
-39.99892507127611
 31
0.0
  0
LINE
  5
BB
330
1F
100
AcDbEntity
  8
참조1
100
AcDbLine
 10
24.37426131403119
 20
-39.99892507127611
 30
0.0
 11
-20.1533455002775
 21
-39.9989250712761
 31
0.0
  0
CIRCLE
  5
BC
330
1F
100
AcDbEntity
  8
해칭선
100
AcDbCircle
 10
0.0
 20
0.0
 30
0.0
 40
3.000000000000002
  0
INSERT
  5
BD
330
1F
100
AcDbEntity
  8
0
  6
Continuous
 62
     7
100
AcDbBlockReference
 66
     1
  2
블럭10
 10
6.309542396382617
 20
-52.04609937292004
 30
0.0
  0
ATTRIB
  5
BE
330
BD
100
AcDbEntity
  8
FORMAT
 62
     2
100
AcDbText
 10
-2.871752892358662
 20
-49.97073246008785
 30
0.0
 40
4.233333333333333
  1
E2021040 [ 4 FLUTE ]
 41
0.75
  7
SLDTEXTSTYLE0
 11
-2.871752892358662
 21
-52.08739912675452
 31
0.0
100
AcDbAttribute
  2
AUTOATTR0
 70
     0
 74
     1
  0
SEQEND
  5
BF
330
BD
100
AcDbEntity
  8
0
  6
Continuous
 62
     7
  0
HATCH
  5
C0
330
1F
100
AcDbEntity
  8
중심선
100
AcDbHatch
 10
0.0
 20
0.0
 30
0.0
210
0.0
220
0.0
230
1.0
  2
SOLID
 70
     1
 71
     0
 91
        1
 92
        0
 93
        4
 72
     1
 10
12.02445170076347
 20
-35.7989250712761
 11
8.578176456926183
 21
-35.7989250712761
 72
     1
 10
8.578176456926183
 20
-35.7989250712761
 11
6.44994659772216
 21
-38.3352506518487
 72
     1
 10
6.44994659772216
 20
-38.3352506518487
 11
9.89625492667259
 21
-38.33521122254621
 72
     1
 10
9.89625492667259
 20
-38.33521122254621
 11
12.02445170076347
 21
-35.7989250712761
 97
        0
 75
     0
 76
     1
 98
        1
 10
-4.124445985523363
 20
0.0
  0
HATCH
  5
C1
330
1F
100
AcDbEntity
  8
중심선
100
AcDbHatch
 10
0.0
 20
0.0
 30
0.0
210
0.0
220
0.0
230
1.0
  2
SOLID
 70
     1
 71
     0
 91
        1
 92
        0
 93
        4
 72
     1
 10
17.03721569179947
 20
-35.79892507127608
 11
13.59094044796216
 21
-35.7989250712761
 72
     1
 10
13.59094044796216
 20
-35.7989250712761
 11
9.059802439604747
 21
-41.19892507127612
 72
     1
 10
9.059802439604745
 20
-41.19892507127612
 11
12.50607768344203
 21
-41.19892507127612
 72
     1
 10
12.50607768344203
 20
-41.19892507127612
 11
17.03721569179947
 21
-35.79892507127608
 97
        0
 75
     0
 76
     1
 98
        1
 10
-4.124445985523363
 20
0.0
  0
HATCH
  5
C2
330
1F
100
AcDbEntity
  8
중심선
100
AcDbHatch
 10
0.0
 20
0.0
 30
0.0
210
0.0
220
0.0
230
1.0
  2
SOLID
 70
     1
 71
     0
 91
        1
 92
        0
 93
        4
 72
     1
 10
22.04997968283534
 20
-35.7989250712761
 11
18.60370443899822
 21
-35.7989250712761
 72
     1
 10
18.60370443899822
 20
-35.7989250712761
 11
11.55526753710895
 21
-44.19892507127612
 72
     1
 10
11.55526753710895
 20
-44.19892507127612
 11
15.00154278094623
 21
-44.19892507127612
 72
     1
 10
15.00154278094623
 20
-44.19892507127612
 11
22.04997968283534
 21
-35.7989250712761
 97
        0
 75
     0
 76
     1
 98
        1
 10
-4.124445985523363
 20
0.0
  0
HATCH
  5
C3
330
1F
100
AcDbEntity
  8
중심선
100
AcDbHatch
 10
0.0
 20
0.0
 30
0.0
210
0.0
220
0.0
230
1.0
  2
SOLID
 70
     1
 71
     0
 91
        1
 92
        0
 93
        6
 72
     3
 10
26.84987011384751
 20
-39.99892507132738
 11
3.960054785062283
 21
1.540882976769353E-10
 40
0.3939339440162628
 50
17.09539180608436
 51
320.0019657685082
 73
     0
 72
     1
 10
28.53286976954808
 20
-38.58681907591443
 11
30.83817164324914
 21
-36.65249236586651
 72
     3
 10
26.84987011379467
 20
-39.99892507127625
 11
6.600054785286829
 21
-1.278976924368180E-13
 40
0.636358354079598
 50
39.99873849337384
 51
368.4976242363725
 73
     1
 72
     1
 10
33.27520260569524
 20
-39.03892507120613
 11
25.52993742063058
 21
-39.03892507120613
 72
     1
 10
25.52993742063059
 20
-39.03892507120613
 11
25.52991237618465
 21
-40.95892507120602
 72
     1
 10
25.52991237618465
 20
-40.95892507120602
 11
29.97129214565669
 21
-40.95892507120599
 97
        0
 75
     0
 76
     1
 98
        1
 10
-4.124445985523363
 20
0.0
  0
DIMENSION
  5
C4
330
1F
100
AcDbEntity
  8
치수문자_일반주서
100
AcDbDimension
  2
_D
 10
15.4873153285078
 20
14.76357492872391
 30
0.0
 11
47.2373153285078
 21
14.76357492872391
 31
0.0
 70
   160
  1
<>
 71
     2
 42
63.5
  3
SLDDIMSTYLE1
100
AcDbAlignedDimension
 13
78.9873153285078
 23
7.938574928723904
 33
0.0
 14
15.4873153285078
 24
7.90938549897996
 34
0.0
 50
0.0000000000000032
100
AcDbRotatedDimension
1001
ACAD
1000
DSTYLE
1002
{
1070
   171
1070
     6
1070
   273
1070
     7
1002
}
  0
DIMENSION
  5
D9
330
1F
100
AcDbEntity
  8
치수문자_일반주서
100
AcDbDimension
  2
_D_1
 10
-38.48768467149219
 20
31.6102217220047
 30
0.0
 11
20.2498153285078
 21
31.6102217220047
 31
0.0
 70
   160
  1
<>
 71
     2
 42
117.475
  3
SLDDIMSTYLE1
100
AcDbAlignedDimension
 13
78.9873153285078
 23
7.938574928723904
 33
0.0
 14
-38.4876846714922
 24
6.351074928723888
 34
0.0
 50
0.0000000000000035
100
AcDbRotatedDimension
1001
ACAD
1000
DSTYLE
1002
{
1070
   171
1070
     6
1070
   273
1070
     7
1002
}
  0
DIMENSION
  5
ED
330
1F
100
AcDbEntity
  8
치수문자_일반주서
100
AcDbDimension
  2
_D_2
 10
-50.85268467149216
 20
-7.936425071276171
 30
0.0
 11
-50.85268467149219
 21
0.0010749287239131
 31
0.0
 70
   160
  1
%%c<>
 71
     2
 42
15.87500000000003
 52
-270.0
  3
SLDDIMSTYLE1
100
AcDbAlignedDimension
 13
-36.90018467149219
 23
7.938574928723908
 33
0.0
 14
-36.90018467149219
 24
-7.936425071276121
 34
0.0
 50
90.0000000000002
100
AcDbRotatedDimension
1001
ACAD
1000
DSTYLE
1002
{
1070
   171
1070
     6
1070
   273
1070
     7
1002
}
  0
DIMENSION
  5
102
330
1F
100
AcDbEntity
  8
치수문자_일반주서
100
AcDbDimension
  2
_D_3
 10
94.3531839043958
 20
-7.936425071276037
 30
0.0
 11
94.35318390439566
 21
31.54024610658199
 31
0.0
 70
   160
  1
%%c<>
 71
     2
 42
15.875
 52
-270.0
  3
SLDDIMSTYLE1
100
AcDbAlignedDimension
 13
78.9873153285078
 23
7.938574928723904
 33
0.0
 14
78.98731532850789
 24
-7.936425071276096
 34
0.0
 50
90.0000000000002
100
AcDbRotatedDimension
1001
ACAD
1000
DSTYLE
1002
{
1070
   171
1070
     6
1070
   273
1070
     7
1002
}
  0
LINE
  5
115
330
1F
100
AcDbEntity
  8
참조1
100
AcDbLine
 10
77.81899512937676
 20
7.441074928723896
 30
0.0
 11
77.81899512937676
 21
-7.438925071276109
 31
0.0
  0
LINE
  5
116
330
1F
100
AcDbEntity
  8
참조1
100
AcDbLine
 10
90.51899512937676
 20
5.441074928723896
 30
0.0
 11
77.81899512937676
 21
5.441074928723896
 31
0.0
  0
SOLID
  5
117
330
1F
100
AcDbEntity
  8
참조1
100
AcDbTrace
 10
77.81899512937676
 20
5.441074928723896
 30
0.0
 11
84.16899512937675
 21
4.425074928723896
 31
0.0
 12
84.16899512937675
 22
6.457074928723896
 32
0.0
 13
84.16899512937675
 23
6.457074928723896
 33
0.0
  0
LINE
  5
118
330
1F
100
AcDbEntity
  8
참조1
100
AcDbLine
 10
90.51899512937676
 20
-5.438925071276109
 30
0.0
 11
77.81899512937676
 21
-5.438925071276109
 31
0.0
  0
SOLID
  5
119
330
1F
100
AcDbEntity
  8
참조1
100
AcDbTrace
 10
77.81899512937676
 20
-5.438925071276109
 30
0.0
 11
84.16899512937675
 21
-6.454925071276109
 31
0.0
 12
84.16899512937675
 22
-4.422925071276109
 32
0.0
 13
84.16899512937675
 23
-4.422925071276109
 33
0.0
  0
MTEXT
  5
11A
330
1F
100
AcDbEntity
  8
참조1
100
AcDbMText
 10
87.21648522184704
 20
10.98929157337383
 30
0.0
 40
3.5
 41
0.0
 71
     1
 72
     1
  1
A
  7
SLDTEXTSTYLE0
 73
     1
 44
1.0
  0
MTEXT
  5
11B
330
1F
100
AcDbEntity
  8
참조1
100
AcDbMText
 10
87.21648522184704
 20
0.1092915733738259
 30
0.0
 40
3.5
 41
0.0
 71
     1
 72
     1
  1
A
  7
SLDTEXTSTYLE0
 73
     1
 44
1.0
  0
INSERT
  5
122
330
1F
100
AcDbEntity
  8
해칭선
100
AcDbBlockReference
  2
SW_DOWELSYMBOL_0
 10
0.0
 20
0.0
 30
0.0
  0
LINE
  5
20C
330
1F
100
AcDbEntity
  8
0
  6
Continuous
 62
     1
370
    15
100
AcDbLine
 10
256.8187560170758
 20
-56.61874999999998
 30
0.0
 11
262.6260402160192
 21
-56.61874999999998
 31
0.0
  0
ARC
  5
20F
330
1F
100
AcDbEntity
  8
0
  6
Continuous
 62
     1
370
    15
100
AcDbCircle
 10
270.2475000000001
 20
-47.09374999999996
 30
0.0
 40
9.524999999999988
100
AcDbArc
 50
333.0122208729486
 51
0.0
  0
ARC
  5
210
330
1F
100
AcDbEntity
  8
0
  6
Continuous
 62
     1
370
    15
100
AcDbCircle
 10
270.2475000000001
 20
-47.09374999999996
 30
0.0
 40
9.524999999999977
100
AcDbArc
 50
0.0
 51
26.98121075051314
  0
LINE
  5
212
330
1F
100
AcDbEntity
  8
0
  6
Continuous
 62
     1
370
    15
100
AcDbLine
 10
262.6260402160194
 20
-37.56874999999997
 30
0.0
 11
256.8187560170758
 21
-37.56874999999997
 31
0.0
  0
SPLINE
  5
217
330
1F
100
AcDbEntity
  8
0
  6
Continuous
 62
     1
370
    15
100
AcDbSpline
210
0.0
220
0.0
230
1.0
 70
     8
 71
     3
 72
    16
 73
    12
 74
     0
 42
0.000000001
 43
0.00000001
 40
0.0
 40
0.0
 40
0.0
 40
0.0
 40
0.1277164938472546
 40
0.2591713725937692
 40
0.3856825901931202
 40
0.5160789688548406
 40
0.6398647852847295
 40
0.7667216634283264
 40
0.8696990563765802
 40
0.9750012967565121
 40
1.0
 40
1.0
 40
1.0
 40
1.0
 10
270.2475000000001
 20
-54.01898637110806
 30
0.0
 10
270.6851826278667
 20
-54.17222464265522
 30
0.0
 10
271.5733592760629
 20
-54.4831866176862
 30
0.0
 10
272.9115549833772
 20
-54.64636974216668
 30
0.0
 10
274.2311390786039
 20
-54.56652231037032
 30
0.0
 10
275.4631713494886
 20
-54.23089459372346
 30
0.0
 10
276.5859427676123
 20
-53.67620792005835
 30
0.0
 10
277.4931054930007
 20
-52.99906660441267
 30
0.0
 10
278.1861411277826
 20
-52.2728293725939
 30
0.0
 10
278.5748998244287
 20
-51.73823700905533
 30
0.0
 10
278.7041767822298
 20
-51.46523514001787
 30
0.0
 10
278.7289790301216
 20
-51.41285875256277
 30
0.0
  0
SPLINE
  5
218
330
1F
100
AcDbEntity
  8
0
  6
Continuous
 62
     1
370
    15
100
AcDbSpline
210
0.0
220
0.0
230
1.0
 70
     8
 71
     3
 72
    10
 73
     6
 74
     0
 42
0.000000001
 43
0.00000001
 40
0.0
 40
0.0
 40
0.0
 40
0.0
 40
0.1587115262555771
 40
0.5759590090361344
 40
1.0
 40
1.0
 40
1.0
 40
1.0
 10
272.6799935439358
 20
-54.57470313681061
 30
0.0
 10
272.5552440323507
 20
-54.65222594868641
 30
0.0
 10
272.1025320790009
 20
-54.93355373223866
 30
0.0
 10
271.2914046768349
 20
-55.30086875889984
 30
0.0
 10
270.5973364544438
 20
-55.51316076213722
 30
0.0
 10
270.2475000000001
 20
-55.62016390581019
 30
0.0
  0
LWPOLYLINE
  5
21B
330
1F
100
AcDbEntity
  8
0
  6
Continuous
 62
     1
370
    15
100
AcDbPolyline
 90
       26
 70
   128
 43
0.0
 10
272.6799935439359
 20
-39.61279686318936
 10
272.9238938389685
 20
-39.58115349713034
 10
274.2078748004267
 20
-39.66229438641569
 10
275.4651871926635
 20
-40.00083710479591
 10
276.5535863397112
 20
-40.53489215581955
 10
277.5195349731237
 20
-41.25181190958428
 10
278.1608956964457
 20
-41.91597969358653
 10
278.6513379940588
 20
-42.61656971989721
 10
278.8498694290295
 20
-43.02076534610095
 10
278.9607827302569
 20
-43.38812807482304
 10
278.9741877371945
 20
-43.62241223408641
 10
278.915006363345
 20
-43.79669555909655
 10
278.7830501509446
 20
-43.88644435184466
 10
278.5703355560237
 20
-43.8846917225239
 10
278.3394360519661
 20
-43.80782032169042
 10
278.0591699909628
 20
-43.66234992018623
 10
277.4019364233629
 20
-43.20855774880457
 10
276.8742704574407
 20
-42.78778553459983
 10
276.3014431943877
 20
-42.30840746092133
 10
275.5011606653798
 20
-41.63533150401827
 10
274.651341169828
 20
-40.94893778849837
 10
273.5110278853889
 20
-40.11598390361813
 10
272.3046466923356
 20
-39.38552626560998
 10
271.2940430080103
 20
-38.91291911252181
 10
270.2475000000001
 20
-38.56733609418974
 10
270.2475000000001
 20
-38.56733609418973
  0
SPLINE
  5
21C
330
1F
100
AcDbEntity
  8
0
  6
Continuous
 62
     1
370
    15
100
AcDbSpline
210
0.0
220
0.0
230
1.0
 70
     8
 71
     3
 72
    10
 73
     6
 74
     0
 42
0.000000001
 43
0.00000001
 40
0.0
 40
0.0
 40
0.0
 40
0.0
 40
0.416526562021476
 40
0.8330626690695454
 40
1.0
 40
1.0
 40
1.0
 40
1.0
 10
270.2475000000001
 20
-38.56733609418971
 30
0.0
 10
269.189324302868
 20
-38.32958236736311
 30
0.0
 10
267.0729486596938
 20
-37.85406946540036
 30
0.0
 10
264.5324595701079
 20
-37.56503747473508
 30
0.0
 10
263.0501446822551
 20
-37.60082558031207
 30
0.0
 10
262.6260402160194
 20
-37.61106489959416
 30
0.0
  0
SPLINE
  5
21F
330
1F
100
AcDbEntity
  8
0
  6
Continuous
 62
     1
370
    15
100
AcDbSpline
210
0.0
220
0.0
230
1.0
 70
     8
 71
     3
 72
    15
 73
    11
 74
     0
 42
0.000000001
 43
0.00000001
 40
0.0
 40
0.0
 40
0.0
 40
0.0
 40
0.0536546465645398
 40
0.1888585267338498
 40
0.324061254331649
 40
0.4592624354286357
 40
0.5944616765319397
 40
0.7296439564721287
 40
0.8648235270724977
 40
1.0
 40
1.0
 40
1.0
 40
1.0
 10
246.7628947727079
 20
-39.31784216649364
 30
0.0
 10
247.1829178663628
 20
-39.17048231592817
 30
0.0
 10
248.6613535236818
 20
-38.65179165147586
 30
0.0
 10
251.1981894052526
 20
-38.07157624704266
 30
0.0
 10
254.3733880337134
 20
-37.61171978649866
 30
0.0
 10
257.5485428565184
 20
-37.52018072687185
 30
0.0
 10
260.7235287626204
 20
-37.77609202986858
 30
0.0
 10
263.8983337330621
 20
-38.38191290890107
 30
0.0
 10
267.0729490747885
 20
-39.29162497072684
 30
0.0
 10
269.1893244412319
 20
-40.13329328809625
 30
0.0
 10
270.2475000000001
 20
-40.55412262496696
 30
0.0
  0
SPLINE
  5
220
330
1F
100
AcDbEntity
  8
0
  6
Continuous
 62
     1
370
    15
100
AcDbSpline
210
0.0
220
0.0
230
1.0
 70
     8
 71
     3
 72
    56
 73
    52
 74
     0
 42
0.000000001
 43
0.00000001
 40
0.0
 40
0.0
 40
0.0
 40
0.0
 40
0.0625000000000108
 40
0.0625000000000108
 40
0.0937500000000147
 40
0.0937500000000147
 40
0.1250000000000187
 40
0.1250000000000187
 40
0.187500000000024
 40
0.187500000000024
 40
0.2187500000000253
 40
0.2187500000000253
 40
0.2500000000000266
 40
0.2500000000000266
 40
0.312500000000027
 40
0.312500000000027
 40
0.3750000000000272
 40
0.3750000000000272
 40
0.4062500000000274
 40
0.4062500000000274
 40
0.4375000000000275
 40
0.4375000000000275
 40
0.4687500000000277
 40
0.4687500000000277
 40
0.5000000000000279
 40
0.5000000000000279
 40
0.531250000000028
 40
0.531250000000028
 40
0.546875000000028
 40
0.546875000000028
 40
0.5625000000000279
 40
0.5625000000000279
 40
0.5937500000000266
 40
0.5937500000000266
 40
0.6250000000000255
 40
0.6250000000000255
 40
0.6562500000000242
 40
0.6562500000000242
 40
0.687500000000023
 40
0.687500000000023
 40
0.7500000000000182
 40
0.7500000000000182
 40
0.781250000000016
 40
0.781250000000016
 40
0.8125000000000137
 40
0.8125000000000137
 40
0.8750000000000091
 40
0.8750000000000091
 40
0.9375000000000046
 40
0.9375000000000046
 40
1.0
 40
1.0
 40
1.0
 40
1.0
 10
270.2475000000001
 20
-40.55412262496696
 30
0.0
 10
270.7312065899065
 20
-40.7573508989052
 30
0.0
 10
271.2125384010783
 20
-40.98482954867503
 30
0.0
 10
271.9375409412146
 20
-41.35177718424627
 30
0.0
 10
272.1796061952082
 20
-41.47855879399116
 30
0.0
 10
272.6650148649263
 20
-41.74053850167759
 30
0.0
 10
272.9097096910486
 20
-41.87651777606349
 30
0.0
 10
273.634404633564
 20
-42.29048988942749
 30
0.0
 10
274.1045765518393
 20
-42.57369790937656
 30
0.0
 10
274.7908334904309
 20
-43.00925624632238
 30
0.0
 10
275.0163111868417
 20
-43.1564247911256
 30
0.0
 10
275.4598937613677
 20
-43.45619032331869
 30
0.0
 10
275.6779797680679
 20
-43.60885481450382
 30
0.0
 10
276.3069283434787
 20
-44.06887648643129
 30
0.0
 10
276.6972849783106
 20
-44.38114427231702
 30
0.0
 10
277.4129160455037
 20
-45.03776918593478
 30
0.0
 10
277.7392649420871
 20
-45.38434168386023
 30
0.0
 10
278.1527063707897
 20
-45.9360812723404
 30
0.0
 10
278.2785538665679
 20
-46.12595588204069
 30
0.0
 10
278.5039732421326
 20
-46.522935981055
 30
0.0
 10
278.6039634592053
 20
-46.73101255046937
 30
0.0
 10
278.7718841648534
 20
-47.16715928480138
 30
0.0
 10
278.8390800794408
 20
-47.39287651910118
 30
0.0
 10
278.9365441477779
 20
-47.86517495246187
 30
0.0
 10
278.9668818933483
 20
-48.11454238794808
 30
0.0
 10
278.9831884792094
 20
-48.62614862362368
 30
0.0
 10
278.9697278939477
 20
-48.88768480067606
 30
0.0
 10
278.9131546823057
 20
-49.29130655445928
 30
0.0
 10
278.8881182146009
 20
-49.42738916415033
 30
0.0
 10
278.8269607936995
 20
-49.69523990593945
 30
0.0
 10
278.7907196290123
 20
-49.82802087748684
 30
0.0
 10
278.6649065391704
 20
-50.22294697244131
 30
0.0
 10
278.5560606508542
 20
-50.48567403459776
 30
0.0
 10
278.3029187241609
 20
-50.97334563682716
 30
0.0
 10
278.1575231212084
 20
-51.20193499651879
 30
0.0
 10
277.8374301434011
 20
-51.61870490398869
 30
0.0
 10
277.6661798057738
 20
-51.80307966919359
 30
0.0
 10
277.3018053740736
 20
-52.12978021630529
 30
0.0
 10
277.1113612762908
 20
-52.26921583843259
 30
0.0
 10
276.5277418467413
 20
-52.61853661854489
 30
0.0
 10
276.1117126961351
 20
-52.7649811103459
 30
0.0
 10
275.4810853706158
 20
-52.8753370918253
 30
0.0
 10
275.2685321527106
 20
-52.89454586569595
 30
0.0
 10
274.8368065342507
 20
-52.90203894250332
 30
0.0
 10
274.616390080184
 20
-52.89007820575335
 30
0.0
 10
273.9549741195398
 20
-52.81347976347119
 30
0.0
 10
273.5122998796941
 20
-52.70907585905643
 30
0.0
 10
272.6068320998089
 20
-52.42347434167187
 30
0.0
 10
272.1407630554269
 20
-52.23988308793022
 30
0.0
 10
271.2037999138348
 20
-51.82336089420284
 30
0.0
 10
270.7310505004638
 20
-51.58957661615034
 30
0.0
 10
270.2475000000001
 20
-51.3394408633114
 30
0.0
  0
SPLINE
  5
221
330
1F
100
AcDbEntity
  8
0
  6
Continuous
 62
     1
370
    15
100
AcDbSpline
210
0.0
220
0.0
230
1.0
 70
     8
 71
     3
 72
    18
 73
    14
 74
     0
 42
0.000000001
 43
0.00000001
 40
0.0
 40
0.0
 40
0.0
 40
0.0
 40
0.0946560462134457
 40
0.1893142615430073
 40
0.2839743740621438
 40
0.3786463634752771
 40
0.4733197113506304
 40
0.5679941421485459
 40
0.6626693800237566
 40
0.7573451489031513
 40
0.8520211725636667
 40
0.9466971747102871
 40
1.0
 40
1.0
 40
1.0
 40
1.0
 10
270.2475000000001
 20
-51.3394408633114
 30
0.0
 10
269.1893244411872
 20
-50.77736619359584
 30
0.0
 10
267.0729490746545
 20
-49.65320397379125
 30
0.0
 10
263.8983337335981
 20
-47.83049547034778
 30
0.0
 10
260.7235287606101
 20
-45.99176611143339
 30
0.0
 10
257.5485428640245
 20
-44.19060259733183
 30
0.0
 10
254.3733880056992
 20
-42.4974520428877
 30
0.0
 10
251.1981895098048
 20
-40.9734747875825
 30
0.0
 10
248.0229585618295
 20
-39.67672155226143
 30
0.0
 10
244.84770620375
 20
-38.64940521342437
 30
0.0
 10
241.6724437345478
 20
-37.95037807794033
 30
0.0
 10
238.959705937694
 20
-37.58906461152199
 30
0.0
 10
237.3053917306704
 20
-37.60601029054619
 30
0.0
 10
236.7094982323981
 20
-37.61211422165641
 30
0.0
  0
DIMENSION
  5
231
330
1F
100
AcDbEntity
  8
치수문자_일반주서
100
AcDbDimension
  2
*D15
 10
298.6204660954456
 20
-56.61874999999989
 30
0.0
 11
298.6204660954455
 21
-15.52075634945903
 31
0.0
 70
   160
  1
%%c<>
 71
     2
 42
19.05
 52
-270.0
  3
SLDDIMSTYLE1
100
AcDbAlignedDimension
 13
279.7725
 23
-37.56874999999996
 33
0.0
 14
279.7725
 24
-56.61874999999996
 34
0.0
 50
90.0000000000002
100
AcDbRotatedDimension
1001
ACAD
1000
DSTYLE
1002
{
1070
   171
1070
     6
1070
   273
1070
     7
1002
}
  0
LINE
  5
2C9
330
1F
100
AcDbEntity
  8
외형선
  6
Continuous
370
    15
100
AcDbLine
 10
-19.37100967149219
 20
6.287574928723856
 30
0.0
 11
-9.185609671492177
 21
6.287574928723856
 31
0.0
  0
LINE
  5
2CA
330
1F
100
AcDbEntity
  8
외형선
  6
Continuous
370
    15
100
AcDbLine
 10
-19.37100967149219
 20
6.287574928723956
 30
0.0
 11
-21.02200967149215
 21
7.938574928723867
 31
0.0
  0
LINE
  5
2CB
330
1F
100
AcDbEntity
  8
외형선
  6
Continuous
370
    15
100
AcDbLine
 10
-9.18560967149229
 20
6.287574928723956
 30
0.0
 11
-7.534609671492281
 21
7.938574928723867
 31
0.0
  0
LINE
  5
2CD
330
1F
100
AcDbEntity
  8
외형선
  6
Continuous
370
    15
100
AcDbLine
 10
-21.02200967149216
 20
7.938574928723893
 30
0.0
 11
-36.90018467149218
 21
7.938574928723893
 31
0.0
  0
ENDSEC
  0
SECTION
  2
OBJECTS
  0
DICTIONARY
  5
C
330
0
100
AcDbDictionary
281
     1
  3
ACAD_GROUP
350
D
  3
ACAD_IMAGE_VARS
350
146
  3
ACAD_LAYOUT
350
1A
  3
ACAD_MLINESTYLE
350
17
  3
ACAD_PLOTSETTINGS
350
19
  3
ACAD_PLOTSTYLENAME
350
E
  3
ACAD_SCALELIST
350
47
  3
APPDATA
350
144
  3
DWGPROPS
350
2CE
  0
DICTIONARY
  5
1D5
330
2
100
AcDbDictionary
280
     1
281
     1
  3
ACAD_LAYERSTATES
360
1D6
  0
DICTIONARY
  5
D
102
{ACAD_REACTORS
330
C
102
}
330
C
100
AcDbDictionary
281
     1
  0
RASTERVARIABLES
  5
146
102
{ACAD_REACTORS
330
C
102
}
330
C
100
AcDbRasterVariables
 90
        0
 70
     1
 71
     1
 72
     1
  0
DICTIONARY
  5
1A
102
{ACAD_REACTORS
330
C
102
}
330
C
100
AcDbDictionary
281
     1
  3
Layout1
350
1E
  3
Layout2
350
26
  3
Model
350
22
  0
DICTIONARY
  5
17
102
{ACAD_REACTORS
330
C
102
}
330
C
100
AcDbDictionary
281
     1
  3
Standard
350
18
  0
DICTIONARY
  5
19
102
{ACAD_REACTORS
330
C
102
}
330
C
100
AcDbDictionary
281
     1
  0
ACDBDICTIONARYWDFLT
  5
E
102
{ACAD_REACTORS
330
C
102
}
330
C
100
AcDbDictionary
281
     1
  3
Normal
350
F
100
AcDbDictionaryWithDefault
340
F
  0
DICTIONARY
  5
47
102
{ACAD_REACTORS
330
C
102
}
330
C
100
AcDbDictionary
281
     1
  3
A0
350
48
  3
A1
350
49
  3
A2
350
4A
  3
A3
350
4B
  3
A4
350
4C
  3
A5
350
4D
  3
A6
350
4E
  3
A7
350
4F
  3
A8
350
50
  3
A9
350
51
  3
B0
350
52
  3
B1
350
53
  3
B2
350
54
  3
B3
350
55
  3
B4
350
56
  3
B5
350
57
  3
B6
350
58
  3
B7
350
59
  3
B8
350
5A
  3
B9
350
5B
  3
C0
350
5C
  3
C1
350
5D
  3
C2
350
5E
  3
C3
350
5F
  3
C4
350
60
  3
C5
350
61
  3
C6
350
62
  3
C7
350
63
  3
C8
350
64
  3
C9
350
65
  3
D0
350
66
  3
D1
350
67
  3
D2
350
68
  0
DICTIONARY
  5
144
102
{ACAD_REACTORS
330
C
102
}
330
C
100
AcDbDictionary
281
     1
  0
XRECORD
  5
2CE
102
{ACAD_REACTORS
330
C
102
}
330
C
100
AcDbXrecord
280
     1
  1
DWGPROPS COOKIE
  2

  3

  4

  6

  7

  8
12017012
  9

300
=
301
=
302
=
303
=
304
=
305
=
306
=
307
=
308
=
309
=
 40
0.0
 41
2458323.304342037
 42
2458324.063520625
  1

 90
        0
  0
DICTIONARY
  5
1D6
102
{ACAD_REACTORS
330
1D5
102
}
330
1D5
100
AcDbDictionary
281
     1
  0
LAYOUT
  5
1E
102
{ACAD_REACTORS
330
1A
102
}
330
1A
100
AcDbPlotSettings
  1

  2
none_device
  4

  6

 40
0.0
 41
0.0
 42
0.0
 43
0.0
 44
0.0
 45
0.0
 46
0.0
 47
0.0
 48
0.0
 49
0.0
140
0.0
141
0.0
142
1.0
143
1.0
 70
   688
 72
     1
 73
     0
 74
     5
  7

 75
    16
147
1.0
148
0.0
149
0.0
100
AcDbLayout
  1
Layout1
 70
     1
 71
     1
 10
0.0
 20
0.0
 11
420.0
 21
297.0
 12
0.0
 22
0.0
 32
0.0
 14
1.000000000000000E+20
 24
1.000000000000000E+20
 34
1.000000000000000E+20
 15
-1.000000000000000E+20
 25
-1.000000000000000E+20
 35
-1.000000000000000E+20
146
0.0
 13
0.0
 23
0.0
 33
0.0
 16
1.0
 26
0.0
 36
0.0
 17
0.0
 27
1.0
 37
0.0
 76
     0
330
1B
  0
LAYOUT
  5
26
102
{ACAD_REACTORS
330
1A
102
}
330
1A
100
AcDbPlotSettings
  1

  2
none_device
  4

  6

 40
0.0
 41
0.0
 42
0.0
 43
0.0
 44
0.0
 45
0.0
 46
0.0
 47
0.0
 48
0.0
 49
0.0
140
0.0
141
0.0
142
1.0
143
1.0
 70
   688
 72
     1
 73
     0
 74
     5
  7

 75
    16
147
1.0
148
0.0
149
0.0
100
AcDbLayout
  1
Layout2
 70
     1
 71
     2
 10
0.0
 20
0.0
 11
0.0
 21
0.0
 12
0.0
 22
0.0
 32
0.0
 14
0.0
 24
0.0
 34
0.0
 15
0.0
 25
0.0
 35
0.0
146
0.0
 13
0.0
 23
0.0
 33
0.0
 16
1.0
 26
0.0
 36
0.0
 17
0.0
 27
1.0
 37
0.0
 76
     0
330
23
  0
LAYOUT
  5
22
102
{ACAD_REACTORS
330
1A
102
}
330
1A
100
AcDbPlotSettings
  1

  2
none_device
  4
ANSI_A_(11.00_x_8.50_Inches)
  6

 40
6.35
 41
19.05
 42
6.35000508
 43
19.05000254
 44
279.4
 45
215.9
 46
100.3628920516188
 47
43.17679658125459
 48
0.0
 49
0.0
140
0.0
141
0.0
142
0.0474689590334287
143
1.0
 70
  1696
 72
     0
 73
     0
 74
     0
  7

 75
     0
147
0.0235690232323232
148
0.0
149
0.0
100
AcDbLayout
  1
Model
 70
     1
 71
     0
 10
0.0
 20
0.0
 11
420.0
 21
297.0
 12
0.0
 22
0.0
 32
0.0
 14
1.000000000000000E+20
 24
1.000000000000000E+20
 34
1.000000000000000E+20
 15
-1.000000000000000E+20
 25
-1.000000000000000E+20
 35
-1.000000000000000E+20
146
0.0
 13
0.0
 23
0.0
 33
0.0
 16
1.0
 26
0.0
 36
0.0
 17
0.0
 27
1.0
 37
0.0
 76
     0
330
1F
331
29
  0
MLINESTYLE
  5
18
102
{ACAD_REACTORS
330
17
102
}
330
17
100
AcDbMlineStyle
  2
Standard
 70
     0
  3

 62
   256
 51
90.0
 52
90.0
 71
     2
 49
0.5
 62
   256
  6
BYLAYER
 49
-0.5
 62
   256
  6
BYLAYER
  0
ACDBPLACEHOLDER
  5
F
102
{ACAD_REACTORS
330
E
102
}
330
E
  0
SCALE
  5
48
102
{ACAD_REACTORS
330
47
102
}
330
47
100
AcDbScale
 70
     0
300
1:1
140
1.0
141
1.0
290
     1
  0
SCALE
  5
49
102
{ACAD_REACTORS
330
47
102
}
330
47
100
AcDbScale
 70
     0
300
1:2
140
1.0
141
2.0
290
     0
  0
SCALE
  5
4A
102
{ACAD_REACTORS
330
47
102
}
330
47
100
AcDbScale
 70
     0
300
1:4
140
1.0
141
4.0
290
     0
  0
SCALE
  5
4B
102
{ACAD_REACTORS
330
47
102
}
330
47
100
AcDbScale
 70
     0
300
1:5
140
1.0
141
5.0
290
     0
  0
SCALE
  5
4C
102
{ACAD_REACTORS
330
47
102
}
330
47
100
AcDbScale
 70
     0
300
1:8
140
1.0
141
8.0
290
     0
  0
SCALE
  5
4D
102
{ACAD_REACTORS
330
47
102
}
330
47
100
AcDbScale
 70
     0
300
1:10
140
1.0
141
10.0
290
     0
  0
SCALE
  5
4E
102
{ACAD_REACTORS
330
47
102
}
330
47
100
AcDbScale
 70
     0
300
1:16
140
1.0
141
16.0
290
     0
  0
SCALE
  5
4F
102
{ACAD_REACTORS
330
47
102
}
330
47
100
AcDbScale
 70
     0
300
1:20
140
1.0
141
20.0
290
     0
  0
SCALE
  5
50
102
{ACAD_REACTORS
330
47
102
}
330
47
100
AcDbScale
 70
     0
300
1:30
140
1.0
141
30.0
290
     0
  0
SCALE
  5
51
102
{ACAD_REACTORS
330
47
102
}
330
47
100
AcDbScale
 70
     0
300
1:40
140
1.0
141
40.0
290
     0
  0
SCALE
  5
52
102
{ACAD_REACTORS
330
47
102
}
330
47
100
AcDbScale
 70
     0
300
1:50
140
1.0
141
50.0
290
     0
  0
SCALE
  5
53
102
{ACAD_REACTORS
330
47
102
}
330
47
100
AcDbScale
 70
     0
300
1:100
140
1.0
141
100.0
290
     0
  0
SCALE
  5
54
102
{ACAD_REACTORS
330
47
102
}
330
47
100
AcDbScale
 70
     0
300
2:1
140
2.0
141
1.0
290
     0
  0
SCALE
  5
55
102
{ACAD_REACTORS
330
47
102
}
330
47
100
AcDbScale
 70
     0
300
4:1
140
4.0
141
1.0
290
     0
  0
SCALE
  5
56
102
{ACAD_REACTORS
330
47
102
}
330
47
100
AcDbScale
 70
     0
300
8:1
140
8.0
141
1.0
290
     0
  0
SCALE
  5
57
102
{ACAD_REACTORS
330
47
102
}
330
47
100
AcDbScale
 70
     0
300
10:1
140
10.0
141
1.0
290
     0
  0
SCALE
  5
58
102
{ACAD_REACTORS
330
47
102
}
330
47
100
AcDbScale
 70
     0
300
100:1
140
100.0
141
1.0
290
     0
  0
SCALE
  5
59
102
{ACAD_REACTORS
330
47
102
}
330
47
100
AcDbScale
 70
     0
300
1/128" = 1'-0"
140
0.0078125
141
12.0
290
     0
  0
SCALE
  5
5A
102
{ACAD_REACTORS
330
47
102
}
330
47
100
AcDbScale
 70
     0
300
1/64" = 1'-0"
140
0.015625
141
12.0
290
     0
  0
SCALE
  5
5B
102
{ACAD_REACTORS
330
47
102
}
330
47
100
AcDbScale
 70
     0
300
1/32" = 1'-0"
140
0.03125
141
12.0
290
     0
  0
SCALE
  5
5C
102
{ACAD_REACTORS
330
47
102
}
330
47
100
AcDbScale
 70
     0
300
1/16" = 1'-0"
140
0.0625
141
12.0
290
     0
  0
SCALE
  5
5D
102
{ACAD_REACTORS
330
47
102
}
330
47
100
AcDbScale
 70
     0
300
3/32" = 1'-0"
140
0.09375
141
12.0
290
     0
  0
SCALE
  5
5E
102
{ACAD_REACTORS
330
47
102
}
330
47
100
AcDbScale
 70
     0
300
1/8" = 1'-0"
140
0.125
141
12.0
290
     0
  0
SCALE
  5
5F
102
{ACAD_REACTORS
330
47
102
}
330
47
100
AcDbScale
 70
     0
300
3/16" = 1'-0"
140
0.1875
141
12.0
290
     0
  0
SCALE
  5
60
102
{ACAD_REACTORS
330
47
102
}
330
47
100
AcDbScale
 70
     0
300
1/4" = 1'-0"
140
0.25
141
12.0
290
     0
  0
SCALE
  5
61
102
{ACAD_REACTORS
330
47
102
}
330
47
100
AcDbScale
 70
     0
300
3/8" = 1'-0"
140
0.375
141
12.0
290
     0
  0
SCALE
  5
62
102
{ACAD_REACTORS
330
47
102
}
330
47
100
AcDbScale
 70
     0
300
1/2" = 1'-0"
140
0.5
141
12.0
290
     0
  0
SCALE
  5
63
102
{ACAD_REACTORS
330
47
102
}
330
47
100
AcDbScale
 70
     0
300
3/4" = 1'-0"
140
0.75
141
12.0
290
     0
  0
SCALE
  5
64
102
{ACAD_REACTORS
330
47
102
}
330
47
100
AcDbScale
 70
     0
300
1" = 1'-0"
140
1.0
141
12.0
290
     0
  0
SCALE
  5
65
102
{ACAD_REACTORS
330
47
102
}
330
47
100
AcDbScale
 70
     0
300
1-1/2" = 1'-0"
140
1.5
141
12.0
290
     0
  0
SCALE
  5
66
102
{ACAD_REACTORS
330
47
102
}
330
47
100
AcDbScale
 70
     0
300
3" = 1'-0"
140
3.0
141
12.0
290
     0
  0
SCALE
  5
67
102
{ACAD_REACTORS
330
47
102
}
330
47
100
AcDbScale
 70
     0
300
6" = 1'-0"
140
6.0
141
12.0
290
     0
  0
SCALE
  5
68
102
{ACAD_REACTORS
330
47
102
}
330
47
100
AcDbScale
 70
     0
300
1'-0" = 1'-0"
140
12.0
141
12.0
290
     0
  0
ENDSEC
  0
EOF
