  0
SECTION
  2
HEADER
  9
$ACADVER
  1
AC1015
  9
$ACADMAINTVER
 70
     6
  9
$DWGCODEPAGE
  3
ANSI_949
  9
$INSBASE
 10
0.0
 20
0.0
 30
0.0
  9
$EXTMIN
 10
1.000000000000000E+20
 20
1.000000000000000E+20
 30
1.000000000000000E+20
  9
$EXTMAX
 10
-1.000000000000000E+20
 20
-1.000000000000000E+20
 30
-1.000000000000000E+20
  9
$LIMMIN
 10
0.0
 20
0.0
  9
$LIMMAX
 10
420.0
 20
297.0
  9
$ORTHOMODE
 70
     1
  9
$REGENMODE
 70
     1
  9
$FILLMODE
 70
     1
  9
$QTEXTMODE
 70
     0
  9
$MIRRTEXT
 70
     1
  9
$LTSCALE
 40
1.0
  9
$ATTMODE
 70
     1
  9
$TEXTSIZE
 40
3.5
  9
$TRACEWID
 40
1.0
  9
$TEXTSTYLE
  7
Standard
  9
$CLAYER
  8
0
  9
$CELTYPE
  6
ByLayer
  9
$CECOLOR
 62
   256
  9
$CELTSCALE
 40
1.0
  9
$DISPSILH
 70
     0
  9
$DIMSCALE
 40
1.0
  9
$DIMASZ
 40
3.302
  9
$DIMEXO
 40
1.0
  9
$DIMDLI
 40
3.75
  9
$DIMRND
 40
0.0
  9
$DIMDLE
 40
0.0
  9
$DIMEXE
 40
1.0
  9
$DIMTP
 40
0.0
  9
$DIMTM
 40
0.0
  9
$DIMTXT
 40
3.5
  9
$DIMCEN
 40
2.5
  9
$DIMTSZ
 40
0.0
  9
$DIMTOL
 70
     0
  9
$DIMLIM
 70
     0
  9
$DIMTIH
 70
     1
  9
$DIMTOH
 70
     1
  9
$DIMSE1
 70
     0
  9
$DIMSE2
 70
     0
  9
$DIMTAD
 70
     1
  9
$DIMZIN
 70
     0
  9
$DIMBLK
  1

  9
$DIMASO
 70
     1
  9
$DIMSHO
 70
     1
  9
$DIMPOST
  1

  9
$DIMAPOST
  1

  9
$DIMALT
 70
     0
  9
$DIMALTD
 70
     3
  9
$DIMALTF
 40
0.0393700787401575
  9
$DIMLFAC
 40
1.0
  9
$DIMTOFL
 70
     1
  9
$DIMTVP
 40
0.0
  9
$DIMTIX
 70
     0
  9
$DIMSOXD
 70
     0
  9
$DIMSAH
 70
     0
  9
$DIMBLK1
  1

  9
$DIMBLK2
  1

  9
$DIMSTYLE
  2
ISO-25
  9
$DIMCLRD
 70
     0
  9
$DIMCLRE
 70
     0
  9
$DIMCLRT
 70
     0
  9
$DIMTFAC
 40
1.0
  9
$DIMGAP
 40
1.524
  9
$DIMJUST
 70
     0
  9
$DIMSD1
 70
     0
  9
$DIMSD2
 70
     0
  9
$DIMTOLJ
 70
     0
  9
$DIMTZIN
 70
     0
  9
$DIMALTZ
 70
     0
  9
$DIMALTTZ
 70
     0
  9
$DIMUPT
 70
     0
  9
$DIMDEC
 70
     2
  9
$DIMTDEC
 70
     2
  9
$DIMALTU
 70
     2
  9
$DIMALTTD
 70
     3
  9
$DIMTXSTY
  7
Standard
  9
$DIMAUNIT
 70
     0
  9
$DIMADEC
 70
     2
  9
$DIMALTRND
 40
0.0
  9
$DIMAZIN
 70
     0
  9
$DIMDSEP
 70
    44
  9
$DIMATFIT
 70
     3
  9
$DIMFRAC
 70
     0
  9
$DIMLDRBLK
  1

  9
$DIMLUNIT
 70
     2
  9
$DIMLWD
 70
    -2
  9
$DIMLWE
 70
    -2
  9
$DIMTMOVE
 70
     0
  9
$LUNITS
 70
     2
  9
$LUPREC
 70
     2
  9
$SKETCHINC
 40
1.0
  9
$FILLETRAD
 40
10.0
  9
$AUNITS
 70
     0
  9
$AUPREC
 70
     2
  9
$MENU
  1
.
  9
$ELEVATION
 40
0.0
  9
$PELEVATION
 40
0.0
  9
$THICKNESS
 40
0.0
  9
$LIMCHECK
 70
     0
  9
$CHAMFERA
 40
0.0
  9
$CHAMFERB
 40
0.0
  9
$CHAMFERC
 40
0.0
  9
$CHAMFERD
 40
0.0
  9
$SKPOLY
 70
     0
  9
$TDCREATE
 40
2458323.679553819
  9
$TDUCREATE
 40
2458323.304553819
  9
$TDUPDATE
 40
2458324.437109618
  9
$TDUUPDATE
 40
2458324.062109618
  9
$TDINDWG
 40
0.0004863194
  9
$TDUSRTIMER
 40
2458324.061623634
  9
$USRTIMER
 70
     1
  9
$ANGBASE
 50
0.0
  9
$ANGDIR
 70
     0
  9
$PDMODE
 70
     0
  9
$PDSIZE
 40
-1.0
  9
$PLINEWID
 40
0.0
  9
$SPLFRAME
 70
     0
  9
$SPLINETYPE
 70
     6
  9
$SPLINESEGS
 70
     8
  9
$HANDSEED
  5
2D9
  9
$SURFTAB1
 70
     6
  9
$SURFTAB2
 70
     6
  9
$SURFTYPE
 70
     6
  9
$SURFU
 70
     6
  9
$SURFV
 70
     6
  9
$UCSBASE
  2

  9
$UCSNAME
  2

  9
$UCSORG
 10
0.0
 20
0.0
 30
0.0
  9
$UCSXDIR
 10
1.0
 20
0.0
 30
0.0
  9
$UCSYDIR
 10
0.0
 20
1.0
 30
0.0
  9
$UCSORTHOREF
  2

  9
$UCSORTHOVIEW
 70
     0
  9
$UCSORGTOP
 10
0.0
 20
0.0
 30
0.0
  9
$UCSORGBOTTOM
 10
0.0
 20
0.0
 30
0.0
  9
$UCSORGLEFT
 10
0.0
 20
0.0
 30
0.0
  9
$UCSORGRIGHT
 10
0.0
 20
0.0
 30
0.0
  9
$UCSORGFRONT
 10
0.0
 20
0.0
 30
0.0
  9
$UCSORGBACK
 10
0.0
 20
0.0
 30
0.0
  9
$PUCSBASE
  2

  9
$PUCSNAME
  2

  9
$PUCSORG
 10
0.0
 20
0.0
 30
0.0
  9
$PUCSXDIR
 10
1.0
 20
0.0
 30
0.0
  9
$PUCSYDIR
 10
0.0
 20
1.0
 30
0.0
  9
$PUCSORTHOREF
  2

  9
$PUCSORTHOVIEW
 70
     0
  9
$PUCSORGTOP
 10
0.0
 20
0.0
 30
0.0
  9
$PUCSORGBOTTOM
 10
0.0
 20
0.0
 30
0.0
  9
$PUCSORGLEFT
 10
0.0
 20
0.0
 30
0.0
  9
$PUCSORGRIGHT
 10
0.0
 20
0.0
 30
0.0
  9
$PUCSORGFRONT
 10
0.0
 20
0.0
 30
0.0
  9
$PUCSORGBACK
 10
0.0
 20
0.0
 30
0.0
  9
$USERI1
 70
     0
  9
$USERI2
 70
     0
  9
$USERI3
 70
     0
  9
$USERI4
 70
     0
  9
$USERI5
 70
     0
  9
$USERR1
 40
0.0
  9
$USERR2
 40
0.0
  9
$USERR3
 40
0.0
  9
$USERR4
 40
0.0
  9
$USERR5
 40
0.0
  9
$WORLDVIEW
 70
     1
  9
$SHADEDGE
 70
     3
  9
$SHADEDIF
 70
    70
  9
$TILEMODE
 70
     1
  9
$MAXACTVP
 70
    64
  9
$PINSBASE
 10
0.0
 20
0.0
 30
0.0
  9
$PLIMCHECK
 70
     0
  9
$PEXTMIN
 10
1.000000000000000E+20
 20
1.000000000000000E+20
 30
1.000000000000000E+20
  9
$PEXTMAX
 10
-1.000000000000000E+20
 20
-1.000000000000000E+20
 30
-1.000000000000000E+20
  9
$PLIMMIN
 10
0.0
 20
0.0
  9
$PLIMMAX
 10
0.0
 20
0.0
  9
$UNITMODE
 70
     0
  9
$VISRETAIN
 70
     1
  9
$PLINEGEN
 70
     0
  9
$PSLTSCALE
 70
     1
  9
$TREEDEPTH
 70
  3020
  9
$CMLSTYLE
  2
Standard
  9
$CMLJUST
 70
     0
  9
$CMLSCALE
 40
20.0
  9
$PROXYGRAPHICS
 70
     1
  9
$MEASUREMENT
 70
     1
  9
$CELWEIGHT
370
    -1
  9
$ENDCAPS
280
     0
  9
$JOINSTYLE
280
     0
  9
$LWDISPLAY
290
     1
  9
$INSUNITS
 70
     4
  9
$HYPERLINKBASE
  1

  9
$STYLESHEET
  1

  9
$XEDIT
290
     1
  9
$CEPSNTYPE
380
     0
  9
$PSTYLEMODE
290
     1
  9
$FINGERPRINTGUID
  2
{DAEB8C5E-1774-4D0B-AB9F-76EABFA817BE}
  9
$VERSIONGUID
  2
{FAEB1C32-E019-11D5-929B-00C0DF256EC4}
  9
$EXTNAMES
290
     1
  9
$PSVPSCALE
 40
0.0
  9
$OLESTARTUP
290
     0
  0
ENDSEC
  0
SECTION
  2
CLASSES
  0
CLASS
  1
ACDBDICTIONARYWDFLT
  2
AcDbDictionaryWithDefault
  3
ObjectDBX Classes
 90
        0
280
     0
281
     0
  0
CLASS
  1
VISUALSTYLE
  2
AcDbVisualStyle
  3
ObjectDBX Classes
 90
     4095
280
     0
281
     0
  0
CLASS
  1
MATERIAL
  2
AcDbMaterial
  3
ObjectDBX Classes
 90
     1153
280
     0
281
     0
  0
CLASS
  1
SCALE
  2
AcDbScale
  3
ObjectDBX Classes
 90
     1153
280
     0
281
     0
  0
CLASS
  1
SUN
  2
AcDbSun
  3
SCENEOE
 90
     1153
280
     0
281
     0
  0
CLASS
  1
ACDBPLACEHOLDER
  2
AcDbPlaceHolder
  3
ObjectDBX Classes
 90
        0
280
     0
281
     0
  0
CLASS
  1
LAYOUT
  2
AcDbLayout
  3
ObjectDBX Classes
 90
        0
280
     0
281
     0
  0
CLASS
  1
TABLESTYLE
  2
AcDbTableStyle
  3
ObjectDBX Classes
 90
     4095
280
     0
281
     0
  0
CLASS
  1
MLEADERSTYLE
  2
AcDbMLeaderStyle
  3
ACDB_MLEADERSTYLE_CLASS
 90
     4095
280
     0
281
     0
  0
CLASS
  1
RASTERVARIABLES
  2
AcDbRasterVariables
  3
ISM
 90
        0
280
     0
281
     0
  0
ENDSEC
  0
SECTION
  2
TABLES
  0
TABLE
  2
VPORT
  5
8
330
0
100
AcDbSymbolTable
 70
     1
  0
VPORT
  5
29
330
8
100
AcDbSymbolTableRecord
100
AcDbViewportTableRecord
  2
*Active
 70
     0
 10
0.0
 20
0.0
 11
1.0
 21
1.0
 12
0.2259722839577734
 22
-1.379966359838626
 13
0.0
 23
0.0
 14
10.0
 24
10.0
 15
10.0
 25
10.0
 16
0.0
 26
0.0
 36
1.0
 17
0.0
 27
0.0
 37
0.0
 40
182.2193718582649
 41
1.632093933463796
 42
50.0
 43
0.0
 44
0.0
 50
0.0
 51
0.0
 71
    16
 72
  2000
 73
     1
 74
     3
 75
     0
 76
     0
 77
     0
 78
     0
281
     0
 65
     1
110
0.0
120
0.0
130
0.0
111
1.0
121
0.0
131
0.0
112
0.0
122
1.0
132
0.0
 79
     0
146
0.0
  0
ENDTAB
  0
TABLE
  2
LTYPE
  5
5
330
0
100
AcDbSymbolTable
 70
     6
  0
LTYPE
  5
14
330
5
100
AcDbSymbolTableRecord
100
AcDbLinetypeTableRecord
  2
ByBlock
 70
     0
  3

 72
    65
 73
     0
 40
0.0
  0
LTYPE
  5
15
330
5
100
AcDbSymbolTableRecord
100
AcDbLinetypeTableRecord
  2
ByLayer
 70
     0
  3

 72
    65
 73
     0
 40
0.0
  0
LTYPE
  5
16
330
5
100
AcDbSymbolTableRecord
100
AcDbLinetypeTableRecord
  2
Continuous
 70
     0
  3
Solid line
 72
    65
 73
     0
 40
0.0
  0
LTYPE
  5
6A
330
5
100
AcDbSymbolTableRecord
100
AcDbLinetypeTableRecord
  2
HIDDEN
 70
     0
  3
Hidden __ __ __ __ __ __ __ __ __ __ __ __ __ __
 72
    65
 73
     2
 40
1.905
 49
1.27
 74
     0
 49
-0.635
 74
     0
  0
LTYPE
  5
6B
330
5
100
AcDbSymbolTableRecord
100
AcDbLinetypeTableRecord
  2
PHANTOM
 70
     0
  3
Phantom ______  __  __  ______  __  __  ______
 72
    65
 73
     6
 40
12.7
 49
6.35
 74
     0
 49
-1.27
 74
     0
 49
1.27
 74
     0
 49
-1.27
 74
     0
 49
1.27
 74
     0
 49
-1.27
 74
     0
  0
LTYPE
  5
6C
330
5
100
AcDbSymbolTableRecord
100
AcDbLinetypeTableRecord
  2
CENTER
 70
     0
  3
Center ____ _ ____ _ ____ _ ____ _ ____ _ ____
 72
    65
 73
     4
 40
10.16
 49
6.35
 74
     0
 49
-1.27
 74
     0
 49
1.27
 74
     0
 49
-1.27
 74
     0
  0
LTYPE
  5
6D
330
5
100
AcDbSymbolTableRecord
100
AcDbLinetypeTableRecord
  2
CENTERX2
 70
     0
  3
Center (2x) ________  __  ________  __  _____
 72
    65
 73
     4
 40
20.32
 49
12.7
 74
     0
 49
-2.54
 74
     0
 49
2.54
 74
     0
 49
-2.54
 74
     0
  0
LTYPE
  5
6E
330
5
100
AcDbSymbolTableRecord
100
AcDbLinetypeTableRecord
  2
DOT2
 70
     0
  3
Dot (.5x) ........................................
 72
    65
 73
     2
 40
0.635
 49
0.0
 74
     0
 49
-0.635
 74
     0
  0
ENDTAB
  0
TABLE
  2
LAYER
  5
2
102
{ACAD_XDICTIONARY
360
174
102
}
330
0
100
AcDbSymbolTable
 70
    18
  0
LAYER
  5
10
330
2
100
AcDbSymbolTableRecord
100
AcDbLayerTableRecord
  2
0
 70
     0
 62
     7
  6
Continuous
370
    -3
390
F
  0
LAYER
  5
6F
330
2
100
AcDbSymbolTableRecord
100
AcDbLayerTableRecord
  2
FORMAT
 70
     0
 62
     2
  6
Continuous
370
    -3
390
F
  0
LAYER
  5
70
330
2
100
AcDbSymbolTableRecord
100
AcDbLayerTableRecord
  2
외형선
 70
     0
 62
     4
  6
Continuous
370
    30
390
F
  0
LAYER
  5
71
330
2
100
AcDbSymbolTableRecord
100
AcDbLayerTableRecord
  2
숨은선
 70
     0
 62
     2
  6
HIDDEN
370
    15
390
F
  0
LAYER
  5
72
330
2
100
AcDbSymbolTableRecord
100
AcDbLayerTableRecord
  2
중심선
 70
     0
 62
     1
  6
CENTERX2
370
    -3
390
F
  0
LAYER
  5
73
330
2
100
AcDbSymbolTableRecord
100
AcDbLayerTableRecord
  2
파단선
 70
     0
 62
     4
  6
Continuous
370
    -3
390
F
  0
LAYER
  5
74
330
2
100
AcDbSymbolTableRecord
100
AcDbLayerTableRecord
  2
해칭선
 70
     0
 62
   100
  6
Continuous
370
    -3
390
F
  0
LAYER
  5
75
330
2
100
AcDbSymbolTableRecord
100
AcDbLayerTableRecord
  2
가는실선
 70
     0
 62
     4
  6
Continuous
370
    -3
390
F
  0
LAYER
  5
76
330
2
100
AcDbSymbolTableRecord
100
AcDbLayerTableRecord
  2
치수_보조선
 70
     0
 62
     4
  6
Continuous
370
    -3
390
F
  0
LAYER
  5
77
330
2
100
AcDbSymbolTableRecord
100
AcDbLayerTableRecord
  2
치수문자_일반주서
 70
     0
 62
     7
  6
Continuous
370
    15
390
F
  0
LAYER
  5
78
330
2
100
AcDbSymbolTableRecord
100
AcDbLayerTableRecord
  2
개별주서
 70
     0
 62
   100
  6
Continuous
370
    30
390
F
  0
LAYER
  5
79
330
2
100
AcDbSymbolTableRecord
100
AcDbLayerTableRecord
  2
중간선
 70
     0
 62
     2
  6
Continuous
370
    15
390
F
  0
LAYER
  5
7A
330
2
100
AcDbSymbolTableRecord
100
AcDbLayerTableRecord
  2
윤곽선
 70
     0
 62
     3
  6
Continuous
370
    40
390
F
  0
LAYER
  5
7B
330
2
100
AcDbSymbolTableRecord
100
AcDbLayerTableRecord
  2
중심마크
 70
     0
 62
   100
  6
Continuous
370
    30
390
F
  0
LAYER
  5
7C
330
2
100
AcDbSymbolTableRecord
100
AcDbLayerTableRecord
  2
가상선
 70
     0
 62
     4
  6
PHANTOM
370
    -3
390
F
  0
LAYER
  5
7D
330
2
100
AcDbSymbolTableRecord
100
AcDbLayerTableRecord
  2
특수지정선
 70
     0
 62
     5
  6
CENTERX2
370
    60
390
F
  0
LAYER
  5
7E
330
2
100
AcDbSymbolTableRecord
100
AcDbLayerTableRecord
  2
참조1
 70
     0
 62
    -4
  6
Continuous
370
    -3
390
F
  0
LAYER
  5
179
330
2
100
AcDbSymbolTableRecord
100
AcDbLayerTableRecord
  2
Defpoints
 70
     0
 62
     7
  6
Continuous
290
     0
370
    -3
390
F
  0
ENDTAB
  0
TABLE
  2
STYLE
  5
3
330
0
100
AcDbSymbolTable
 70
     2
  0
STYLE
  5
11
330
3
100
AcDbSymbolTableRecord
100
AcDbTextStyleTableRecord
  2
Standard
 70
     0
 40
0.0
 41
1.0
 50
0.0
 71
     0
 42
3.5
  3
txt
  4

  0
STYLE
  5
94
330
3
100
AcDbSymbolTableRecord
100
AcDbTextStyleTableRecord
  2
SLDTEXTSTYLE0
 70
     0
 40
0.0
 41
0.75
 50
0.0
 71
     0
 42
3.5
  3
TXT
  4

  0
ENDTAB
  0
TABLE
  2
VIEW
  5
6
330
0
100
AcDbSymbolTable
 70
     0
  0
ENDTAB
  0
TABLE
  2
UCS
  5
7
330
0
100
AcDbSymbolTable
 70
     0
  0
ENDTAB
  0
TABLE
  2
APPID
  5
9
330
0
100
AcDbSymbolTable
 70
     1
  0
APPID
  5
12
330
9
100
AcDbSymbolTableRecord
100
AcDbRegAppTableRecord
  2
ACAD
 70
     0
  0
ENDTAB
  0
TABLE
  2
DIMSTYLE
  5
A
330
0
100
AcDbSymbolTable
 70
     4
100
AcDbDimStyleTable
  0
DIMSTYLE
105
27
330
A
100
AcDbSymbolTableRecord
100
AcDbDimStyleTableRecord
  2
ISO-25
 70
     0
 41
2.5
 42
0.625
 43
3.75
 44
1.25
 73
     0
 74
     0
 77
     1
 78
     8
140
2.5
141
2.5
143
0.03937007874016
147
0.625
171
     3
172
     1
178
     0
271
     2
272
     2
274
     3
278
    44
283
     0
284
     8
340
11
  0
DIMSTYLE
105
C5
330
A
100
AcDbSymbolTableRecord
100
AcDbDimStyleTableRecord
  2
SLDDIMSTYLE0
 70
     0
 41
3.302
 44
0.0
 45
0.000000001
 73
     0
 74
     0
 77
     1
 78
     4
 79
     1
140
3.5
143
0.0393700787401575
147
0.875
148
0.000000001
170
     1
173
     1
178
     0
271
     2
272
     2
276
     2
284
    12
340
94
  0
DIMSTYLE
105
DA
102
{ACAD_REACTORS
330
D9
330
1C6
330
1D3
330
1E0
330
1ED
330
C4
330
102
330
ED
102
}
330
A
100
AcDbSymbolTableRecord
100
AcDbDimStyleTableRecord
  2
SLDDIMSTYLE1
 70
     0
 41
3.302
 44
0.0
 45
0.000000001
 73
     0
 74
     0
 77
     1
 78
    12
 79
     3
140
3.5
143
0.0393700787401575
147
0.875
148
0.000000001
170
     1
173
     1
178
     0
271
     2
272
     2
276
     2
284
    12
340
94
  0
DIMSTYLE
105
EE
330
A
100
AcDbSymbolTableRecord
100
AcDbDimStyleTableRecord
  2
SLDDIMSTYLE2
 70
     0
 41
3.302
 44
0.0
 45
0.000000001
 73
     0
 74
     0
 77
     1
 78
    12
 79
     3
140
3.5
143
0.0393700787401575
147
0.875
148
0.000000001
170
     1
172
     1
173
     1
178
     0
271
     2
272
     2
276
     2
284
    12
289
     0
340
94
  0
ENDTAB
  0
TABLE
  2
BLOCK_RECORD
  5
1
330
0
100
AcDbSymbolTable
 70
    18
  0
BLOCK_RECORD
  5
1F
330
1
100
AcDbSymbolTableRecord
100
AcDbBlockTableRecord
  2
*Model_Space
340
22
  0
BLOCK_RECORD
  5
1B
330
1
100
AcDbSymbolTableRecord
100
AcDbBlockTableRecord
  2
*Paper_Space
340
1E
  0
BLOCK_RECORD
  5
23
330
1
100
AcDbSymbolTableRecord
100
AcDbBlockTableRecord
  2
*Paper_Space0
340
26
  0
BLOCK_RECORD
  5
7F
330
1
100
AcDbSymbolTableRecord
100
AcDbBlockTableRecord
  2
블럭10
340
0
102
{BLKREFS
331
BD
102
}
  0
BLOCK_RECORD
  5
C6
330
1
100
AcDbSymbolTableRecord
100
AcDbBlockTableRecord
  2
_D
340
0
  0
BLOCK_RECORD
  5
DB
330
1
100
AcDbSymbolTableRecord
100
AcDbBlockTableRecord
  2
_D_1
340
0
  0
BLOCK_RECORD
  5
EF
330
1
100
AcDbSymbolTableRecord
100
AcDbBlockTableRecord
  2
_D_2
340
0
  0
BLOCK_RECORD
  5
103
330
1
100
AcDbSymbolTableRecord
100
AcDbBlockTableRecord
  2
_D_3
340
0
  0
BLOCK_RECORD
  5
11C
330
1
100
AcDbSymbolTableRecord
100
AcDbBlockTableRecord
  2
SW_DOWELSYMBOL_0
340
0
102
{BLKREFS
331
122
331
1FB
331
0
102
}
  0
BLOCK_RECORD
  5
20A
330
1
100
AcDbSymbolTableRecord
100
AcDbBlockTableRecord
  2
*D9
340
0
  0
BLOCK_RECORD
  5
216
330
1
100
AcDbSymbolTableRecord
100
AcDbBlockTableRecord
  2
*D10
340
0
  0
BLOCK_RECORD
  5
222
330
1
100
AcDbSymbolTableRecord
100
AcDbBlockTableRecord
  2
*D11
340
0
  0
BLOCK_RECORD
  5
22E
330
1
100
AcDbSymbolTableRecord
100
AcDbBlockTableRecord
  2
*D12
340
0
  0
BLOCK_RECORD
  5
26B
330
1
100
AcDbSymbolTableRecord
100
AcDbBlockTableRecord
  2
*D13
340
0
  0
BLOCK_RECORD
  5
277
330
1
100
AcDbSymbolTableRecord
100
AcDbBlockTableRecord
  2
*D14
340
0
  0
BLOCK_RECORD
  5
283
330
1
100
AcDbSymbolTableRecord
100
AcDbBlockTableRecord
  2
*D15
340
0
  0
BLOCK_RECORD
  5
28F
330
1
100
AcDbSymbolTableRecord
100
AcDbBlockTableRecord
  2
*D16
340
0
  0
ENDTAB
  0
ENDSEC
  0
SECTION
  2
BLOCKS
  0
BLOCK
  5
20
330
1F
100
AcDbEntity
  8
0
100
AcDbBlockBegin
  2
*Model_Space
 70
     0
 10
0.0
 20
0.0
 30
0.0
  3
*Model_Space
  1
*Model_Space
  0
ENDBLK
  5
21
330
1F
100
AcDbEntity
  8
0
100
AcDbBlockEnd
  0
BLOCK
  5
1C
330
1B
100
AcDbEntity
 67
     1
  8
0
100
AcDbBlockBegin
  2
*Paper_Space
 70
     0
 10
0.0
 20
0.0
 30
0.0
  3
*Paper_Space
  1
*Paper_Space
  0
ENDBLK
  5
1D
330
1B
100
AcDbEntity
 67
     1
  8
0
100
AcDbBlockEnd
  0
BLOCK
  5
24
330
23
100
AcDbEntity
  8
0
100
AcDbBlockBegin
  2
*Paper_Space0
 70
     0
 10
0.0
 20
0.0
 30
0.0
  3
*Paper_Space0
  1
*Paper_Space0
  0
ENDBLK
  5
25
330
23
100
AcDbEntity
  8
0
100
AcDbBlockEnd
  0
BLOCK
  5
80
330
7F
100
AcDbEntity
  8
0
100
AcDbBlockBegin
  2
블럭10
 70
     2
 10
0.0
 20
0.0
 30
0.0
  3
블럭10
  1
블럭10
  0
ELLIPSE
  5
82
330
7F
100
AcDbEntity
  8
중심선
100
AcDbEllipse
 10
20.54032771741204
 20
12.0471743016438
 30
0.0
 11
6.600054785286829
 21
-1.261213355974178E-13
 31
0.0
210
0.0
220
0.0
230
1.0
 40
0.636358354079598
 41
0.9219305317359503
 42
6.513795318482858
  0
ELLIPSE
  5
83
330
7F
100
AcDbEntity
  8
중심선
100
AcDbEllipse
 10
20.54032771746488
 20
12.04717430159265
 30
0.0
 11
3.960054785062283
 21
1.540847449632565E-10
 31
0.0
210
0.0
220
0.0
230
1.0
 40
0.3939339440162632
 41
1.131841032648279
 42
5.62031148352944
  0
LINE
  5
84
330
7F
100
AcDbEntity
  8
중심선
100
AcDbLine
 10
2.268634060543552
 20
16.24717430164393
 30
0.0
 11
5.714909304380834
 21
16.24717430164393
 31
0.0
  0
LINE
  5
85
330
7F
100
AcDbEntity
  8
중심선
100
AcDbLine
 10
5.245725140726316
 20
7.84717430164391
 30
0.0
 11
8.692000384563599
 21
7.84717430164391
 31
0.0
  0
LINE
  5
86
330
7F
100
AcDbEntity
  8
중심선
100
AcDbLine
 10
15.74043728645272
 20
16.24717430164393
 30
0.0
 11
8.692000384563599
 21
7.84717430164391
 31
0.0
  0
LINE
  5
87
330
7F
100
AcDbEntity
  8
중심선
100
AcDbLine
 10
0.1404042013395286
 20
13.71084872107135
 30
0.0
 11
3.58671253028996
 21
13.71088815037384
 31
0.0
  0
LINE
  5
88
330
7F
100
AcDbEntity
  8
중심선
100
AcDbLine
 10
2.750260043222114
 20
10.84717430164391
 30
0.0
 11
6.196535287059397
 21
10.84717430164391
 31
0.0
  0
LINE
  5
89
330
7F
100
AcDbEntity
  8
중심선
100
AcDbLine
 10
12.29416204261559
 20
16.24717430164393
 30
0.0
 11
5.245725140726316
 21
7.84717430164391
 31
0.0
  0
LINE
  5
8A
330
7F
100
AcDbEntity
  8
중심선
100
AcDbLine
 10
10.72767329541681
 20
16.24717430164393
 30
0.0
 11
6.196535287059397
 21
10.84717430164391
 31
0.0
  0
LINE
  5
8B
330
7F
100
AcDbEntity
  8
중심선
100
AcDbLine
 10
7.28139805157953
 20
16.24717430164393
 30
0.0
 11
2.750260043222114
 21
10.84717430164391
 31
0.0
  0
LINE
  5
8C
330
7F
100
AcDbEntity
  8
중심선
100
AcDbLine
 10
5.714909304380834
 20
16.24717430164393
 30
0.0
 11
3.58671253028996
 21
13.71088815037384
 31
0.0
  0
LINE
  5
8D
330
7F
100
AcDbEntity
  8
중심선
100
AcDbLine
 10
2.268634060543552
 20
16.24717430164393
 30
0.0
 11
0.1404042013395286
 21
13.71084872107135
 31
0.0
  0
LINE
  5
8E
330
7F
100
AcDbEntity
  8
중심선
100
AcDbLine
 10
7.28139805157953
 20
16.24717430164393
 30
0.0
 11
10.72767329541681
 21
16.24717430164393
 31
0.0
  0
LINE
  5
8F
330
7F
100
AcDbEntity
  8
중심선
100
AcDbLine
 10
12.29416204261559
 20
16.24717430164393
 30
0.0
 11
15.74043728645272
 21
16.24717430164393
 31
0.0
  0
LINE
  5
90
330
7F
100
AcDbEntity
  8
중심선
100
AcDbLine
 10
19.22036997980202
 20
11.08717430171403
 30
0.0
 11
23.66174974927406
 21
11.08717430171406
 31
0.0
  0
LINE
  5
91
330
7F
100
AcDbEntity
  8
중심선
100
AcDbLine
 10
19.22039502424796
 20
13.00717430171391
 30
0.0
 11
19.22036997980202
 21
11.08717430171403
 31
0.0
  0
LINE
  5
92
330
7F
100
AcDbEntity
  8
중심선
100
AcDbLine
 10
19.22039502424796
 20
13.00717430171391
 30
0.0
 11
26.96566020931264
 21
13.00717430171391
 31
0.0
  0
LINE
  5
93
330
7F
100
AcDbEntity
  8
중심선
100
AcDbLine
 10
22.22332737316547
 20
13.45928029700563
 30
0.0
 11
24.52862924686651
 21
15.39360700705356
 31
0.0
  0
ATTDEF
  5
95
330
7F
100
AcDbEntity
  8
FORMAT
 62
     2
100
AcDbText
 10
4.408487351596664
 20
2.075366912832191
 30
0.0
 40
4.233333333333333
  1
E2021048
 41
0.75
  7
SLDTEXTSTYLE0
 11
4.408487351596664
 21
-0.0412997538344756
 31
0.0
100
AcDbAttributeDefinition
  3

  2
AUTOATTR0
 70
     0
 74
     1
  0
ENDBLK
  5
81
330
7F
100
AcDbEntity
  8
0
100
AcDbBlockEnd
  0
BLOCK
  5
C7
330
C6
100
AcDbEntity
  8
0
100
AcDbBlockBegin
  2
_D
 70
     0
 10
0.0
 20
0.0
 30
0.0
  3
_D
  1
_D
  0
LINE
  5
C9
330
C6
100
AcDbEntity
  8
치수문자_일반주서
 62
     0
370
    -2
100
AcDbLine
 10
88.19999999999996
 20
9.587500000000013
 30
0.0
 11
88.19999999999996
 21
16.38210276764059
 31
0.0
  0
LINE
  5
CA
330
C6
100
AcDbEntity
  8
치수문자_일반주서
 62
     0
370
    -2
100
AcDbLine
 10
11.99999999999997
 20
9.55247268430729
 30
0.0
 11
11.99999999999997
 21
16.38210276764059
 31
0.0
  0
LINE
  5
CB
330
C6
100
AcDbEntity
  8
치수문자_일반주서
 62
     0
370
    -2
100
AcDbLine
 10
84.89799999999997
 20
16.38210276764059
 30
0.0
 11
15.30199999999997
 21
16.38210276764059
 31
0.0
  0
SOLID
  5
CC
330
C6
100
AcDbEntity
  8
치수문자_일반주서
 62
     0
100
AcDbTrace
 10
84.89799999999997
 20
15.83176943430726
 30
0.0
 11
84.89799999999997
 21
16.93243610097392
 31
0.0
 12
88.19999999999996
 22
16.38210276764059
 32
0.0
 13
88.19999999999996
 23
16.38210276764059
 33
0.0
  0
SOLID
  5
CD
330
C6
100
AcDbEntity
  8
치수문자_일반주서
 62
     0
100
AcDbTrace
 10
15.30199999999997
 20
16.93243610097392
 30
0.0
 11
15.30199999999997
 21
15.83176943430726
 31
0.0
 12
11.99999999999997
 22
16.38210276764059
 32
0.0
 13
11.99999999999997
 23
16.38210276764059
 33
0.0
  0
MTEXT
  5
CE
330
C6
100
AcDbEntity
  8
치수문자_일반주서
 62
     0
100
AcDbMText
 10
51.40508784737567
 20
20.75710276764059
 30
0.0
 40
3.5
 41
0.0
 71
     2
 72
     1
  1
\A1;76.2 [3]
  7
SLDTEXTSTYLE0
 73
     1
 44
1.0
  0
POINT
  5
CF
330
C6
100
AcDbEntity
  8
Defpoints
 62
     0
100
AcDbPoint
 10
88.19999999999996
 20
9.525000000000013
 30
0.0
  0
POINT
  5
D0
330
C6
100
AcDbEntity
  8
Defpoints
 62
     0
100
AcDbPoint
 10
11.99999999999997
 20
9.48997268430729
 30
0.0
  0
POINT
  5
D1
330
C6
100
AcDbEntity
  8
Defpoints
 62
     0
100
AcDbPoint
 10
11.99999999999997
 20
16.38210276764059
 30
0.0
  0
ENDBLK
  5
C8
330
C6
100
AcDbEntity
  8
0
100
AcDbBlockEnd
  0
BLOCK
  5
DC
330
DB
100
AcDbEntity
  8
0
100
AcDbBlockBegin
  2
_D_1
 70
     0
 10
0.0
 20
0.0
 30
0.0
  3
_D_1
  1
_D_1
  0
LINE
  5
DE
330
DB
100
AcDbEntity
  8
치수문자_일반주서
 62
     0
370
    -2
100
AcDbLine
 10
88.19999999999996
 20
9.587500000000013
 30
0.0
 11
88.19999999999996
 21
31.60914679328081
 31
0.0
  0
LINE
  5
DF
330
DB
100
AcDbEntity
  8
치수문자_일반주서
 62
     0
370
    -2
100
AcDbLine
 10
-45.15000000000001
 20
7.682500000000015
 30
0.0
 11
-45.15000000000001
 21
31.60914679328081
 31
0.0
  0
LINE
  5
E0
330
DB
100
AcDbEntity
  8
치수문자_일반주서
 62
     0
370
    -2
100
AcDbLine
 10
84.89799999999997
 20
31.60914679328081
 30
0.0
 11
-41.84800000000001
 21
31.60914679328081
 31
0.0
  0
SOLID
  5
E1
330
DB
100
AcDbEntity
  8
치수문자_일반주서
 62
     0
100
AcDbTrace
 10
84.89799999999997
 20
31.05881345994747
 30
0.0
 11
84.89799999999997
 21
32.15948012661414
 31
0.0
 12
88.19999999999996
 22
31.60914679328081
 32
0.0
 13
88.19999999999996
 23
31.60914679328081
 33
0.0
  0
SOLID
  5
E2
330
DB
100
AcDbEntity
  8
치수문자_일반주서
 62
     0
100
AcDbTrace
 10
-41.84800000000001
 20
32.15948012661414
 30
0.0
 11
-41.84800000000001
 21
31.05881345994747
 31
0.0
 12
-45.15000000000001
 22
31.60914679328081
 32
0.0
 13
-45.15000000000001
 23
31.60914679328081
 33
0.0
  0
MTEXT
  5
E3
330
DB
100
AcDbEntity
  8
치수문자_일반주서
 62
     0
100
AcDbMText
 10
21.52500000000001
 20
35.98414679328081
 30
0.0
 40
3.5
 41
0.0
 71
     2
 72
     1
  1
\A1;133.35 [5 1/4]
  7
SLDTEXTSTYLE0
 73
     1
 44
1.0
  0
POINT
  5
E4
330
DB
100
AcDbEntity
  8
Defpoints
 62
     0
100
AcDbPoint
 10
88.19999999999996
 20
9.525000000000013
 30
0.0
  0
POINT
  5
E5
330
DB
100
AcDbEntity
  8
Defpoints
 62
     0
100
AcDbPoint
 10
-45.15000000000001
 20
7.620000000000015
 30
0.0
  0
POINT
  5
E6
330
DB
100
AcDbEntity
  8
Defpoints
 62
     0
100
AcDbPoint
 10
-45.15000000000001
 20
31.60914679328081
 30
0.0
  0
ENDBLK
  5
DD
330
DB
100
AcDbEntity
  8
0
100
AcDbBlockEnd
  0
BLOCK
  5
F0
330
EF
100
AcDbEntity
  8
0
100
AcDbBlockBegin
  2
_D_2
 70
     0
 10
0.0
 20
0.0
 30
0.0
  3
_D_2
  1
_D_2
  0
LINE
  5
F2
330
EF
100
AcDbEntity
  8
치수문자_일반주서
 62
     0
370
    -2
100
AcDbLine
 10
-43.3075
 20
9.525000000000006
 30
0.0
 11
-57.19750000000003
 21
9.52499999999995
 31
0.0
  0
LINE
  5
F3
330
EF
100
AcDbEntity
  8
치수문자_일반주서
 62
     0
370
    -2
100
AcDbLine
 10
-43.3075
 20
-9.525000000000006
 30
0.0
 11
-57.19749999999997
 21
-9.52500000000006
 31
0.0
  0
LINE
  5
F4
330
EF
100
AcDbEntity
  8
치수문자_일반주서
 62
     0
370
    -2
100
AcDbLine
 10
-57.19750000000002
 20
6.222999999999951
 30
0.0
 11
-57.19749999999998
 21
-6.223000000000061
 31
0.0
  0
SOLID
  5
F5
330
EF
100
AcDbEntity
  8
치수문자_일반주서
 62
     0
100
AcDbTrace
 10
-56.64716666666668
 20
6.222999999999953
 30
0.0
 11
-57.74783333333335
 21
6.222999999999949
 31
0.0
 12
-57.19750000000003
 22
9.52499999999995
 32
0.0
 13
-57.19750000000003
 23
9.52499999999995
 33
0.0
  0
SOLID
  5
F6
330
EF
100
AcDbEntity
  8
치수문자_일반주서
 62
     0
100
AcDbTrace
 10
-57.74783333333332
 20
-6.223000000000063
 30
0.0
 11
-56.64716666666665
 21
-6.223000000000059
 31
0.0
 12
-57.19749999999997
 22
-9.52500000000006
 32
0.0
 13
-57.19749999999997
 23
-9.52500000000006
 33
0.0
  0
MTEXT
  5
F7
330
EF
100
AcDbEntity
  8
치수문자_일반주서
 62
     0
100
AcDbMText
 10
-61.57250000000001
 20
-0.0000000000000121
 30
0.0
 40
3.5
 41
0.0
 71
     2
 72
     1
  1
\A1;%%c19.05 [3/4]
  7
SLDTEXTSTYLE0
 11
-3.356894814614645E-15
 21
1.0
 31
0.0
 73
     1
 44
1.0
  0
POINT
  5
F8
330
EF
100
AcDbEntity
  8
Defpoints
 62
     0
100
AcDbPoint
 10
-43.245
 20
9.525000000000006
 30
0.0
  0
POINT
  5
F9
330
EF
100
AcDbEntity
  8
Defpoints
 62
     0
100
AcDbPoint
 10
-43.245
 20
-9.525000000000006
 30
0.0
  0
POINT
  5
FA
330
EF
100
AcDbEntity
  8
Defpoints
 62
     0
100
AcDbPoint
 10
-57.19749999999998
 20
-9.525000000000057
 30
0.0
  0
ENDBLK
  5
F1
330
EF
100
AcDbEntity
  8
0
100
AcDbBlockEnd
  0
BLOCK
  5
104
330
103
100
AcDbEntity
  8
0
100
AcDbBlockBegin
  2
_D_3
 70
     0
 10
0.0
 20
0.0
 30
0.0
  3
_D_3
  1
_D_3
  0
LINE
  5
106
330
103
100
AcDbEntity
  8
치수문자_일반주서
 62
     0
370
    -2
100
AcDbLine
 10
88.26249999999996
 20
9.525000000000013
 30
0.0
 11
107.0479660954455
 21
9.525000000000084
 31
0.0
  0
LINE
  5
107
330
103
100
AcDbEntity
  8
치수문자_일반주서
 62
     0
370
    -2
100
AcDbLine
 10
88.26249999999996
 20
-9.524999999999988
 30
0.0
 11
107.0479660954456
 21
-9.52499999999992
 31
0.0
  0
LINE
  5
108
330
103
100
AcDbEntity
  8
치수문자_일반주서
 62
     0
370
    -2
100
AcDbLine
 10
107.0479660954455
 20
9.525000000000084
 30
0.0
 11
107.0479660954454
 21
45.35424365054094
 31
0.0
  0
LINE
  5
109
330
103
100
AcDbEntity
  8
치수문자_일반주서
 62
     0
370
    -2
100
AcDbLine
 10
107.0479660954456
 20
6.223000000000084
 30
0.0
 11
107.0479660954456
 21
-6.222999999999921
 31
0.0
  0
SOLID
  5
10A
330
103
100
AcDbEntity
  8
치수문자_일반주서
 62
     0
100
AcDbTrace
 10
107.5982994287789
 20
6.223000000000086
 30
0.0
 11
106.4976327621122
 21
6.223000000000082
 31
0.0
 12
107.0479660954455
 22
9.525000000000084
 32
0.0
 13
107.0479660954455
 23
9.525000000000084
 33
0.0
  0
SOLID
  5
10B
330
103
100
AcDbEntity
  8
치수문자_일반주서
 62
     0
100
AcDbTrace
 10
106.4976327621123
 20
-6.222999999999923
 30
0.0
 11
107.5982994287789
 21
-6.222999999999919
 31
0.0
 12
107.0479660954456
 22
-9.52499999999992
 32
0.0
 13
107.0479660954456
 23
-9.52499999999992
 33
0.0
  0
MTEXT
  5
10C
330
103
100
AcDbEntity
  8
치수문자_일반주서
 62
     0
100
AcDbMText
 10
102.6729660954455
 20
31.57299365054092
 30
0.0
 40
3.5
 41
0.0
 71
     2
 72
     1
  1
\A1;%%c19.05 [3/4]
  7
SLDTEXTSTYLE0
 11
-3.729883127349607E-15
 21
1.0
 31
0.0
 73
     1
 44
1.0
  0
POINT
  5
10D
330
103
100
AcDbEntity
  8
Defpoints
 62
     0
100
AcDbPoint
 10
88.19999999999996
 20
9.525000000000013
 30
0.0
  0
POINT
  5
10E
330
103
100
AcDbEntity
  8
Defpoints
 62
     0
100
AcDbPoint
 10
88.19999999999996
 20
-9.524999999999988
 30
0.0
  0
POINT
  5
10F
330
103
100
AcDbEntity
  8
Defpoints
 62
     0
100
AcDbPoint
 10
107.0479660954456
 20
-9.524999999999917
 30
0.0
  0
ENDBLK
  5
105
330
103
100
AcDbEntity
  8
0
100
AcDbBlockEnd
  0
BLOCK
  5
11D
330
11C
100
AcDbEntity
  8
0
100
AcDbBlockBegin
  2
SW_DOWELSYMBOL_0
 70
     0
 10
0.0
 20
0.0
 30
0.0
  3
SW_DOWELSYMBOL_0
  1
SW_DOWELSYMBOL_0
  0
CIRCLE
  5
11F
330
11C
100
AcDbEntity
  8
해칭선
 62
     0
100
AcDbCircle
 10
0.0
 20
0.0
 30
0.0
 40
3.000000000000001
  0
HATCH
  5
120
330
11C
100
AcDbEntity
  8
0
  6
Continuous
 62
     0
370
     0
100
AcDbHatch
 10
0.0
 20
0.0
 30
0.0
210
0.0
220
0.0
230
1.0
  2
SOLID
 70
     1
 71
     0
 91
        1
 92
        0
 93
        3
 72
     2
 10
0.0
 20
0.0
 40
3.000000000000001
 50
0.0
 51
90.0
 73
     1
 72
     1
 10
0.0
 20
3.000000000000001
 11
0.0
 21
0.0
 72
     1
 10
0.0
 20
0.0
 11
3.000000000000001
 21
0.0
 97
        0
 75
     0
 76
     1
 98
        1
 10
0.0
 20
0.0
  0
HATCH
  5
121
330
11C
100
AcDbEntity
  8
0
  6
Continuous
 62
     0
370
     0
100
AcDbHatch
 10
0.0
 20
0.0
 30
0.0
210
0.0
220
0.0
230
1.0
  2
SOLID
 70
     1
 71
     0
 91
        1
 92
        0
 93
        3
 72
     2
 10
0.0
 20
0.0
 40
3.000000000000001
 50
180.0
 51
270.0000000000008
 73
     1
 72
     1
 10
0.0
 20
-3.000000000000001
 11
0.0
 21
0.0
 72
     1
 10
0.0
 20
0.0
 11
-3.000000000000001
 21
0.0
 97
        0
 75
     0
 76
     1
 98
        1
 10
0.0
 20
0.0
  0
ENDBLK
  5
11E
330
11C
100
AcDbEntity
  8
0
100
AcDbBlockEnd
  0
BLOCK
  5
20B
330
20A
100
AcDbEntity
  8
0
100
AcDbBlockBegin
  2
*D9
 70
     1
 10
0.0
 20
0.0
 30
0.0
  3
*D9
  1
*D9
  0
LINE
  5
20D
330
20A
100
AcDbEntity
  8
치수문자_일반주서
 62
     0
370
    -2
100
AcDbLine
 10
162.1576425899814
 20
24.73750000000003
 30
0.0
 11
162.1576425899814
 21
36.34466828731264
 31
0.0
  0
LINE
  5
20E
330
20A
100
AcDbEntity
  8
치수문자_일반주서
 62
     0
370
    -2
100
AcDbLine
 10
73.25500000000007
 20
24.69663479835853
 30
0.0
 11
73.25500000000007
 21
36.34466828731264
 31
0.0
  0
LINE
  5
20F
330
20A
100
AcDbEntity
  8
치수문자_일반주서
 62
     0
370
    -2
100
AcDbLine
 10
158.8556425899814
 20
36.34466828731264
 30
0.0
 11
76.55700000000007
 21
36.34466828731264
 31
0.0
  0
SOLID
  5
210
330
20A
100
AcDbEntity
  8
치수문자_일반주서
 62
     0
100
AcDbTrace
 10
158.8556425899814
 20
35.7943349539793
 30
0.0
 11
158.8556425899814
 21
36.89500162064597
 31
0.0
 12
162.1576425899814
 22
36.34466828731264
 32
0.0
 13
162.1576425899814
 23
36.34466828731264
 33
0.0
  0
SOLID
  5
211
330
20A
100
AcDbEntity
  8
치수문자_일반주서
 62
     0
100
AcDbTrace
 10
76.55700000000007
 20
36.89500162064597
 30
0.0
 11
76.55700000000007
 21
35.7943349539793
 31
0.0
 12
73.25500000000007
 22
36.34466828731264
 32
0.0
 13
73.25500000000007
 23
36.34466828731264
 33
0.0
  0
MTEXT
  5
212
330
20A
100
AcDbEntity
  8
치수문자_일반주서
 62
     0
100
AcDbMText
 10
116.4347199421176
 20
40.71966828731264
 30
0.0
 40
3.5
 41
0.0
 71
     2
 72
     1
  1
\A1;88.9 [3 1/2]
  7
SLDTEXTSTYLE0
 73
     1
 44
1.0
  0
POINT
  5
213
330
20A
100
AcDbEntity
  8
Defpoints
 62
     0
100
AcDbPoint
 10
162.1576425899814
 20
24.67500000000003
 30
0.0
  0
POINT
  5
214
330
20A
100
AcDbEntity
  8
Defpoints
 62
     0
100
AcDbPoint
 10
73.25500000000007
 20
24.63413479835853
 30
0.0
  0
POINT
  5
215
330
20A
100
AcDbEntity
  8
Defpoints
 62
     0
100
AcDbPoint
 10
73.25500000000007
 20
36.34466828731264
 30
0.0
  0
ENDBLK
  5
20C
330
20A
100
AcDbEntity
  8
0
100
AcDbBlockEnd
  0
BLOCK
  5
217
330
216
100
AcDbEntity
  8
0
100
AcDbBlockBegin
  2
*D10
 70
     1
 10
0.0
 20
0.0
 30
0.0
  3
*D10
  1
*D10
  0
LINE
  5
219
330
216
100
AcDbEntity
  8
치수문자_일반주서
 62
     0
370
    -2
100
AcDbLine
 10
162.1576425899814
 20
24.73750000000003
 30
0.0
 11
162.1576425899814
 21
45.17164679328082
 31
0.0
  0
LINE
  5
21A
330
216
100
AcDbEntity
  8
치수문자_일반주서
 62
     0
370
    -2
100
AcDbLine
 10
16.10500000000005
 20
22.51500000000002
 30
0.0
 11
16.10500000000005
 21
45.17164679328082
 31
0.0
  0
LINE
  5
21B
330
216
100
AcDbEntity
  8
치수문자_일반주서
 62
     0
370
    -2
100
AcDbLine
 10
158.8556425899814
 20
45.17164679328082
 30
0.0
 11
19.40700000000005
 21
45.17164679328082
 31
0.0
  0
SOLID
  5
21C
330
216
100
AcDbEntity
  8
치수문자_일반주서
 62
     0
100
AcDbTrace
 10
158.8556425899814
 20
44.62131345994749
 30
0.0
 11
158.8556425899814
 21
45.72198012661416
 31
0.0
 12
162.1576425899814
 22
45.17164679328082
 32
0.0
 13
162.1576425899814
 23
45.17164679328082
 33
0.0
  0
SOLID
  5
21D
330
216
100
AcDbEntity
  8
치수문자_일반주서
 62
     0
100
AcDbTrace
 10
19.40700000000005
 20
45.72198012661416
 30
0.0
 11
19.40700000000005
 21
44.62131345994749
 31
0.0
 12
16.10500000000005
 22
45.17164679328082
 32
0.0
 13
16.10500000000005
 23
45.17164679328082
 33
0.0
  0
MTEXT
  5
21E
330
216
100
AcDbEntity
  8
치수문자_일반주서
 62
     0
100
AcDbMText
 10
89.13000000000005
 20
49.54664679328082
 30
0.0
 40
3.5
 41
0.0
 71
     2
 72
     1
  1
\A1;146.05 [5 3/4]
  7
SLDTEXTSTYLE0
 73
     1
 44
1.0
  0
POINT
  5
21F
330
216
100
AcDbEntity
  8
Defpoints
 62
     0
100
AcDbPoint
 10
162.1576425899814
 20
24.67500000000003
 30
0.0
  0
POINT
  5
220
330
216
100
AcDbEntity
  8
Defpoints
 62
     0
100
AcDbPoint
 10
16.10500000000005
 20
22.45250000000002
 30
0.0
  0
POINT
  5
221
330
216
100
AcDbEntity
  8
Defpoints
 62
     0
100
AcDbPoint
 10
16.10500000000005
 20
45.17164679328082
 30
0.0
  0
ENDBLK
  5
218
330
216
100
AcDbEntity
  8
0
100
AcDbBlockEnd
  0
BLOCK
  5
223
330
222
100
AcDbEntity
  8
0
100
AcDbBlockBegin
  2
*D11
 70
     1
 10
0.0
 20
0.0
 30
0.0
  3
*D11
  1
*D11
  0
LINE
  5
225
330
222
100
AcDbEntity
  8
치수문자_일반주서
 62
     0
370
    -2
100
AcDbLine
 10
16.04250000000005
 20
24.675
 30
0.0
 11
4.375000000000004
 21
24.67499999999995
 31
0.0
  0
LINE
  5
226
330
222
100
AcDbEntity
  8
치수문자_일반주서
 62
     0
370
    -2
100
AcDbLine
 10
18.26500000000005
 20
2.450000000000018
 30
0.0
 11
4.375000000000082
 21
2.449999999999967
 31
0.0
  0
LINE
  5
227
330
222
100
AcDbEntity
  8
치수문자_일반주서
 62
     0
370
    -2
100
AcDbLine
 10
4.375000000000016
 20
21.37299999999995
 30
0.0
 11
4.37500000000007
 21
5.751999999999967
 31
0.0
  0
SOLID
  5
228
330
222
100
AcDbEntity
  8
치수문자_일반주서
 62
     0
100
AcDbTrace
 10
4.92533333333335
 20
21.37299999999996
 30
0.0
 11
3.824666666666683
 21
21.37299999999995
 31
0.0
 12
4.375000000000004
 22
24.67499999999995
 32
0.0
 13
4.375000000000004
 23
24.67499999999995
 33
0.0
  0
SOLID
  5
229
330
222
100
AcDbEntity
  8
치수문자_일반주서
 62
     0
100
AcDbTrace
 10
3.824666666666737
 20
5.751999999999965
 30
0.0
 11
4.925333333333404
 21
5.751999999999969
 31
0.0
 12
4.375000000000082
 22
2.449999999999967
 32
0.0
 13
4.375000000000082
 23
2.449999999999967
 33
0.0
  0
MTEXT
  5
22A
330
222
100
AcDbEntity
  8
치수문자_일반주서
 62
     0
100
AcDbMText
 10
0.0000000000000426
 20
13.5625
 30
0.0
 40
3.5
 41
0.0
 71
     2
 72
     1
  1
\A1;%%c22.23 [7/8]
  7
SLDTEXTSTYLE0
 11
-3.476783915136600E-15
 21
1.0
 31
0.0
 73
     1
 44
1.0
  0
POINT
  5
22B
330
222
100
AcDbEntity
  8
Defpoints
 62
     0
100
AcDbPoint
 10
16.10500000000005
 20
24.675
 30
0.0
  0
POINT
  5
22C
330
222
100
AcDbEntity
  8
Defpoints
 62
     0
100
AcDbPoint
 10
18.32750000000005
 20
2.450000000000019
 30
0.0
  0
POINT
  5
22D
330
222
100
AcDbEntity
  8
Defpoints
 62
     0
100
AcDbPoint
 10
4.375000000000078
 20
2.449999999999967
 30
0.0
  0
ENDBLK
  5
224
330
222
100
AcDbEntity
  8
0
100
AcDbBlockEnd
  0
BLOCK
  5
22F
330
22E
100
AcDbEntity
  8
0
100
AcDbBlockBegin
  2
*D12
 70
     1
 10
0.0
 20
0.0
 30
0.0
  3
*D12
  1
*D12
  0
LINE
  5
231
330
22E
100
AcDbEntity
  8
치수문자_일반주서
 62
     0
370
    -2
100
AcDbLine
 10
162.2175000000001
 20
24.67500000000003
 30
0.0
 11
175.6210563796366
 21
24.67500000000008
 31
0.0
  0
LINE
  5
232
330
22E
100
AcDbEntity
  8
치수문자_일반주서
 62
     0
370
    -2
100
AcDbLine
 10
162.2175000000001
 20
2.45000000000003
 30
0.0
 11
175.6210563796367
 21
2.450000000000081
 31
0.0
  0
LINE
  5
233
330
22E
100
AcDbEntity
  8
치수문자_일반주서
 62
     0
370
    -2
100
AcDbLine
 10
175.6210563796366
 20
24.67500000000008
 30
0.0
 11
175.6210563796364
 21
59.86647012489388
 31
0.0
  0
LINE
  5
234
330
22E
100
AcDbEntity
  8
치수문자_일반주서
 62
     0
370
    -2
100
AcDbLine
 10
175.6210563796366
 20
21.37300000000008
 30
0.0
 11
175.6210563796367
 21
5.752000000000081
 31
0.0
  0
SOLID
  5
235
330
22E
100
AcDbEntity
  8
치수문자_일반주서
 62
     0
100
AcDbTrace
 10
176.1713897129699
 20
21.37300000000008
 30
0.0
 11
175.0707230463032
 21
21.37300000000008
 31
0.0
 12
175.6210563796366
 22
24.67500000000008
 32
0.0
 13
175.6210563796366
 23
24.67500000000008
 33
0.0
  0
SOLID
  5
236
330
22E
100
AcDbEntity
  8
치수문자_일반주서
 62
     0
100
AcDbTrace
 10
175.0707230463033
 20
5.752000000000079
 30
0.0
 11
176.17138971297
 21
5.752000000000082
 31
0.0
 12
175.6210563796367
 22
2.450000000000081
 32
0.0
 13
175.6210563796367
 23
2.450000000000081
 33
0.0
  0
MTEXT
  5
237
330
22E
100
AcDbEntity
  8
치수문자_일반주서
 62
     0
100
AcDbMText
 10
171.2460563796365
 20
45.42897012489387
 30
0.0
 40
3.5
 41
0.0
 71
     2
 72
     1
  1
\A1;%%c22.23 [7/8]
  7
SLDTEXTSTYLE0
 11
-3.836451216702453E-15
 21
1.0
 31
0.0
 73
     1
 44
1.0
  0
POINT
  5
238
330
22E
100
AcDbEntity
  8
Defpoints
 62
     0
100
AcDbPoint
 10
162.1550000000001
 20
24.67500000000003
 30
0.0
  0
POINT
  5
239
330
22E
100
AcDbEntity
  8
Defpoints
 62
     0
100
AcDbPoint
 10
162.1550000000001
 20
2.450000000000029
 30
0.0
  0
POINT
  5
23A
330
22E
100
AcDbEntity
  8
Defpoints
 62
     0
100
AcDbPoint
 10
175.6210563796366
 20
2.45000000000008
 30
0.0
  0
ENDBLK
  5
230
330
22E
100
AcDbEntity
  8
0
100
AcDbBlockEnd
  0
BLOCK
  5
26C
330
26B
100
AcDbEntity
  8
0
100
AcDbBlockBegin
  2
*D13
 70
     1
 10
0.0
 20
0.0
 30
0.0
  3
*D13
  1
*D13
  0
LINE
  5
26E
330
26B
100
AcDbEntity
  8
치수문자_일반주서
 62
     0
370
    -2
100
AcDbLine
 10
277.6828464392593
 20
-68.5622525999457
 30
0.0
 11
277.6828464392593
 21
-56.95508431263308
 31
0.0
  0
LINE
  5
26F
330
26B
100
AcDbEntity
  8
치수문자_일반주서
 62
     0
370
    -2
100
AcDbLine
 10
188.780203849278
 20
-68.60311780158719
 30
0.0
 11
188.780203849278
 21
-56.95508431263308
 31
0.0
  0
LINE
  5
270
330
26B
100
AcDbEntity
  8
치수문자_일반주서
 62
     0
370
    -2
100
AcDbLine
 10
274.3808464392592
 20
-56.95508431263308
 30
0.0
 11
192.082203849278
 21
-56.95508431263308
 31
0.0
  0
SOLID
  5
271
330
26B
100
AcDbEntity
  8
치수문자_일반주서
 62
     0
100
AcDbTrace
 10
274.3808464392592
 20
-57.50541764596642
 30
0.0
 11
274.3808464392592
 21
-56.40475097929975
 31
0.0
 12
277.6828464392593
 22
-56.95508431263308
 32
0.0
 13
277.6828464392593
 23
-56.95508431263308
 33
0.0
  0
SOLID
  5
272
330
26B
100
AcDbEntity
  8
치수문자_일반주서
 62
     0
100
AcDbTrace
 10
192.082203849278
 20
-56.40475097929975
 30
0.0
 11
192.082203849278
 21
-57.50541764596642
 31
0.0
 12
188.780203849278
 22
-56.95508431263308
 32
0.0
 13
188.780203849278
 23
-56.95508431263308
 33
0.0
  0
MTEXT
  5
273
330
26B
100
AcDbEntity
  8
치수문자_일반주서
 62
     0
100
AcDbMText
 10
231.9599237913955
 20
-52.58008431263308
 30
0.0
 40
3.5
 41
0.0
 71
     2
 72
     1
  1
\A1;88.9 [3 1/2]
  7
SLDTEXTSTYLE0
 73
     1
 44
1.0
  0
POINT
  5
274
330
26B
100
AcDbEntity
  8
Defpoints
 62
     0
100
AcDbPoint
 10
277.6828464392593
 20
-68.6247525999457
 30
0.0
  0
POINT
  5
275
330
26B
100
AcDbEntity
  8
Defpoints
 62
     0
100
AcDbPoint
 10
188.780203849278
 20
-68.66561780158719
 30
0.0
  0
POINT
  5
276
330
26B
100
AcDbEntity
  8
Defpoints
 62
     0
100
AcDbPoint
 10
188.780203849278
 20
-56.95508431263308
 30
0.0
  0
ENDBLK
  5
26D
330
26B
100
AcDbEntity
  8
0
100
AcDbBlockEnd
  0
BLOCK
  5
278
330
277
100
AcDbEntity
  8
0
100
AcDbBlockBegin
  2
*D14
 70
     1
 10
0.0
 20
0.0
 30
0.0
  3
*D14
  1
*D14
  0
LINE
  5
27A
330
277
100
AcDbEntity
  8
치수문자_일반주서
 62
     0
370
    -2
100
AcDbLine
 10
277.6828464392593
 20
-68.5622525999457
 30
0.0
 11
277.6828464392593
 21
-48.1281058066649
 31
0.0
  0
LINE
  5
27B
330
277
100
AcDbEntity
  8
치수문자_일반주서
 62
     0
370
    -2
100
AcDbLine
 10
131.630203849278
 20
-70.7847525999457
 30
0.0
 11
131.630203849278
 21
-48.1281058066649
 31
0.0
  0
LINE
  5
27C
330
277
100
AcDbEntity
  8
치수문자_일반주서
 62
     0
370
    -2
100
AcDbLine
 10
274.3808464392592
 20
-48.1281058066649
 30
0.0
 11
134.932203849278
 21
-48.1281058066649
 31
0.0
  0
SOLID
  5
27D
330
277
100
AcDbEntity
  8
치수문자_일반주서
 62
     0
100
AcDbTrace
 10
274.3808464392592
 20
-48.67843913999823
 30
0.0
 11
274.3808464392592
 21
-47.57777247333156
 31
0.0
 12
277.6828464392593
 22
-48.1281058066649
 32
0.0
 13
277.6828464392593
 23
-48.1281058066649
 33
0.0
  0
SOLID
  5
27E
330
277
100
AcDbEntity
  8
치수문자_일반주서
 62
     0
100
AcDbTrace
 10
134.932203849278
 20
-47.57777247333156
 30
0.0
 11
134.932203849278
 21
-48.67843913999823
 31
0.0
 12
131.630203849278
 22
-48.1281058066649
 32
0.0
 13
131.630203849278
 23
-48.1281058066649
 33
0.0
  0
MTEXT
  5
27F
330
277
100
AcDbEntity
  8
치수문자_일반주서
 62
     0
100
AcDbMText
 10
204.6552038492779
 20
-43.7531058066649
 30
0.0
 40
3.5
 41
0.0
 71
     2
 72
     1
  1
\A1;146.05 [5 3/4]
  7
SLDTEXTSTYLE0
 73
     1
 44
1.0
  0
POINT
  5
280
330
277
100
AcDbEntity
  8
Defpoints
 62
     0
100
AcDbPoint
 10
277.6828464392593
 20
-68.6247525999457
 30
0.0
  0
POINT
  5
281
330
277
100
AcDbEntity
  8
Defpoints
 62
     0
100
AcDbPoint
 10
131.630203849278
 20
-70.8472525999457
 30
0.0
  0
POINT
  5
282
330
277
100
AcDbEntity
  8
Defpoints
 62
     0
100
AcDbPoint
 10
131.630203849278
 20
-48.1281058066649
 30
0.0
  0
ENDBLK
  5
279
330
277
100
AcDbEntity
  8
0
100
AcDbBlockEnd
  0
BLOCK
  5
284
330
283
100
AcDbEntity
  8
0
100
AcDbBlockBegin
  2
*D15
 70
     1
 10
0.0
 20
0.0
 30
0.0
  3
*D15
  1
*D15
  0
LINE
  5
286
330
283
100
AcDbEntity
  8
치수문자_일반주서
 62
     0
370
    -2
100
AcDbLine
 10
131.567703849278
 20
-68.62475259994572
 30
0.0
 11
119.9002038492779
 21
-68.62475259994577
 31
0.0
  0
LINE
  5
287
330
283
100
AcDbEntity
  8
치수문자_일반주서
 62
     0
370
    -2
100
AcDbLine
 10
133.790203849278
 20
-90.8497525999457
 30
0.0
 11
119.900203849278
 21
-90.84975259994576
 31
0.0
  0
LINE
  5
288
330
283
100
AcDbEntity
  8
치수문자_일반주서
 62
     0
370
    -2
100
AcDbLine
 10
119.9002038492779
 20
-71.92675259994576
 30
0.0
 11
119.900203849278
 21
-87.54775259994577
 31
0.0
  0
SOLID
  5
289
330
283
100
AcDbEntity
  8
치수문자_일반주서
 62
     0
100
AcDbTrace
 10
120.4505371826113
 20
-71.92675259994576
 30
0.0
 11
119.3498705159446
 21
-71.92675259994576
 31
0.0
 12
119.9002038492779
 22
-68.62475259994577
 32
0.0
 13
119.9002038492779
 23
-68.62475259994577
 33
0.0
  0
SOLID
  5
28A
330
283
100
AcDbEntity
  8
치수문자_일반주서
 62
     0
100
AcDbTrace
 10
119.3498705159446
 20
-87.54775259994577
 30
0.0
 11
120.4505371826113
 21
-87.54775259994577
 31
0.0
 12
119.900203849278
 22
-90.84975259994576
 32
0.0
 13
119.900203849278
 23
-90.84975259994576
 33
0.0
  0
MTEXT
  5
28B
330
283
100
AcDbEntity
  8
치수문자_일반주서
 62
     0
100
AcDbMText
 10
115.5252038492779
 20
-79.73725259994572
 30
0.0
 40
3.5
 41
0.0
 71
     2
 72
     1
  1
\A1;%%c22.23 [7/8]
  7
SLDTEXTSTYLE0
 11
-3.197042680585378E-15
 21
1.0
 31
0.0
 73
     1
 44
1.0
  0
POINT
  5
28C
330
283
100
AcDbEntity
  8
Defpoints
 62
     0
100
AcDbPoint
 10
131.630203849278
 20
-68.62475259994572
 30
0.0
  0
POINT
  5
28D
330
283
100
AcDbEntity
  8
Defpoints
 62
     0
100
AcDbPoint
 10
133.852703849278
 20
-90.8497525999457
 30
0.0
  0
POINT
  5
28E
330
283
100
AcDbEntity
  8
Defpoints
 62
     0
100
AcDbPoint
 10
119.900203849278
 20
-90.84975259994576
 30
0.0
  0
ENDBLK
  5
285
330
283
100
AcDbEntity
  8
0
100
AcDbBlockEnd
  0
BLOCK
  5
290
330
28F
100
AcDbEntity
  8
0
100
AcDbBlockBegin
  2
*D16
 70
     1
 10
0.0
 20
0.0
 30
0.0
  3
*D16
  1
*D16
  0
LINE
  5
292
330
28F
100
AcDbEntity
  8
치수문자_일반주서
 62
     0
370
    -2
100
AcDbLine
 10
277.742703849278
 20
-68.6247525999457
 30
0.0
 11
291.1462602289145
 21
-68.62475259994565
 31
0.0
  0
LINE
  5
293
330
28F
100
AcDbEntity
  8
치수문자_일반주서
 62
     0
370
    -2
100
AcDbLine
 10
277.742703849278
 20
-90.84975259994569
 30
0.0
 11
291.1462602289145
 21
-90.84975259994565
 31
0.0
  0
LINE
  5
294
330
28F
100
AcDbEntity
  8
치수문자_일반주서
 62
     0
370
    -2
100
AcDbLine
 10
291.1462602289145
 20
-68.62475259994565
 30
0.0
 11
291.1462602289143
 21
-33.43328247505184
 31
0.0
  0
LINE
  5
295
330
28F
100
AcDbEntity
  8
치수문자_일반주서
 62
     0
370
    -2
100
AcDbLine
 10
291.1462602289145
 20
-71.92675259994564
 30
0.0
 11
291.1462602289145
 21
-87.54775259994565
 31
0.0
  0
SOLID
  5
296
330
28F
100
AcDbEntity
  8
치수문자_일반주서
 62
     0
100
AcDbTrace
 10
291.6965935622478
 20
-71.92675259994564
 30
0.0
 11
290.5959268955811
 21
-71.92675259994564
 31
0.0
 12
291.1462602289145
 22
-68.62475259994565
 32
0.0
 13
291.1462602289145
 23
-68.62475259994565
 33
0.0
  0
SOLID
  5
297
330
28F
100
AcDbEntity
  8
치수문자_일반주서
 62
     0
100
AcDbTrace
 10
290.5959268955812
 20
-87.54775259994565
 30
0.0
 11
291.6965935622479
 21
-87.54775259994565
 31
0.0
 12
291.1462602289145
 22
-90.84975259994565
 32
0.0
 13
291.1462602289145
 23
-90.84975259994565
 33
0.0
  0
MTEXT
  5
298
330
28F
100
AcDbEntity
  8
치수문자_일반주서
 62
     0
100
AcDbMText
 10
286.7712602289144
 20
-47.87078247505185
 30
0.0
 40
3.5
 41
0.0
 71
     2
 72
     1
  1
\A1;%%c22.23 [7/8]
  7
SLDTEXTSTYLE0
 11
-2.557634144468304E-15
 21
1.0
 31
0.0
 73
     1
 44
1.0
  0
POINT
  5
299
330
28F
100
AcDbEntity
  8
Defpoints
 62
     0
100
AcDbPoint
 10
277.680203849278
 20
-68.6247525999457
 30
0.0
  0
POINT
  5
29A
330
28F
100
AcDbEntity
  8
Defpoints
 62
     0
100
AcDbPoint
 10
277.680203849278
 20
-90.84975259994569
 30
0.0
  0
POINT
  5
29B
330
28F
100
AcDbEntity
  8
Defpoints
 62
     0
100
AcDbPoint
 10
291.1462602289146
 20
-90.84975259994563
 30
0.0
  0
ENDBLK
  5
291
330
28F
100
AcDbEntity
  8
0
100
AcDbBlockEnd
  0
ENDSEC
  0
SECTION
  2
ENTITIES
  0
LINE
  5
96
330
1F
100
AcDbEntity
  8
0
  6
Continuous
 62
     1
370
    15
100
AcDbLine
 10
39.32988149296598
 20
-9.525
 30
0.0
 11
45.13699823239808
 21
-9.525
 31
0.0
  0
LINE
  5
97
330
1F
100
AcDbEntity
  8
0
  6
Continuous
 62
     1
370
    15
100
AcDbLine
 10
65.24625601707578
 20
-9.525
 30
0.0
 11
71.05354021601923
 21
-9.525
 31
0.0
  0
LINE
  5
98
330
1F
100
AcDbEntity
  8
0
  6
Continuous
 62
     1
370
    15
100
AcDbLine
 10
19.22145822424074
 20
9.525
 30
0.0
 11
13.4148842139538
 21
9.525
 31
0.0
  0
LINE
  5
99
330
1F
100
AcDbEntity
  8
0
  6
Continuous
 62
     1
370
    15
100
AcDbLine
 10
45.13699823239808
 20
9.525
 30
0.0
 11
39.32988149296582
 21
9.525
 31
0.0
  0
ARC
  5
9A
330
1F
100
AcDbEntity
  8
0
  6
Continuous
 62
     1
370
    15
100
AcDbCircle
 10
78.67500000000003
 20
0.000000000000008
 30
0.0
 40
9.524999999999988
100
AcDbArc
 50
333.0122208729487
 51
0.0
  0
ARC
  5
9B
330
1F
100
AcDbEntity
  8
0
  6
Continuous
 62
     1
370
    15
100
AcDbCircle
 10
78.67500000000003
 20
0.000000000000008
 30
0.0
 40
9.524999999999977
100
AcDbArc
 50
0.0
 51
26.98121075051312
  0
LINE
  5
9C
330
1F
100
AcDbEntity
  8
0
  6
Continuous
 62
     1
370
    15
100
AcDbLine
 10
13.41488421395382
 20
-9.525
 30
0.0
 11
19.22145822424083
 21
-9.525
 31
0.0
  0
LINE
  5
9D
330
1F
100
AcDbEntity
  8
0
  6
Continuous
 62
     1
370
    15
100
AcDbLine
 10
71.05354021601936
 20
9.525
 30
0.0
 11
65.24625601707578
 21
9.525
 31
0.0
  0
LINE
  5
9E
330
1F
100
AcDbEntity
  8
외형선
  6
Continuous
370
    15
100
AcDbLine
 10
-43.24499999999999
 20
9.525000000000002
 30
0.0
 11
-45.14999999999999
 21
7.620000000000007
 31
0.0
  0
LINE
  5
9F
330
1F
100
AcDbEntity
  8
외형선
  6
Continuous
370
    15
100
AcDbLine
 10
-45.14999999999999
 20
-7.620000000000008
 30
0.0
 11
-43.24499999999999
 21
-9.525000000000002
 31
0.0
  0
LINE
  5
A0
330
1F
100
AcDbEntity
  8
외형선
  6
Continuous
370
    15
100
AcDbLine
 10
-43.24499999999999
 20
-9.525000000000002
 30
0.0
 11
12.0
 21
-9.525000000000002
 31
0.0
  0
LINE
  5
A1
330
1F
100
AcDbEntity
  8
외형선
  6
Continuous
370
    15
100
AcDbLine
 10
12.0
 20
9.525000000000002
 30
0.0
 11
-11.656925
 21
9.525000000000002
 31
0.0
  0
SPLINE
  5
A2
330
1F
100
AcDbEntity
  8
0
  6
Continuous
 62
     1
370
    15
100
AcDbSpline
210
0.0
220
0.0
230
1.0
 70
     8
 71
     3
 72
    23
 73
    19
 74
     0
 42
0.000000001
 43
0.00000001
 40
0.0
 40
0.0
 40
0.0
 40
0.0
 40
0.0358832846836519
 40
0.1001581442158048
 40
0.1644339551491795
 40
0.2287105304505346
 40
0.292987682870933
 40
0.3572652249985183
 40
0.4215429693113918
 40
0.4858207282305505
 40
0.5500983141728686
 40
0.614375539604071
 40
0.6786522170916883
 40
0.7429281593579405
 40
0.8072031793325312
 40
0.8714701358069934
 40
0.9357358042352386
 40
1.0
 40
1.0
 40
1.0
 40
1.0
 10
29.27617764702738
 20
7.774860184715678
 30
0.0
 10
29.86703757246331
 20
7.975346167894774
 30
0.0
 10
31.51625765208755
 20
8.534946666944062
 30
0.0
 10
34.22386638609004
 20
9.120176918728513
 30
0.0
 10
37.39901304881323
 20
9.52074847516253
 30
0.0
 10
40.57420559624741
 20
9.556098414842033
 30
0.0
 10
43.74943219510595
 20
9.242259814941491
 30
0.0
 10
46.92468193438626
 20
8.586171327743344
 30
0.0
 10
50.09994364662444
 20
7.613302329059191
 30
0.0
 10
53.27520622730887
 20
6.359244964723895
 30
0.0
 10
56.45045855551696
 20
4.870387648398498
 30
0.0
 10
59.62568951149626
 20
3.201716946168601
 30
0.0
 10
62.80088800524602
 20
1.414737372181695
 30
0.0
 10
65.97604286414585
 20
-0.4241189468986147
 30
0.0
 10
69.15102876057763
 20
-2.248556727320788
 30
0.0
 10
72.3258337336068
 20
-3.984982029142073
 30
0.0
 10
75.50044907465231
 20
-5.592579882061764
 30
0.0
 10
77.61682444118647
 20
-6.481020934605475
 30
0.0
 10
78.67500000000001
 20
-6.925236371108099
 30
0.0
  0
SPLINE
  5
A3
330
1F
100
AcDbEntity
  8
0
  6
Continuous
 62
     1
370
    15
100
AcDbSpline
210
0.0
220
0.0
230
1.0
 70
     8
 71
     3
 72
    16
 73
    12
 74
     0
 42
0.000000001
 43
0.00000001
 40
0.0
 40
0.0
 40
0.0
 40
0.0
 40
0.1277164938472546
 40
0.2591713725937692
 40
0.3856825901931202
 40
0.5160789688548406
 40
0.6398647852847295
 40
0.7667216634283264
 40
0.8696990563765802
 40
0.9750012967565121
 40
1.0
 40
1.0
 40
1.0
 40
1.0
 10
78.67500000000003
 20
-6.925236371108086
 30
0.0
 10
79.11268262786659
 20
-7.078474642655246
 30
0.0
 10
80.00085927606287
 20
-7.389436617686228
 30
0.0
 10
81.33905498337712
 20
-7.552619742166704
 30
0.0
 10
82.65863907860385
 20
-7.472772310370346
 30
0.0
 10
83.8906713494886
 20
-7.13714459372349
 30
0.0
 10
85.01344276761233
 20
-6.582457920058382
 30
0.0
 10
85.92060549300068
 20
-5.905316604412692
 30
0.0
 10
86.61364112778259
 20
-5.179079372593924
 30
0.0
 10
87.00239982442871
 20
-4.644487009055352
 30
0.0
 10
87.13167678222975
 20
-4.371485140017894
 30
0.0
 10
87.15647903012159
 20
-4.319108752562798
 30
0.0
  0
SPLINE
  5
A4
330
1F
100
AcDbEntity
  8
0
  6
Continuous
 62
     1
370
    15
100
AcDbSpline
210
0.0
220
0.0
230
1.0
 70
     8
 71
     3
 72
    10
 73
     6
 74
     0
 42
0.000000001
 43
0.00000001
 40
0.0
 40
0.0
 40
0.0
 40
0.0
 40
0.1587115262555771
 40
0.5759590090361344
 40
1.0
 40
1.0
 40
1.0
 40
1.0
 10
81.10749354393579
 20
-7.480953136810641
 30
0.0
 10
80.98274403235067
 20
-7.558475948686436
 30
0.0
 10
80.53003207900083
 20
-7.839803732238694
 30
0.0
 10
79.71890467683485
 20
-8.207118758899867
 30
0.0
 10
79.02483645444387
 20
-8.419410762137245
 30
0.0
 10
78.675
 20
-8.52641390581021
 30
0.0
  0
SPLINE
  5
A5
330
1F
100
AcDbEntity
  8
0
  6
Continuous
 62
     1
370
    15
100
AcDbSpline
210
0.0
220
0.0
230
1.0
 70
     8
 71
     3
 72
    26
 73
    22
 74
     0
 42
0.000000001
 43
0.00000001
 40
0.0
 40
0.0
 40
0.0
 40
0.0
 40
0.0533957804728241
 40
0.106792784551035
 40
0.1601908588399936
 40
0.2135956329231008
 40
0.2670011733191207
 40
0.3204073245952451
 40
0.3738139311462706
 40
0.4272208372384661
 40
0.4806278870535122
 40
0.5340349247325009
 40
0.5874417944199487
 40
0.6408483403078195
 40
0.694254406679509
 40
0.7476598379537789
 40
0.8010644787286088
 40
0.8544681738249346
 40
0.9078707683302562
 40
0.9612721076420813
 40
1.0
 40
1.0
 40
1.0
 40
1.0
 10
78.67500000000004
 20
-8.526413905810227
 30
0.0
 10
77.61682444118645
 20
-8.76826641088402
 30
0.0
 10
75.50044907465232
 20
-9.251976963267817
 30
0.0
 10
72.32583373360676
 20
-9.5516695289352
 30
0.0
 10
69.15102876057779
 20
-9.521364076341168
 30
0.0
 10
65.97604286414517
 20
-9.133471158811293
 30
0.0
 10
62.80088800524855
 20
-8.409941931275378
 30
0.0
 10
59.62568951148647
 20
-7.375443990645246
 30
0.0
 10
56.4504585555535
 20
-6.068724555689762
 30
0.0
 10
53.2752062271726
 20
-4.537885186224995
 30
0.0
 10
50.09994364713307
 20
-2.839492467439797
 30
0.0
 10
46.92468193248811
 20
-1.036248796218732
 30
0.0
 10
43.74943220218978
 20
0.8052506421217598
 30
0.0
 10
40.57420556981037
 20
2.617029112862249
 30
0.0
 10
37.39901314747617
 20
4.332105852307895
 30
0.0
 10
34.2238660178821
 20
5.887451242639903
 30
0.0
 10
31.04877532279236
 20
7.22452269708398
 30
0.0
 10
27.87375191756238
 20
8.2981129857025
 30
0.0
 10
24.69880764509687
 20
9.053066662845449
 30
0.0
 10
21.81471522751461
 20
9.476726772721854
 30
0.0
 10
19.98894703178917
 20
9.485999254689146
 30
0.0
 10
19.22145822424074
 20
9.489897080352202
 30
0.0
  0
SPLINE
  5
A6
330
1F
100
AcDbEntity
  8
0
  6
Continuous
 62
     1
370
    15
100
AcDbSpline
210
0.0
220
0.0
230
1.0
 70
     8
 71
     3
 72
    16
 73
    12
 74
     0
 42
0.000000001
 43
0.00000001
 40
0.0
 40
0.0
 40
0.0
 40
0.0
 40
0.116158053167662
 40
0.2323198408323142
 40
0.3484850292604793
 40
0.4646532837634493
 40
0.5808242687903978
 40
0.6969976480220158
 40
0.8131730844646056
 40
0.929350240544593
 40
1.0
 40
1.0
 40
1.0
 40
1.0
 10
12.00000000000001
 20
0.8161148516610943
 30
0.0
 10
13.05817303432739
 20
0.2044496462497611
 30
0.0
 10
15.1745531233871
 20
-1.018900429691305
 30
0.0
 10
18.34919758243358
 20
-2.824383376543779
 30
0.0
 10
21.52395195032556
 20
-4.523371018471978
 30
0.0
 10
24.69880727108788
 20
-6.05623875121217
 30
0.0
 10
27.87375202950684
 20
-7.364264766509567
 30
0.0
 10
31.04877524903351
 20
-8.40450851867819
 30
0.0
 10
34.22386620097447
 20
-9.119219425120992
 30
0.0
 10
36.98424170201186
 20
-9.497182445192603
 30
0.0
 10
38.68625469839958
 20
-9.486891410466852
 30
0.0
 10
39.32988149296598
 20
-9.482999791714606
 30
0.0
  0
LWPOLYLINE
  5
A7
330
1F
100
AcDbEntity
  8
0
  6
Continuous
 62
     1
370
    15
100
AcDbPolyline
 90
       26
 70
   128
 43
0.0
 10
81.1074935439359
 20
7.480953136810617
 10
81.3513938389685
 20
7.512596502869633
 10
82.63537480042665
 20
7.431455613584284
 10
83.89268719266349
 20
7.09291289520407
 10
84.98108633971113
 20
6.558857844180427
 10
85.94703497312366
 20
5.841938090415697
 10
86.58839569644563
 20
5.177770306413446
 10
87.07883799405877
 20
4.477180280102758
 10
87.27736942902945
 20
4.07298465389902
 10
87.38828273025689
 20
3.70562192517693
 10
87.40168773719448
 20
3.471337765913564
 10
87.34250636334501
 20
3.297054440903428
 10
87.21055015094461
 20
3.207305648155311
 10
86.99783555602367
 20
3.209058277476077
 10
86.76693605196606
 20
3.285929678309552
 10
86.48666999096282
 20
3.431400079813744
 10
85.82943642336296
 20
3.885192251195404
 10
85.30177045744075
 20
4.30596446540014
 10
84.7289431943877
 20
4.785342539078642
 10
83.92866066537977
 20
5.4584184959817
 10
83.07884116982794
 20
6.144812211501603
 10
81.93852788538888
 20
6.977766096381842
 10
80.73214669233558
 20
7.70822373439
 10
79.72154300801029
 20
8.180830887478171
 10
78.67500000000001
 20
8.526413905810234
 10
78.675
 20
8.526413905810239
  0
SPLINE
  5
A8
330
1F
100
AcDbEntity
  8
0
  6
Continuous
 62
     1
370
    15
100
AcDbSpline
210
0.0
220
0.0
230
1.0
 70
     8
 71
     3
 72
    10
 73
     6
 74
     0
 42
0.000000001
 43
0.00000001
 40
0.0
 40
0.0
 40
0.0
 40
0.0
 40
0.416526562021476
 40
0.8330626690695454
 40
1.0
 40
1.0
 40
1.0
 40
1.0
 10
78.67500000000001
 20
8.526413905810266
 30
0.0
 10
77.61682430286798
 20
8.764167632636862
 30
0.0
 10
75.50044865969382
 20
9.239680534599609
 30
0.0
 10
72.95995957010793
 20
9.528712525264893
 30
0.0
 10
71.47764468225509
 20
9.492924419687903
 30
0.0
 10
71.05354021601934
 20
9.482685100405813
 30
0.0
  0
SPLINE
  5
A9
330
1F
100
AcDbEntity
  8
0
  6
Continuous
 62
     1
370
    15
100
AcDbSpline
210
0.0
220
0.0
230
1.0
 70
     8
 71
     3
 72
    13
 73
     9
 74
     0
 42
0.000000001
 43
0.00000001
 40
0.0
 40
0.0
 40
0.0
 40
0.0
 40
0.0811768892767456
 40
0.2649512106571864
 40
0.4487212125408848
 40
0.6324863641100537
 40
0.8162461359107163
 40
1.0
 40
1.0
 40
1.0
 40
1.0
 10
29.27617764702749
 20
-7.774860184715679
 30
0.0
 10
28.80869564556177
 20
-7.937428402908649
 30
0.0
 10
27.2828928788836
 20
-8.468030728378002
 30
0.0
 10
24.69880771613731
 20
-9.050052011376444
 30
0.0
 10
21.52395183112047
 20
-9.494662413855407
 30
0.0
 10
18.34919761422026
 20
-9.565975775981672
 30
0.0
 10
15.17455311544081
 20
-9.311409008248443
 30
0.0
 10
13.05817303167864
 20
-8.854877124302572
 30
0.0
 10
12.0
 20
-8.626614851660978
 30
0.0
  0
LINE
  5
AA
330
1F
100
AcDbEntity
  8
0
  6
Continuous
 62
     1
370
    15
100
AcDbLine
 10
12.00000000000001
 20
-9.489972684307283
 30
0.0
 11
13.41488421395383
 21
-9.481462068315963
 31
0.0
  0
SPLINE
  5
AB
330
1F
100
AcDbEntity
  8
0
  6
Continuous
 62
     1
370
    15
100
AcDbSpline
210
0.0
220
0.0
230
1.0
 70
     8
 71
     3
 72
    15
 73
    11
 74
     0
 42
0.000000001
 43
0.00000001
 40
0.0
 40
0.0
 40
0.0
 40
0.0
 40
0.0536546465645398
 40
0.1888585267338498
 40
0.324061254331649
 40
0.4592624354286357
 40
0.5944616765319397
 40
0.7296439564721287
 40
0.8648235270724977
 40
1.0
 40
1.0
 40
1.0
 40
1.0
 10
55.19039477270786
 20
7.775907833506332
 30
0.0
 10
55.61041786636281
 20
7.923267684071804
 30
0.0
 10
57.08885352368182
 20
8.441958348524116
 30
0.0
 10
59.62568940525259
 20
9.022173752957308
 30
0.0
 10
62.80088803371342
 20
9.48203021350131
 30
0.0
 10
65.97604285651839
 20
9.573569273128125
 30
0.0
 10
69.1510287626204
 20
9.31765797013139
 30
0.0
 10
72.3258337330621
 20
8.711837091098898
 30
0.0
 10
75.50044907478846
 20
7.802125029273136
 30
0.0
 10
77.61682444123186
 20
6.960456711903724
 30
0.0
 10
78.67500000000001
 20
6.539627375033014
 30
0.0
  0
SPLINE
  5
AC
330
1F
100
AcDbEntity
  8
0
  6
Continuous
 62
     1
370
    15
100
AcDbSpline
210
0.0
220
0.0
230
1.0
 70
     8
 71
     3
 72
    56
 73
    52
 74
     0
 42
0.000000001
 43
0.00000001
 40
0.0
 40
0.0
 40
0.0
 40
0.0
 40
0.0625000000000108
 40
0.0625000000000108
 40
0.0937500000000147
 40
0.0937500000000147
 40
0.1250000000000187
 40
0.1250000000000187
 40
0.187500000000024
 40
0.187500000000024
 40
0.2187500000000253
 40
0.2187500000000253
 40
0.2500000000000266
 40
0.2500000000000266
 40
0.312500000000027
 40
0.312500000000027
 40
0.3750000000000272
 40
0.3750000000000272
 40
0.4062500000000274
 40
0.4062500000000274
 40
0.4375000000000275
 40
0.4375000000000275
 40
0.4687500000000277
 40
0.4687500000000277
 40
0.5000000000000279
 40
0.5000000000000279
 40
0.531250000000028
 40
0.531250000000028
 40
0.546875000000028
 40
0.546875000000028
 40
0.5625000000000279
 40
0.5625000000000279
 40
0.5937500000000266
 40
0.5937500000000266
 40
0.6250000000000255
 40
0.6250000000000255
 40
0.6562500000000242
 40
0.6562500000000242
 40
0.687500000000023
 40
0.687500000000023
 40
0.7500000000000182
 40
0.7500000000000182
 40
0.781250000000016
 40
0.781250000000016
 40
0.8125000000000137
 40
0.8125000000000137
 40
0.8750000000000091
 40
0.8750000000000091
 40
0.9375000000000046
 40
0.9375000000000046
 40
1.0
 40
1.0
 40
1.0
 40
1.0
 10
78.67500000000003
 20
6.539627375033007
 30
0.0
 10
79.15870658990653
 20
6.336399101094774
 30
0.0
 10
79.64003840107829
 20
6.108920451324945
 30
0.0
 10
80.3650409412146
 20
5.741972815753699
 30
0.0
 10
80.60710619520813
 20
5.615191206008814
 30
0.0
 10
81.09251486492624
 20
5.353211498322382
 30
0.0
 10
81.33720969104857
 20
5.217232223936488
 30
0.0
 10
82.061904633564
 20
4.803260110572487
 30
0.0
 10
82.53207655183925
 20
4.520052090623412
 30
0.0
 10
83.2183334904309
 20
4.084493753677589
 30
0.0
 10
83.44381118684171
 20
3.937325208874368
 30
0.0
 10
83.88739376136762
 20
3.637559676681277
 30
0.0
 10
84.10547976806787
 20
3.484895185496151
 30
0.0
 10
84.73442834347867
 20
3.024873513568682
 30
0.0
 10
85.12478497831056
 20
2.712605727682959
 30
0.0
 10
85.84041604550366
 20
2.055980814065187
 30
0.0
 10
86.16676494208703
 20
1.709408316139749
 30
0.0
 10
86.58020637078972
 20
1.15766872765957
 30
0.0
 10
86.70605386656788
 20
0.9677941179592862
 30
0.0
 10
86.93147324213254
 20
0.5708140189449734
 30
0.0
 10
87.03146345920528
 20
0.3627374495305964
 30
0.0
 10
87.1993841648534
 20
-0.0734092848014045
 30
0.0
 10
87.26658007944077
 20
-0.2991265191012043
 30
0.0
 10
87.36404414777785
 20
-0.7714249524619012
 30
0.0
 10
87.39438189334822
 20
-1.020792387948109
 30
0.0
 10
87.41068847920938
 20
-1.532398623623706
 30
0.0
 10
87.39722789394771
 20
-1.793934800676087
 30
0.0
 10
87.34065468230575
 20
-2.197556554459313
 30
0.0
 10
87.31561821460093
 20
-2.33363916415035
 30
0.0
 10
87.25446079369955
 20
-2.60148990593947
 30
0.0
 10
87.21821962901232
 20
-2.734270877486865
 30
0.0
 10
87.09240653917036
 20
-3.129196972441332
 30
0.0
 10
86.98356065085413
 20
-3.391924034597783
 30
0.0
 10
86.7304187241609
 20
-3.879595636827184
 30
0.0
 10
86.58502312120842
 20
-4.108184996518816
 30
0.0
 10
86.26493014340106
 20
-4.524954903988716
 30
0.0
 10
86.09367980577376
 20
-4.709329669193618
 30
0.0
 10
85.72930537407366
 20
-5.036030216305313
 30
0.0
 10
85.53886127629079
 20
-5.175465838432618
 30
0.0
 10
84.95524184674125
 20
-5.524786618544919
 30
0.0
 10
84.53921269613507
 20
-5.671231110345926
 30
0.0
 10
83.9085853706158
 20
-5.781587091825324
 30
0.0
 10
83.69603215271057
 20
-5.800795865695981
 30
0.0
 10
83.26430653425074
 20
-5.808288942503354
 30
0.0
 10
83.04389008018401
 20
-5.796328205753373
 30
0.0
 10
82.38247411953981
 20
-5.719729763471216
 30
0.0
 10
81.93979987969402
 20
-5.615325859056457
 30
0.0
 10
81.03433209980884
 20
-5.329724341671894
 30
0.0
 10
80.56826305542683
 20
-5.146133087930241
 30
0.0
 10
79.63129991383481
 20
-4.729610894202867
 30
0.0
 10
79.15855050046376
 20
-4.495826616150366
 30
0.0
 10
78.675
 20
-4.245690863311426
 30
0.0
  0
SPLINE
  5
AD
330
1F
100
AcDbEntity
  8
0
  6
Continuous
 62
     1
370
    15
100
AcDbSpline
210
0.0
220
0.0
230
1.0
 70
     8
 71
     3
 72
    18
 73
    14
 74
     0
 42
0.000000001
 43
0.00000001
 40
0.0
 40
0.0
 40
0.0
 40
0.0
 40
0.0946560462134457
 40
0.1893142615430073
 40
0.2839743740621438
 40
0.3786463634752771
 40
0.4733197113506304
 40
0.5679941421485459
 40
0.6626693800237566
 40
0.7573451489031513
 40
0.8520211725636667
 40
0.9466971747102871
 40
1.0
 40
1.0
 40
1.0
 40
1.0
 10
78.67500000000001
 20
-4.245690863311429
 30
0.0
 10
77.61682444118716
 20
-3.683616193595862
 30
0.0
 10
75.50044907465444
 20
-2.559453973791277
 30
0.0
 10
72.32583373359809
 20
-0.7367454703478069
 30
0.0
 10
69.15102876061009
 20
1.101983888566587
 30
0.0
 10
65.97604286402445
 20
2.903147402668139
 30
0.0
 10
62.80088800569915
 20
4.596297957112276
 30
0.0
 10
59.62568950980483
 20
6.120275212417477
 30
0.0
 10
56.45045856182948
 20
7.41702844773854
 30
0.0
 10
53.27520620374997
 20
8.4443447865756
 30
0.0
 10
50.09994373454779
 20
9.143371922059641
 30
0.0
 10
47.38720593769398
 20
9.504685388477982
 30
0.0
 10
45.73289173067039
 20
9.487739709453784
 30
0.0
 10
45.13699823239808
 20
9.481635778343565
 30
0.0
  0
SPLINE
  5
AE
330
1F
100
AcDbEntity
  8
0
  6
Continuous
 62
     1
370
    15
100
AcDbSpline
210
0.0
220
0.0
230
1.0
 70
     8
 71
     3
 72
    24
 73
    20
 74
     0
 42
0.000000001
 43
0.00000001
 40
0.0
 40
0.0
 40
0.0
 40
0.0
 40
0.0596213370789583
 40
0.119244590991901
 40
0.1788695904408801
 40
0.2384961636376492
 40
0.2981241383514555
 40
0.3577533419571012
 40
0.4173836014832403
 40
0.4770147436608886
 40
0.5366465949721138
 40
0.5962789816988743
 40
0.6559117299719823
 40
0.7155446658201593
 40
0.7751776152191487
 40
0.8348104041408697
 40
0.8944428586025616
 40
0.9540748047159128
 40
1.0
 40
1.0
 40
1.0
 40
1.0
 10
12.00000000000001
 20
9.489972684307281
 30
0.0
 10
13.05817303430721
 20
9.508400591377015
 30
0.0
 10
15.17455312332666
 20
9.545256997976175
 30
0.0
 10
18.34919758267534
 20
9.15424929197583
 30
0.0
 10
21.52395194941893
 20
8.450413201776746
 30
0.0
 10
24.6988072744727
 20
7.42782691536148
 30
0.0
 10
27.87375201687374
 20
6.132785801916188
 30
0.0
 10
31.04877529618229
 20
4.610810193439571
 30
0.0
 10
34.22386602500831
 20
2.918707182400324
 30
0.0
 10
37.39901314558206
 20
1.118788436363642
 30
0.0
 10
40.57420557026046
 20
-0.7224358283183302
 30
0.0
 10
43.7494322022837
 20
-2.53700922106775
 30
0.0
 10
46.92468193166249
 20
-4.257850394806541
 30
0.0
 10
50.0999436503417
 20
-5.821689629000119
 30
0.0
 10
53.27520621516361
 20
-7.169758896188311
 30
0.0
 10
56.45045860038059
 20
-8.256091057510737
 30
0.0
 10
59.62568934418869
 20
-9.026350390603826
 30
0.0
 10
62.5576211375985
 20
-9.468493612904009
 30
0.0
 10
64.43113733992467
 20
-9.486141885135183
 30
0.0
 10
65.2462560170758
 20
-9.493820194133638
 30
0.0
  0
SPLINE
  5
AF
330
1F
100
AcDbEntity
  8
0
  6
Continuous
 62
     1
370
    15
100
AcDbSpline
210
0.0
220
0.0
230
1.0
 70
     8
 71
     3
 72
    21
 73
    17
 74
     0
 42
0.000000001
 43
0.00000001
 40
0.0
 40
0.0
 40
0.0
 40
0.0
 40
0.0443423367366868
 40
0.1178592752515153
 40
0.1913761970605757
 40
0.2648928876225661
 40
0.3384091324614979
 40
0.4119247172272421
 40
0.4854394277560062
 40
0.5589530501306984
 40
0.6324653707411351
 40
0.7059761763440685
 40
0.7794852541229897
 40
0.8529923917476727
 40
0.9264973774334238
 40
1.0
 40
1.0
 40
1.0
 40
1.0
 10
55.19039477270788
 20
-7.775907833506334
 30
0.0
 10
54.55199951378907
 20
-7.990367045478692
 30
0.0
 10
52.85518315097612
 20
-8.560386786300361
 30
0.0
 10
50.09994357233984
 20
-9.145763844060482
 30
0.0
 10
46.92468195256295
 20
-9.529918007987991
 30
0.0
 10
43.74943219668341
 20
-9.549523129323239
 30
0.0
 10
40.57420557176098
 20
-9.219907980230365
 30
0.0
 10
37.39901314517998
 20
-8.548947433957796
 30
0.0
 10
34.22386602511602
 20
-7.562568461188465
 30
0.0
 10
31.04877529615344
 20
-6.296907884262848
 30
0.0
 10
27.87375201688149
 20
-4.798717496155612
 30
0.0
 10
24.69880727447064
 20
-3.123560243367129
 30
0.0
 10
21.52395194941949
 20
-1.332324215097288
 30
0.0
 10
18.34919758267517
 20
0.5052160623261147
 30
0.0
 10
15.17455312332671
 20
2.334783983626024
 30
0.0
 10
13.05817303430724
 20
3.470407511658601
 30
0.0
 10
12.0
 20
4.038210148209425
 30
0.0
  0
LINE
  5
B0
330
1F
100
AcDbEntity
  8
외형선
  6
Continuous
370
    15
100
AcDbLine
 10
12.0
 20
0.816114851661095
 30
0.0
 11
12.0
 21
4.038210148209425
 31
0.0
  0
LINE
  5
B1
330
1F
100
AcDbEntity
  8
외형선
  6
Continuous
370
    15
100
AcDbLine
 10
12.0
 20
-9.489972684307283
 30
0.0
 11
12.0
 21
-8.62661485166098
 31
0.0
  0
LINE
  5
B2
330
1F
100
AcDbEntity
  8
외형선
  6
Continuous
370
    15
100
AcDbLine
 10
-43.24499999999999
 20
-0.0000000000000002
 30
0.0
 11
-43.24499999999999
 21
9.525000000000002
 31
0.0
  0
LINE
  5
B3
330
1F
100
AcDbEntity
  8
외형선
  6
Continuous
370
    15
100
AcDbLine
 10
-43.24499999999999
 20
-9.525000000000002
 30
0.0
 11
-43.24499999999999
 21
-0.0000000000000002
 31
0.0
  0
LINE
  5
B4
330
1F
100
AcDbEntity
  8
외형선
  6
Continuous
370
    15
100
AcDbLine
 10
-45.14999999999999
 20
-0.0000000000000002
 30
0.0
 11
-45.14999999999999
 21
7.620000000000014
 31
0.0
  0
LINE
  5
B5
330
1F
100
AcDbEntity
  8
외형선
  6
Continuous
370
    15
100
AcDbLine
 10
-45.14999999999999
 20
-7.620000000000024
 30
0.0
 11
-45.14999999999999
 21
-0.0000000000000002
 31
0.0
  0
LINE
  5
B6
330
1F
100
AcDbEntity
  8
외형선
  6
Continuous
370
    15
100
AcDbLine
 10
12.0
 20
-0.0000000000000002
 30
0.0
 11
12.0
 21
9.525000000000002
 31
0.0
  0
LINE
  5
B7
330
1F
100
AcDbEntity
  8
외형선
  6
Continuous
370
    15
100
AcDbLine
 10
12.0
 20
-9.525000000000002
 30
0.0
 11
12.0
 21
-0.0000000000000002
 31
0.0
  0
LINE
  5
B8
330
1F
100
AcDbEntity
  8
중심선
100
AcDbLine
 10
-48.15000000000001
 20
-0.0000000000000002
 30
0.0
 11
91.20000000000002
 21
0.0000000000000125
 31
0.0
  0
LINE
  5
B9
330
1F
100
AcDbEntity
  8
참조1
100
AcDbLine
 10
98.98676131403118
 20
0.0010749287238931
 30
0.0
 11
98.98676131403118
 21
1.655200094750598
 31
0.0
  0
LINE
  5
BA
330
1F
100
AcDbEntity
  8
참조1
100
AcDbLine
 10
32.31176131403119
 20
0.0010749287238892
 30
0.0
 11
32.31176131403119
 21
-39.99892507127611
 31
0.0
  0
LINE
  5
BB
330
1F
100
AcDbEntity
  8
참조1
100
AcDbLine
 10
32.31176131403119
 20
-39.99892507127611
 30
0.0
 11
-20.1533455002775
 21
-39.9989250712761
 31
0.0
  0
CIRCLE
  5
BC
330
1F
100
AcDbEntity
  8
해칭선
100
AcDbCircle
 10
0.0
 20
0.0
 30
0.0
 40
3.000000000000002
  0
INSERT
  5
BD
330
1F
100
AcDbEntity
  8
0
  6
Continuous
 62
     7
100
AcDbBlockReference
 66
     1
  2
블럭10
 10
7.584727067874795
 20
-52.04717430164393
 30
0.0
  0
ATTRIB
  5
BE
330
BD
100
AcDbEntity
  8
FORMAT
 62
     2
100
AcDbText
 10
-1.596568220866484
 20
-49.97180738881175
 30
0.0
 40
4.233333333333333
  1
E2021048 [ 4 FLUTE ]
 41
0.75
  7
SLDTEXTSTYLE0
 11
-1.596568220866484
 21
-52.08847405547841
 31
0.0
100
AcDbAttribute
  2
AUTOATTR0
 70
     0
 74
     1
  0
SEQEND
  5
BF
330
BD
100
AcDbEntity
  8
0
  6
Continuous
 62
     7
  0
HATCH
  5
C0
330
1F
100
AcDbEntity
  8
중심선
100
AcDbHatch
 10
0.0
 20
0.0
 30
0.0
210
0.0
220
0.0
230
1.0
  2
SOLID
 70
     1
 71
     0
 91
        1
 92
        0
 93
        4
 72
     1
 10
13.29963637225564
 20
-35.8
 11
9.853361128418353
 21
-35.8
 72
     1
 10
9.853361128418353
 20
-35.8
 11
7.72513126921433
 21
-38.33632558057257
 72
     1
 10
7.72513126921433
 20
-38.33632558057257
 11
11.17143959816479
 21
-38.33628615127008
 72
     1
 10
11.17143959816479
 20
-38.33628615127008
 11
13.29963637225564
 21
-35.8
 97
        0
 75
     0
 76
     1
 98
        1
 10
-10.78676131403118
 20
-0.0010749287238934
  0
HATCH
  5
C1
330
1F
100
AcDbEntity
  8
중심선
100
AcDbHatch
 10
0.0
 20
0.0
 30
0.0
210
0.0
220
0.0
230
1.0
  2
SOLID
 70
     1
 71
     0
 91
        1
 92
        0
 93
        4
 72
     1
 10
18.31240036329164
 20
-35.79999999999998
 11
14.86612511945436
 21
-35.79999999999998
 72
     1
 10
14.86612511945436
 20
-35.79999999999998
 11
10.33498711109692
 21
-41.20000000000002
 72
     1
 10
10.33498711109692
 20
-41.20000000000002
 11
13.7812623549342
 21
-41.20000000000002
 72
     1
 10
13.7812623549342
 20
-41.20000000000002
 11
18.31240036329164
 21
-35.79999999999998
 97
        0
 75
     0
 76
     1
 98
        1
 10
-10.78676131403118
 20
-0.0010749287238934
  0
HATCH
  5
C2
330
1F
100
AcDbEntity
  8
중심선
100
AcDbHatch
 10
0.0
 20
0.0
 30
0.0
210
0.0
220
0.0
230
1.0
  2
SOLID
 70
     1
 71
     0
 91
        1
 92
        0
 93
        4
 72
     1
 10
23.32516435432748
 20
-35.79999999999998
 11
19.87888911049037
 21
-35.8
 72
     1
 10
19.87888911049037
 20
-35.8
 11
12.83045220860112
 21
-44.20000000000002
 72
     1
 10
12.83045220860112
 20
-44.20000000000002
 11
16.2767274524384
 21
-44.20000000000002
 72
     1
 10
16.2767274524384
 20
-44.20000000000002
 11
23.32516435432748
 21
-35.79999999999998
 97
        0
 75
     0
 76
     1
 98
        1
 10
-10.78676131403118
 20
-0.0010749287238934
  0
HATCH
  5
C3
330
1F
100
AcDbEntity
  8
중심선
100
AcDbHatch
 10
0.0
 20
0.0
 30
0.0
210
0.0
220
0.0
230
1.0
  2
SOLID
 70
     1
 71
     0
 91
        1
 92
        0
 93
        6
 72
     3
 10
28.12505478533968
 20
-40.00000000005127
 11
3.960054785062287
 21
1.540882976769353E-10
 40
0.3939339440162625
 50
17.09539180608455
 51
320.0019657685075
 73
     0
 72
     1
 10
29.80805444104025
 20
-38.5878940046383
 11
32.11335631474124
 21
-36.65356729459038
 72
     3
 10
28.12505478528684
 20
-40.00000000000015
 11
6.600054785286826
 21
-1.278976924368180E-13
 40
0.6363583540795983
 50
39.9987384933747
 51
368.4976242363725
 73
     1
 72
     1
 10
34.55038727718741
 20
-39.03999999993002
 11
26.80512209212273
 21
-39.03999999993002
 72
     1
 10
26.80512209212273
 20
-39.03999999993002
 11
26.80509704767683
 21
-40.95999999992991
 72
     1
 10
26.80509704767683
 20
-40.95999999992991
 11
31.24647681714884
 21
-40.95999999992988
 97
        0
 75
     0
 76
     1
 98
        1
 10
-10.78676131403118
 20
-0.0010749287238934
  0
DIMENSION
  5
C4
330
1F
100
AcDbEntity
  8
치수문자_일반주서
100
AcDbDimension
  2
_D
 10
11.99999999999997
 20
16.38210276764059
 30
0.0
 11
51.40508784737567
 21
16.38210276764059
 31
0.0
 70
   160
  1
<>
 71
     2
 42
76.19999999999999
  3
SLDDIMSTYLE1
100
AcDbAlignedDimension
 13
88.19999999999996
 23
9.525000000000013
 33
0.0
 14
11.99999999999997
 24
9.48997268430729
 34
0.0
 50
0.000000000000004
100
AcDbRotatedDimension
1001
ACAD
1000
DSTYLE
1002
{
1070
   171
1070
     6
1070
   273
1070
     7
1002
}
  0
DIMENSION
  5
D9
330
1F
100
AcDbEntity
  8
치수문자_일반주서
100
AcDbDimension
  2
_D_1
 10
-45.15000000000001
 20
31.60914679328081
 30
0.0
 11
21.52500000000001
 21
31.60914679328081
 31
0.0
 70
   160
  1
<>
 71
     2
 42
133.35
  3
SLDDIMSTYLE1
100
AcDbAlignedDimension
 13
88.19999999999996
 23
9.525000000000013
 33
0.0
 14
-45.15000000000001
 24
7.620000000000015
 34
0.0
 50
0.0000000000000031
100
AcDbRotatedDimension
1001
ACAD
1000
DSTYLE
1002
{
1070
   171
1070
     6
1070
   273
1070
     7
1002
}
  0
DIMENSION
  5
ED
330
1F
100
AcDbEntity
  8
치수문자_일반주서
100
AcDbDimension
  2
_D_2
 10
-57.19749999999997
 20
-9.52500000000006
 30
0.0
 11
-57.19750000000001
 21
0.0000000000000024
 31
0.0
 70
   160
  1
%%c<>
 71
     2
 42
19.05000000000001
 52
-270.0
  3
SLDDIMSTYLE1
100
AcDbAlignedDimension
 13
-43.245
 23
9.525000000000006
 33
0.0
 14
-43.245
 24
-9.525000000000006
 34
0.0
 50
90.0000000000002
100
AcDbRotatedDimension
1001
ACAD
1000
DSTYLE
1002
{
1070
   171
1070
     6
1070
   273
1070
     7
1002
}
  0
DIMENSION
  5
102
330
1F
100
AcDbEntity
  8
치수문자_일반주서
100
AcDbDimension
  2
_D_3
 10
107.0479660954456
 20
-9.52499999999992
 30
0.0
 11
107.0479660954455
 21
31.57299365054094
 31
0.0
 70
   160
  1
%%c<>
 71
     2
 42
19.05
 52
-270.0
  3
SLDDIMSTYLE1
100
AcDbAlignedDimension
 13
88.19999999999996
 23
9.525000000000013
 33
0.0
 14
88.19999999999996
 24
-9.524999999999988
 34
0.0
 50
90.0000000000002
100
AcDbRotatedDimension
1001
ACAD
1000
DSTYLE
1002
{
1070
   171
1070
     6
1070
   273
1070
     7
1002
}
  0
LINE
  5
115
330
1F
100
AcDbEntity
  8
참조1
100
AcDbLine
 10
77.81899512937676
 20
7.441074928723896
 30
0.0
 11
77.81899512937676
 21
-7.438925071276109
 31
0.0
  0
LINE
  5
116
330
1F
100
AcDbEntity
  8
참조1
100
AcDbLine
 10
90.51899512937676
 20
5.441074928723896
 30
0.0
 11
77.81899512937676
 21
5.441074928723896
 31
0.0
  0
SOLID
  5
117
330
1F
100
AcDbEntity
  8
참조1
100
AcDbTrace
 10
77.81899512937676
 20
5.441074928723896
 30
0.0
 11
84.16899512937675
 21
4.425074928723896
 31
0.0
 12
84.16899512937675
 22
6.457074928723896
 32
0.0
 13
84.16899512937675
 23
6.457074928723896
 33
0.0
  0
LINE
  5
118
330
1F
100
AcDbEntity
  8
참조1
100
AcDbLine
 10
90.51899512937676
 20
-5.438925071276109
 30
0.0
 11
77.81899512937676
 21
-5.438925071276109
 31
0.0
  0
SOLID
  5
119
330
1F
100
AcDbEntity
  8
참조1
100
AcDbTrace
 10
77.81899512937676
 20
-5.438925071276109
 30
0.0
 11
84.16899512937675
 21
-6.454925071276109
 31
0.0
 12
84.16899512937675
 22
-4.422925071276109
 32
0.0
 13
84.16899512937675
 23
-4.422925071276109
 33
0.0
  0
MTEXT
  5
11A
330
1F
100
AcDbEntity
  8
참조1
100
AcDbMText
 10
87.21648522184704
 20
10.98929157337383
 30
0.0
 40
3.5
 41
0.0
 71
     1
 72
     1
  1
A
  7
SLDTEXTSTYLE0
 73
     1
 44
1.0
  0
MTEXT
  5
11B
330
1F
100
AcDbEntity
  8
참조1
100
AcDbMText
 10
87.21648522184704
 20
0.1092915733738259
 30
0.0
 40
3.5
 41
0.0
 71
     1
 72
     1
  1
A
  7
SLDTEXTSTYLE0
 73
     1
 44
1.0
  0
INSERT
  5
122
330
1F
100
AcDbEntity
  8
해칭선
100
AcDbBlockReference
  2
SW_DOWELSYMBOL_0
 10
0.0
 20
0.0
 30
0.0
  0
LINE
  5
2D1
330
1F
100
AcDbEntity
  8
외형선
  6
Continuous
370
    15
100
AcDbLine
 10
-25.14432499999997
 20
7.619999999999999
 30
0.0
 11
-13.56192499999996
 21
7.619999999999999
 31
0.0
  0
LINE
  5
2D2
330
1F
100
AcDbEntity
  8
외형선
  6
Continuous
370
    15
100
AcDbLine
 10
-25.14432499999997
 20
7.619999999999985
 30
0.0
 11
-27.04932500000011
 21
9.525000000000015
 31
0.0
  0
LINE
  5
2D3
330
1F
100
AcDbEntity
  8
외형선
  6
Continuous
370
    15
100
AcDbLine
 10
-13.56192499999996
 20
7.619999999999985
 30
0.0
 11
-11.65692499999999
 21
9.525000000000015
 31
0.0
  0
LINE
  5
2D5
330
1F
100
AcDbEntity
  8
외형선
  6
Continuous
370
    15
100
AcDbLine
 10
-27.04932500000011
 20
9.525000000000002
 30
0.0
 11
-43.24499999999999
 21
9.525000000000002
 31
0.0
  0
ENDSEC
  0
SECTION
  2
OBJECTS
  0
DICTIONARY
  5
C
330
0
100
AcDbDictionary
281
     1
  3
ACAD_GROUP
350
D
  3
ACAD_IMAGE_VARS
350
146
  3
ACAD_LAYOUT
350
1A
  3
ACAD_MLINESTYLE
350
17
  3
ACAD_PLOTSETTINGS
350
19
  3
ACAD_PLOTSTYLENAME
350
E
  3
ACAD_SCALELIST
350
47
  3
APPDATA
350
144
  3
DWGPROPS
350
2D8
  0
DICTIONARY
  5
174
330
2
100
AcDbDictionary
280
     1
281
     1
  3
ACAD_LAYERSTATES
360
175
  0
DICTIONARY
  5
D
102
{ACAD_REACTORS
330
C
102
}
330
C
100
AcDbDictionary
281
     1
  0
RASTERVARIABLES
  5
146
102
{ACAD_REACTORS
330
C
102
}
330
C
100
AcDbRasterVariables
 90
        0
 70
     1
 71
     1
 72
     1
  0
DICTIONARY
  5
1A
102
{ACAD_REACTORS
330
C
102
}
330
C
100
AcDbDictionary
281
     1
  3
Layout1
350
1E
  3
Layout2
350
26
  3
Model
350
22
  0
DICTIONARY
  5
17
102
{ACAD_REACTORS
330
C
102
}
330
C
100
AcDbDictionary
281
     1
  3
Standard
350
18
  0
DICTIONARY
  5
19
102
{ACAD_REACTORS
330
C
102
}
330
C
100
AcDbDictionary
281
     1
  0
ACDBDICTIONARYWDFLT
  5
E
102
{ACAD_REACTORS
330
C
102
}
330
C
100
AcDbDictionary
281
     1
  3
Normal
350
F
100
AcDbDictionaryWithDefault
340
F
  0
DICTIONARY
  5
47
102
{ACAD_REACTORS
330
C
102
}
330
C
100
AcDbDictionary
281
     1
  3
A0
350
48
  3
A1
350
49
  3
A2
350
4A
  3
A3
350
4B
  3
A4
350
4C
  3
A5
350
4D
  3
A6
350
4E
  3
A7
350
4F
  3
A8
350
50
  3
A9
350
51
  3
B0
350
52
  3
B1
350
53
  3
B2
350
54
  3
B3
350
55
  3
B4
350
56
  3
B5
350
57
  3
B6
350
58
  3
B7
350
59
  3
B8
350
5A
  3
B9
350
5B
  3
C0
350
5C
  3
C1
350
5D
  3
C2
350
5E
  3
C3
350
5F
  3
C4
350
60
  3
C5
350
61
  3
C6
350
62
  3
C7
350
63
  3
C8
350
64
  3
C9
350
65
  3
D0
350
66
  3
D1
350
67
  3
D2
350
68
  0
DICTIONARY
  5
144
102
{ACAD_REACTORS
330
C
102
}
330
C
100
AcDbDictionary
281
     1
  0
XRECORD
  5
2D8
102
{ACAD_REACTORS
330
C
102
}
330
C
100
AcDbXrecord
280
     1
  1
DWGPROPS COOKIE
  2

  3

  4

  6

  7

  8
12017012
  9

300
=
301
=
302
=
303
=
304
=
305
=
306
=
307
=
308
=
309
=
 40
0.0
 41
2458323.304553819
 42
2458324.062109618
  1

 90
        0
  0
DICTIONARY
  5
175
102
{ACAD_REACTORS
330
174
102
}
330
174
100
AcDbDictionary
281
     1
  0
LAYOUT
  5
1E
102
{ACAD_REACTORS
330
1A
102
}
330
1A
100
AcDbPlotSettings
  1

  2
none_device
  4

  6

 40
0.0
 41
0.0
 42
0.0
 43
0.0
 44
0.0
 45
0.0
 46
0.0
 47
0.0
 48
0.0
 49
0.0
140
0.0
141
0.0
142
1.0
143
1.0
 70
   688
 72
     1
 73
     0
 74
     5
  7

 75
    16
147
1.0
148
0.0
149
0.0
100
AcDbLayout
  1
Layout1
 70
     1
 71
     1
 10
0.0
 20
0.0
 11
420.0
 21
297.0
 12
0.0
 22
0.0
 32
0.0
 14
1.000000000000000E+20
 24
1.000000000000000E+20
 34
1.000000000000000E+20
 15
-1.000000000000000E+20
 25
-1.000000000000000E+20
 35
-1.000000000000000E+20
146
0.0
 13
0.0
 23
0.0
 33
0.0
 16
1.0
 26
0.0
 36
0.0
 17
0.0
 27
1.0
 37
0.0
 76
     0
330
1B
  0
LAYOUT
  5
26
102
{ACAD_REACTORS
330
1A
102
}
330
1A
100
AcDbPlotSettings
  1

  2
none_device
  4

  6

 40
0.0
 41
0.0
 42
0.0
 43
0.0
 44
0.0
 45
0.0
 46
0.0
 47
0.0
 48
0.0
 49
0.0
140
0.0
141
0.0
142
1.0
143
1.0
 70
   688
 72
     1
 73
     0
 74
     5
  7

 75
    16
147
1.0
148
0.0
149
0.0
100
AcDbLayout
  1
Layout2
 70
     1
 71
     2
 10
0.0
 20
0.0
 11
0.0
 21
0.0
 12
0.0
 22
0.0
 32
0.0
 14
0.0
 24
0.0
 34
0.0
 15
0.0
 25
0.0
 35
0.0
146
0.0
 13
0.0
 23
0.0
 33
0.0
 16
1.0
 26
0.0
 36
0.0
 17
0.0
 27
1.0
 37
0.0
 76
     0
330
23
  0
LAYOUT
  5
22
102
{ACAD_REACTORS
330
1A
102
}
330
1A
100
AcDbPlotSettings
  1

  2
none_device
  4
ANSI_A_(11.00_x_8.50_Inches)
  6

 40
6.35
 41
19.05
 42
6.35000508
 43
19.05000254
 44
279.4
 45
215.9
 46
96.30048216572271
 47
43.17679658125459
 48
0.0
 49
0.0
140
0.0
141
0.0
142
0.0474689590334287
143
1.0
 70
  1696
 72
     0
 73
     0
 74
     0
  7

 75
     0
147
0.0235690232323232
148
0.0
149
0.0
100
AcDbLayout
  1
Model
 70
     1
 71
     0
 10
0.0
 20
0.0
 11
420.0
 21
297.0
 12
0.0
 22
0.0
 32
0.0
 14
1.000000000000000E+20
 24
1.000000000000000E+20
 34
1.000000000000000E+20
 15
-1.000000000000000E+20
 25
-1.000000000000000E+20
 35
-1.000000000000000E+20
146
0.0
 13
0.0
 23
0.0
 33
0.0
 16
1.0
 26
0.0
 36
0.0
 17
0.0
 27
1.0
 37
0.0
 76
     0
330
1F
331
29
  0
MLINESTYLE
  5
18
102
{ACAD_REACTORS
330
17
102
}
330
17
100
AcDbMlineStyle
  2
Standard
 70
     0
  3

 62
   256
 51
90.0
 52
90.0
 71
     2
 49
0.5
 62
   256
  6
BYLAYER
 49
-0.5
 62
   256
  6
BYLAYER
  0
ACDBPLACEHOLDER
  5
F
102
{ACAD_REACTORS
330
E
102
}
330
E
  0
SCALE
  5
48
102
{ACAD_REACTORS
330
47
102
}
330
47
100
AcDbScale
 70
     0
300
1:1
140
1.0
141
1.0
290
     1
  0
SCALE
  5
49
102
{ACAD_REACTORS
330
47
102
}
330
47
100
AcDbScale
 70
     0
300
1:2
140
1.0
141
2.0
290
     0
  0
SCALE
  5
4A
102
{ACAD_REACTORS
330
47
102
}
330
47
100
AcDbScale
 70
     0
300
1:4
140
1.0
141
4.0
290
     0
  0
SCALE
  5
4B
102
{ACAD_REACTORS
330
47
102
}
330
47
100
AcDbScale
 70
     0
300
1:5
140
1.0
141
5.0
290
     0
  0
SCALE
  5
4C
102
{ACAD_REACTORS
330
47
102
}
330
47
100
AcDbScale
 70
     0
300
1:8
140
1.0
141
8.0
290
     0
  0
SCALE
  5
4D
102
{ACAD_REACTORS
330
47
102
}
330
47
100
AcDbScale
 70
     0
300
1:10
140
1.0
141
10.0
290
     0
  0
SCALE
  5
4E
102
{ACAD_REACTORS
330
47
102
}
330
47
100
AcDbScale
 70
     0
300
1:16
140
1.0
141
16.0
290
     0
  0
SCALE
  5
4F
102
{ACAD_REACTORS
330
47
102
}
330
47
100
AcDbScale
 70
     0
300
1:20
140
1.0
141
20.0
290
     0
  0
SCALE
  5
50
102
{ACAD_REACTORS
330
47
102
}
330
47
100
AcDbScale
 70
     0
300
1:30
140
1.0
141
30.0
290
     0
  0
SCALE
  5
51
102
{ACAD_REACTORS
330
47
102
}
330
47
100
AcDbScale
 70
     0
300
1:40
140
1.0
141
40.0
290
     0
  0
SCALE
  5
52
102
{ACAD_REACTORS
330
47
102
}
330
47
100
AcDbScale
 70
     0
300
1:50
140
1.0
141
50.0
290
     0
  0
SCALE
  5
53
102
{ACAD_REACTORS
330
47
102
}
330
47
100
AcDbScale
 70
     0
300
1:100
140
1.0
141
100.0
290
     0
  0
SCALE
  5
54
102
{ACAD_REACTORS
330
47
102
}
330
47
100
AcDbScale
 70
     0
300
2:1
140
2.0
141
1.0
290
     0
  0
SCALE
  5
55
102
{ACAD_REACTORS
330
47
102
}
330
47
100
AcDbScale
 70
     0
300
4:1
140
4.0
141
1.0
290
     0
  0
SCALE
  5
56
102
{ACAD_REACTORS
330
47
102
}
330
47
100
AcDbScale
 70
     0
300
8:1
140
8.0
141
1.0
290
     0
  0
SCALE
  5
57
102
{ACAD_REACTORS
330
47
102
}
330
47
100
AcDbScale
 70
     0
300
10:1
140
10.0
141
1.0
290
     0
  0
SCALE
  5
58
102
{ACAD_REACTORS
330
47
102
}
330
47
100
AcDbScale
 70
     0
300
100:1
140
100.0
141
1.0
290
     0
  0
SCALE
  5
59
102
{ACAD_REACTORS
330
47
102
}
330
47
100
AcDbScale
 70
     0
300
1/128" = 1'-0"
140
0.0078125
141
12.0
290
     0
  0
SCALE
  5
5A
102
{ACAD_REACTORS
330
47
102
}
330
47
100
AcDbScale
 70
     0
300
1/64" = 1'-0"
140
0.015625
141
12.0
290
     0
  0
SCALE
  5
5B
102
{ACAD_REACTORS
330
47
102
}
330
47
100
AcDbScale
 70
     0
300
1/32" = 1'-0"
140
0.03125
141
12.0
290
     0
  0
SCALE
  5
5C
102
{ACAD_REACTORS
330
47
102
}
330
47
100
AcDbScale
 70
     0
300
1/16" = 1'-0"
140
0.0625
141
12.0
290
     0
  0
SCALE
  5
5D
102
{ACAD_REACTORS
330
47
102
}
330
47
100
AcDbScale
 70
     0
300
3/32" = 1'-0"
140
0.09375
141
12.0
290
     0
  0
SCALE
  5
5E
102
{ACAD_REACTORS
330
47
102
}
330
47
100
AcDbScale
 70
     0
300
1/8" = 1'-0"
140
0.125
141
12.0
290
     0
  0
SCALE
  5
5F
102
{ACAD_REACTORS
330
47
102
}
330
47
100
AcDbScale
 70
     0
300
3/16" = 1'-0"
140
0.1875
141
12.0
290
     0
  0
SCALE
  5
60
102
{ACAD_REACTORS
330
47
102
}
330
47
100
AcDbScale
 70
     0
300
1/4" = 1'-0"
140
0.25
141
12.0
290
     0
  0
SCALE
  5
61
102
{ACAD_REACTORS
330
47
102
}
330
47
100
AcDbScale
 70
     0
300
3/8" = 1'-0"
140
0.375
141
12.0
290
     0
  0
SCALE
  5
62
102
{ACAD_REACTORS
330
47
102
}
330
47
100
AcDbScale
 70
     0
300
1/2" = 1'-0"
140
0.5
141
12.0
290
     0
  0
SCALE
  5
63
102
{ACAD_REACTORS
330
47
102
}
330
47
100
AcDbScale
 70
     0
300
3/4" = 1'-0"
140
0.75
141
12.0
290
     0
  0
SCALE
  5
64
102
{ACAD_REACTORS
330
47
102
}
330
47
100
AcDbScale
 70
     0
300
1" = 1'-0"
140
1.0
141
12.0
290
     0
  0
SCALE
  5
65
102
{ACAD_REACTORS
330
47
102
}
330
47
100
AcDbScale
 70
     0
300
1-1/2" = 1'-0"
140
1.5
141
12.0
290
     0
  0
SCALE
  5
66
102
{ACAD_REACTORS
330
47
102
}
330
47
100
AcDbScale
 70
     0
300
3" = 1'-0"
140
3.0
141
12.0
290
     0
  0
SCALE
  5
67
102
{ACAD_REACTORS
330
47
102
}
330
47
100
AcDbScale
 70
     0
300
6" = 1'-0"
140
6.0
141
12.0
290
     0
  0
SCALE
  5
68
102
{ACAD_REACTORS
330
47
102
}
330
47
100
AcDbScale
 70
     0
300
1'-0" = 1'-0"
140
12.0
141
12.0
290
     0
  0
ENDSEC
  0
EOF
