  0
SECTION
  2
HEADER
  9
$ACADVER
  1
AC1015
  9
$ACADMAINTVER
 70
     6
  9
$DWGCODEPAGE
  3
ANSI_949
  9
$INSBASE
 10
0.0
 20
0.0
 30
0.0
  9
$EXTMIN
 10
1.000000000000000E+20
 20
1.000000000000000E+20
 30
1.000000000000000E+20
  9
$EXTMAX
 10
-1.000000000000000E+20
 20
-1.000000000000000E+20
 30
-1.000000000000000E+20
  9
$LIMMIN
 10
0.0
 20
0.0
  9
$LIMMAX
 10
420.0
 20
297.0
  9
$ORTHOMODE
 70
     1
  9
$REGENMODE
 70
     1
  9
$FILLMODE
 70
     1
  9
$QTEXTMODE
 70
     0
  9
$MIRRTEXT
 70
     1
  9
$LTSCALE
 40
1.0
  9
$ATTMODE
 70
     1
  9
$TEXTSIZE
 40
3.5
  9
$TRACEWID
 40
1.0
  9
$TEXTSTYLE
  7
Standard
  9
$CLAYER
  8
0
  9
$CELTYPE
  6
ByLayer
  9
$CECOLOR
 62
   256
  9
$CELTSCALE
 40
1.0
  9
$DISPSILH
 70
     0
  9
$DIMSCALE
 40
1.0
  9
$DIMASZ
 40
3.302
  9
$DIMEXO
 40
1.0
  9
$DIMDLI
 40
3.75
  9
$DIMRND
 40
0.0
  9
$DIMDLE
 40
0.0
  9
$DIMEXE
 40
1.0
  9
$DIMTP
 40
0.0
  9
$DIMTM
 40
0.0
  9
$DIMTXT
 40
3.5
  9
$DIMCEN
 40
2.5
  9
$DIMTSZ
 40
0.0
  9
$DIMTOL
 70
     0
  9
$DIMLIM
 70
     0
  9
$DIMTIH
 70
     1
  9
$DIMTOH
 70
     1
  9
$DIMSE1
 70
     0
  9
$DIMSE2
 70
     0
  9
$DIMTAD
 70
     1
  9
$DIMZIN
 70
     0
  9
$DIMBLK
  1

  9
$DIMASO
 70
     1
  9
$DIMSHO
 70
     1
  9
$DIMPOST
  1

  9
$DIMAPOST
  1

  9
$DIMALT
 70
     0
  9
$DIMALTD
 70
     3
  9
$DIMALTF
 40
0.0393700787401575
  9
$DIMLFAC
 40
1.0
  9
$DIMTOFL
 70
     1
  9
$DIMTVP
 40
0.0
  9
$DIMTIX
 70
     0
  9
$DIMSOXD
 70
     0
  9
$DIMSAH
 70
     0
  9
$DIMBLK1
  1

  9
$DIMBLK2
  1

  9
$DIMSTYLE
  2
ISO-25
  9
$DIMCLRD
 70
     0
  9
$DIMCLRE
 70
     0
  9
$DIMCLRT
 70
     0
  9
$DIMTFAC
 40
1.0
  9
$DIMGAP
 40
1.524
  9
$DIMJUST
 70
     0
  9
$DIMSD1
 70
     0
  9
$DIMSD2
 70
     0
  9
$DIMTOLJ
 70
     0
  9
$DIMTZIN
 70
     0
  9
$DIMALTZ
 70
     0
  9
$DIMALTTZ
 70
     0
  9
$DIMUPT
 70
     0
  9
$DIMDEC
 70
     2
  9
$DIMTDEC
 70
     2
  9
$DIMALTU
 70
     2
  9
$DIMALTTD
 70
     3
  9
$DIMTXSTY
  7
Standard
  9
$DIMAUNIT
 70
     0
  9
$DIMADEC
 70
     2
  9
$DIMALTRND
 40
0.0
  9
$DIMAZIN
 70
     0
  9
$DIMDSEP
 70
    44
  9
$DIMATFIT
 70
     3
  9
$DIMFRAC
 70
     0
  9
$DIMLDRBLK
  1

  9
$DIMLUNIT
 70
     2
  9
$DIMLWD
 70
    -2
  9
$DIMLWE
 70
    -2
  9
$DIMTMOVE
 70
     0
  9
$LUNITS
 70
     2
  9
$LUPREC
 70
     2
  9
$SKETCHINC
 40
1.0
  9
$FILLETRAD
 40
10.0
  9
$AUNITS
 70
     0
  9
$AUPREC
 70
     2
  9
$MENU
  1
.
  9
$ELEVATION
 40
0.0
  9
$PELEVATION
 40
0.0
  9
$THICKNESS
 40
0.0
  9
$LIMCHECK
 70
     0
  9
$CHAMFERA
 40
0.0
  9
$CHAMFERB
 40
0.0
  9
$CHAMFERC
 40
0.0
  9
$CHAMFERD
 40
0.0
  9
$SKPOLY
 70
     0
  9
$TDCREATE
 40
2458323.679765972
  9
$TDUCREATE
 40
2458323.304765972
  9
$TDUPDATE
 40
2458324.435653623
  9
$TDUUPDATE
 40
2458324.060653623
  9
$TDINDWG
 40
0.000502581
  9
$TDUSRTIMER
 40
2458324.060151482
  9
$USRTIMER
 70
     1
  9
$ANGBASE
 50
0.0
  9
$ANGDIR
 70
     0
  9
$PDMODE
 70
     0
  9
$PDSIZE
 40
-1.0
  9
$PLINEWID
 40
0.0
  9
$SPLFRAME
 70
     0
  9
$SPLINETYPE
 70
     6
  9
$SPLINESEGS
 70
     8
  9
$HANDSEED
  5
2B0
  9
$SURFTAB1
 70
     6
  9
$SURFTAB2
 70
     6
  9
$SURFTYPE
 70
     6
  9
$SURFU
 70
     6
  9
$SURFV
 70
     6
  9
$UCSBASE
  2

  9
$UCSNAME
  2

  9
$UCSORG
 10
0.0
 20
0.0
 30
0.0
  9
$UCSXDIR
 10
1.0
 20
0.0
 30
0.0
  9
$UCSYDIR
 10
0.0
 20
1.0
 30
0.0
  9
$UCSORTHOREF
  2

  9
$UCSORTHOVIEW
 70
     0
  9
$UCSORGTOP
 10
0.0
 20
0.0
 30
0.0
  9
$UCSORGBOTTOM
 10
0.0
 20
0.0
 30
0.0
  9
$UCSORGLEFT
 10
0.0
 20
0.0
 30
0.0
  9
$UCSORGRIGHT
 10
0.0
 20
0.0
 30
0.0
  9
$UCSORGFRONT
 10
0.0
 20
0.0
 30
0.0
  9
$UCSORGBACK
 10
0.0
 20
0.0
 30
0.0
  9
$PUCSBASE
  2

  9
$PUCSNAME
  2

  9
$PUCSORG
 10
0.0
 20
0.0
 30
0.0
  9
$PUCSXDIR
 10
1.0
 20
0.0
 30
0.0
  9
$PUCSYDIR
 10
0.0
 20
1.0
 30
0.0
  9
$PUCSORTHOREF
  2

  9
$PUCSORTHOVIEW
 70
     0
  9
$PUCSORGTOP
 10
0.0
 20
0.0
 30
0.0
  9
$PUCSORGBOTTOM
 10
0.0
 20
0.0
 30
0.0
  9
$PUCSORGLEFT
 10
0.0
 20
0.0
 30
0.0
  9
$PUCSORGRIGHT
 10
0.0
 20
0.0
 30
0.0
  9
$PUCSORGFRONT
 10
0.0
 20
0.0
 30
0.0
  9
$PUCSORGBACK
 10
0.0
 20
0.0
 30
0.0
  9
$USERI1
 70
     0
  9
$USERI2
 70
     0
  9
$USERI3
 70
     0
  9
$USERI4
 70
     0
  9
$USERI5
 70
     0
  9
$USERR1
 40
0.0
  9
$USERR2
 40
0.0
  9
$USERR3
 40
0.0
  9
$USERR4
 40
0.0
  9
$USERR5
 40
0.0
  9
$WORLDVIEW
 70
     1
  9
$SHADEDGE
 70
     3
  9
$SHADEDIF
 70
    70
  9
$TILEMODE
 70
     1
  9
$MAXACTVP
 70
    64
  9
$PINSBASE
 10
0.0
 20
0.0
 30
0.0
  9
$PLIMCHECK
 70
     0
  9
$PEXTMIN
 10
1.000000000000000E+20
 20
1.000000000000000E+20
 30
1.000000000000000E+20
  9
$PEXTMAX
 10
-1.000000000000000E+20
 20
-1.000000000000000E+20
 30
-1.000000000000000E+20
  9
$PLIMMIN
 10
0.0
 20
0.0
  9
$PLIMMAX
 10
0.0
 20
0.0
  9
$UNITMODE
 70
     0
  9
$VISRETAIN
 70
     1
  9
$PLINEGEN
 70
     0
  9
$PSLTSCALE
 70
     1
  9
$TREEDEPTH
 70
  3020
  9
$CMLSTYLE
  2
Standard
  9
$CMLJUST
 70
     0
  9
$CMLSCALE
 40
20.0
  9
$PROXYGRAPHICS
 70
     1
  9
$MEASUREMENT
 70
     1
  9
$CELWEIGHT
370
    -1
  9
$ENDCAPS
280
     0
  9
$JOINSTYLE
280
     0
  9
$LWDISPLAY
290
     1
  9
$INSUNITS
 70
     4
  9
$HYPERLINKBASE
  1

  9
$STYLESHEET
  1

  9
$XEDIT
290
     1
  9
$CEPSNTYPE
380
     0
  9
$PSTYLEMODE
290
     1
  9
$FINGERPRINTGUID
  2
{F93A8B50-C103-448D-9454-E230819033D3}
  9
$VERSIONGUID
  2
{FAEB1C32-E019-11D5-929B-00C0DF256EC4}
  9
$EXTNAMES
290
     1
  9
$PSVPSCALE
 40
0.0
  9
$OLESTARTUP
290
     0
  0
ENDSEC
  0
SECTION
  2
CLASSES
  0
CLASS
  1
ACDBDICTIONARYWDFLT
  2
AcDbDictionaryWithDefault
  3
ObjectDBX Classes
 90
        0
280
     0
281
     0
  0
CLASS
  1
VISUALSTYLE
  2
AcDbVisualStyle
  3
ObjectDBX Classes
 90
     4095
280
     0
281
     0
  0
CLASS
  1
MATERIAL
  2
AcDbMaterial
  3
ObjectDBX Classes
 90
     1153
280
     0
281
     0
  0
CLASS
  1
SCALE
  2
AcDbScale
  3
ObjectDBX Classes
 90
     1153
280
     0
281
     0
  0
CLASS
  1
SUN
  2
AcDbSun
  3
SCENEOE
 90
     1153
280
     0
281
     0
  0
CLASS
  1
ACDBPLACEHOLDER
  2
AcDbPlaceHolder
  3
ObjectDBX Classes
 90
        0
280
     0
281
     0
  0
CLASS
  1
LAYOUT
  2
AcDbLayout
  3
ObjectDBX Classes
 90
        0
280
     0
281
     0
  0
CLASS
  1
TABLESTYLE
  2
AcDbTableStyle
  3
ObjectDBX Classes
 90
     4095
280
     0
281
     0
  0
CLASS
  1
MLEADERSTYLE
  2
AcDbMLeaderStyle
  3
ACDB_MLEADERSTYLE_CLASS
 90
     4095
280
     0
281
     0
  0
CLASS
  1
RASTERVARIABLES
  2
AcDbRasterVariables
  3
ISM
 90
        0
280
     0
281
     0
  0
ENDSEC
  0
SECTION
  2
TABLES
  0
TABLE
  2
VPORT
  5
8
330
0
100
AcDbSymbolTable
 70
     1
  0
VPORT
  5
29
330
8
100
AcDbSymbolTableRecord
100
AcDbViewportTableRecord
  2
*Active
 70
     0
 10
0.0
 20
0.0
 11
1.0
 21
1.0
 12
22.52730651101091
 22
-4.36898505860357
 13
0.0
 23
0.0
 14
10.0
 24
10.0
 15
10.0
 25
10.0
 16
0.0
 26
0.0
 36
1.0
 17
0.0
 27
0.0
 37
0.0
 40
167.161621858265
 41
1.632093933463797
 42
50.0
 43
0.0
 44
0.0
 50
0.0
 51
0.0
 71
    16
 72
  2000
 73
     1
 74
     3
 75
     0
 76
     0
 77
     0
 78
     0
281
     0
 65
     1
110
0.0
120
0.0
130
0.0
111
1.0
121
0.0
131
0.0
112
0.0
122
1.0
132
0.0
 79
     0
146
0.0
  0
ENDTAB
  0
TABLE
  2
LTYPE
  5
5
330
0
100
AcDbSymbolTable
 70
     6
  0
LTYPE
  5
14
330
5
100
AcDbSymbolTableRecord
100
AcDbLinetypeTableRecord
  2
ByBlock
 70
     0
  3

 72
    65
 73
     0
 40
0.0
  0
LTYPE
  5
15
330
5
100
AcDbSymbolTableRecord
100
AcDbLinetypeTableRecord
  2
ByLayer
 70
     0
  3

 72
    65
 73
     0
 40
0.0
  0
LTYPE
  5
16
330
5
100
AcDbSymbolTableRecord
100
AcDbLinetypeTableRecord
  2
Continuous
 70
     0
  3
Solid line
 72
    65
 73
     0
 40
0.0
  0
LTYPE
  5
6A
330
5
100
AcDbSymbolTableRecord
100
AcDbLinetypeTableRecord
  2
HIDDEN
 70
     0
  3
Hidden __ __ __ __ __ __ __ __ __ __ __ __ __ __
 72
    65
 73
     2
 40
1.905
 49
1.27
 74
     0
 49
-0.635
 74
     0
  0
LTYPE
  5
6B
330
5
100
AcDbSymbolTableRecord
100
AcDbLinetypeTableRecord
  2
PHANTOM
 70
     0
  3
Phantom ______  __  __  ______  __  __  ______
 72
    65
 73
     6
 40
12.7
 49
6.35
 74
     0
 49
-1.27
 74
     0
 49
1.27
 74
     0
 49
-1.27
 74
     0
 49
1.27
 74
     0
 49
-1.27
 74
     0
  0
LTYPE
  5
6C
330
5
100
AcDbSymbolTableRecord
100
AcDbLinetypeTableRecord
  2
CENTER
 70
     0
  3
Center ____ _ ____ _ ____ _ ____ _ ____ _ ____
 72
    65
 73
     4
 40
10.16
 49
6.35
 74
     0
 49
-1.27
 74
     0
 49
1.27
 74
     0
 49
-1.27
 74
     0
  0
LTYPE
  5
6D
330
5
100
AcDbSymbolTableRecord
100
AcDbLinetypeTableRecord
  2
CENTERX2
 70
     0
  3
Center (2x) ________  __  ________  __  _____
 72
    65
 73
     4
 40
20.32
 49
12.7
 74
     0
 49
-2.54
 74
     0
 49
2.54
 74
     0
 49
-2.54
 74
     0
  0
LTYPE
  5
6E
330
5
100
AcDbSymbolTableRecord
100
AcDbLinetypeTableRecord
  2
DOT2
 70
     0
  3
Dot (.5x) ........................................
 72
    65
 73
     2
 40
0.635
 49
0.0
 74
     0
 49
-0.635
 74
     0
  0
ENDTAB
  0
TABLE
  2
LAYER
  5
2
102
{ACAD_XDICTIONARY
360
1D9
102
}
330
0
100
AcDbSymbolTable
 70
    18
  0
LAYER
  5
10
330
2
100
AcDbSymbolTableRecord
100
AcDbLayerTableRecord
  2
0
 70
     0
 62
     7
  6
Continuous
370
    -3
390
F
  0
LAYER
  5
6F
330
2
100
AcDbSymbolTableRecord
100
AcDbLayerTableRecord
  2
FORMAT
 70
     0
 62
     2
  6
Continuous
370
    -3
390
F
  0
LAYER
  5
70
330
2
100
AcDbSymbolTableRecord
100
AcDbLayerTableRecord
  2
외형선
 70
     0
 62
     4
  6
Continuous
370
    30
390
F
  0
LAYER
  5
71
330
2
100
AcDbSymbolTableRecord
100
AcDbLayerTableRecord
  2
숨은선
 70
     0
 62
     2
  6
HIDDEN
370
    15
390
F
  0
LAYER
  5
72
330
2
100
AcDbSymbolTableRecord
100
AcDbLayerTableRecord
  2
중심선
 70
     0
 62
     1
  6
CENTERX2
370
    -3
390
F
  0
LAYER
  5
73
330
2
100
AcDbSymbolTableRecord
100
AcDbLayerTableRecord
  2
파단선
 70
     0
 62
     4
  6
Continuous
370
    -3
390
F
  0
LAYER
  5
74
330
2
100
AcDbSymbolTableRecord
100
AcDbLayerTableRecord
  2
해칭선
 70
     0
 62
   100
  6
Continuous
370
    -3
390
F
  0
LAYER
  5
75
330
2
100
AcDbSymbolTableRecord
100
AcDbLayerTableRecord
  2
가는실선
 70
     0
 62
     4
  6
Continuous
370
    -3
390
F
  0
LAYER
  5
76
330
2
100
AcDbSymbolTableRecord
100
AcDbLayerTableRecord
  2
치수_보조선
 70
     0
 62
     4
  6
Continuous
370
    -3
390
F
  0
LAYER
  5
77
330
2
100
AcDbSymbolTableRecord
100
AcDbLayerTableRecord
  2
치수문자_일반주서
 70
     0
 62
     7
  6
Continuous
370
    15
390
F
  0
LAYER
  5
78
330
2
100
AcDbSymbolTableRecord
100
AcDbLayerTableRecord
  2
개별주서
 70
     0
 62
   100
  6
Continuous
370
    30
390
F
  0
LAYER
  5
79
330
2
100
AcDbSymbolTableRecord
100
AcDbLayerTableRecord
  2
중간선
 70
     0
 62
     2
  6
Continuous
370
    15
390
F
  0
LAYER
  5
7A
330
2
100
AcDbSymbolTableRecord
100
AcDbLayerTableRecord
  2
윤곽선
 70
     0
 62
     3
  6
Continuous
370
    40
390
F
  0
LAYER
  5
7B
330
2
100
AcDbSymbolTableRecord
100
AcDbLayerTableRecord
  2
중심마크
 70
     0
 62
   100
  6
Continuous
370
    30
390
F
  0
LAYER
  5
7C
330
2
100
AcDbSymbolTableRecord
100
AcDbLayerTableRecord
  2
가상선
 70
     0
 62
     4
  6
PHANTOM
370
    -3
390
F
  0
LAYER
  5
7D
330
2
100
AcDbSymbolTableRecord
100
AcDbLayerTableRecord
  2
특수지정선
 70
     0
 62
     5
  6
CENTERX2
370
    60
390
F
  0
LAYER
  5
7E
330
2
100
AcDbSymbolTableRecord
100
AcDbLayerTableRecord
  2
참조1
 70
     0
 62
    -4
  6
Continuous
370
    -3
390
F
  0
LAYER
  5
148
330
2
100
AcDbSymbolTableRecord
100
AcDbLayerTableRecord
  2
Defpoints
 70
     0
 62
     7
  6
Continuous
290
     0
370
    -3
390
F
  0
ENDTAB
  0
TABLE
  2
STYLE
  5
3
330
0
100
AcDbSymbolTable
 70
     2
  0
STYLE
  5
11
330
3
100
AcDbSymbolTableRecord
100
AcDbTextStyleTableRecord
  2
Standard
 70
     0
 40
0.0
 41
1.0
 50
0.0
 71
     0
 42
3.5
  3
txt
  4

  0
STYLE
  5
94
330
3
100
AcDbSymbolTableRecord
100
AcDbTextStyleTableRecord
  2
SLDTEXTSTYLE0
 70
     0
 40
0.0
 41
0.75
 50
0.0
 71
     0
 42
3.5
  3
TXT
  4

  0
ENDTAB
  0
TABLE
  2
VIEW
  5
6
330
0
100
AcDbSymbolTable
 70
     0
  0
ENDTAB
  0
TABLE
  2
UCS
  5
7
330
0
100
AcDbSymbolTable
 70
     0
  0
ENDTAB
  0
TABLE
  2
APPID
  5
9
330
0
100
AcDbSymbolTable
 70
     1
  0
APPID
  5
12
330
9
100
AcDbSymbolTableRecord
100
AcDbRegAppTableRecord
  2
ACAD
 70
     0
  0
ENDTAB
  0
TABLE
  2
DIMSTYLE
  5
A
330
0
100
AcDbSymbolTable
 70
     4
100
AcDbDimStyleTable
  0
DIMSTYLE
105
27
330
A
100
AcDbSymbolTableRecord
100
AcDbDimStyleTableRecord
  2
ISO-25
 70
     0
 41
2.5
 42
0.625
 43
3.75
 44
1.25
 73
     0
 74
     0
 77
     1
 78
     8
140
2.5
141
2.5
143
0.03937007874016
147
0.625
171
     3
172
     1
178
     0
271
     2
272
     2
274
     3
278
    44
283
     0
284
     8
340
11
  0
DIMSTYLE
105
C5
330
A
100
AcDbSymbolTableRecord
100
AcDbDimStyleTableRecord
  2
SLDDIMSTYLE0
 70
     0
 41
3.302
 44
0.0
 45
0.000000001
 73
     0
 74
     0
 77
     1
 78
     4
 79
     1
140
3.5
143
0.0393700787401575
147
0.875
148
0.000000001
170
     1
173
     1
178
     0
271
     2
272
     2
276
     2
284
    12
340
94
  0
DIMSTYLE
105
DA
102
{ACAD_REACTORS
330
D9
330
102
330
192
330
19F
330
1AC
330
1B9
330
ED
330
C4
102
}
330
A
100
AcDbSymbolTableRecord
100
AcDbDimStyleTableRecord
  2
SLDDIMSTYLE1
 70
     0
 41
3.302
 44
0.0
 45
0.000000001
 73
     0
 74
     0
 77
     1
 78
    12
 79
     3
140
3.5
143
0.0393700787401575
147
0.875
148
0.000000001
170
     1
173
     1
178
     0
271
     2
272
     2
276
     2
284
    12
340
94
  0
DIMSTYLE
105
EE
330
A
100
AcDbSymbolTableRecord
100
AcDbDimStyleTableRecord
  2
SLDDIMSTYLE2
 70
     0
 41
3.302
 44
0.0
 45
0.000000001
 73
     0
 74
     0
 77
     1
 78
    12
 79
     3
140
3.5
143
0.0393700787401575
147
0.875
148
0.000000001
170
     1
172
     1
173
     1
178
     0
271
     2
272
     2
276
     2
284
    12
289
     0
340
94
  0
ENDTAB
  0
TABLE
  2
BLOCK_RECORD
  5
1
330
0
100
AcDbSymbolTable
 70
    17
  0
BLOCK_RECORD
  5
1F
330
1
100
AcDbSymbolTableRecord
100
AcDbBlockTableRecord
  2
*Model_Space
340
22
  0
BLOCK_RECORD
  5
1B
330
1
100
AcDbSymbolTableRecord
100
AcDbBlockTableRecord
  2
*Paper_Space
340
1E
  0
BLOCK_RECORD
  5
23
330
1
100
AcDbSymbolTableRecord
100
AcDbBlockTableRecord
  2
*Paper_Space0
340
26
  0
BLOCK_RECORD
  5
7F
330
1
100
AcDbSymbolTableRecord
100
AcDbBlockTableRecord
  2
블럭10
340
0
102
{BLKREFS
331
BD
102
}
  0
BLOCK_RECORD
  5
C6
330
1
100
AcDbSymbolTableRecord
100
AcDbBlockTableRecord
  2
_D
340
0
  0
BLOCK_RECORD
  5
DB
330
1
100
AcDbSymbolTableRecord
100
AcDbBlockTableRecord
  2
_D_1
340
0
  0
BLOCK_RECORD
  5
EF
330
1
100
AcDbSymbolTableRecord
100
AcDbBlockTableRecord
  2
_D_2
340
0
  0
BLOCK_RECORD
  5
103
330
1
100
AcDbSymbolTableRecord
100
AcDbBlockTableRecord
  2
_D_3
340
0
  0
BLOCK_RECORD
  5
11C
330
1
100
AcDbSymbolTableRecord
100
AcDbBlockTableRecord
  2
SW_DOWELSYMBOL_0
340
0
102
{BLKREFS
331
122
331
1C9
331
0
102
}
  0
BLOCK_RECORD
  5
1DD
330
1
100
AcDbSymbolTableRecord
100
AcDbBlockTableRecord
  2
*D8
340
0
  0
BLOCK_RECORD
  5
1E9
330
1
100
AcDbSymbolTableRecord
100
AcDbBlockTableRecord
  2
*D9
340
0
  0
BLOCK_RECORD
  5
1F5
330
1
100
AcDbSymbolTableRecord
100
AcDbBlockTableRecord
  2
*D10
340
0
  0
BLOCK_RECORD
  5
201
330
1
100
AcDbSymbolTableRecord
100
AcDbBlockTableRecord
  2
*D11
340
0
  0
BLOCK_RECORD
  5
23E
330
1
100
AcDbSymbolTableRecord
100
AcDbBlockTableRecord
  2
*D12
340
0
  0
BLOCK_RECORD
  5
24A
330
1
100
AcDbSymbolTableRecord
100
AcDbBlockTableRecord
  2
*D13
340
0
  0
BLOCK_RECORD
  5
256
330
1
100
AcDbSymbolTableRecord
100
AcDbBlockTableRecord
  2
*D14
340
0
  0
BLOCK_RECORD
  5
262
330
1
100
AcDbSymbolTableRecord
100
AcDbBlockTableRecord
  2
*D15
340
0
  0
ENDTAB
  0
ENDSEC
  0
SECTION
  2
BLOCKS
  0
BLOCK
  5
20
330
1F
100
AcDbEntity
  8
0
100
AcDbBlockBegin
  2
*Model_Space
 70
     0
 10
0.0
 20
0.0
 30
0.0
  3
*Model_Space
  1
*Model_Space
  0
ENDBLK
  5
21
330
1F
100
AcDbEntity
  8
0
100
AcDbBlockEnd
  0
BLOCK
  5
1C
330
1B
100
AcDbEntity
 67
     1
  8
0
100
AcDbBlockBegin
  2
*Paper_Space
 70
     0
 10
0.0
 20
0.0
 30
0.0
  3
*Paper_Space
  1
*Paper_Space
  0
ENDBLK
  5
1D
330
1B
100
AcDbEntity
 67
     1
  8
0
100
AcDbBlockEnd
  0
BLOCK
  5
24
330
23
100
AcDbEntity
  8
0
100
AcDbBlockBegin
  2
*Paper_Space0
 70
     0
 10
0.0
 20
0.0
 30
0.0
  3
*Paper_Space0
  1
*Paper_Space0
  0
ENDBLK
  5
25
330
23
100
AcDbEntity
  8
0
100
AcDbBlockEnd
  0
BLOCK
  5
80
330
7F
100
AcDbEntity
  8
0
100
AcDbBlockBegin
  2
블럭10
 70
     2
 10
0.0
 20
0.0
 30
0.0
  3
블럭10
  1
블럭10
  0
ELLIPSE
  5
82
330
7F
100
AcDbEntity
  8
중심선
100
AcDbEllipse
 10
20.54032771741204
 20
12.0471743016438
 30
0.0
 11
6.600054785286829
 21
-1.261213355974178E-13
 31
0.0
210
0.0
220
0.0
230
1.0
 40
0.636358354079598
 41
0.9219305317359503
 42
6.513795318482858
  0
ELLIPSE
  5
83
330
7F
100
AcDbEntity
  8
중심선
100
AcDbEllipse
 10
20.54032771746488
 20
12.04717430159265
 30
0.0
 11
3.960054785062283
 21
1.540847449632565E-10
 31
0.0
210
0.0
220
0.0
230
1.0
 40
0.3939339440162632
 41
1.131841032648279
 42
5.62031148352944
  0
LINE
  5
84
330
7F
100
AcDbEntity
  8
중심선
100
AcDbLine
 10
2.268634060543552
 20
16.24717430164393
 30
0.0
 11
5.714909304380834
 21
16.24717430164393
 31
0.0
  0
LINE
  5
85
330
7F
100
AcDbEntity
  8
중심선
100
AcDbLine
 10
5.245725140726316
 20
7.84717430164391
 30
0.0
 11
8.692000384563599
 21
7.84717430164391
 31
0.0
  0
LINE
  5
86
330
7F
100
AcDbEntity
  8
중심선
100
AcDbLine
 10
15.74043728645272
 20
16.24717430164393
 30
0.0
 11
8.692000384563599
 21
7.84717430164391
 31
0.0
  0
LINE
  5
87
330
7F
100
AcDbEntity
  8
중심선
100
AcDbLine
 10
0.1404042013395286
 20
13.71084872107135
 30
0.0
 11
3.58671253028996
 21
13.71088815037384
 31
0.0
  0
LINE
  5
88
330
7F
100
AcDbEntity
  8
중심선
100
AcDbLine
 10
2.750260043222114
 20
10.84717430164391
 30
0.0
 11
6.196535287059397
 21
10.84717430164391
 31
0.0
  0
LINE
  5
89
330
7F
100
AcDbEntity
  8
중심선
100
AcDbLine
 10
12.29416204261559
 20
16.24717430164393
 30
0.0
 11
5.245725140726316
 21
7.84717430164391
 31
0.0
  0
LINE
  5
8A
330
7F
100
AcDbEntity
  8
중심선
100
AcDbLine
 10
10.72767329541681
 20
16.24717430164393
 30
0.0
 11
6.196535287059397
 21
10.84717430164391
 31
0.0
  0
LINE
  5
8B
330
7F
100
AcDbEntity
  8
중심선
100
AcDbLine
 10
7.28139805157953
 20
16.24717430164393
 30
0.0
 11
2.750260043222114
 21
10.84717430164391
 31
0.0
  0
LINE
  5
8C
330
7F
100
AcDbEntity
  8
중심선
100
AcDbLine
 10
5.714909304380834
 20
16.24717430164393
 30
0.0
 11
3.58671253028996
 21
13.71088815037384
 31
0.0
  0
LINE
  5
8D
330
7F
100
AcDbEntity
  8
중심선
100
AcDbLine
 10
2.268634060543552
 20
16.24717430164393
 30
0.0
 11
0.1404042013395286
 21
13.71084872107135
 31
0.0
  0
LINE
  5
8E
330
7F
100
AcDbEntity
  8
중심선
100
AcDbLine
 10
7.28139805157953
 20
16.24717430164393
 30
0.0
 11
10.72767329541681
 21
16.24717430164393
 31
0.0
  0
LINE
  5
8F
330
7F
100
AcDbEntity
  8
중심선
100
AcDbLine
 10
12.29416204261559
 20
16.24717430164393
 30
0.0
 11
15.74043728645272
 21
16.24717430164393
 31
0.0
  0
LINE
  5
90
330
7F
100
AcDbEntity
  8
중심선
100
AcDbLine
 10
19.22036997980202
 20
11.08717430171403
 30
0.0
 11
23.66174974927406
 21
11.08717430171406
 31
0.0
  0
LINE
  5
91
330
7F
100
AcDbEntity
  8
중심선
100
AcDbLine
 10
19.22039502424796
 20
13.00717430171391
 30
0.0
 11
19.22036997980202
 21
11.08717430171403
 31
0.0
  0
LINE
  5
92
330
7F
100
AcDbEntity
  8
중심선
100
AcDbLine
 10
19.22039502424796
 20
13.00717430171391
 30
0.0
 11
26.96566020931264
 21
13.00717430171391
 31
0.0
  0
LINE
  5
93
330
7F
100
AcDbEntity
  8
중심선
100
AcDbLine
 10
22.22332737316547
 20
13.45928029700563
 30
0.0
 11
24.52862924686651
 21
15.39360700705356
 31
0.0
  0
ATTDEF
  5
95
330
7F
100
AcDbEntity
  8
FORMAT
 62
     2
100
AcDbText
 10
4.408487351596664
 20
2.075366912832191
 30
0.0
 40
4.233333333333333
  1
E2021056
 41
0.75
  7
SLDTEXTSTYLE0
 11
4.408487351596664
 21
-0.0412997538344756
 31
0.0
100
AcDbAttributeDefinition
  3

  2
AUTOATTR0
 70
     0
 74
     1
  0
ENDBLK
  5
81
330
7F
100
AcDbEntity
  8
0
100
AcDbBlockEnd
  0
BLOCK
  5
C7
330
C6
100
AcDbEntity
  8
0
100
AcDbBlockBegin
  2
_D
 70
     0
 10
0.0
 20
0.0
 30
0.0
  3
_D
  1
_D
  0
LINE
  5
C9
330
C6
100
AcDbEntity
  8
치수문자_일반주서
 62
     0
370
    -2
100
AcDbLine
 10
100.9026425899813
 20
11.17500000000001
 30
0.0
 11
100.9026425899813
 21
22.78216828731262
 31
0.0
  0
LINE
  5
CA
330
C6
100
AcDbEntity
  8
치수문자_일반주서
 62
     0
370
    -2
100
AcDbLine
 10
11.99999999999998
 20
11.13413479835851
 30
0.0
 11
11.99999999999998
 21
22.78216828731262
 31
0.0
  0
LINE
  5
CB
330
C6
100
AcDbEntity
  8
치수문자_일반주서
 62
     0
370
    -2
100
AcDbLine
 10
97.60064258998128
 20
22.78216828731262
 30
0.0
 11
15.30199999999998
 21
22.78216828731262
 31
0.0
  0
SOLID
  5
CC
330
C6
100
AcDbEntity
  8
치수문자_일반주서
 62
     0
100
AcDbTrace
 10
97.60064258998128
 20
22.23183495397928
 30
0.0
 11
97.60064258998128
 21
23.33250162064595
 31
0.0
 12
100.9026425899813
 22
22.78216828731262
 32
0.0
 13
100.9026425899813
 23
22.78216828731262
 33
0.0
  0
SOLID
  5
CD
330
C6
100
AcDbEntity
  8
치수문자_일반주서
 62
     0
100
AcDbTrace
 10
15.30199999999998
 20
23.33250162064595
 30
0.0
 11
15.30199999999998
 21
22.23183495397928
 31
0.0
 12
11.99999999999998
 22
22.78216828731262
 32
0.0
 13
11.99999999999998
 23
22.78216828731262
 33
0.0
  0
MTEXT
  5
CE
330
C6
100
AcDbEntity
  8
치수문자_일반주서
 62
     0
100
AcDbMText
 10
55.17971994211756
 20
27.15716828731262
 30
0.0
 40
3.5
 41
0.0
 71
     2
 72
     1
  1
\A1;88.9 [3 1/2]
  7
SLDTEXTSTYLE0
 73
     1
 44
1.0
  0
POINT
  5
CF
330
C6
100
AcDbEntity
  8
Defpoints
 62
     0
100
AcDbPoint
 10
100.9026425899813
 20
11.11250000000001
 30
0.0
  0
POINT
  5
D0
330
C6
100
AcDbEntity
  8
Defpoints
 62
     0
100
AcDbPoint
 10
11.99999999999998
 20
11.07163479835851
 30
0.0
  0
POINT
  5
D1
330
C6
100
AcDbEntity
  8
Defpoints
 62
     0
100
AcDbPoint
 10
11.99999999999998
 20
22.78216828731262
 30
0.0
  0
ENDBLK
  5
C8
330
C6
100
AcDbEntity
  8
0
100
AcDbBlockEnd
  0
BLOCK
  5
DC
330
DB
100
AcDbEntity
  8
0
100
AcDbBlockBegin
  2
_D_1
 70
     0
 10
0.0
 20
0.0
 30
0.0
  3
_D_1
  1
_D_1
  0
LINE
  5
DE
330
DB
100
AcDbEntity
  8
치수문자_일반주서
 62
     0
370
    -2
100
AcDbLine
 10
100.9026425899813
 20
11.17500000000001
 30
0.0
 11
100.9026425899813
 21
31.6091467932808
 31
0.0
  0
LINE
  5
DF
330
DB
100
AcDbEntity
  8
치수문자_일반주서
 62
     0
370
    -2
100
AcDbLine
 10
-45.15000000000003
 20
8.952500000000004
 30
0.0
 11
-45.15000000000003
 21
31.6091467932808
 31
0.0
  0
LINE
  5
E0
330
DB
100
AcDbEntity
  8
치수문자_일반주서
 62
     0
370
    -2
100
AcDbLine
 10
97.60064258998128
 20
31.6091467932808
 30
0.0
 11
-41.84800000000003
 21
31.6091467932808
 31
0.0
  0
SOLID
  5
E1
330
DB
100
AcDbEntity
  8
치수문자_일반주서
 62
     0
100
AcDbTrace
 10
97.60064258998128
 20
31.05881345994747
 30
0.0
 11
97.60064258998128
 21
32.15948012661413
 31
0.0
 12
100.9026425899813
 22
31.6091467932808
 32
0.0
 13
100.9026425899813
 23
31.6091467932808
 33
0.0
  0
SOLID
  5
E2
330
DB
100
AcDbEntity
  8
치수문자_일반주서
 62
     0
100
AcDbTrace
 10
-41.84800000000003
 20
32.15948012661413
 30
0.0
 11
-41.84800000000003
 21
31.05881345994747
 31
0.0
 12
-45.15000000000003
 22
31.6091467932808
 32
0.0
 13
-45.15000000000003
 23
31.6091467932808
 33
0.0
  0
MTEXT
  5
E3
330
DB
100
AcDbEntity
  8
치수문자_일반주서
 62
     0
100
AcDbMText
 10
27.87499999999998
 20
35.9841467932808
 30
0.0
 40
3.5
 41
0.0
 71
     2
 72
     1
  1
\A1;146.05 [5 3/4]
  7
SLDTEXTSTYLE0
 73
     1
 44
1.0
  0
POINT
  5
E4
330
DB
100
AcDbEntity
  8
Defpoints
 62
     0
100
AcDbPoint
 10
100.9026425899813
 20
11.11250000000001
 30
0.0
  0
POINT
  5
E5
330
DB
100
AcDbEntity
  8
Defpoints
 62
     0
100
AcDbPoint
 10
-45.15000000000003
 20
8.890000000000004
 30
0.0
  0
POINT
  5
E6
330
DB
100
AcDbEntity
  8
Defpoints
 62
     0
100
AcDbPoint
 10
-45.15000000000003
 20
31.6091467932808
 30
0.0
  0
ENDBLK
  5
DD
330
DB
100
AcDbEntity
  8
0
100
AcDbBlockEnd
  0
BLOCK
  5
F0
330
EF
100
AcDbEntity
  8
0
100
AcDbBlockBegin
  2
_D_2
 70
     0
 10
0.0
 20
0.0
 30
0.0
  3
_D_2
  1
_D_2
  0
LINE
  5
F2
330
EF
100
AcDbEntity
  8
치수문자_일반주서
 62
     0
370
    -2
100
AcDbLine
 10
-45.21250000000003
 20
11.11249999999998
 30
0.0
 11
-56.88000000000007
 21
11.11249999999994
 31
0.0
  0
LINE
  5
F3
330
EF
100
AcDbEntity
  8
치수문자_일반주서
 62
     0
370
    -2
100
AcDbLine
 10
-42.99000000000003
 20
-11.1125
 30
0.0
 11
-56.88
 21
-11.11250000000006
 31
0.0
  0
LINE
  5
F4
330
EF
100
AcDbEntity
  8
치수문자_일반주서
 62
     0
370
    -2
100
AcDbLine
 10
-56.88000000000006
 20
7.810499999999941
 30
0.0
 11
-56.88000000000001
 21
-7.810500000000056
 31
0.0
  0
SOLID
  5
F5
330
EF
100
AcDbEntity
  8
치수문자_일반주서
 62
     0
100
AcDbTrace
 10
-56.32966666666672
 20
7.810499999999942
 30
0.0
 11
-57.43033333333339
 21
7.810499999999939
 31
0.0
 12
-56.88000000000007
 22
11.11249999999994
 32
0.0
 13
-56.88000000000007
 23
11.11249999999994
 33
0.0
  0
SOLID
  5
F6
330
EF
100
AcDbEntity
  8
치수문자_일반주서
 62
     0
100
AcDbTrace
 10
-57.43033333333334
 20
-7.810500000000058
 30
0.0
 11
-56.32966666666668
 21
-7.810500000000054
 31
0.0
 12
-56.88
 22
-11.11250000000006
 32
0.0
 13
-56.88
 23
-11.11250000000006
 33
0.0
  0
MTEXT
  5
F7
330
EF
100
AcDbEntity
  8
치수문자_일반주서
 62
     0
100
AcDbMText
 10
-61.25500000000004
 20
-0.000000000000021
 30
0.0
 40
3.5
 41
0.0
 71
     2
 72
     1
  1
\A1;%%c22.23 [7/8]
  7
SLDTEXTSTYLE0
 11
-3.516746948643917E-15
 21
1.0
 31
0.0
 73
     1
 44
1.0
  0
POINT
  5
F8
330
EF
100
AcDbEntity
  8
Defpoints
 62
     0
100
AcDbPoint
 10
-45.15000000000003
 20
11.11249999999998
 30
0.0
  0
POINT
  5
F9
330
EF
100
AcDbEntity
  8
Defpoints
 62
     0
100
AcDbPoint
 10
-42.92750000000003
 20
-11.1125
 30
0.0
  0
POINT
  5
FA
330
EF
100
AcDbEntity
  8
Defpoints
 62
     0
100
AcDbPoint
 10
-56.88
 20
-11.11250000000005
 30
0.0
  0
ENDBLK
  5
F1
330
EF
100
AcDbEntity
  8
0
100
AcDbBlockEnd
  0
BLOCK
  5
104
330
103
100
AcDbEntity
  8
0
100
AcDbBlockBegin
  2
_D_3
 70
     0
 10
0.0
 20
0.0
 30
0.0
  3
_D_3
  1
_D_3
  0
LINE
  5
106
330
103
100
AcDbEntity
  8
치수문자_일반주서
 62
     0
370
    -2
100
AcDbLine
 10
100.9625
 20
11.11250000000001
 30
0.0
 11
114.3660563796365
 21
11.11250000000006
 31
0.0
  0
LINE
  5
107
330
103
100
AcDbEntity
  8
치수문자_일반주서
 62
     0
370
    -2
100
AcDbLine
 10
100.9625
 20
-11.11249999999999
 30
0.0
 11
114.3660563796365
 21
-11.11249999999994
 31
0.0
  0
LINE
  5
108
330
103
100
AcDbEntity
  8
치수문자_일반주서
 62
     0
370
    -2
100
AcDbLine
 10
114.3660563796365
 20
11.11250000000006
 30
0.0
 11
114.3660563796364
 21
46.30397012489387
 31
0.0
  0
LINE
  5
109
330
103
100
AcDbEntity
  8
치수문자_일반주서
 62
     0
370
    -2
100
AcDbLine
 10
114.3660563796365
 20
7.810500000000058
 30
0.0
 11
114.3660563796365
 21
-7.810499999999937
 31
0.0
  0
SOLID
  5
10A
330
103
100
AcDbEntity
  8
치수문자_일반주서
 62
     0
100
AcDbTrace
 10
114.9163897129698
 20
7.81050000000006
 30
0.0
 11
113.8157230463032
 21
7.810500000000056
 31
0.0
 12
114.3660563796365
 22
11.11250000000006
 32
0.0
 13
114.3660563796365
 23
11.11250000000006
 33
0.0
  0
SOLID
  5
10B
330
103
100
AcDbEntity
  8
치수문자_일반주서
 62
     0
100
AcDbTrace
 10
113.8157230463032
 20
-7.810499999999939
 30
0.0
 11
114.9163897129699
 21
-7.810499999999935
 31
0.0
 12
114.3660563796365
 22
-11.11249999999994
 32
0.0
 13
114.3660563796365
 23
-11.11249999999994
 33
0.0
  0
MTEXT
  5
10C
330
103
100
AcDbEntity
  8
치수문자_일반주서
 62
     0
100
AcDbMText
 10
109.9910563796364
 20
31.86647012489385
 30
0.0
 40
3.5
 41
0.0
 71
     2
 72
     1
  1
\A1;%%c22.23 [7/8]
  7
SLDTEXTSTYLE0
 11
-3.197042680585378E-15
 21
1.0
 31
0.0
 73
     1
 44
1.0
  0
POINT
  5
10D
330
103
100
AcDbEntity
  8
Defpoints
 62
     0
100
AcDbPoint
 10
100.9
 20
11.11250000000001
 30
0.0
  0
POINT
  5
10E
330
103
100
AcDbEntity
  8
Defpoints
 62
     0
100
AcDbPoint
 10
100.9
 20
-11.11249999999999
 30
0.0
  0
POINT
  5
10F
330
103
100
AcDbEntity
  8
Defpoints
 62
     0
100
AcDbPoint
 10
114.3660563796365
 20
-11.11249999999994
 30
0.0
  0
ENDBLK
  5
105
330
103
100
AcDbEntity
  8
0
100
AcDbBlockEnd
  0
BLOCK
  5
11D
330
11C
100
AcDbEntity
  8
0
100
AcDbBlockBegin
  2
SW_DOWELSYMBOL_0
 70
     0
 10
0.0
 20
0.0
 30
0.0
  3
SW_DOWELSYMBOL_0
  1
SW_DOWELSYMBOL_0
  0
CIRCLE
  5
11F
330
11C
100
AcDbEntity
  8
해칭선
 62
     0
100
AcDbCircle
 10
0.0
 20
0.0
 30
0.0
 40
3.000000000000001
  0
HATCH
  5
120
330
11C
100
AcDbEntity
  8
0
  6
Continuous
 62
     0
370
     0
100
AcDbHatch
 10
0.0
 20
0.0
 30
0.0
210
0.0
220
0.0
230
1.0
  2
SOLID
 70
     1
 71
     0
 91
        1
 92
        0
 93
        3
 72
     2
 10
0.0
 20
0.0
 40
3.000000000000001
 50
0.0
 51
90.0
 73
     1
 72
     1
 10
0.0
 20
3.000000000000001
 11
0.0
 21
0.0
 72
     1
 10
0.0
 20
0.0
 11
3.000000000000001
 21
0.0
 97
        0
 75
     0
 76
     1
 98
        1
 10
0.0
 20
0.0
  0
HATCH
  5
121
330
11C
100
AcDbEntity
  8
0
  6
Continuous
 62
     0
370
     0
100
AcDbHatch
 10
0.0
 20
0.0
 30
0.0
210
0.0
220
0.0
230
1.0
  2
SOLID
 70
     1
 71
     0
 91
        1
 92
        0
 93
        3
 72
     2
 10
0.0
 20
0.0
 40
3.000000000000001
 50
180.0
 51
270.0000000000008
 73
     1
 72
     1
 10
0.0
 20
-3.000000000000001
 11
0.0
 21
0.0
 72
     1
 10
0.0
 20
0.0
 11
-3.000000000000001
 21
0.0
 97
        0
 75
     0
 76
     1
 98
        1
 10
0.0
 20
0.0
  0
ENDBLK
  5
11E
330
11C
100
AcDbEntity
  8
0
100
AcDbBlockEnd
  0
BLOCK
  5
1DE
330
1DD
100
AcDbEntity
  8
0
100
AcDbBlockBegin
  2
*D8
 70
     1
 10
0.0
 20
0.0
 30
0.0
  3
*D8
  1
*D8
  0
LINE
  5
1E0
330
1DD
100
AcDbEntity
  8
치수문자_일반주서
 62
     0
370
    -2
100
AcDbLine
 10
180.8875
 20
32.06649999999996
 30
0.0
 11
180.8875
 21
42.58700249164671
 31
0.0
  0
LINE
  5
1E1
330
1DD
100
AcDbEntity
  8
치수문자_일반주서
 62
     0
370
    -2
100
AcDbLine
 10
79.28750000000004
 20
32.01979691240968
 30
0.0
 11
79.28750000000004
 21
42.58700249164671
 31
0.0
  0
LINE
  5
1E2
330
1DD
100
AcDbEntity
  8
치수문자_일반주서
 62
     0
370
    -2
100
AcDbLine
 10
177.5855
 20
42.58700249164671
 30
0.0
 11
82.58950000000004
 21
42.58700249164671
 31
0.0
  0
SOLID
  5
1E3
330
1DD
100
AcDbEntity
  8
치수문자_일반주서
 62
     0
100
AcDbTrace
 10
177.5855
 20
42.03666915831338
 30
0.0
 11
177.5855
 21
43.13733582498005
 31
0.0
 12
180.8875
 22
42.58700249164671
 32
0.0
 13
180.8875
 23
42.58700249164671
 33
0.0
  0
SOLID
  5
1E4
330
1DD
100
AcDbEntity
  8
치수문자_일반주서
 62
     0
100
AcDbTrace
 10
82.58950000000004
 20
43.13733582498005
 30
0.0
 11
82.58950000000004
 21
42.03666915831338
 31
0.0
 12
79.28750000000004
 22
42.58700249164671
 32
0.0
 13
79.28750000000004
 23
42.58700249164671
 33
0.0
  0
MTEXT
  5
1E5
330
1DD
100
AcDbEntity
  8
치수문자_일반주서
 62
     0
100
AcDbMText
 10
145.4149575446301
 20
46.96200249164671
 30
0.0
 40
3.5
 41
0.0
 71
     2
 72
     1
  1
\A1;101.6 [4]
  7
SLDTEXTSTYLE0
 73
     1
 44
1.0
  0
POINT
  5
1E6
330
1DD
100
AcDbEntity
  8
Defpoints
 62
     0
100
AcDbPoint
 10
180.8875
 20
32.00399999999996
 30
0.0
  0
POINT
  5
1E7
330
1DD
100
AcDbEntity
  8
Defpoints
 62
     0
100
AcDbPoint
 10
79.28750000000004
 20
31.95729691240968
 30
0.0
  0
POINT
  5
1E8
330
1DD
100
AcDbEntity
  8
Defpoints
 62
     0
100
AcDbPoint
 10
79.28750000000004
 20
42.58700249164671
 30
0.0
  0
ENDBLK
  5
1DF
330
1DD
100
AcDbEntity
  8
0
100
AcDbBlockEnd
  0
BLOCK
  5
1EA
330
1E9
100
AcDbEntity
  8
0
100
AcDbBlockBegin
  2
*D9
 70
     1
 10
0.0
 20
0.0
 30
0.0
  3
*D9
  1
*D9
  0
LINE
  5
1EC
330
1E9
100
AcDbEntity
  8
치수문자_일반주서
 62
     0
370
    -2
100
AcDbLine
 10
180.8875
 20
32.06649999999996
 30
0.0
 11
180.8874999999999
 21
50.91314679328075
 31
0.0
  0
LINE
  5
1ED
330
1E9
100
AcDbEntity
  8
치수문자_일반주서
 62
     0
370
    -2
100
AcDbLine
 10
15.78750000000004
 20
29.52649999999995
 30
0.0
 11
15.78750000000001
 21
50.91314679328075
 31
0.0
  0
LINE
  5
1EE
330
1E9
100
AcDbEntity
  8
치수문자_일반주서
 62
     0
370
    -2
100
AcDbLine
 10
177.5854999999999
 20
50.91314679328075
 30
0.0
 11
19.08950000000001
 21
50.91314679328075
 31
0.0
  0
SOLID
  5
1EF
330
1E9
100
AcDbEntity
  8
치수문자_일반주서
 62
     0
100
AcDbTrace
 10
177.5854999999999
 20
50.36281345994741
 30
0.0
 11
177.5854999999999
 21
51.46348012661408
 31
0.0
 12
180.8874999999999
 22
50.91314679328075
 32
0.0
 13
180.8874999999999
 23
50.91314679328075
 33
0.0
  0
SOLID
  5
1F0
330
1E9
100
AcDbEntity
  8
치수문자_일반주서
 62
     0
100
AcDbTrace
 10
19.08950000000001
 20
51.46348012661408
 30
0.0
 11
19.08950000000001
 21
50.36281345994741
 31
0.0
 12
15.78750000000001
 22
50.91314679328075
 32
0.0
 13
15.78750000000001
 23
50.91314679328075
 33
0.0
  0
MTEXT
  5
1F1
330
1E9
100
AcDbEntity
  8
치수문자_일반주서
 62
     0
100
AcDbMText
 10
98.33750000000003
 20
55.28814679328075
 30
0.0
 40
3.5
 41
0.0
 71
     2
 72
     1
  1
\A1;165.1 [6 1/2]
  7
SLDTEXTSTYLE0
 73
     1
 44
1.0
  0
POINT
  5
1F2
330
1E9
100
AcDbEntity
  8
Defpoints
 62
     0
100
AcDbPoint
 10
180.8875
 20
32.00399999999996
 30
0.0
  0
POINT
  5
1F3
330
1E9
100
AcDbEntity
  8
Defpoints
 62
     0
100
AcDbPoint
 10
15.78750000000004
 20
29.46399999999995
 30
0.0
  0
POINT
  5
1F4
330
1E9
100
AcDbEntity
  8
Defpoints
 62
     0
100
AcDbPoint
 10
15.78750000000004
 20
50.91314679328075
 30
0.0
  0
ENDBLK
  5
1EB
330
1E9
100
AcDbEntity
  8
0
100
AcDbBlockEnd
  0
BLOCK
  5
1F6
330
1F5
100
AcDbEntity
  8
0
100
AcDbBlockBegin
  2
*D10
 70
     1
 10
0.0
 20
0.0
 30
0.0
  3
*D10
  1
*D10
  0
LINE
  5
1F8
330
1F5
100
AcDbEntity
  8
치수문자_일반주서
 62
     0
370
    -2
100
AcDbLine
 10
15.72500000000004
 20
32.00399999999992
 30
0.0
 11
4.374999999999991
 21
32.00399999999988
 31
0.0
  0
LINE
  5
1F9
330
1F5
100
AcDbEntity
  8
치수문자_일반주서
 62
     0
370
    -2
100
AcDbLine
 10
18.26500000000004
 20
6.603999999999955
 30
0.0
 11
4.37500000000008
 21
6.603999999999903
 31
0.0
  0
LINE
  5
1FA
330
1F5
100
AcDbEntity
  8
치수문자_일반주서
 62
     0
370
    -2
100
AcDbLine
 10
4.375000000000003
 20
28.70199999999988
 30
0.0
 11
4.375000000000068
 21
9.905999999999903
 31
0.0
  0
SOLID
  5
1FB
330
1F5
100
AcDbEntity
  8
치수문자_일반주서
 62
     0
100
AcDbTrace
 10
4.925333333333336
 20
28.70199999999988
 30
0.0
 11
3.82466666666667
 21
28.70199999999987
 31
0.0
 12
4.374999999999991
 22
32.00399999999988
 32
0.0
 13
4.374999999999991
 23
32.00399999999988
 33
0.0
  0
SOLID
  5
1FC
330
1F5
100
AcDbEntity
  8
치수문자_일반주서
 62
     0
100
AcDbTrace
 10
3.824666666666735
 20
9.905999999999901
 30
0.0
 11
4.925333333333402
 21
9.905999999999905
 31
0.0
 12
4.37500000000008
 22
6.603999999999903
 32
0.0
 13
4.37500000000008
 23
6.603999999999903
 33
0.0
  0
MTEXT
  5
1FD
330
1F5
100
AcDbEntity
  8
치수문자_일반주서
 62
     0
100
AcDbMText
 10
0.0000000000000355
 20
19.30399999999992
 30
0.0
 40
3.5
 41
0.0
 71
     2
 72
     1
  1
\A1;%%c25.4 [1]
  7
SLDTEXTSTYLE0
 11
-3.496765431890260E-15
 21
1.0
 31
0.0
 73
     1
 44
1.0
  0
POINT
  5
1FE
330
1F5
100
AcDbEntity
  8
Defpoints
 62
     0
100
AcDbPoint
 10
15.78750000000004
 20
32.00399999999992
 30
0.0
  0
POINT
  5
1FF
330
1F5
100
AcDbEntity
  8
Defpoints
 62
     0
100
AcDbPoint
 10
18.32750000000004
 20
6.603999999999955
 30
0.0
  0
POINT
  5
200
330
1F5
100
AcDbEntity
  8
Defpoints
 62
     0
100
AcDbPoint
 10
4.375000000000078
 20
6.603999999999902
 30
0.0
  0
ENDBLK
  5
1F7
330
1F5
100
AcDbEntity
  8
0
100
AcDbBlockEnd
  0
BLOCK
  5
202
330
201
100
AcDbEntity
  8
0
100
AcDbBlockBegin
  2
*D11
 70
     1
 10
0.0
 20
0.0
 30
0.0
  3
*D11
  1
*D11
  0
LINE
  5
204
330
201
100
AcDbEntity
  8
치수문자_일반주서
 62
     0
370
    -2
100
AcDbLine
 10
180.95
 20
32.00399999999996
 30
0.0
 11
189.9867558506513
 21
32.004
 31
0.0
  0
LINE
  5
205
330
201
100
AcDbEntity
  8
치수문자_일반주서
 62
     0
370
    -2
100
AcDbLine
 10
180.95
 20
6.603999999999967
 30
0.0
 11
189.9867558506513
 21
6.603999999999999
 31
0.0
  0
LINE
  5
206
330
201
100
AcDbEntity
  8
치수문자_일반주서
 62
     0
370
    -2
100
AcDbLine
 10
189.9867558506513
 20
32.004
 30
0.0
 11
189.9867558506512
 21
62.73299999999998
 31
0.0
  0
LINE
  5
207
330
201
100
AcDbEntity
  8
치수문자_일반주서
 62
     0
370
    -2
100
AcDbLine
 10
189.9867558506513
 20
28.702
 30
0.0
 11
189.9867558506513
 21
9.905999999999999
 31
0.0
  0
SOLID
  5
208
330
201
100
AcDbEntity
  8
치수문자_일반주서
 62
     0
100
AcDbTrace
 10
190.5370891839846
 20
28.702
 30
0.0
 11
189.4364225173179
 21
28.70199999999999
 31
0.0
 12
189.9867558506513
 22
32.004
 32
0.0
 13
189.9867558506513
 23
32.004
 33
0.0
  0
SOLID
  5
209
330
201
100
AcDbEntity
  8
치수문자_일반주서
 62
     0
100
AcDbTrace
 10
189.436422517318
 20
9.905999999999997
 30
0.0
 11
190.5370891839847
 21
9.906
 31
0.0
 12
189.9867558506513
 22
6.603999999999999
 32
0.0
 13
189.9867558506513
 23
6.603999999999999
 33
0.0
  0
MTEXT
  5
20A
330
201
100
AcDbEntity
  8
치수문자_일반주서
 62
     0
100
AcDbMText
 10
185.6117558506512
 20
52.67049999999997
 30
0.0
 40
3.5
 41
0.0
 71
     2
 72
     1
  1
\A1;%%c25.4 [1]
  7
SLDTEXTSTYLE0
 11
-3.356894814614647E-15
 21
1.0
 31
0.0
 73
     1
 44
1.0
  0
POINT
  5
20B
330
201
100
AcDbEntity
  8
Defpoints
 62
     0
100
AcDbPoint
 10
180.8875
 20
32.00399999999996
 30
0.0
  0
POINT
  5
20C
330
201
100
AcDbEntity
  8
Defpoints
 62
     0
100
AcDbPoint
 10
180.8875
 20
6.603999999999967
 30
0.0
  0
POINT
  5
20D
330
201
100
AcDbEntity
  8
Defpoints
 62
     0
100
AcDbPoint
 10
189.9867558506513
 20
6.604000000000001
 30
0.0
  0
ENDBLK
  5
203
330
201
100
AcDbEntity
  8
0
100
AcDbBlockEnd
  0
BLOCK
  5
23F
330
23E
100
AcDbEntity
  8
0
100
AcDbBlockBegin
  2
*D12
 70
     1
 10
0.0
 20
0.0
 30
0.0
  3
*D12
  1
*D12
  0
LINE
  5
241
330
23E
100
AcDbEntity
  8
치수문자_일반주서
 62
     0
370
    -2
100
AcDbLine
 10
289.7448401374101
 20
-59.40195405947206
 30
0.0
 11
289.7448401374101
 21
-48.88145156782531
 31
0.0
  0
LINE
  5
242
330
23E
100
AcDbEntity
  8
치수문자_일반주서
 62
     0
370
    -2
100
AcDbLine
 10
188.1448401374101
 20
-59.44865714706234
 30
0.0
 11
188.1448401374101
 21
-48.88145156782531
 31
0.0
  0
LINE
  5
243
330
23E
100
AcDbEntity
  8
치수문자_일반주서
 62
     0
370
    -2
100
AcDbLine
 10
286.44284013741
 20
-48.88145156782531
 30
0.0
 11
191.4468401374101
 21
-48.88145156782531
 31
0.0
  0
SOLID
  5
244
330
23E
100
AcDbEntity
  8
치수문자_일반주서
 62
     0
100
AcDbTrace
 10
286.44284013741
 20
-49.43178490115864
 30
0.0
 11
286.44284013741
 21
-48.33111823449197
 31
0.0
 12
289.7448401374101
 22
-48.88145156782531
 32
0.0
 13
289.7448401374101
 23
-48.88145156782531
 33
0.0
  0
SOLID
  5
245
330
23E
100
AcDbEntity
  8
치수문자_일반주서
 62
     0
100
AcDbTrace
 10
191.4468401374101
 20
-48.33111823449197
 30
0.0
 11
191.4468401374101
 21
-49.43178490115864
 31
0.0
 12
188.1448401374101
 22
-48.88145156782531
 32
0.0
 13
188.1448401374101
 23
-48.88145156782531
 33
0.0
  0
MTEXT
  5
246
330
23E
100
AcDbEntity
  8
치수문자_일반주서
 62
     0
100
AcDbMText
 10
254.2722976820402
 20
-44.50645156782531
 30
0.0
 40
3.5
 41
0.0
 71
     2
 72
     1
  1
\A1;101.6 [4]
  7
SLDTEXTSTYLE0
 73
     1
 44
1.0
  0
POINT
  5
247
330
23E
100
AcDbEntity
  8
Defpoints
 62
     0
100
AcDbPoint
 10
289.7448401374101
 20
-59.46445405947206
 30
0.0
  0
POINT
  5
248
330
23E
100
AcDbEntity
  8
Defpoints
 62
     0
100
AcDbPoint
 10
188.1448401374101
 20
-59.51115714706234
 30
0.0
  0
POINT
  5
249
330
23E
100
AcDbEntity
  8
Defpoints
 62
     0
100
AcDbPoint
 10
188.1448401374101
 20
-48.88145156782531
 30
0.0
  0
ENDBLK
  5
240
330
23E
100
AcDbEntity
  8
0
100
AcDbBlockEnd
  0
BLOCK
  5
24B
330
24A
100
AcDbEntity
  8
0
100
AcDbBlockBegin
  2
*D13
 70
     1
 10
0.0
 20
0.0
 30
0.0
  3
*D13
  1
*D13
  0
LINE
  5
24D
330
24A
100
AcDbEntity
  8
치수문자_일반주서
 62
     0
370
    -2
100
AcDbLine
 10
289.7448401374101
 20
-59.40195405947206
 30
0.0
 11
289.7448401374101
 21
-40.55530726619128
 31
0.0
  0
LINE
  5
24E
330
24A
100
AcDbEntity
  8
치수문자_일반주서
 62
     0
370
    -2
100
AcDbLine
 10
124.6448401374102
 20
-61.94195405947208
 30
0.0
 11
124.6448401374102
 21
-40.55530726619128
 31
0.0
  0
LINE
  5
24F
330
24A
100
AcDbEntity
  8
치수문자_일반주서
 62
     0
370
    -2
100
AcDbLine
 10
286.44284013741
 20
-40.55530726619128
 30
0.0
 11
127.9468401374102
 21
-40.55530726619128
 31
0.0
  0
SOLID
  5
250
330
24A
100
AcDbEntity
  8
치수문자_일반주서
 62
     0
100
AcDbTrace
 10
286.44284013741
 20
-41.10564059952461
 30
0.0
 11
286.44284013741
 21
-40.00497393285794
 31
0.0
 12
289.7448401374101
 22
-40.55530726619128
 32
0.0
 13
289.7448401374101
 23
-40.55530726619128
 33
0.0
  0
SOLID
  5
251
330
24A
100
AcDbEntity
  8
치수문자_일반주서
 62
     0
100
AcDbTrace
 10
127.9468401374102
 20
-40.00497393285794
 30
0.0
 11
127.9468401374102
 21
-41.10564059952461
 31
0.0
 12
124.6448401374102
 22
-40.55530726619128
 32
0.0
 13
124.6448401374102
 23
-40.55530726619128
 33
0.0
  0
MTEXT
  5
252
330
24A
100
AcDbEntity
  8
치수문자_일반주서
 62
     0
100
AcDbMText
 10
207.1948401374102
 20
-36.18030726619128
 30
0.0
 40
3.5
 41
0.0
 71
     2
 72
     1
  1
\A1;165.1 [6 1/2]
  7
SLDTEXTSTYLE0
 73
     1
 44
1.0
  0
POINT
  5
253
330
24A
100
AcDbEntity
  8
Defpoints
 62
     0
100
AcDbPoint
 10
289.7448401374101
 20
-59.46445405947206
 30
0.0
  0
POINT
  5
254
330
24A
100
AcDbEntity
  8
Defpoints
 62
     0
100
AcDbPoint
 10
124.6448401374102
 20
-62.00445405947208
 30
0.0
  0
POINT
  5
255
330
24A
100
AcDbEntity
  8
Defpoints
 62
     0
100
AcDbPoint
 10
124.6448401374102
 20
-40.55530726619128
 30
0.0
  0
ENDBLK
  5
24C
330
24A
100
AcDbEntity
  8
0
100
AcDbBlockEnd
  0
BLOCK
  5
257
330
256
100
AcDbEntity
  8
0
100
AcDbBlockBegin
  2
*D14
 70
     1
 10
0.0
 20
0.0
 30
0.0
  3
*D14
  1
*D14
  0
LINE
  5
259
330
256
100
AcDbEntity
  8
치수문자_일반주서
 62
     0
370
    -2
100
AcDbLine
 10
124.5823401374102
 20
-59.4644540594721
 30
0.0
 11
113.2323401374101
 21
-59.46445405947215
 31
0.0
  0
LINE
  5
25A
330
256
100
AcDbEntity
  8
치수문자_일반주서
 62
     0
370
    -2
100
AcDbLine
 10
127.1223401374102
 20
-84.86445405947207
 30
0.0
 11
113.2323401374102
 21
-84.86445405947212
 31
0.0
  0
LINE
  5
25B
330
256
100
AcDbEntity
  8
치수문자_일반주서
 62
     0
370
    -2
100
AcDbLine
 10
113.2323401374101
 20
-62.76645405947215
 30
0.0
 11
113.2323401374102
 21
-81.56245405947212
 31
0.0
  0
SOLID
  5
25C
330
256
100
AcDbEntity
  8
치수문자_일반주서
 62
     0
100
AcDbTrace
 10
113.7826734707434
 20
-62.76645405947215
 30
0.0
 11
112.6820068040768
 21
-62.76645405947215
 31
0.0
 12
113.2323401374101
 22
-59.46445405947215
 32
0.0
 13
113.2323401374101
 23
-59.46445405947215
 33
0.0
  0
SOLID
  5
25D
330
256
100
AcDbEntity
  8
치수문자_일반주서
 62
     0
100
AcDbTrace
 10
112.6820068040768
 20
-81.56245405947212
 30
0.0
 11
113.7826734707435
 21
-81.56245405947212
 31
0.0
 12
113.2323401374102
 22
-84.86445405947212
 32
0.0
 13
113.2323401374102
 23
-84.86445405947212
 33
0.0
  0
MTEXT
  5
25E
330
256
100
AcDbEntity
  8
치수문자_일반주서
 62
     0
100
AcDbMText
 10
108.8573401374101
 20
-72.1644540594721
 30
0.0
 40
3.5
 41
0.0
 71
     2
 72
     1
  1
\A1;%%c25.4 [1]
  7
SLDTEXTSTYLE0
 11
-3.356894814614650E-15
 21
1.0
 31
0.0
 73
     1
 44
1.0
  0
POINT
  5
25F
330
256
100
AcDbEntity
  8
Defpoints
 62
     0
100
AcDbPoint
 10
124.6448401374102
 20
-59.4644540594721
 30
0.0
  0
POINT
  5
260
330
256
100
AcDbEntity
  8
Defpoints
 62
     0
100
AcDbPoint
 10
127.1848401374102
 20
-84.86445405947207
 30
0.0
  0
POINT
  5
261
330
256
100
AcDbEntity
  8
Defpoints
 62
     0
100
AcDbPoint
 10
113.2323401374102
 20
-84.86445405947212
 30
0.0
  0
ENDBLK
  5
258
330
256
100
AcDbEntity
  8
0
100
AcDbBlockEnd
  0
BLOCK
  5
263
330
262
100
AcDbEntity
  8
0
100
AcDbBlockBegin
  2
*D15
 70
     1
 10
0.0
 20
0.0
 30
0.0
  3
*D15
  1
*D15
  0
LINE
  5
265
330
262
100
AcDbEntity
  8
치수문자_일반주서
 62
     0
370
    -2
100
AcDbLine
 10
289.8073401374101
 20
-59.46445405947206
 30
0.0
 11
298.8440959880614
 21
-59.46445405947203
 31
0.0
  0
LINE
  5
266
330
262
100
AcDbEntity
  8
치수문자_일반주서
 62
     0
370
    -2
100
AcDbLine
 10
289.8073401374101
 20
-84.86445405947205
 30
0.0
 11
298.8440959880616
 21
-84.86445405947202
 31
0.0
  0
LINE
  5
267
330
262
100
AcDbEntity
  8
치수문자_일반주서
 62
     0
370
    -2
100
AcDbLine
 10
298.8440959880614
 20
-59.46445405947203
 30
0.0
 11
298.8440959880613
 21
-28.73545405947204
 31
0.0
  0
LINE
  5
268
330
262
100
AcDbEntity
  8
치수문자_일반주서
 62
     0
370
    -2
100
AcDbLine
 10
298.8440959880614
 20
-62.76645405947203
 30
0.0
 11
298.8440959880616
 21
-81.56245405947203
 31
0.0
  0
SOLID
  5
269
330
262
100
AcDbEntity
  8
치수문자_일반주서
 62
     0
100
AcDbTrace
 10
299.3944293213948
 20
-62.76645405947203
 30
0.0
 11
298.2937626547281
 21
-62.76645405947203
 31
0.0
 12
298.8440959880614
 22
-59.46445405947203
 32
0.0
 13
298.8440959880614
 23
-59.46445405947203
 33
0.0
  0
SOLID
  5
26A
330
262
100
AcDbEntity
  8
치수문자_일반주서
 62
     0
100
AcDbTrace
 10
298.2937626547282
 20
-81.56245405947203
 30
0.0
 11
299.3944293213949
 21
-81.56245405947203
 31
0.0
 12
298.8440959880616
 22
-84.86445405947202
 32
0.0
 13
298.8440959880616
 23
-84.86445405947202
 33
0.0
  0
MTEXT
  5
26B
330
262
100
AcDbEntity
  8
치수문자_일반주서
 62
     0
100
AcDbMText
 10
294.4690959880613
 20
-38.79795405947206
 30
0.0
 40
3.5
 41
0.0
 71
     2
 72
     1
  1
\A1;%%c25.4 [1]
  7
SLDTEXTSTYLE0
 11
-4.475859752819529E-15
 21
1.0
 31
0.0
 73
     1
 44
1.0
  0
POINT
  5
26C
330
262
100
AcDbEntity
  8
Defpoints
 62
     0
100
AcDbPoint
 10
289.7448401374101
 20
-59.46445405947206
 30
0.0
  0
POINT
  5
26D
330
262
100
AcDbEntity
  8
Defpoints
 62
     0
100
AcDbPoint
 10
289.7448401374101
 20
-84.86445405947205
 30
0.0
  0
POINT
  5
26E
330
262
100
AcDbEntity
  8
Defpoints
 62
     0
100
AcDbPoint
 10
298.8440959880614
 20
-84.86445405947202
 30
0.0
  0
ENDBLK
  5
264
330
262
100
AcDbEntity
  8
0
100
AcDbBlockEnd
  0
ENDSEC
  0
SECTION
  2
ENTITIES
  0
LINE
  5
96
330
1F
100
AcDbEntity
  8
0
  6
Continuous
 62
     1
370
    15
100
AcDbLine
 10
43.88445396699076
 20
-11.11250000000002
 30
0.0
 11
50.65921206477144
 21
-11.11250000000002
 31
0.0
  0
LINE
  5
97
330
1F
100
AcDbEntity
  8
0
  6
Continuous
 62
     1
370
    15
100
AcDbLine
 10
74.1194133838454
 20
-11.11250000000002
 30
0.0
 11
80.89543128049431
 21
-11.11250000000002
 31
0.0
  0
LINE
  5
98
330
1F
100
AcDbEntity
  8
0
  6
Continuous
 62
     1
370
    15
100
AcDbLine
 10
20.42799556956738
 20
11.11250000000001
 30
0.0
 11
13.65144563884985
 21
11.11250000000001
 31
0.0
  0
LINE
  5
99
330
1F
100
AcDbEntity
  8
0
  6
Continuous
 62
     1
370
    15
100
AcDbLine
 10
50.65921206477151
 20
11.11250000000001
 30
0.0
 11
43.88445396699063
 21
11.11250000000001
 31
0.0
  0
ARC
  5
9A
330
1F
100
AcDbEntity
  8
0
  6
Continuous
 62
     1
370
    15
100
AcDbCircle
 10
89.78749999999997
 20
0.0000000000000048
 30
0.0
 40
11.11250000000003
100
AcDbArc
 50
333.0092968807991
 51
0.0
  0
ARC
  5
9B
330
1F
100
AcDbEntity
  8
0
  6
Continuous
 62
     1
370
    15
100
AcDbCircle
 10
89.78749999999997
 20
0.0000000000000048
 30
0.0
 40
11.11250000000003
100
AcDbArc
 50
0.0
 51
26.98443785878628
  0
LINE
  5
9C
330
1F
100
AcDbEntity
  8
0
  6
Continuous
 62
     1
370
    15
100
AcDbLine
 10
13.65144563884988
 20
-11.11250000000002
 30
0.0
 11
20.42799556956749
 21
-11.11250000000002
 31
0.0
  0
LINE
  5
9D
330
1F
100
AcDbEntity
  8
0
  6
Continuous
 62
     1
370
    15
100
AcDbLine
 10
80.89543128049448
 20
11.11250000000001
 30
0.0
 11
74.11941338384537
 21
11.11250000000001
 31
0.0
  0
LINE
  5
9E
330
1F
100
AcDbEntity
  8
외형선
  6
Continuous
370
    15
100
AcDbLine
 10
-42.92750000000002
 20
-11.1125
 30
0.0
 11
11.99999999999999
 21
-11.1125
 31
0.0
  0
LINE
  5
9F
330
1F
100
AcDbEntity
  8
외형선
  6
Continuous
370
    15
100
AcDbLine
 10
11.99999999999999
 20
11.11249999999999
 30
0.0
 11
-11.91092499999987
 21
11.11249999999999
 31
0.0
  0
LINE
  5
A0
330
1F
100
AcDbEntity
  8
외형선
  6
Continuous
370
    15
100
AcDbLine
 10
-44.57850000000003
 20
9.461499999999988
 30
0.0
 11
-45.15000000000002
 21
8.889999999999997
 31
0.0
  0
LINE
  5
A1
330
1F
100
AcDbEntity
  8
외형선
  6
Continuous
370
    15
100
AcDbLine
 10
-45.15000000000002
 20
-8.890000000000008
 30
0.0
 11
-42.92750000000002
 21
-11.1125
 31
0.0
  0
SPLINE
  5
A2
330
1F
100
AcDbEntity
  8
0
  6
Continuous
 62
     1
370
    15
100
AcDbSpline
210
0.0
220
0.0
230
1.0
 70
     8
 71
     3
 72
    27
 73
    23
 74
     0
 42
0.000000001
 43
0.00000001
 40
0.0
 40
0.0
 40
0.0
 40
0.0
 40
0.0511193695166075
 40
0.102235984802086
 40
0.1533501826274738
 40
0.2044623008189307
 40
0.255572678111287
 40
0.3066816540007462
 40
0.3577895685968788
 40
0.4088967624740408
 40
0.4600035765223595
 40
0.5111103517984218
 40
0.5622174293758084
 40
0.613325150195612
 40
0.6644338549170768
 40
0.7155438837685067
 40
0.7666555763985725
 40
0.8177692717281619
 40
0.8688853078029086
 40
0.9200040216465397
 40
0.9711239044797633
 40
1.0
 40
1.0
 40
1.0
 40
1.0
 10
12.0
 20
11.0716347983585
 30
0.0
 10
13.05853495679964
 20
11.09493331261754
 30
0.0
 10
15.17554783820241
 20
11.14152908584834
 30
0.0
 10
18.35094414356841
 20
10.8283629660943
 30
0.0
 10
21.52616304106714
 20
10.24278346076987
 30
0.0
 10
24.70122621165586
 20
9.373339988032416
 30
0.0
 10
27.8761598299616
 20
8.250978817493664
 30
0.0
 10
31.05098894502629
 20
6.904212524815347
 30
0.0
 10
34.22573897125818
 20
5.370132431060027
 30
0.0
 10
37.40043527427205
 20
3.690244193880646
 30
0.0
 10
40.57510326710155
 20
1.910187718280919
 30
0.0
 10
43.74976836973211
 20
0.0782731717001238
 30
0.0
 10
46.92445600485819
 20
-1.75577149569405
 30
0.0
 10
50.09919158534269
 20
-3.542154985910461
 30
0.0
 10
53.27400049863568
 20
-5.232408558466336
 30
0.0
 10
56.44890811171587
 20
-6.780553717531089
 30
0.0
 10
59.62393969710391
 20
-8.144902515353994
 30
0.0
 10
62.79912065427526
 20
-9.287123873249142
 30
0.0
 10
65.97447562860066
 20
-10.18099073121076
 30
0.0
 10
69.14999354846515
 20
-10.78432061283926
 30
0.0
 10
71.86501538459098
 20
-11.09481974632227
 30
0.0
 10
73.52148032671798
 20
-11.08051968250708
 30
0.0
 10
74.11941338384537
 20
-11.07535779790772
 30
0.0
  0
SPLINE
  5
A3
330
1F
100
AcDbEntity
  8
0
  6
Continuous
 62
     1
370
    15
100
AcDbSpline
210
0.0
220
0.0
230
1.0
 70
     8
 71
     3
 72
    23
 73
    19
 74
     0
 42
0.000000001
 43
0.00000001
 40
0.0
 40
0.0
 40
0.0
 40
0.0
 40
0.0548500429601615
 40
0.1178616684941094
 40
0.1808712428849444
 40
0.243879184859061
 40
0.3068859138574405
 40
0.3698918498523368
 40
0.4328974131634719
 40
0.4959030242739021
 40
0.5589091036457344
 40
0.6219160715358601
 40
0.6849243478118797
 40
0.7479343517683976
 40
0.8109465019438443
 40
0.8739612159380141
 40
0.9369789102304699
 40
0.9999999999999999
 40
0.9999999999999999
 40
0.9999999999999999
 40
0.9999999999999999
 10
62.38770408842482
 20
-9.098289191815503
 30
0.0
 10
61.46643537916737
 20
-9.39038424920339
 30
0.0
 10
59.48681492046763
 20
-10.01803755564881
 30
0.0
 10
56.44890856306618
 20
-10.65781035916485
 30
0.0
 10
53.27400037770176
 20
-11.06128658697241
 30
0.0
 10
50.09919161774581
 20
-11.15798181959468
 30
0.0
 10
46.92445599617596
 20
-10.95349543263382
 30
0.0
 10
43.74976837205848
 20
-10.45118266705293
 30
0.0
 10
40.57510326647818
 20
-9.665271572989347
 30
0.0
 10
37.40043527443905
 20
-8.616939561786008
 30
0.0
 10
34.22573897121344
 20
-7.334680313027732
 30
0.0
 10
31.05098894503828
 20
-5.853302766392466
 30
0.0
 10
27.87615982995838
 20
-4.212958709266792
 30
0.0
 10
24.70122621165673
 20
-2.458395919586302
 30
0.0
 10
21.52616304106689
 20
-0.6364050711582673
 30
0.0
 10
18.35094414356845
 20
1.200432690996746
 30
0.0
 10
15.17554783820238
 20
3.013899781063629
 30
0.0
 10
13.05853495679964
 20
4.14545321430196
 30
0.0
 10
11.99999999999999
 20
4.711245172911
 30
0.0
  0
SPLINE
  5
A4
330
1F
100
AcDbEntity
  8
0
  6
Continuous
 62
     1
370
    15
100
AcDbSpline
210
0.0
220
0.0
230
1.0
 70
     8
 71
     3
 72
    18
 73
    14
 74
     0
 42
0.000000001
 43
0.00000001
 40
0.0
 40
0.0
 40
0.0
 40
0.0
 40
0.0995937955070154
 40
0.1991822250571651
 40
0.2987659447678115
 40
0.3983456128119685
 40
0.4979218891329747
 40
0.5974954351575225
 40
0.6970669135073017
 40
0.7966369877095246
 40
0.8962063219066085
 40
0.995775580565277
 40
1.0
 40
1.0
 40
1.0
 40
1.0
 10
12.0
 20
0.9521339936046057
 30
0.0
 10
13.05853495680271
 20
0.3408208111223902
 30
0.0
 10
15.1755478382116
 20
-0.8817726172504392
 30
0.0
 10
18.35094414353156
 20
-2.698682391921721
 30
0.0
 10
21.52616304120528
 20
-4.440412371325889
 30
0.0
 10
24.70122621114015
 20
-6.062102934523143
 30
0.0
 10
27.87615983188621
 20
-7.518877910475439
 30
0.0
 10
31.05098893784385
 20
-8.772211367787868
 30
0.0
 10
34.2257389980627
 20
-9.78489139816384
 30
0.0
 10
37.40043517423799
 20
-10.54120216789932
 30
0.0
 10
40.57510364043078
 20
-10.97673939273682
 30
0.0
 10
42.73643894783513
 20
-11.15830025940064
 30
0.0
 10
43.8395568889154
 20
-11.10840114268562
 30
0.0
 10
43.88445396699078
 20
-11.10637024058928
 30
0.0
  0
LWPOLYLINE
  5
A5
330
1F
100
AcDbEntity
  8
0
  6
Continuous
 62
     1
370
    15
100
AcDbPolyline
 90
       26
 70
   128
 43
0.0
 10
92.62546549359513
 20
8.727831970550815
 10
92.91375888993039
 20
8.765295292906126
 10
94.41345946685576
 20
8.668836381467749
 10
95.88115057748922
 20
8.272681863474947
 10
97.15067833360561
 20
7.648476319352398
 10
98.27735472857447
 20
6.810199462390418
 10
99.02358627406377
 20
6.036099889674346
 10
99.5939050977158
 20
5.220019415375375
 10
99.82473803160579
 20
4.748952086035405
 10
99.95338372006381
 20
4.320949246749004
 10
99.96848090242901
 20
4.048221611583765
 10
99.89898635885075
 20
3.845509278207688
 10
99.74472656134026
 20
3.741367253719825
 10
99.49637272591085
 20
3.743963570766744
 10
99.22698881157731
 20
3.834098492443983
 10
98.9001600129373
 20
4.004135106280857
 10
98.13367900825017
 20
4.533688465046925
 10
97.51635963796215
 20
5.025640295068129
 10
96.84607314870428
 20
5.58601208247778
 10
95.9144672605222
 20
6.369967949012514
 10
94.9254340285612
 20
7.169378906730594
 10
93.59579504865184
 20
8.139734410183962
 10
92.19009986385106
 20
8.991698471767636
 10
91.01022600963367
 20
9.543902468486976
 10
89.78749999999997
 20
9.947064990453201
 10
89.78749999999997
 20
9.947064990453201
  0
SPLINE
  5
A6
330
1F
100
AcDbEntity
  8
0
  6
Continuous
 62
     1
370
    15
100
AcDbSpline
210
0.0
220
0.0
230
1.0
 70
     8
 71
     3
 72
    11
 73
     7
 74
     0
 42
0.000000001
 43
0.00000001
 40
0.0
 40
0.0
 40
0.0
 40
0.0
 40
0.3124248502294572
 40
0.6247760300186405
 40
0.9371280818925875
 40
0.9999999999999999
 40
0.9999999999999999
 40
0.9999999999999999
 40
0.9999999999999999
 10
89.78749999999997
 20
9.947064990453205
 30
0.0
 10
88.86142816656508
 20
10.16650554107822
 30
0.0
 10
87.00950286939164
 20
10.60533489778244
 30
0.0
 10
84.23190841831911
 20
10.96882892052912
 30
0.0
 10
82.19400311579426
 20
11.134332996419
 30
0.0
 10
81.08179162832099
 20
11.09970903853711
 30
0.0
 10
80.89543128049448
 20
11.09390750447036
 30
0.0
  0
SPLINE
  5
A7
330
1F
100
AcDbEntity
  8
0
  6
Continuous
 62
     1
370
    15
100
AcDbSpline
210
0.0
220
0.0
230
1.0
 70
     8
 71
     3
 72
    14
 73
    10
 74
     0
 42
0.000000001
 43
0.00000001
 40
0.0
 40
0.0
 40
0.0
 40
0.0
 40
0.0548897472198259
 40
0.2123938446840481
 40
0.3699022608945317
 40
0.5274160420871306
 40
0.6849362321513555
 40
0.8424638721764341
 40
1.0
 40
1.0
 40
1.0
 40
1.0
 10
32.1574211887532
 20
-9.084123101214784
 30
0.0
 10
31.78861719559834
 20
-9.213502458296952
 30
0.0
 10
30.36154379831548
 20
-9.714131090514558
 30
0.0
 10
27.87615934966214
 20
-10.3271638692738
 30
0.0
 10
24.70122634035472
 20
-10.89151533084603
 30
0.0
 10
21.52616300659221
 20
-11.14496861687849
 30
0.0
 10
18.3509441527623
 20
-11.09502998691827
 30
0.0
 10
15.17554783590371
 20
-10.76227359722384
 30
0.0
 10
13.05853495603341
 20
-10.29701803946296
 30
0.0
 10
11.99999999999999
 20
-10.06438399360449
 30
0.0
  0
SPLINE
  5
A8
330
1F
100
AcDbEntity
  8
0
  6
Continuous
 62
     1
370
    15
100
AcDbSpline
210
0.0
220
0.0
230
1.0
 70
     8
 71
     3
 72
    26
 73
    22
 74
     0
 42
0.000000001
 43
0.00000001
 40
0.0
 40
0.0
 40
0.0
 40
0.0
 40
0.0358896124378026
 40
0.0909768792487685
 40
0.1460637366509751
 40
0.2011505522614598
 40
0.2562376937155774
 40
0.3113255285058762
 40
0.3664144238211075
 40
0.4215047463855212
 40
0.4765968622985943
 40
0.5316911368753434
 40
0.5867879344873687
 40
0.6418876184047806
 40
0.6969885623491417
 40
0.7520866273590655
 40
0.8071820040139807
 40
0.8553924557349284
 40
0.9035912708599929
 40
0.9517899514143008
 40
1.0
 40
1.0
 40
1.0
 40
1.0
 10
32.15742118875307
 20
9.084123101214773
 30
0.0
 10
32.84686528838816
 20
9.313025439999551
 30
0.0
 10
34.59454291265842
 20
9.893271896309813
 30
0.0
 10
37.4004349885689
 20
10.52918039836188
 30
0.0
 10
40.57510334365666
 20
11.00002915227132
 30
0.0
 10
43.74976834921341
 20
11.16228639233301
 30
0.0
 10
46.92445601037763
 20
11.02418554696466
 30
0.0
 10
50.09919158378382
 20
10.58608545585897
 30
0.0
 10
53.27400049935161
 20
9.860780302454398
 30
0.0
 10
56.44890811041105
 20
8.867708332885845
 30
0.0
 10
59.62393970160749
 20
7.633883952019037
 30
0.0
 10
62.79912063756482
 20
6.192774723840837
 30
0.0
 10
65.97447569094308
 20
4.583498436188083
 30
0.0
 10
69.14999331579153
 20
2.849757088171635
 30
0.0
 10
72.32556812265358
 20
1.038686156315511
 30
0.0
 10
75.50098140648188
 20
-0.800688461990809
 30
0.0
 10
78.54410380446885
 20
-2.542364107688162
 30
0.0
 10
81.45430485211313
 20
-4.14791692748947
 30
0.0
 10
84.23191911237711
 20
-5.591254350961512
 30
0.0
 10
87.00950019514454
 20
-6.930332201579465
 30
0.0
 10
88.86142727507925
 20
-7.696804634019697
 30
0.0
 10
89.78749999999997
 20
-8.080086039522724
 30
0.0
  0
SPLINE
  5
A9
330
1F
100
AcDbEntity
  8
0
  6
Continuous
 62
     1
370
    15
100
AcDbSpline
210
0.0
220
0.0
230
1.0
 70
     8
 71
     3
 72
    16
 73
    12
 74
     0
 42
0.000000001
 43
0.00000001
 40
0.0
 40
0.0
 40
0.0
 40
0.0
 40
0.1278793627752478
 40
0.2594996775468802
 40
0.3861397983410986
 40
0.5166749573371127
 40
0.6405243825397392
 40
0.7674528000603683
 40
0.8703169709350803
 40
0.975505492575372
 40
1.0
 40
1.0
 40
1.0
 40
1.0
 10
89.78749999999997
 20
-8.08008603952271
 30
0.0
 10
90.29912879585541
 20
-8.258534540376072
 30
0.0
 10
91.33735345280436
 20
-8.62065183143232
 30
0.0
 10
92.89879341691832
 20
-8.812784389560333
 30
0.0
 10
94.4409894962798
 20
-8.716625735964483
 30
0.0
 10
95.87855317377489
 20
-8.324511080419386
 30
0.0
 10
97.18839540315398
 20
-7.676219715787929
 30
0.0
 10
98.24626397153204
 20
-6.884299333846145
 30
0.0
 10
99.05292335445532
 20
-6.037594924386618
 30
0.0
 10
99.50436309569571
 20
-5.416104344295809
 30
0.0
 10
99.6541138054285
 20
-5.09927137529377
 30
0.0
 10
99.68239869280225
 20
-5.039428020557644
 30
0.0
  0
SPLINE
  5
AA
330
1F
100
AcDbEntity
  8
0
  6
Continuous
 62
     1
370
    15
100
AcDbSpline
210
0.0
220
0.0
230
1.0
 70
     8
 71
     3
 72
    10
 73
     6
 74
     0
 42
0.000000001
 43
0.00000001
 40
0.0
 40
0.0
 40
0.0
 40
0.0
 40
0.1578624108682611
 40
0.5755243654061605
 40
0.9999999999999999
 40
0.9999999999999999
 40
0.9999999999999999
 40
0.9999999999999999
 10
92.62546549359502
 20
-8.727831970550854
 30
0.0
 10
92.48076614299578
 20
-8.817825827246818
 30
0.0
 10
91.95323079452189
 20
-9.145919494260564
 30
0.0
 10
91.00733999095058
 20
-9.57477359299774
 30
0.0
 10
90.19630068561
 20
-9.822300283888767
 30
0.0
 10
89.78749999999997
 20
-9.947064990453178
 30
0.0
  0
SPLINE
  5
AB
330
1F
100
AcDbEntity
  8
0
  6
Continuous
 62
     1
370
    15
100
AcDbSpline
210
0.0
220
0.0
230
1.0
 70
     8
 71
     3
 72
    30
 73
    26
 74
     0
 42
0.000000001
 43
0.00000001
 40
0.0
 40
0.0
 40
0.0
 40
0.0
 40
0.0400573234297534
 40
0.0801052012579448
 40
0.1201531908998459
 40
0.1602108492912822
 40
0.2059891338376428
 40
0.2517696521155429
 40
0.2975525624758266
 40
0.3433344258903273
 40
0.3891138910979862
 40
0.4348912599368782
 40
0.4806668351602982
 40
0.5264409203054181
 40
0.5722138195612096
 40
0.6179858376357648
 40
0.6637572796231249
 40
0.7095284508697544
 40
0.7552996568407734
 40
0.8010712029860833
 40
0.8468433946065039
 40
0.8926165367200503
 40
0.9383909339284771
 40
0.9841668902842069
 40
1.0
 40
1.0
 40
1.0
 40
1.0
 10
89.7875
 20
-9.947064990453176
 30
0.0
 10
88.86142727507934
 20
-10.16545422903912
 30
0.0
 10
87.00950019514457
 20
-10.60218120956679
 30
0.0
 10
84.23191911237708
 20
-10.98144021779073
 30
0.0
 10
81.45430485211313
 20
-11.14710503061348
 30
0.0
 10
78.54410380446879
 20
-11.07365425226509
 30
0.0
 10
75.50098140648191
 20
-10.72759552081926
 30
0.0
 10
72.32556812265338
 20
-10.07484784343565
 30
0.0
 10
69.14999331579207
 20
-9.148667234987963
 30
0.0
 10
65.97447569094112
 20
-7.974045067682372
 30
0.0
 10
62.79912063757222
 20
-6.58292742608501
 30
0.0
 10
59.62393970157972
 20
-5.013103719946616
 30
0.0
 10
56.44890811051462
 20
-3.307200282402692
 30
0.0
 10
53.2740004989651
 20
-1.511531644624659
 30
0.0
 10
50.09919158522621
 20
0.3251534473673182
 30
0.0
 10
46.92445600499453
 20
2.152999061903646
 30
0.0
 10
43.74976836930321
 20
3.922378811924422
 30
0.0
 10
40.57510326868079
 20
5.58529978807646
 30
0.0
 10
37.40043526838392
 20
7.096488262324665
 30
0.0
 10
34.22573899323167
 20
8.41542371389885
 30
0.0
 10
31.0509888630186
 20
9.504429658197658
 30
0.0
 10
27.87616013602886
 20
10.34092311508016
 30
0.0
 10
24.7012250693468
 20
10.87612498282801
 30
0.0
 10
22.21849561292193
 20
11.12372697601225
 30
0.0
 10
20.79406461843323
 20
11.08760142591717
 30
0.0
 10
20.42799556956738
 20
11.0783174059722
 30
0.0
  0
LINE
  5
AC
330
1F
100
AcDbEntity
  8
0
  6
Continuous
 62
     1
370
    15
100
AcDbLine
 10
12.0
 20
-11.07163479835851
 30
0.0
 11
13.65144563884988
 21
-11.07477976299644
 31
0.0
  0
SPLINE
  5
AD
330
1F
100
AcDbEntity
  8
0
  6
Continuous
 62
     1
370
    15
100
AcDbSpline
210
0.0
220
0.0
230
1.0
 70
     8
 71
     3
 72
    17
 73
    13
 74
     0
 42
0.000000001
 43
0.00000001
 40
0.0
 40
0.0
 40
0.0
 40
0.0
 40
0.0150131751550826
 40
0.1308974216690036
 40
0.2467877389046261
 40
0.3626807063355397
 40
0.4785676185479563
 40
0.594448876384655
 40
0.6958491775622034
 40
0.7972250036667103
 40
0.8986005467306158
 40
1.0
 40
1.0
 40
1.0
 40
1.0
 10
62.38770408842483
 20
9.098289191815494
 30
0.0
 10
62.52482831604106
 20
9.147973226121971
 30
0.0
 10
63.72039205641619
 20
9.581160205002346
 30
0.0
 10
65.97447737261163
 20
10.16381914281842
 30
0.0
 10
69.14999286515723
 20
10.79710835769348
 30
0.0
 10
72.32556824343351
 20
11.1135115231324
 30
0.0
 10
75.50098137397782
 20
11.13460328588082
 30
0.0
 10
78.54410381197519
 20
10.86315530559121
 30
0.0
 10
81.45430485021743
 20
10.35172641046237
 30
0.0
 10
84.23191911288257
 20
9.645042442194622
 30
0.0
 10
87.0095001950182
 20
8.749134085881531
 30
0.0
 10
88.86142727503713
 20
8.002329819403474
 30
0.0
 10
89.78749999999997
 20
7.628883656467035
 30
0.0
  0
SPLINE
  5
AE
330
1F
100
AcDbEntity
  8
0
  6
Continuous
 62
     1
370
    15
100
AcDbSpline
210
0.0
220
0.0
230
1.0
 70
     8
 71
     3
 72
    58
 73
    54
 74
     0
 42
0.000000001
 43
0.00000001
 40
0.0
 40
0.0
 40
0.0
 40
0.0
 40
0.0624999999999978
 40
0.0624999999999978
 40
0.0937499999999967
 40
0.0937499999999967
 40
0.1249999999999957
 40
0.1249999999999957
 40
0.1874999999999958
 40
0.1874999999999958
 40
0.218749999999997
 40
0.218749999999997
 40
0.2499999999999983
 40
0.2499999999999983
 40
0.3124999999999987
 40
0.3124999999999987
 40
0.3749999999999991
 40
0.3749999999999991
 40
0.4062499999999999
 40
0.4062499999999999
 40
0.4375000000000008
 40
0.4375000000000008
 40
0.4687500000000018
 40
0.4687500000000018
 40
0.5000000000000027
 40
0.5000000000000027
 40
0.5312500000000036
 40
0.5312500000000036
 40
0.5468750000000038
 40
0.5468750000000038
 40
0.562500000000004
 40
0.562500000000004
 40
0.5781250000000042
 40
0.5781250000000042
 40
0.5937500000000044
 40
0.5937500000000044
 40
0.6250000000000048
 40
0.6250000000000048
 40
0.6562500000000052
 40
0.6562500000000052
 40
0.6875000000000056
 40
0.6875000000000056
 40
0.7500000000000044
 40
0.7500000000000044
 40
0.7812500000000039
 40
0.7812500000000039
 40
0.8125000000000033
 40
0.8125000000000033
 40
0.8750000000000022
 40
0.8750000000000022
 40
0.9375000000000012
 40
0.9375000000000012
 40
1.0
 40
1.0
 40
1.0
 40
1.0
 10
89.78749999999997
 20
7.628883656467037
 30
0.0
 10
90.35197731744819
 20
7.391789013077999
 30
0.0
 10
90.91427328536457
 20
7.127256909435353
 30
0.0
 10
91.76021117621536
 20
6.699029442967058
 30
0.0
 10
92.042570439018
 20
6.550961709875301
 30
0.0
 10
92.60861057600331
 20
6.244776905198137
 30
0.0
 10
92.8938747495348
 20
6.085730335288299
 30
0.0
 10
93.73944286639133
 20
5.602657301409269
 30
0.0
 10
94.28853381603108
 20
5.273322161755662
 30
0.0
 10
95.08917892307323
 20
4.7652063266982
 30
0.0
 10
95.35216901771668
 20
4.593396985668107
 30
0.0
 10
95.86943324750766
 20
4.24325017886071
 30
0.0
 10
96.12371903263542
 20
4.064739603651117
 30
0.0
 10
96.85732546322967
 20
3.527668531665857
 30
0.0
 10
97.31292986507856
 20
3.164068544205801
 30
0.0
 10
98.14786023650149
 20
2.398632187042426
 30
0.0
 10
98.52851766223554
 20
1.99418358856497
 30
0.0
 10
99.0106875147674
 20
1.350228019618082
 30
0.0
 10
99.15743559909117
 20
1.128613886751367
 30
0.0
 10
99.4202762813899
 20
0.6653331072018076
 30
0.0
 10
99.53685292219879
 20
0.4225937011671325
 30
0.0
 10
99.73270509504312
 20
-0.0863016103068558
 30
0.0
 10
99.81107760387499
 20
-0.3496336414817335
 30
0.0
 10
99.92474441262252
 20
-0.9005842633547946
 30
0.0
 10
99.96012453081673
 20
-1.191444951002441
 30
0.0
 10
99.97913321886853
 20
-1.78831556861078
 30
0.0
 10
99.96341877368903
 20
-2.093410340128655
 30
0.0
 10
99.89742126861685
 20
-2.56419854675031
 30
0.0
 10
99.86820578892872
 20
-2.722982502616753
 30
0.0
 10
99.79684362865365
 20
-3.035478670093685
 30
0.0
 10
99.7545567839262
 20
-3.190381793156624
 30
0.0
 10
99.65669341534118
 20
-3.497511134428481
 30
0.0
 10
99.60111995335566
 20
-3.64973797026524
 30
0.0
 10
99.47606945941254
 20
-3.951398135430351
 30
0.0
 10
99.40691012880723
 20
-4.099748896183782
 30
0.0
 10
99.18534875393044
 20
-4.526373176468702
 30
0.0
 10
99.01571102368581
 20
-4.79293111730323
 30
0.0
 10
98.64223625705745
 20
-5.278991636873057
 30
0.0
 10
98.44244037270133
 20
-5.494021393769237
 30
0.0
 10
98.01736218882203
 20
-5.875136378657439
 30
0.0
 10
97.7951751277285
 20
-6.037879419177032
 30
0.0
 10
97.11420852476155
 20
-6.44596931135623
 30
0.0
 10
96.62866562292936
 20
-6.617303148047671
 30
0.0
 10
95.89323421646844
 20
-6.745314737994444
 30
0.0
 10
95.64541278771566
 20
-6.767371979923431
 30
0.0
 10
95.14190884311105
 20
-6.775797287306913
 30
0.0
 10
94.88482040421312
 20
-6.761800547593239
 30
0.0
 10
94.11311228879933
 20
-6.672700046505327
 30
0.0
 10
93.59605843291948
 20
-6.552003640993258
 30
0.0
 10
92.53994737625285
 20
-6.218564540670925
 30
0.0
 10
91.99685023582711
 20
-6.003429912828121
 30
0.0
 10
90.90384667911641
 20
-5.517522409009104
 30
0.0
 10
90.35165426045523
 20
-5.245855684608486
 30
0.0
 10
89.78749999999997
 20
-4.95414516598994
 30
0.0
  0
SPLINE
  5
AF
330
1F
100
AcDbEntity
  8
0
  6
Continuous
 62
     1
370
    15
100
AcDbSpline
210
0.0
220
0.0
230
1.0
 70
     8
 71
     3
 72
    20
 73
    16
 74
     0
 42
0.000000001
 43
0.00000001
 40
0.0
 40
0.0
 40
0.0
 40
0.0
 40
0.0710060695410393
 40
0.1419953957007453
 40
0.2129849200627119
 40
0.2839915833606603
 40
0.3651386939924695
 40
0.4462897641623469
 40
0.5274450745648095
 40
0.6085985291392059
 40
0.6897477326247325
 40
0.7708932200630124
 40
0.8520355281179978
 40
0.9331751948431504
 40
1.0
 40
1.0
 40
1.0
 40
1.0
 10
89.7875
 20
-4.954145165989946
 30
0.0
 10
88.86142727507942
 20
-4.465603936191793
 30
0.0
 10
87.00950019514491
 20
-3.488636675650448
 30
0.0
 10
84.23191911237572
 20
-1.922765043114621
 30
0.0
 10
81.45430485211821
 20
-0.3242813989233581
 30
0.0
 10
78.54410380444835
 20
1.35918259035186
 30
0.0
 10
75.5009814065705
 20
3.087523330896657
 30
0.0
 10
72.32556812232414
 20
4.807302905306314
 30
0.0
 10
69.14999331702072
 20
6.39644594582228
 30
0.0
 10
65.97447568635602
 20
7.81211554429249
 30
0.0
 10
62.79912065468269
 20
9.015040839280656
 30
0.0
 10
59.6239396377267
 20
9.975496294514086
 30
0.0
 10
56.44890834880416
 20
10.65645559982286
 30
0.0
 10
53.46068020717492
 20
11.05544215593042
 30
0.0
 10
51.53079916329955
 20
11.07963652642562
 30
0.0
 10
50.65921206477151
 20
11.09056336631948
 30
0.0
  0
LINE
  5
B0
330
1F
100
AcDbEntity
  8
외형선
  6
Continuous
370
    15
100
AcDbLine
 10
11.99999999999999
 20
0.952133993604605
 30
0.0
 11
11.99999999999999
 21
4.711245172911
 31
0.0
  0
LINE
  5
B1
330
1F
100
AcDbEntity
  8
외형선
  6
Continuous
370
    15
100
AcDbLine
 10
11.99999999999999
 20
-11.07163479835851
 30
0.0
 11
11.99999999999999
 21
-10.06438399360449
 31
0.0
  0
LINE
  5
B2
330
1F
100
AcDbEntity
  8
외형선
  6
Continuous
370
    15
100
AcDbLine
 10
-42.92750000000002
 20
-0.0000000000000048
 30
0.0
 11
-42.92750000000002
 21
9.461499999999992
 31
0.0
  0
LINE
  5
B3
330
1F
100
AcDbEntity
  8
외형선
  6
Continuous
370
    15
100
AcDbLine
 10
-42.92750000000002
 20
-11.1125
 30
0.0
 11
-42.92750000000002
 21
-0.0000000000000048
 31
0.0
  0
LINE
  5
B4
330
1F
100
AcDbEntity
  8
외형선
  6
Continuous
370
    15
100
AcDbLine
 10
11.99999999999999
 20
-0.0000000000000048
 30
0.0
 11
11.99999999999999
 21
11.11249999999999
 31
0.0
  0
LINE
  5
B5
330
1F
100
AcDbEntity
  8
외형선
  6
Continuous
370
    15
100
AcDbLine
 10
11.99999999999999
 20
-11.1125
 30
0.0
 11
11.99999999999999
 21
-0.0000000000000048
 31
0.0
  0
LINE
  5
B6
330
1F
100
AcDbEntity
  8
외형선
  6
Continuous
370
    15
100
AcDbLine
 10
-45.15000000000002
 20
-0.0000000000000048
 30
0.0
 11
-45.15000000000002
 21
8.889999999999997
 31
0.0
  0
LINE
  5
B7
330
1F
100
AcDbEntity
  8
외형선
  6
Continuous
370
    15
100
AcDbLine
 10
-45.15000000000002
 20
-8.890000000000008
 30
0.0
 11
-45.15000000000002
 21
-0.0000000000000048
 31
0.0
  0
LINE
  5
B8
330
1F
100
AcDbEntity
  8
중심선
100
AcDbLine
 10
-48.15000000000003
 20
-0.0000000000000048
 30
0.0
 11
103.9
 21
0.0000000000000104
 31
0.0
  0
LINE
  5
B9
330
1F
100
AcDbEntity
  8
참조1
100
AcDbLine
 10
111.6867613140312
 20
0.0010749287238892
 30
0.0
 11
111.6867613140312
 21
1.655200094750598
 31
0.0
  0
LINE
  5
BA
330
1F
100
AcDbEntity
  8
참조1
100
AcDbLine
 10
38.66176131403118
 20
0.0010749287238892
 30
0.0
 11
38.66176131403119
 21
-39.99892507127611
 31
0.0
  0
LINE
  5
BB
330
1F
100
AcDbEntity
  8
참조1
100
AcDbLine
 10
38.66176131403119
 20
-39.99892507127611
 30
0.0
 11
-20.1533455002775
 21
-39.9989250712761
 31
0.0
  0
CIRCLE
  5
BC
330
1F
100
AcDbEntity
  8
해칭선
100
AcDbCircle
 10
0.0
 20
0.0
 30
0.0
 40
3.000000000000002
  0
INSERT
  5
BD
330
1F
100
AcDbEntity
  8
0
  6
Continuous
 62
     7
100
AcDbBlockReference
 66
     1
  2
블럭10
 10
13.93472706787477
 20
-52.04717430164393
 30
0.0
  0
ATTRIB
  5
BE
330
BD
100
AcDbEntity
  8
FORMAT
 62
     2
100
AcDbText
 10
4.753431779133493
 20
-49.97180738881175
 30
0.0
 40
4.233333333333333
  1
E2021056 [ 4 FLUTE ]
 41
0.75
  7
SLDTEXTSTYLE0
 11
4.753431779133493
 21
-52.08847405547841
 31
0.0
100
AcDbAttribute
  2
AUTOATTR0
 70
     0
 74
     1
  0
SEQEND
  5
BF
330
BD
100
AcDbEntity
  8
0
  6
Continuous
 62
     7
  0
HATCH
  5
C0
330
1F
100
AcDbEntity
  8
중심선
100
AcDbHatch
 10
0.0
 20
0.0
 30
0.0
210
0.0
220
0.0
230
1.0
  2
SOLID
 70
     1
 71
     0
 91
        1
 92
        0
 93
        4
 72
     1
 10
19.64963637225561
 20
-35.8
 11
16.20336112841832
 21
-35.8
 72
     1
 10
16.20336112841832
 20
-35.8
 11
14.0751312692143
 21
-38.3363255805726
 72
     1
 10
14.0751312692143
 20
-38.3363255805726
 11
17.52143959816473
 21
-38.33628615127011
 72
     1
 10
17.52143959816473
 20
-38.33628615127011
 11
19.64963637225561
 21
-35.8
 97
        0
 75
     0
 76
     1
 98
        1
 10
-10.7867613140312
 20
-0.0010749287238979
  0
HATCH
  5
C1
330
1F
100
AcDbEntity
  8
중심선
100
AcDbHatch
 10
0.0
 20
0.0
 30
0.0
210
0.0
220
0.0
230
1.0
  2
SOLID
 70
     1
 71
     0
 91
        1
 92
        0
 93
        4
 72
     1
 10
24.66240036329158
 20
-35.79999999999998
 11
21.2161251194543
 21
-35.8
 72
     1
 10
21.2161251194543
 20
-35.8
 11
16.68498711109689
 21
-41.20000000000002
 72
     1
 10
16.68498711109689
 20
-41.20000000000002
 11
20.13126235493417
 21
-41.20000000000002
 72
     1
 10
20.13126235493417
 20
-41.20000000000002
 11
24.66240036329158
 21
-35.79999999999998
 97
        0
 75
     0
 76
     1
 98
        1
 10
-10.7867613140312
 20
-0.0010749287238979
  0
HATCH
  5
C2
330
1F
100
AcDbEntity
  8
중심선
100
AcDbHatch
 10
0.0
 20
0.0
 30
0.0
210
0.0
220
0.0
230
1.0
  2
SOLID
 70
     1
 71
     0
 91
        1
 92
        0
 93
        4
 72
     1
 10
29.67516435432748
 20
-35.79999999999998
 11
26.22888911049031
 21
-35.80000000000003
 72
     1
 10
26.22888911049031
 20
-35.80000000000003
 11
19.18045220860109
 21
-44.20000000000002
 72
     1
 10
19.18045220860109
 20
-44.20000000000002
 11
22.62672745243837
 21
-44.20000000000002
 72
     1
 10
22.62672745243837
 20
-44.20000000000002
 11
29.67516435432748
 21
-35.79999999999998
 97
        0
 75
     0
 76
     1
 98
        1
 10
-10.7867613140312
 20
-0.0010749287238979
  0
HATCH
  5
C3
330
1F
100
AcDbEntity
  8
중심선
100
AcDbHatch
 10
0.0
 20
0.0
 30
0.0
210
0.0
220
0.0
230
1.0
  2
SOLID
 70
     1
 71
     0
 91
        1
 92
        0
 93
        6
 72
     3
 10
34.47505478533962
 20
-40.00000000005127
 11
3.960054785062283
 21
1.540882976769353E-10
 40
0.3939339440162628
 50
17.0953918060842
 51
320.001965768509
 73
     0
 72
     1
 10
36.15805444104031
 20
-38.58789400463827
 11
38.46335631474128
 21
-36.65356729459038
 72
     3
 10
34.47505478528678
 20
-40.00000000000015
 11
6.600054785286829
 21
-1.278976924368180E-13
 40
0.636358354079598
 50
39.99873849337392
 51
368.4976242363725
 73
     1
 72
     1
 10
40.90038727718741
 20
-39.03999999993002
 11
33.15512209212278
 21
-39.03999999993002
 72
     1
 10
33.15512209212278
 20
-39.03999999993002
 11
33.15509704767677
 21
-40.95999999992991
 72
     1
 10
33.15509704767677
 20
-40.95999999992991
 11
37.59647681714883
 21
-40.95999999992988
 97
        0
 75
     0
 76
     1
 98
        1
 10
-10.7867613140312
 20
-0.0010749287238979
  0
DIMENSION
  5
C4
330
1F
100
AcDbEntity
  8
치수문자_일반주서
100
AcDbDimension
  2
_D
 10
11.99999999999998
 20
22.78216828731262
 30
0.0
 11
55.17971994211756
 21
22.78216828731262
 31
0.0
 70
   160
  1
<>
 71
     2
 42
88.9026425899813
  3
SLDDIMSTYLE1
100
AcDbAlignedDimension
 13
100.9026425899813
 23
11.11250000000001
 33
0.0
 14
11.99999999999998
 24
11.07163479835851
 34
0.0
 50
0.0000000000000046
100
AcDbRotatedDimension
1001
ACAD
1000
DSTYLE
1002
{
1070
   171
1070
     6
1070
   273
1070
     7
1002
}
  0
DIMENSION
  5
D9
330
1F
100
AcDbEntity
  8
치수문자_일반주서
100
AcDbDimension
  2
_D_1
 10
-45.15000000000003
 20
31.6091467932808
 30
0.0
 11
27.87499999999998
 21
31.6091467932808
 31
0.0
 70
   160
  1
<>
 71
     2
 42
146.0526425899813
  3
SLDDIMSTYLE1
100
AcDbAlignedDimension
 13
100.9026425899813
 23
11.11250000000001
 33
0.0
 14
-45.15000000000003
 24
8.890000000000004
 34
0.0
 50
0.0000000000000028
100
AcDbRotatedDimension
1001
ACAD
1000
DSTYLE
1002
{
1070
   171
1070
     6
1070
   273
1070
     7
1002
}
  0
DIMENSION
  5
ED
330
1F
100
AcDbEntity
  8
치수문자_일반주서
100
AcDbDimension
  2
_D_2
 10
-56.88
 20
-11.11250000000006
 30
0.0
 11
-56.88000000000004
 21
-0.0000000000000057
 31
0.0
 70
   160
  1
%%c<>
 71
     2
 42
22.22499999999999
 52
-270.0
  3
SLDDIMSTYLE1
100
AcDbAlignedDimension
 13
-45.15000000000003
 23
11.11249999999998
 33
0.0
 14
-42.92750000000003
 24
-11.1125
 34
0.0
 50
90.0000000000002
100
AcDbRotatedDimension
1001
ACAD
1000
DSTYLE
1002
{
1070
   171
1070
     6
1070
   273
1070
     7
1002
}
  0
DIMENSION
  5
102
330
1F
100
AcDbEntity
  8
치수문자_일반주서
100
AcDbDimension
  2
_D_3
 10
114.3660563796365
 20
-11.11249999999994
 30
0.0
 11
114.3660563796364
 21
31.86647012489386
 31
0.0
 70
   160
  1
%%c<>
 71
     2
 42
22.225
 52
-270.0
  3
SLDDIMSTYLE1
100
AcDbAlignedDimension
 13
100.9
 23
11.11250000000001
 33
0.0
 14
100.9
 24
-11.11249999999999
 34
0.0
 50
90.0000000000002
100
AcDbRotatedDimension
1001
ACAD
1000
DSTYLE
1002
{
1070
   171
1070
     6
1070
   273
1070
     7
1002
}
  0
LINE
  5
115
330
1F
100
AcDbEntity
  8
참조1
100
AcDbLine
 10
77.81899512937676
 20
7.441074928723896
 30
0.0
 11
77.81899512937676
 21
-7.438925071276109
 31
0.0
  0
LINE
  5
116
330
1F
100
AcDbEntity
  8
참조1
100
AcDbLine
 10
90.51899512937676
 20
5.441074928723896
 30
0.0
 11
77.81899512937676
 21
5.441074928723896
 31
0.0
  0
SOLID
  5
117
330
1F
100
AcDbEntity
  8
참조1
100
AcDbTrace
 10
77.81899512937676
 20
5.441074928723896
 30
0.0
 11
84.16899512937675
 21
4.425074928723896
 31
0.0
 12
84.16899512937675
 22
6.457074928723896
 32
0.0
 13
84.16899512937675
 23
6.457074928723896
 33
0.0
  0
LINE
  5
118
330
1F
100
AcDbEntity
  8
참조1
100
AcDbLine
 10
90.51899512937676
 20
-5.438925071276109
 30
0.0
 11
77.81899512937676
 21
-5.438925071276109
 31
0.0
  0
SOLID
  5
119
330
1F
100
AcDbEntity
  8
참조1
100
AcDbTrace
 10
77.81899512937676
 20
-5.438925071276109
 30
0.0
 11
84.16899512937675
 21
-6.454925071276109
 31
0.0
 12
84.16899512937675
 22
-4.422925071276109
 32
0.0
 13
84.16899512937675
 23
-4.422925071276109
 33
0.0
  0
MTEXT
  5
11A
330
1F
100
AcDbEntity
  8
참조1
100
AcDbMText
 10
87.21648522184704
 20
10.98929157337383
 30
0.0
 40
3.5
 41
0.0
 71
     1
 72
     1
  1
A
  7
SLDTEXTSTYLE0
 73
     1
 44
1.0
  0
MTEXT
  5
11B
330
1F
100
AcDbEntity
  8
참조1
100
AcDbMText
 10
87.21648522184704
 20
0.1092915733738259
 30
0.0
 40
3.5
 41
0.0
 71
     1
 72
     1
  1
A
  7
SLDTEXTSTYLE0
 73
     1
 44
1.0
  0
INSERT
  5
122
330
1F
100
AcDbEntity
  8
해칭선
100
AcDbBlockReference
  2
SW_DOWELSYMBOL_0
 10
0.0
 20
0.0
 30
0.0
  0
LINE
  5
2A6
330
1F
100
AcDbEntity
  8
외형선
  6
Continuous
370
    15
100
AcDbLine
 10
-25.14432500000002
 20
9.46149999999999
 30
0.0
 11
-13.56192500000002
 21
9.46149999999999
 31
0.0
  0
LINE
  5
2A7
330
1F
100
AcDbEntity
  8
외형선
  6
Continuous
370
    15
100
AcDbLine
 10
-25.14432500000002
 20
9.46149999999999
 30
0.0
 11
-26.79532500000003
 21
11.11249999999997
 31
0.0
  0
LINE
  5
2A8
330
1F
100
AcDbEntity
  8
외형선
  6
Continuous
370
    15
100
AcDbLine
 10
-13.56192500000002
 20
9.46149999999999
 30
0.0
 11
-11.91092499999989
 21
11.11249999999997
 31
0.0
  0
LINE
  5
2AA
330
1F
100
AcDbEntity
  8
외형선
  6
Continuous
370
    15
100
AcDbLine
 10
-44.57850000000003
 20
9.46149999999999
 30
0.0
 11
-32.45000000000003
 21
9.46149999999999
 31
0.0
  0
LINE
  5
2AB
330
1F
100
AcDbEntity
  8
외형선
  6
Continuous
370
    15
100
AcDbLine
 10
-32.45000000000003
 20
9.46149999999999
 30
0.0
 11
-30.79900000000002
 21
11.11249999999997
 31
0.0
  0
LINE
  5
2AC
330
1F
100
AcDbEntity
  8
외형선
  6
Continuous
370
    15
100
AcDbLine
 10
-26.79532500000005
 20
11.11249999999999
 30
0.0
 11
-30.79899999999999
 21
11.11249999999999
 31
0.0
  0
ENDSEC
  0
SECTION
  2
OBJECTS
  0
DICTIONARY
  5
C
330
0
100
AcDbDictionary
281
     1
  3
ACAD_GROUP
350
D
  3
ACAD_IMAGE_VARS
350
146
  3
ACAD_LAYOUT
350
1A
  3
ACAD_MLINESTYLE
350
17
  3
ACAD_PLOTSETTINGS
350
19
  3
ACAD_PLOTSTYLENAME
350
E
  3
ACAD_SCALELIST
350
47
  3
APPDATA
350
144
  3
DWGPROPS
350
2AF
  0
DICTIONARY
  5
1D9
330
2
100
AcDbDictionary
280
     1
281
     1
  3
ACAD_LAYERSTATES
360
1DA
  0
DICTIONARY
  5
D
102
{ACAD_REACTORS
330
C
102
}
330
C
100
AcDbDictionary
281
     1
  0
RASTERVARIABLES
  5
146
102
{ACAD_REACTORS
330
C
102
}
330
C
100
AcDbRasterVariables
 90
        0
 70
     1
 71
     1
 72
     1
  0
DICTIONARY
  5
1A
102
{ACAD_REACTORS
330
C
102
}
330
C
100
AcDbDictionary
281
     1
  3
Layout1
350
1E
  3
Layout2
350
26
  3
Model
350
22
  0
DICTIONARY
  5
17
102
{ACAD_REACTORS
330
C
102
}
330
C
100
AcDbDictionary
281
     1
  3
Standard
350
18
  0
DICTIONARY
  5
19
102
{ACAD_REACTORS
330
C
102
}
330
C
100
AcDbDictionary
281
     1
  0
ACDBDICTIONARYWDFLT
  5
E
102
{ACAD_REACTORS
330
C
102
}
330
C
100
AcDbDictionary
281
     1
  3
Normal
350
F
100
AcDbDictionaryWithDefault
340
F
  0
DICTIONARY
  5
47
102
{ACAD_REACTORS
330
C
102
}
330
C
100
AcDbDictionary
281
     1
  3
A0
350
48
  3
A1
350
49
  3
A2
350
4A
  3
A3
350
4B
  3
A4
350
4C
  3
A5
350
4D
  3
A6
350
4E
  3
A7
350
4F
  3
A8
350
50
  3
A9
350
51
  3
B0
350
52
  3
B1
350
53
  3
B2
350
54
  3
B3
350
55
  3
B4
350
56
  3
B5
350
57
  3
B6
350
58
  3
B7
350
59
  3
B8
350
5A
  3
B9
350
5B
  3
C0
350
5C
  3
C1
350
5D
  3
C2
350
5E
  3
C3
350
5F
  3
C4
350
60
  3
C5
350
61
  3
C6
350
62
  3
C7
350
63
  3
C8
350
64
  3
C9
350
65
  3
D0
350
66
  3
D1
350
67
  3
D2
350
68
  0
DICTIONARY
  5
144
102
{ACAD_REACTORS
330
C
102
}
330
C
100
AcDbDictionary
281
     1
  0
XRECORD
  5
2AF
102
{ACAD_REACTORS
330
C
102
}
330
C
100
AcDbXrecord
280
     1
  1
DWGPROPS COOKIE
  2

  3

  4

  6

  7

  8
12017012
  9

300
=
301
=
302
=
303
=
304
=
305
=
306
=
307
=
308
=
309
=
 40
0.0
 41
2458323.304765972
 42
2458324.060653623
  1

 90
        0
  0
DICTIONARY
  5
1DA
102
{ACAD_REACTORS
330
1D9
102
}
330
1D9
100
AcDbDictionary
281
     1
  0
LAYOUT
  5
1E
102
{ACAD_REACTORS
330
1A
102
}
330
1A
100
AcDbPlotSettings
  1

  2
none_device
  4

  6

 40
0.0
 41
0.0
 42
0.0
 43
0.0
 44
0.0
 45
0.0
 46
0.0
 47
0.0
 48
0.0
 49
0.0
140
0.0
141
0.0
142
1.0
143
1.0
 70
   688
 72
     1
 73
     0
 74
     5
  7

 75
    16
147
1.0
148
0.0
149
0.0
100
AcDbLayout
  1
Layout1
 70
     1
 71
     1
 10
0.0
 20
0.0
 11
420.0
 21
297.0
 12
0.0
 22
0.0
 32
0.0
 14
1.000000000000000E+20
 24
1.000000000000000E+20
 34
1.000000000000000E+20
 15
-1.000000000000000E+20
 25
-1.000000000000000E+20
 35
-1.000000000000000E+20
146
0.0
 13
0.0
 23
0.0
 33
0.0
 16
1.0
 26
0.0
 36
0.0
 17
0.0
 27
1.0
 37
0.0
 76
     0
330
1B
  0
LAYOUT
  5
26
102
{ACAD_REACTORS
330
1A
102
}
330
1A
100
AcDbPlotSettings
  1

  2
none_device
  4

  6

 40
0.0
 41
0.0
 42
0.0
 43
0.0
 44
0.0
 45
0.0
 46
0.0
 47
0.0
 48
0.0
 49
0.0
140
0.0
141
0.0
142
1.0
143
1.0
 70
   688
 72
     1
 73
     0
 74
     5
  7

 75
    16
147
1.0
148
0.0
149
0.0
100
AcDbLayout
  1
Layout2
 70
     1
 71
     2
 10
0.0
 20
0.0
 11
0.0
 21
0.0
 12
0.0
 22
0.0
 32
0.0
 14
0.0
 24
0.0
 34
0.0
 15
0.0
 25
0.0
 35
0.0
146
0.0
 13
0.0
 23
0.0
 33
0.0
 16
1.0
 26
0.0
 36
0.0
 17
0.0
 27
1.0
 37
0.0
 76
     0
330
23
  0
LAYOUT
  5
22
102
{ACAD_REACTORS
330
1A
102
}
330
1A
100
AcDbPlotSettings
  1

  2
none_device
  4
ANSI_A_(11.00_x_8.50_Inches)
  6

 40
6.35
 41
19.05
 42
6.35000508
 43
19.05000254
 44
279.4
 45
215.9
 46
84.37435214172831
 47
48.73140913010863
 48
0.0
 49
0.0
140
0.0
141
0.0
142
0.051781033070936
143
1.0
 70
  1696
 72
     0
 73
     0
 74
     0
  7

 75
     0
147
0.0235690232323232
148
0.0
149
0.0
100
AcDbLayout
  1
Model
 70
     1
 71
     0
 10
0.0
 20
0.0
 11
420.0
 21
297.0
 12
0.0
 22
0.0
 32
0.0
 14
1.000000000000000E+20
 24
1.000000000000000E+20
 34
1.000000000000000E+20
 15
-1.000000000000000E+20
 25
-1.000000000000000E+20
 35
-1.000000000000000E+20
146
0.0
 13
0.0
 23
0.0
 33
0.0
 16
1.0
 26
0.0
 36
0.0
 17
0.0
 27
1.0
 37
0.0
 76
     0
330
1F
331
29
  0
MLINESTYLE
  5
18
102
{ACAD_REACTORS
330
17
102
}
330
17
100
AcDbMlineStyle
  2
Standard
 70
     0
  3

 62
   256
 51
90.0
 52
90.0
 71
     2
 49
0.5
 62
   256
  6
BYLAYER
 49
-0.5
 62
   256
  6
BYLAYER
  0
ACDBPLACEHOLDER
  5
F
102
{ACAD_REACTORS
330
E
102
}
330
E
  0
SCALE
  5
48
102
{ACAD_REACTORS
330
47
102
}
330
47
100
AcDbScale
 70
     0
300
1:1
140
1.0
141
1.0
290
     1
  0
SCALE
  5
49
102
{ACAD_REACTORS
330
47
102
}
330
47
100
AcDbScale
 70
     0
300
1:2
140
1.0
141
2.0
290
     0
  0
SCALE
  5
4A
102
{ACAD_REACTORS
330
47
102
}
330
47
100
AcDbScale
 70
     0
300
1:4
140
1.0
141
4.0
290
     0
  0
SCALE
  5
4B
102
{ACAD_REACTORS
330
47
102
}
330
47
100
AcDbScale
 70
     0
300
1:5
140
1.0
141
5.0
290
     0
  0
SCALE
  5
4C
102
{ACAD_REACTORS
330
47
102
}
330
47
100
AcDbScale
 70
     0
300
1:8
140
1.0
141
8.0
290
     0
  0
SCALE
  5
4D
102
{ACAD_REACTORS
330
47
102
}
330
47
100
AcDbScale
 70
     0
300
1:10
140
1.0
141
10.0
290
     0
  0
SCALE
  5
4E
102
{ACAD_REACTORS
330
47
102
}
330
47
100
AcDbScale
 70
     0
300
1:16
140
1.0
141
16.0
290
     0
  0
SCALE
  5
4F
102
{ACAD_REACTORS
330
47
102
}
330
47
100
AcDbScale
 70
     0
300
1:20
140
1.0
141
20.0
290
     0
  0
SCALE
  5
50
102
{ACAD_REACTORS
330
47
102
}
330
47
100
AcDbScale
 70
     0
300
1:30
140
1.0
141
30.0
290
     0
  0
SCALE
  5
51
102
{ACAD_REACTORS
330
47
102
}
330
47
100
AcDbScale
 70
     0
300
1:40
140
1.0
141
40.0
290
     0
  0
SCALE
  5
52
102
{ACAD_REACTORS
330
47
102
}
330
47
100
AcDbScale
 70
     0
300
1:50
140
1.0
141
50.0
290
     0
  0
SCALE
  5
53
102
{ACAD_REACTORS
330
47
102
}
330
47
100
AcDbScale
 70
     0
300
1:100
140
1.0
141
100.0
290
     0
  0
SCALE
  5
54
102
{ACAD_REACTORS
330
47
102
}
330
47
100
AcDbScale
 70
     0
300
2:1
140
2.0
141
1.0
290
     0
  0
SCALE
  5
55
102
{ACAD_REACTORS
330
47
102
}
330
47
100
AcDbScale
 70
     0
300
4:1
140
4.0
141
1.0
290
     0
  0
SCALE
  5
56
102
{ACAD_REACTORS
330
47
102
}
330
47
100
AcDbScale
 70
     0
300
8:1
140
8.0
141
1.0
290
     0
  0
SCALE
  5
57
102
{ACAD_REACTORS
330
47
102
}
330
47
100
AcDbScale
 70
     0
300
10:1
140
10.0
141
1.0
290
     0
  0
SCALE
  5
58
102
{ACAD_REACTORS
330
47
102
}
330
47
100
AcDbScale
 70
     0
300
100:1
140
100.0
141
1.0
290
     0
  0
SCALE
  5
59
102
{ACAD_REACTORS
330
47
102
}
330
47
100
AcDbScale
 70
     0
300
1/128" = 1'-0"
140
0.0078125
141
12.0
290
     0
  0
SCALE
  5
5A
102
{ACAD_REACTORS
330
47
102
}
330
47
100
AcDbScale
 70
     0
300
1/64" = 1'-0"
140
0.015625
141
12.0
290
     0
  0
SCALE
  5
5B
102
{ACAD_REACTORS
330
47
102
}
330
47
100
AcDbScale
 70
     0
300
1/32" = 1'-0"
140
0.03125
141
12.0
290
     0
  0
SCALE
  5
5C
102
{ACAD_REACTORS
330
47
102
}
330
47
100
AcDbScale
 70
     0
300
1/16" = 1'-0"
140
0.0625
141
12.0
290
     0
  0
SCALE
  5
5D
102
{ACAD_REACTORS
330
47
102
}
330
47
100
AcDbScale
 70
     0
300
3/32" = 1'-0"
140
0.09375
141
12.0
290
     0
  0
SCALE
  5
5E
102
{ACAD_REACTORS
330
47
102
}
330
47
100
AcDbScale
 70
     0
300
1/8" = 1'-0"
140
0.125
141
12.0
290
     0
  0
SCALE
  5
5F
102
{ACAD_REACTORS
330
47
102
}
330
47
100
AcDbScale
 70
     0
300
3/16" = 1'-0"
140
0.1875
141
12.0
290
     0
  0
SCALE
  5
60
102
{ACAD_REACTORS
330
47
102
}
330
47
100
AcDbScale
 70
     0
300
1/4" = 1'-0"
140
0.25
141
12.0
290
     0
  0
SCALE
  5
61
102
{ACAD_REACTORS
330
47
102
}
330
47
100
AcDbScale
 70
     0
300
3/8" = 1'-0"
140
0.375
141
12.0
290
     0
  0
SCALE
  5
62
102
{ACAD_REACTORS
330
47
102
}
330
47
100
AcDbScale
 70
     0
300
1/2" = 1'-0"
140
0.5
141
12.0
290
     0
  0
SCALE
  5
63
102
{ACAD_REACTORS
330
47
102
}
330
47
100
AcDbScale
 70
     0
300
3/4" = 1'-0"
140
0.75
141
12.0
290
     0
  0
SCALE
  5
64
102
{ACAD_REACTORS
330
47
102
}
330
47
100
AcDbScale
 70
     0
300
1" = 1'-0"
140
1.0
141
12.0
290
     0
  0
SCALE
  5
65
102
{ACAD_REACTORS
330
47
102
}
330
47
100
AcDbScale
 70
     0
300
1-1/2" = 1'-0"
140
1.5
141
12.0
290
     0
  0
SCALE
  5
66
102
{ACAD_REACTORS
330
47
102
}
330
47
100
AcDbScale
 70
     0
300
3" = 1'-0"
140
3.0
141
12.0
290
     0
  0
SCALE
  5
67
102
{ACAD_REACTORS
330
47
102
}
330
47
100
AcDbScale
 70
     0
300
6" = 1'-0"
140
6.0
141
12.0
290
     0
  0
SCALE
  5
68
102
{ACAD_REACTORS
330
47
102
}
330
47
100
AcDbScale
 70
     0
300
1'-0" = 1'-0"
140
12.0
141
12.0
290
     0
  0
ENDSEC
  0
EOF
