  0
SECTION
  2
HEADER
  9
$ACADVER
  1
AC1015
  9
$ACADMAINTVER
 70
     6
  9
$DWGCODEPAGE
  3
ANSI_949
  9
$INSBASE
 10
0.0
 20
0.0
 30
0.0
  9
$EXTMIN
 10
1.000000000000000E+20
 20
1.000000000000000E+20
 30
1.000000000000000E+20
  9
$EXTMAX
 10
-1.000000000000000E+20
 20
-1.000000000000000E+20
 30
-1.000000000000000E+20
  9
$LIMMIN
 10
0.0
 20
0.0
  9
$LIMMAX
 10
420.0
 20
297.0
  9
$ORTHOMODE
 70
     1
  9
$REGENMODE
 70
     1
  9
$FILLMODE
 70
     1
  9
$QTEXTMODE
 70
     0
  9
$MIRRTEXT
 70
     1
  9
$LTSCALE
 40
1.0
  9
$ATTMODE
 70
     1
  9
$TEXTSIZE
 40
3.5
  9
$TRACEWID
 40
1.0
  9
$TEXTSTYLE
  7
Standard
  9
$CLAYER
  8
0
  9
$CELTYPE
  6
ByLayer
  9
$CECOLOR
 62
   256
  9
$CELTSCALE
 40
1.0
  9
$DISPSILH
 70
     0
  9
$DIMSCALE
 40
1.0
  9
$DIMASZ
 40
3.302
  9
$DIMEXO
 40
1.0
  9
$DIMDLI
 40
3.75
  9
$DIMRND
 40
0.0
  9
$DIMDLE
 40
0.0
  9
$DIMEXE
 40
1.0
  9
$DIMTP
 40
0.0
  9
$DIMTM
 40
0.0
  9
$DIMTXT
 40
3.5
  9
$DIMCEN
 40
2.5
  9
$DIMTSZ
 40
0.0
  9
$DIMTOL
 70
     0
  9
$DIMLIM
 70
     0
  9
$DIMTIH
 70
     1
  9
$DIMTOH
 70
     1
  9
$DIMSE1
 70
     0
  9
$DIMSE2
 70
     0
  9
$DIMTAD
 70
     1
  9
$DIMZIN
 70
     0
  9
$DIMBLK
  1

  9
$DIMASO
 70
     1
  9
$DIMSHO
 70
     1
  9
$DIMPOST
  1

  9
$DIMAPOST
  1

  9
$DIMALT
 70
     0
  9
$DIMALTD
 70
     3
  9
$DIMALTF
 40
0.0393700787401575
  9
$DIMLFAC
 40
1.0
  9
$DIMTOFL
 70
     1
  9
$DIMTVP
 40
0.0
  9
$DIMTIX
 70
     0
  9
$DIMSOXD
 70
     0
  9
$DIMSAH
 70
     0
  9
$DIMBLK1
  1

  9
$DIMBLK2
  1

  9
$DIMSTYLE
  2
ISO-25
  9
$DIMCLRD
 70
     0
  9
$DIMCLRE
 70
     0
  9
$DIMCLRT
 70
     0
  9
$DIMTFAC
 40
1.0
  9
$DIMGAP
 40
1.524
  9
$DIMJUST
 70
     0
  9
$DIMSD1
 70
     0
  9
$DIMSD2
 70
     0
  9
$DIMTOLJ
 70
     0
  9
$DIMTZIN
 70
     0
  9
$DIMALTZ
 70
     0
  9
$DIMALTTZ
 70
     0
  9
$DIMUPT
 70
     0
  9
$DIMDEC
 70
     2
  9
$DIMTDEC
 70
     2
  9
$DIMALTU
 70
     2
  9
$DIMALTTD
 70
     3
  9
$DIMTXSTY
  7
Standard
  9
$DIMAUNIT
 70
     0
  9
$DIMADEC
 70
     2
  9
$DIMALTRND
 40
0.0
  9
$DIMAZIN
 70
     0
  9
$DIMDSEP
 70
    44
  9
$DIMATFIT
 70
     3
  9
$DIMFRAC
 70
     0
  9
$DIMLDRBLK
  1

  9
$DIMLUNIT
 70
     2
  9
$DIMLWD
 70
    -2
  9
$DIMLWE
 70
    -2
  9
$DIMTMOVE
 70
     0
  9
$LUNITS
 70
     2
  9
$LUPREC
 70
     2
  9
$SKETCHINC
 40
1.0
  9
$FILLETRAD
 40
10.0
  9
$AUNITS
 70
     0
  9
$AUPREC
 70
     2
  9
$MENU
  1
.
  9
$ELEVATION
 40
0.0
  9
$PELEVATION
 40
0.0
  9
$THICKNESS
 40
0.0
  9
$LIMCHECK
 70
     0
  9
$CHAMFERA
 40
0.0
  9
$CHAMFERB
 40
0.0
  9
$CHAMFERC
 40
0.0
  9
$CHAMFERD
 40
0.0
  9
$SKPOLY
 70
     0
  9
$TDCREATE
 40
2458323.679977407
  9
$TDUCREATE
 40
2458323.304977407
  9
$TDUPDATE
 40
2458324.434215949
  9
$TDUUPDATE
 40
2458324.059215949
  9
$TDINDWG
 40
0.0005142361
  9
$TDUSRTIMER
 40
2458324.058702118
  9
$USRTIMER
 70
     1
  9
$ANGBASE
 50
0.0
  9
$ANGDIR
 70
     0
  9
$PDMODE
 70
     0
  9
$PDSIZE
 40
-1.0
  9
$PLINEWID
 40
0.0
  9
$SPLFRAME
 70
     0
  9
$SPLINETYPE
 70
     6
  9
$SPLINESEGS
 70
     8
  9
$HANDSEED
  5
1E8
  9
$SURFTAB1
 70
     6
  9
$SURFTAB2
 70
     6
  9
$SURFTYPE
 70
     6
  9
$SURFU
 70
     6
  9
$SURFV
 70
     6
  9
$UCSBASE
  2

  9
$UCSNAME
  2

  9
$UCSORG
 10
0.0
 20
0.0
 30
0.0
  9
$UCSXDIR
 10
1.0
 20
0.0
 30
0.0
  9
$UCSYDIR
 10
0.0
 20
1.0
 30
0.0
  9
$UCSORTHOREF
  2

  9
$UCSORTHOVIEW
 70
     0
  9
$UCSORGTOP
 10
0.0
 20
0.0
 30
0.0
  9
$UCSORGBOTTOM
 10
0.0
 20
0.0
 30
0.0
  9
$UCSORGLEFT
 10
0.0
 20
0.0
 30
0.0
  9
$UCSORGRIGHT
 10
0.0
 20
0.0
 30
0.0
  9
$UCSORGFRONT
 10
0.0
 20
0.0
 30
0.0
  9
$UCSORGBACK
 10
0.0
 20
0.0
 30
0.0
  9
$PUCSBASE
  2

  9
$PUCSNAME
  2

  9
$PUCSORG
 10
0.0
 20
0.0
 30
0.0
  9
$PUCSXDIR
 10
1.0
 20
0.0
 30
0.0
  9
$PUCSYDIR
 10
0.0
 20
1.0
 30
0.0
  9
$PUCSORTHOREF
  2

  9
$PUCSORTHOVIEW
 70
     0
  9
$PUCSORGTOP
 10
0.0
 20
0.0
 30
0.0
  9
$PUCSORGBOTTOM
 10
0.0
 20
0.0
 30
0.0
  9
$PUCSORGLEFT
 10
0.0
 20
0.0
 30
0.0
  9
$PUCSORGRIGHT
 10
0.0
 20
0.0
 30
0.0
  9
$PUCSORGFRONT
 10
0.0
 20
0.0
 30
0.0
  9
$PUCSORGBACK
 10
0.0
 20
0.0
 30
0.0
  9
$USERI1
 70
     0
  9
$USERI2
 70
     0
  9
$USERI3
 70
     0
  9
$USERI4
 70
     0
  9
$USERI5
 70
     0
  9
$USERR1
 40
0.0
  9
$USERR2
 40
0.0
  9
$USERR3
 40
0.0
  9
$USERR4
 40
0.0
  9
$USERR5
 40
0.0
  9
$WORLDVIEW
 70
     1
  9
$SHADEDGE
 70
     3
  9
$SHADEDIF
 70
    70
  9
$TILEMODE
 70
     1
  9
$MAXACTVP
 70
    64
  9
$PINSBASE
 10
0.0
 20
0.0
 30
0.0
  9
$PLIMCHECK
 70
     0
  9
$PEXTMIN
 10
1.000000000000000E+20
 20
1.000000000000000E+20
 30
1.000000000000000E+20
  9
$PEXTMAX
 10
-1.000000000000000E+20
 20
-1.000000000000000E+20
 30
-1.000000000000000E+20
  9
$PLIMMIN
 10
0.0
 20
0.0
  9
$PLIMMAX
 10
0.0
 20
0.0
  9
$UNITMODE
 70
     0
  9
$VISRETAIN
 70
     1
  9
$PLINEGEN
 70
     0
  9
$PSLTSCALE
 70
     1
  9
$TREEDEPTH
 70
  3020
  9
$CMLSTYLE
  2
Standard
  9
$CMLJUST
 70
     0
  9
$CMLSCALE
 40
20.0
  9
$PROXYGRAPHICS
 70
     1
  9
$MEASUREMENT
 70
     1
  9
$CELWEIGHT
370
    -1
  9
$ENDCAPS
280
     0
  9
$JOINSTYLE
280
     0
  9
$LWDISPLAY
290
     1
  9
$INSUNITS
 70
     4
  9
$HYPERLINKBASE
  1

  9
$STYLESHEET
  1

  9
$XEDIT
290
     1
  9
$CEPSNTYPE
380
     0
  9
$PSTYLEMODE
290
     1
  9
$FINGERPRINTGUID
  2
{9277BCA6-A1D6-4841-96F9-FBF2CD04597C}
  9
$VERSIONGUID
  2
{FAEB1C32-E019-11D5-929B-00C0DF256EC4}
  9
$EXTNAMES
290
     1
  9
$PSVPSCALE
 40
0.0
  9
$OLESTARTUP
290
     0
  0
ENDSEC
  0
SECTION
  2
CLASSES
  0
CLASS
  1
ACDBDICTIONARYWDFLT
  2
AcDbDictionaryWithDefault
  3
ObjectDBX Classes
 90
        0
280
     0
281
     0
  0
CLASS
  1
VISUALSTYLE
  2
AcDbVisualStyle
  3
ObjectDBX Classes
 90
     4095
280
     0
281
     0
  0
CLASS
  1
MATERIAL
  2
AcDbMaterial
  3
ObjectDBX Classes
 90
     1153
280
     0
281
     0
  0
CLASS
  1
SCALE
  2
AcDbScale
  3
ObjectDBX Classes
 90
     1153
280
     0
281
     0
  0
CLASS
  1
SUN
  2
AcDbSun
  3
SCENEOE
 90
     1153
280
     0
281
     0
  0
CLASS
  1
ACDBPLACEHOLDER
  2
AcDbPlaceHolder
  3
ObjectDBX Classes
 90
        0
280
     0
281
     0
  0
CLASS
  1
LAYOUT
  2
AcDbLayout
  3
ObjectDBX Classes
 90
        0
280
     0
281
     0
  0
CLASS
  1
TABLESTYLE
  2
AcDbTableStyle
  3
ObjectDBX Classes
 90
     4095
280
     0
281
     0
  0
CLASS
  1
MLEADERSTYLE
  2
AcDbMLeaderStyle
  3
ACDB_MLEADERSTYLE_CLASS
 90
     4095
280
     0
281
     0
  0
CLASS
  1
RASTERVARIABLES
  2
AcDbRasterVariables
  3
ISM
 90
        0
280
     0
281
     0
  0
ENDSEC
  0
SECTION
  2
TABLES
  0
TABLE
  2
VPORT
  5
8
330
0
100
AcDbSymbolTable
 70
     1
  0
VPORT
  5
29
330
8
100
AcDbSymbolTableRecord
100
AcDbViewportTableRecord
  2
*Active
 70
     0
 10
0.0
 20
0.0
 11
1.0
 21
1.0
 12
48.96998187940623
 22
9.904042413630211
 13
0.0
 23
0.0
 14
10.0
 24
10.0
 15
10.0
 25
10.0
 16
0.0
 26
0.0
 36
1.0
 17
0.0
 27
0.0
 37
0.0
 40
227.7742148228313
 41
1.632093933463796
 42
50.0
 43
0.0
 44
0.0
 50
0.0
 51
0.0
 71
    16
 72
  2000
 73
     1
 74
     3
 75
     0
 76
     0
 77
     0
 78
     0
281
     0
 65
     1
110
0.0
120
0.0
130
0.0
111
1.0
121
0.0
131
0.0
112
0.0
122
1.0
132
0.0
 79
     0
146
0.0
  0
ENDTAB
  0
TABLE
  2
LTYPE
  5
5
330
0
100
AcDbSymbolTable
 70
     6
  0
LTYPE
  5
14
330
5
100
AcDbSymbolTableRecord
100
AcDbLinetypeTableRecord
  2
ByBlock
 70
     0
  3

 72
    65
 73
     0
 40
0.0
  0
LTYPE
  5
15
330
5
100
AcDbSymbolTableRecord
100
AcDbLinetypeTableRecord
  2
ByLayer
 70
     0
  3

 72
    65
 73
     0
 40
0.0
  0
LTYPE
  5
16
330
5
100
AcDbSymbolTableRecord
100
AcDbLinetypeTableRecord
  2
Continuous
 70
     0
  3
Solid line
 72
    65
 73
     0
 40
0.0
  0
LTYPE
  5
6A
330
5
100
AcDbSymbolTableRecord
100
AcDbLinetypeTableRecord
  2
HIDDEN
 70
     0
  3
Hidden __ __ __ __ __ __ __ __ __ __ __ __ __ __
 72
    65
 73
     2
 40
1.905
 49
1.27
 74
     0
 49
-0.635
 74
     0
  0
LTYPE
  5
6B
330
5
100
AcDbSymbolTableRecord
100
AcDbLinetypeTableRecord
  2
PHANTOM
 70
     0
  3
Phantom ______  __  __  ______  __  __  ______
 72
    65
 73
     6
 40
12.7
 49
6.35
 74
     0
 49
-1.27
 74
     0
 49
1.27
 74
     0
 49
-1.27
 74
     0
 49
1.27
 74
     0
 49
-1.27
 74
     0
  0
LTYPE
  5
6C
330
5
100
AcDbSymbolTableRecord
100
AcDbLinetypeTableRecord
  2
CENTER
 70
     0
  3
Center ____ _ ____ _ ____ _ ____ _ ____ _ ____
 72
    65
 73
     4
 40
10.16
 49
6.35
 74
     0
 49
-1.27
 74
     0
 49
1.27
 74
     0
 49
-1.27
 74
     0
  0
LTYPE
  5
6D
330
5
100
AcDbSymbolTableRecord
100
AcDbLinetypeTableRecord
  2
CENTERX2
 70
     0
  3
Center (2x) ________  __  ________  __  _____
 72
    65
 73
     4
 40
20.32
 49
12.7
 74
     0
 49
-2.54
 74
     0
 49
2.54
 74
     0
 49
-2.54
 74
     0
  0
LTYPE
  5
6E
330
5
100
AcDbSymbolTableRecord
100
AcDbLinetypeTableRecord
  2
DOT2
 70
     0
  3
Dot (.5x) ........................................
 72
    65
 73
     2
 40
0.635
 49
0.0
 74
     0
 49
-0.635
 74
     0
  0
ENDTAB
  0
TABLE
  2
LAYER
  5
2
102
{ACAD_XDICTIONARY
360
173
102
}
330
0
100
AcDbSymbolTable
 70
    18
  0
LAYER
  5
10
330
2
100
AcDbSymbolTableRecord
100
AcDbLayerTableRecord
  2
0
 70
     0
 62
     7
  6
Continuous
370
    -3
390
F
  0
LAYER
  5
6F
330
2
100
AcDbSymbolTableRecord
100
AcDbLayerTableRecord
  2
FORMAT
 70
     0
 62
     2
  6
Continuous
370
    -3
390
F
  0
LAYER
  5
70
330
2
100
AcDbSymbolTableRecord
100
AcDbLayerTableRecord
  2
외형선
 70
     0
 62
     4
  6
Continuous
370
    30
390
F
  0
LAYER
  5
71
330
2
100
AcDbSymbolTableRecord
100
AcDbLayerTableRecord
  2
숨은선
 70
     0
 62
     2
  6
HIDDEN
370
    15
390
F
  0
LAYER
  5
72
330
2
100
AcDbSymbolTableRecord
100
AcDbLayerTableRecord
  2
중심선
 70
     0
 62
     1
  6
CENTERX2
370
    -3
390
F
  0
LAYER
  5
73
330
2
100
AcDbSymbolTableRecord
100
AcDbLayerTableRecord
  2
파단선
 70
     0
 62
     4
  6
Continuous
370
    -3
390
F
  0
LAYER
  5
74
330
2
100
AcDbSymbolTableRecord
100
AcDbLayerTableRecord
  2
해칭선
 70
     0
 62
   100
  6
Continuous
370
    -3
390
F
  0
LAYER
  5
75
330
2
100
AcDbSymbolTableRecord
100
AcDbLayerTableRecord
  2
가는실선
 70
     0
 62
     4
  6
Continuous
370
    -3
390
F
  0
LAYER
  5
76
330
2
100
AcDbSymbolTableRecord
100
AcDbLayerTableRecord
  2
치수_보조선
 70
     0
 62
     4
  6
Continuous
370
    -3
390
F
  0
LAYER
  5
77
330
2
100
AcDbSymbolTableRecord
100
AcDbLayerTableRecord
  2
치수문자_일반주서
 70
     0
 62
     7
  6
Continuous
370
    15
390
F
  0
LAYER
  5
78
330
2
100
AcDbSymbolTableRecord
100
AcDbLayerTableRecord
  2
개별주서
 70
     0
 62
   100
  6
Continuous
370
    30
390
F
  0
LAYER
  5
79
330
2
100
AcDbSymbolTableRecord
100
AcDbLayerTableRecord
  2
중간선
 70
     0
 62
     2
  6
Continuous
370
    15
390
F
  0
LAYER
  5
7A
330
2
100
AcDbSymbolTableRecord
100
AcDbLayerTableRecord
  2
윤곽선
 70
     0
 62
     3
  6
Continuous
370
    40
390
F
  0
LAYER
  5
7B
330
2
100
AcDbSymbolTableRecord
100
AcDbLayerTableRecord
  2
중심마크
 70
     0
 62
   100
  6
Continuous
370
    30
390
F
  0
LAYER
  5
7C
330
2
100
AcDbSymbolTableRecord
100
AcDbLayerTableRecord
  2
가상선
 70
     0
 62
     4
  6
PHANTOM
370
    -3
390
F
  0
LAYER
  5
7D
330
2
100
AcDbSymbolTableRecord
100
AcDbLayerTableRecord
  2
특수지정선
 70
     0
 62
     5
  6
CENTERX2
370
    60
390
F
  0
LAYER
  5
7E
330
2
100
AcDbSymbolTableRecord
100
AcDbLayerTableRecord
  2
참조1
 70
     0
 62
    -4
  6
Continuous
370
    -3
390
F
  0
LAYER
  5
1A2
330
2
100
AcDbSymbolTableRecord
100
AcDbLayerTableRecord
  2
Defpoints
 70
     0
 62
     7
  6
Continuous
290
     0
370
    -3
390
F
  0
ENDTAB
  0
TABLE
  2
STYLE
  5
3
330
0
100
AcDbSymbolTable
 70
     2
  0
STYLE
  5
11
330
3
100
AcDbSymbolTableRecord
100
AcDbTextStyleTableRecord
  2
Standard
 70
     0
 40
0.0
 41
1.0
 50
0.0
 71
     0
 42
3.5
  3
txt
  4

  0
STYLE
  5
94
330
3
100
AcDbSymbolTableRecord
100
AcDbTextStyleTableRecord
  2
SLDTEXTSTYLE0
 70
     0
 40
0.0
 41
0.75
 50
0.0
 71
     0
 42
3.5
  3
TXT
  4

  0
ENDTAB
  0
TABLE
  2
VIEW
  5
6
330
0
100
AcDbSymbolTable
 70
     0
  0
ENDTAB
  0
TABLE
  2
UCS
  5
7
330
0
100
AcDbSymbolTable
 70
     0
  0
ENDTAB
  0
TABLE
  2
APPID
  5
9
330
0
100
AcDbSymbolTable
 70
     1
  0
APPID
  5
12
330
9
100
AcDbSymbolTableRecord
100
AcDbRegAppTableRecord
  2
ACAD
 70
     0
  0
ENDTAB
  0
TABLE
  2
DIMSTYLE
  5
A
330
0
100
AcDbSymbolTable
 70
     3
100
AcDbDimStyleTable
  0
DIMSTYLE
105
27
330
A
100
AcDbSymbolTableRecord
100
AcDbDimStyleTableRecord
  2
ISO-25
 70
     0
 41
2.5
 42
0.625
 43
3.75
 44
1.25
 73
     0
 74
     0
 77
     1
 78
     8
140
2.5
141
2.5
143
0.03937007874016
147
0.625
171
     3
172
     1
178
     0
271
     2
272
     2
274
     3
278
    44
283
     0
284
     8
340
11
  0
DIMSTYLE
105
C5
330
A
100
AcDbSymbolTableRecord
100
AcDbDimStyleTableRecord
  2
SLDDIMSTYLE0
 70
     0
 41
3.302
 44
0.0
 45
0.000000001
 73
     0
 74
     0
 77
     1
 78
     4
 79
     1
140
3.5
143
0.0393700787401575
147
0.875
148
0.000000001
170
     1
173
     1
178
     0
271
     2
272
     2
276
     2
284
    12
340
94
  0
DIMSTYLE
105
ED
102
{ACAD_REACTORS
330
EC
330
C4
330
D9
330
101
102
}
330
A
100
AcDbSymbolTableRecord
100
AcDbDimStyleTableRecord
  2
SLDDIMSTYLE1
 70
     0
 41
3.302
 44
0.0
 45
0.000000001
 73
     0
 74
     0
 77
     1
 78
     4
 79
     1
140
3.5
143
0.0393700787401575
147
0.875
148
0.000000001
170
     1
172
     1
173
     1
178
     0
271
     2
272
     2
276
     2
284
    12
289
     0
340
94
  0
ENDTAB
  0
TABLE
  2
BLOCK_RECORD
  5
1
330
0
100
AcDbSymbolTable
 70
    10
  0
BLOCK_RECORD
  5
1F
330
1
100
AcDbSymbolTableRecord
100
AcDbBlockTableRecord
  2
*Model_Space
340
22
  0
BLOCK_RECORD
  5
1B
330
1
100
AcDbSymbolTableRecord
100
AcDbBlockTableRecord
  2
*Paper_Space
340
1E
  0
BLOCK_RECORD
  5
23
330
1
100
AcDbSymbolTableRecord
100
AcDbBlockTableRecord
  2
*Paper_Space0
340
26
  0
BLOCK_RECORD
  5
7F
330
1
100
AcDbSymbolTableRecord
100
AcDbBlockTableRecord
  2
블럭10
340
0
102
{BLKREFS
331
BD
102
}
  0
BLOCK_RECORD
  5
C6
330
1
100
AcDbSymbolTableRecord
100
AcDbBlockTableRecord
  2
_D
340
0
  0
BLOCK_RECORD
  5
DA
330
1
100
AcDbSymbolTableRecord
100
AcDbBlockTableRecord
  2
_D_1
340
0
  0
BLOCK_RECORD
  5
EE
330
1
100
AcDbSymbolTableRecord
100
AcDbBlockTableRecord
  2
_D_2
340
0
  0
BLOCK_RECORD
  5
102
330
1
100
AcDbSymbolTableRecord
100
AcDbBlockTableRecord
  2
_D_3
340
0
  0
BLOCK_RECORD
  5
11B
330
1
100
AcDbSymbolTableRecord
100
AcDbBlockTableRecord
  2
SW_DOWELSYMBOL_0
340
0
102
{BLKREFS
331
121
102
}
  0
ENDTAB
  0
ENDSEC
  0
SECTION
  2
BLOCKS
  0
BLOCK
  5
20
330
1F
100
AcDbEntity
  8
0
100
AcDbBlockBegin
  2
*Model_Space
 70
     0
 10
0.0
 20
0.0
 30
0.0
  3
*Model_Space
  1
*Model_Space
  0
ENDBLK
  5
21
330
1F
100
AcDbEntity
  8
0
100
AcDbBlockEnd
  0
BLOCK
  5
1C
330
1B
100
AcDbEntity
 67
     1
  8
0
100
AcDbBlockBegin
  2
*Paper_Space
 70
     0
 10
0.0
 20
0.0
 30
0.0
  3
*Paper_Space
  1
*Paper_Space
  0
ENDBLK
  5
1D
330
1B
100
AcDbEntity
 67
     1
  8
0
100
AcDbBlockEnd
  0
BLOCK
  5
24
330
23
100
AcDbEntity
  8
0
100
AcDbBlockBegin
  2
*Paper_Space0
 70
     0
 10
0.0
 20
0.0
 30
0.0
  3
*Paper_Space0
  1
*Paper_Space0
  0
ENDBLK
  5
25
330
23
100
AcDbEntity
  8
0
100
AcDbBlockEnd
  0
BLOCK
  5
80
330
7F
100
AcDbEntity
  8
0
100
AcDbBlockBegin
  2
블럭10
 70
     2
 10
0.0
 20
0.0
 30
0.0
  3
블럭10
  1
블럭10
  0
ELLIPSE
  5
82
330
7F
100
AcDbEntity
  8
중심선
100
AcDbEllipse
 10
20.54032771741204
 20
12.0471743016438
 30
0.0
 11
6.600054785286829
 21
-1.261213355974178E-13
 31
0.0
210
0.0
220
0.0
230
1.0
 40
0.636358354079598
 41
0.9219305317359503
 42
6.513795318482858
  0
ELLIPSE
  5
83
330
7F
100
AcDbEntity
  8
중심선
100
AcDbEllipse
 10
20.54032771746488
 20
12.04717430159265
 30
0.0
 11
3.960054785062283
 21
1.540847449632565E-10
 31
0.0
210
0.0
220
0.0
230
1.0
 40
0.3939339440162632
 41
1.131841032648279
 42
5.62031148352944
  0
LINE
  5
84
330
7F
100
AcDbEntity
  8
중심선
100
AcDbLine
 10
2.268634060543552
 20
16.24717430164393
 30
0.0
 11
5.714909304380834
 21
16.24717430164393
 31
0.0
  0
LINE
  5
85
330
7F
100
AcDbEntity
  8
중심선
100
AcDbLine
 10
5.245725140726316
 20
7.84717430164391
 30
0.0
 11
8.692000384563599
 21
7.84717430164391
 31
0.0
  0
LINE
  5
86
330
7F
100
AcDbEntity
  8
중심선
100
AcDbLine
 10
15.74043728645272
 20
16.24717430164393
 30
0.0
 11
8.692000384563599
 21
7.84717430164391
 31
0.0
  0
LINE
  5
87
330
7F
100
AcDbEntity
  8
중심선
100
AcDbLine
 10
0.1404042013395286
 20
13.71084872107135
 30
0.0
 11
3.58671253028996
 21
13.71088815037384
 31
0.0
  0
LINE
  5
88
330
7F
100
AcDbEntity
  8
중심선
100
AcDbLine
 10
2.750260043222114
 20
10.84717430164391
 30
0.0
 11
6.196535287059397
 21
10.84717430164391
 31
0.0
  0
LINE
  5
89
330
7F
100
AcDbEntity
  8
중심선
100
AcDbLine
 10
12.29416204261559
 20
16.24717430164393
 30
0.0
 11
5.245725140726316
 21
7.84717430164391
 31
0.0
  0
LINE
  5
8A
330
7F
100
AcDbEntity
  8
중심선
100
AcDbLine
 10
10.72767329541681
 20
16.24717430164393
 30
0.0
 11
6.196535287059397
 21
10.84717430164391
 31
0.0
  0
LINE
  5
8B
330
7F
100
AcDbEntity
  8
중심선
100
AcDbLine
 10
7.28139805157953
 20
16.24717430164393
 30
0.0
 11
2.750260043222114
 21
10.84717430164391
 31
0.0
  0
LINE
  5
8C
330
7F
100
AcDbEntity
  8
중심선
100
AcDbLine
 10
5.714909304380834
 20
16.24717430164393
 30
0.0
 11
3.58671253028996
 21
13.71088815037384
 31
0.0
  0
LINE
  5
8D
330
7F
100
AcDbEntity
  8
중심선
100
AcDbLine
 10
2.268634060543552
 20
16.24717430164393
 30
0.0
 11
0.1404042013395286
 21
13.71084872107135
 31
0.0
  0
LINE
  5
8E
330
7F
100
AcDbEntity
  8
중심선
100
AcDbLine
 10
7.28139805157953
 20
16.24717430164393
 30
0.0
 11
10.72767329541681
 21
16.24717430164393
 31
0.0
  0
LINE
  5
8F
330
7F
100
AcDbEntity
  8
중심선
100
AcDbLine
 10
12.29416204261559
 20
16.24717430164393
 30
0.0
 11
15.74043728645272
 21
16.24717430164393
 31
0.0
  0
LINE
  5
90
330
7F
100
AcDbEntity
  8
중심선
100
AcDbLine
 10
19.22036997980202
 20
11.08717430171403
 30
0.0
 11
23.66174974927406
 21
11.08717430171406
 31
0.0
  0
LINE
  5
91
330
7F
100
AcDbEntity
  8
중심선
100
AcDbLine
 10
19.22039502424796
 20
13.00717430171391
 30
0.0
 11
19.22036997980202
 21
11.08717430171403
 31
0.0
  0
LINE
  5
92
330
7F
100
AcDbEntity
  8
중심선
100
AcDbLine
 10
19.22039502424796
 20
13.00717430171391
 30
0.0
 11
26.96566020931264
 21
13.00717430171391
 31
0.0
  0
LINE
  5
93
330
7F
100
AcDbEntity
  8
중심선
100
AcDbLine
 10
22.22332737316547
 20
13.45928029700563
 30
0.0
 11
24.52862924686651
 21
15.39360700705356
 31
0.0
  0
ATTDEF
  5
95
330
7F
100
AcDbEntity
  8
FORMAT
 62
     2
100
AcDbText
 10
4.408487351596664
 20
2.075366912832191
 30
0.0
 40
4.233333333333333
  1
E2021064
 41
0.75
  7
SLDTEXTSTYLE0
 11
4.408487351596664
 21
-0.0412997538344756
 31
0.0
100
AcDbAttributeDefinition
  3

  2
AUTOATTR0
 70
     0
 74
     1
  0
ENDBLK
  5
81
330
7F
100
AcDbEntity
  8
0
100
AcDbBlockEnd
  0
BLOCK
  5
C7
330
C6
100
AcDbEntity
  8
0
100
AcDbBlockBegin
  2
_D
 70
     0
 10
0.0
 20
0.0
 30
0.0
  3
_D
  1
_D
  0
LINE
  5
C9
330
C6
100
AcDbEntity
  8
치수문자_일반주서
 62
     0
370
    -2
100
AcDbLine
 10
113.5999999999999
 20
12.76250000000001
 30
0.0
 11
113.5999999999999
 21
23.28300249164677
 31
0.0
  0
LINE
  5
CA
330
C6
100
AcDbEntity
  8
치수문자_일반주서
 62
     0
370
    -2
100
AcDbLine
 10
11.99999999999994
 20
12.71579691240973
 30
0.0
 11
11.99999999999994
 21
23.28300249164677
 31
0.0
  0
LINE
  5
CB
330
C6
100
AcDbEntity
  8
치수문자_일반주서
 62
     0
370
    -2
100
AcDbLine
 10
110.2979999999999
 20
23.28300249164677
 30
0.0
 11
15.30199999999994
 21
23.28300249164677
 31
0.0
  0
SOLID
  5
CC
330
C6
100
AcDbEntity
  8
치수문자_일반주서
 62
     0
100
AcDbTrace
 10
110.2979999999999
 20
22.73266915831343
 30
0.0
 11
110.2979999999999
 21
23.8333358249801
 31
0.0
 12
113.5999999999999
 22
23.28300249164677
 32
0.0
 13
113.5999999999999
 23
23.28300249164677
 33
0.0
  0
SOLID
  5
CD
330
C6
100
AcDbEntity
  8
치수문자_일반주서
 62
     0
100
AcDbTrace
 10
15.30199999999994
 20
23.8333358249801
 30
0.0
 11
15.30199999999994
 21
22.73266915831343
 31
0.0
 12
11.99999999999994
 22
23.28300249164677
 32
0.0
 13
11.99999999999994
 23
23.28300249164677
 33
0.0
  0
MTEXT
  5
CE
330
C6
100
AcDbEntity
  8
치수문자_일반주서
 62
     0
100
AcDbMText
 10
78.12745754462998
 20
27.65800249164677
 30
0.0
 40
3.5
 41
0.0
 71
     2
 72
     1
  1
\A1;101.60 [4]
  7
SLDTEXTSTYLE0
 73
     1
 44
1.0
  0
POINT
  5
CF
330
C6
100
AcDbEntity
  8
Defpoints
 62
     0
100
AcDbPoint
 10
113.5999999999999
 20
12.70000000000001
 30
0.0
  0
POINT
  5
D0
330
C6
100
AcDbEntity
  8
Defpoints
 62
     0
100
AcDbPoint
 10
11.99999999999994
 20
12.65329691240973
 30
0.0
  0
POINT
  5
D1
330
C6
100
AcDbEntity
  8
Defpoints
 62
     0
100
AcDbPoint
 10
11.99999999999994
 20
23.28300249164677
 30
0.0
  0
ENDBLK
  5
C8
330
C6
100
AcDbEntity
  8
0
100
AcDbBlockEnd
  0
BLOCK
  5
DB
330
DA
100
AcDbEntity
  8
0
100
AcDbBlockBegin
  2
_D_1
 70
     0
 10
0.0
 20
0.0
 30
0.0
  3
_D_1
  1
_D_1
  0
LINE
  5
DD
330
DA
100
AcDbEntity
  8
치수문자_일반주서
 62
     0
370
    -2
100
AcDbLine
 10
113.5999999999999
 20
12.76250000000001
 30
0.0
 11
113.5999999999999
 21
31.6091467932808
 31
0.0
  0
LINE
  5
DE
330
DA
100
AcDbEntity
  8
치수문자_일반주서
 62
     0
370
    -2
100
AcDbLine
 10
-51.50000000000006
 20
10.2225
 30
0.0
 11
-51.50000000000007
 21
31.6091467932808
 31
0.0
  0
LINE
  5
DF
330
DA
100
AcDbEntity
  8
치수문자_일반주서
 62
     0
370
    -2
100
AcDbLine
 10
110.2979999999999
 20
31.6091467932808
 30
0.0
 11
-48.19800000000007
 21
31.6091467932808
 31
0.0
  0
SOLID
  5
E0
330
DA
100
AcDbEntity
  8
치수문자_일반주서
 62
     0
100
AcDbTrace
 10
110.2979999999999
 20
31.05881345994747
 30
0.0
 11
110.2979999999999
 21
32.15948012661413
 31
0.0
 12
113.5999999999999
 22
31.6091467932808
 32
0.0
 13
113.5999999999999
 23
31.6091467932808
 33
0.0
  0
SOLID
  5
E1
330
DA
100
AcDbEntity
  8
치수문자_일반주서
 62
     0
100
AcDbTrace
 10
-48.19800000000007
 20
32.15948012661413
 30
0.0
 11
-48.19800000000007
 21
31.05881345994747
 31
0.0
 12
-51.50000000000007
 22
31.6091467932808
 32
0.0
 13
-51.50000000000007
 23
31.6091467932808
 33
0.0
  0
MTEXT
  5
E2
330
DA
100
AcDbEntity
  8
치수문자_일반주서
 62
     0
100
AcDbMText
 10
31.04999999999993
 20
35.9841467932808
 30
0.0
 40
3.5
 41
0.0
 71
     2
 72
     1
  1
\A1;165.10 [6 1/2]
  7
SLDTEXTSTYLE0
 73
     1
 44
1.0
  0
POINT
  5
E3
330
DA
100
AcDbEntity
  8
Defpoints
 62
     0
100
AcDbPoint
 10
113.5999999999999
 20
12.70000000000001
 30
0.0
  0
POINT
  5
E4
330
DA
100
AcDbEntity
  8
Defpoints
 62
     0
100
AcDbPoint
 10
-51.50000000000006
 20
10.16
 30
0.0
  0
POINT
  5
E5
330
DA
100
AcDbEntity
  8
Defpoints
 62
     0
100
AcDbPoint
 10
-51.50000000000006
 20
31.6091467932808
 30
0.0
  0
ENDBLK
  5
DC
330
DA
100
AcDbEntity
  8
0
100
AcDbBlockEnd
  0
BLOCK
  5
EF
330
EE
100
AcDbEntity
  8
0
100
AcDbBlockBegin
  2
_D_2
 70
     0
 10
0.0
 20
0.0
 30
0.0
  3
_D_2
  1
_D_2
  0
LINE
  5
F1
330
EE
100
AcDbEntity
  8
치수문자_일반주서
 62
     0
370
    -2
100
AcDbLine
 10
-51.56250000000006
 20
12.69999999999997
 30
0.0
 11
-62.91250000000011
 21
12.69999999999993
 31
0.0
  0
LINE
  5
F2
330
EE
100
AcDbEntity
  8
치수문자_일반주서
 62
     0
370
    -2
100
AcDbLine
 10
-49.02250000000006
 20
-12.69999999999999
 30
0.0
 11
-62.91250000000002
 21
-12.70000000000005
 31
0.0
  0
LINE
  5
F3
330
EE
100
AcDbEntity
  8
치수문자_일반주서
 62
     0
370
    -2
100
AcDbLine
 10
-62.91250000000009
 20
9.397999999999932
 30
0.0
 11
-62.91250000000004
 21
-9.398000000000046
 31
0.0
  0
SOLID
  5
F4
330
EE
100
AcDbEntity
  8
치수문자_일반주서
 62
     0
100
AcDbTrace
 10
-62.36216666666676
 20
9.397999999999934
 30
0.0
 11
-63.46283333333343
 21
9.39799999999993
 31
0.0
 12
-62.91250000000011
 22
12.69999999999993
 32
0.0
 13
-62.91250000000011
 23
12.69999999999993
 33
0.0
  0
SOLID
  5
F5
330
EE
100
AcDbEntity
  8
치수문자_일반주서
 62
     0
100
AcDbTrace
 10
-63.46283333333337
 20
-9.398000000000048
 30
0.0
 11
-62.3621666666667
 21
-9.398000000000044
 31
0.0
 12
-62.91250000000002
 22
-12.70000000000005
 32
0.0
 13
-62.91250000000002
 23
-12.70000000000005
 33
0.0
  0
MTEXT
  5
F6
330
EE
100
AcDbEntity
  8
치수문자_일반주서
 62
     0
100
AcDbMText
 10
-67.28750000000007
 20
-0.0000000000000296
 30
0.0
 40
3.5
 41
0.0
 71
     2
 72
     1
  1
\A1;%%c25.40 [1]
  7
SLDTEXTSTYLE0
 11
-3.356894814614650E-15
 21
1.0
 31
0.0
 73
     1
 44
1.0
  0
POINT
  5
F7
330
EE
100
AcDbEntity
  8
Defpoints
 62
     0
100
AcDbPoint
 10
-51.50000000000006
 20
12.69999999999997
 30
0.0
  0
POINT
  5
F8
330
EE
100
AcDbEntity
  8
Defpoints
 62
     0
100
AcDbPoint
 10
-48.96000000000006
 20
-12.69999999999999
 30
0.0
  0
POINT
  5
F9
330
EE
100
AcDbEntity
  8
Defpoints
 62
     0
100
AcDbPoint
 10
-62.91250000000002
 20
-12.70000000000005
 30
0.0
  0
ENDBLK
  5
F0
330
EE
100
AcDbEntity
  8
0
100
AcDbBlockEnd
  0
BLOCK
  5
103
330
102
100
AcDbEntity
  8
0
100
AcDbBlockBegin
  2
_D_3
 70
     0
 10
0.0
 20
0.0
 30
0.0
  3
_D_3
  1
_D_3
  0
LINE
  5
105
330
102
100
AcDbEntity
  8
치수문자_일반주서
 62
     0
370
    -2
100
AcDbLine
 10
113.6624999999999
 20
12.70000000000001
 30
0.0
 11
122.6992558506512
 21
12.70000000000005
 31
0.0
  0
LINE
  5
106
330
102
100
AcDbEntity
  8
치수문자_일반주서
 62
     0
370
    -2
100
AcDbLine
 10
113.6624999999999
 20
-12.69999999999998
 30
0.0
 11
122.6992558506513
 21
-12.69999999999995
 31
0.0
  0
LINE
  5
107
330
102
100
AcDbEntity
  8
치수문자_일반주서
 62
     0
370
    -2
100
AcDbLine
 10
122.6992558506512
 20
12.70000000000005
 30
0.0
 11
122.6992558506511
 21
44.52275000000004
 31
0.0
  0
LINE
  5
108
330
102
100
AcDbEntity
  8
치수문자_일반주서
 62
     0
370
    -2
100
AcDbLine
 10
122.6992558506512
 20
12.70000000000005
 30
0.0
 11
122.6992558506513
 21
-12.69999999999995
 31
0.0
  0
LINE
  5
109
330
102
100
AcDbEntity
  8
치수문자_일반주서
 62
     0
370
    -2
100
AcDbLine
 10
122.6992558506512
 20
16.00200000000005
 30
0.0
 11
122.6992558506512
 21
19.30400000000004
 31
0.0
  0
LINE
  5
10A
330
102
100
AcDbEntity
  8
치수문자_일반주서
 62
     0
370
    -2
100
AcDbLine
 10
122.6992558506513
 20
-16.00199999999995
 30
0.0
 11
122.6992558506513
 21
-19.30399999999995
 31
0.0
  0
SOLID
  5
10B
330
102
100
AcDbEntity
  8
치수문자_일반주서
 62
     0
100
AcDbTrace
 10
122.1489225173178
 20
16.00200000000004
 30
0.0
 11
123.2495891839845
 21
16.00200000000005
 31
0.0
 12
122.6992558506512
 22
12.70000000000005
 32
0.0
 13
122.6992558506512
 23
12.70000000000005
 33
0.0
  0
SOLID
  5
10C
330
102
100
AcDbEntity
  8
치수문자_일반주서
 62
     0
100
AcDbTrace
 10
123.2495891839846
 20
-16.00199999999994
 30
0.0
 11
122.148922517318
 21
-16.00199999999995
 31
0.0
 12
122.6992558506513
 22
-12.69999999999995
 32
0.0
 13
122.6992558506513
 23
-12.69999999999995
 33
0.0
  0
MTEXT
  5
10D
330
102
100
AcDbEntity
  8
치수문자_일반주서
 62
     0
100
AcDbMText
 10
118.3242558506511
 20
33.36650000000002
 30
0.0
 40
3.5
 41
0.0
 71
     2
 72
     1
  1
\A1;%%c25.40 [1]
  7
SLDTEXTSTYLE0
 11
-3.356894814614647E-15
 21
1.0
 31
0.0
 73
     1
 44
1.0
  0
POINT
  5
10E
330
102
100
AcDbEntity
  8
Defpoints
 62
     0
100
AcDbPoint
 10
113.5999999999999
 20
12.70000000000001
 30
0.0
  0
POINT
  5
1A5
330
102
100
AcDbEntity
  8
Defpoints
 62
     0
100
AcDbPoint
 10
113.5999999999999
 20
-12.69999999999998
 30
0.0
  0
POINT
  5
1A6
330
102
100
AcDbEntity
  8
Defpoints
 62
     0
100
AcDbPoint
 10
122.6992558506513
 20
-12.69999999999995
 30
0.0
  0
ENDBLK
  5
104
330
102
100
AcDbEntity
  8
0
100
AcDbBlockEnd
  0
BLOCK
  5
11C
330
11B
100
AcDbEntity
  8
0
100
AcDbBlockBegin
  2
SW_DOWELSYMBOL_0
 70
     0
 10
0.0
 20
0.0
 30
0.0
  3
SW_DOWELSYMBOL_0
  1
SW_DOWELSYMBOL_0
  0
CIRCLE
  5
11E
330
11B
100
AcDbEntity
  8
해칭선
 62
     0
100
AcDbCircle
 10
0.0
 20
0.0
 30
0.0
 40
3.000000000000001
  0
HATCH
  5
11F
330
11B
100
AcDbEntity
  8
0
  6
Continuous
 62
     0
370
     0
100
AcDbHatch
 10
0.0
 20
0.0
 30
0.0
210
0.0
220
0.0
230
1.0
  2
SOLID
 70
     1
 71
     0
 91
        1
 92
        0
 93
        3
 72
     2
 10
0.0
 20
0.0
 40
3.000000000000001
 50
0.0
 51
90.0
 73
     1
 72
     1
 10
0.0
 20
3.000000000000001
 11
0.0
 21
0.0
 72
     1
 10
0.0
 20
0.0
 11
3.000000000000001
 21
0.0
 97
        0
 75
     0
 76
     1
 98
        1
 10
0.0
 20
0.0
  0
HATCH
  5
120
330
11B
100
AcDbEntity
  8
0
  6
Continuous
 62
     0
370
     0
100
AcDbHatch
 10
0.0
 20
0.0
 30
0.0
210
0.0
220
0.0
230
1.0
  2
SOLID
 70
     1
 71
     0
 91
        1
 92
        0
 93
        3
 72
     2
 10
0.0
 20
0.0
 40
3.000000000000001
 50
180.0
 51
270.0000000000008
 73
     1
 72
     1
 10
0.0
 20
-3.000000000000001
 11
0.0
 21
0.0
 72
     1
 10
0.0
 20
0.0
 11
-3.000000000000001
 21
0.0
 97
        0
 75
     0
 76
     1
 98
        1
 10
0.0
 20
0.0
  0
ENDBLK
  5
11D
330
11B
100
AcDbEntity
  8
0
100
AcDbBlockEnd
  0
ENDSEC
  0
SECTION
  2
ENTITIES
  0
LINE
  5
96
330
1F
100
AcDbEntity
  8
0
  6
Continuous
 62
     1
370
    15
100
AcDbLine
 10
48.43980416618089
 20
-12.70000000000002
 30
0.0
 11
56.18289738065099
 21
-12.70000000000002
 31
0.0
  0
LINE
  5
97
330
1F
100
AcDbEntity
  8
0
  6
Continuous
 62
     1
370
    15
100
AcDbLine
 10
82.99340061362825
 20
-12.70000000000002
 30
0.0
 11
90.737555178943
 21
-12.70000000000002
 31
0.0
  0
LINE
  5
98
330
1F
100
AcDbEntity
  8
0
  6
Continuous
 62
     1
370
    15
100
AcDbLine
 10
21.63120085564966
 20
12.70000000000001
 30
0.0
 11
13.88714277847489
 21
12.70000000000001
 31
0.0
  0
LINE
  5
99
330
1F
100
AcDbEntity
  8
0
  6
Continuous
 62
     1
370
    15
100
AcDbLine
 10
56.18289738065099
 20
12.70000000000001
 30
0.0
 11
48.43980416618079
 21
12.70000000000001
 31
0.0
  0
ARC
  5
9A
330
1F
100
AcDbEntity
  8
0
  6
Continuous
 62
     1
370
    15
100
AcDbCircle
 10
100.8999999999999
 20
0.0000000000000079
 30
0.0
 40
12.7
100
AcDbArc
 50
333.0146301847886
 51
0.0
  0
ARC
  5
9B
330
1F
100
AcDbEntity
  8
0
  6
Continuous
 62
     1
370
    15
100
AcDbCircle
 10
100.8999999999999
 20
0.0000000000000079
 30
0.0
 40
12.70000000000002
100
AcDbArc
 50
0.0
 51
26.98393284642843
  0
LINE
  5
9C
330
1F
100
AcDbEntity
  8
0
  6
Continuous
 62
     1
370
    15
100
AcDbLine
 10
13.8871427784749
 20
-12.70000000000002
 30
0.0
 11
21.63120085564982
 21
-12.70000000000002
 31
0.0
  0
LINE
  5
9D
330
1F
100
AcDbEntity
  8
0
  6
Continuous
 62
     1
370
    15
100
AcDbLine
 10
90.7375551789432
 20
12.70000000000001
 30
0.0
 11
82.99340061362825
 21
12.70000000000001
 31
0.0
  0
LINE
  5
9E
330
1F
100
AcDbEntity
  8
외형선
  6
Continuous
370
    15
100
AcDbLine
 10
-48.96000000000004
 20
-12.7
 30
0.0
 11
11.99999999999996
 21
-12.7
 31
0.0
  0
LINE
  5
9F
330
1F
100
AcDbEntity
  8
외형선
  6
Continuous
370
    15
100
AcDbLine
 10
11.99999999999996
 20
12.69999999999999
 30
0.0
 11
-14.06992500000003
 21
12.69999999999999
 31
0.0
  0
LINE
  5
A0
330
1F
100
AcDbEntity
  8
외형선
  6
Continuous
370
    15
100
AcDbLine
 10
-50.86500000000005
 20
10.795
 30
0.0
 11
-51.50000000000004
 21
10.16
 31
0.0
  0
LINE
  5
A1
330
1F
100
AcDbEntity
  8
외형선
  6
Continuous
370
    15
100
AcDbLine
 10
-51.50000000000004
 20
-10.16000000000001
 30
0.0
 11
-48.96000000000004
 21
-12.7
 31
0.0
  0
SPLINE
  5
A2
330
1F
100
AcDbEntity
  8
0
  6
Continuous
 62
     1
370
    15
100
AcDbSpline
210
0.0
220
0.0
230
1.0
 70
     8
 71
     3
 72
    18
 73
    14
 74
     0
 42
0.000000001
 43
0.00000001
 40
0.0
 40
0.0
 40
0.0
 40
0.0
 40
0.0995773650851542
 40
0.1991547207172201
 40
0.2987320669405993
 40
0.3983094037997023
 40
0.4978867313389459
 40
0.597464049602753
 40
0.6970413586355525
 40
0.7966186584817836
 40
0.8961959491858882
 40
0.9957732307923174
 40
1.0
 40
1.0
 40
1.0
 40
1.0
 10
12.0
 20
1.088153135548118
 30
0.0
 10
13.20952666830865
 20
0.3895517733698871
 30
0.0
 10
15.62857989010305
 20
-1.007650884666881
 30
0.0
 10
19.25715946377924
 20
-3.084017623703818
 30
0.0
 10
22.88573863108716
 20
-5.074520453486759
 30
0.0
 10
26.51431738768818
 20
-6.927877635017784
 30
0.0
 10
30.14289573715986
 20
-8.592793193555268
 30
0.0
 10
33.77147368117636
 20
-10.02522398179996
 30
0.0
 10
37.4000512211106
 20
-11.18262901037745
 30
0.0
 10
41.02862836144639
 20
-12.04703555867236
 30
0.0
 10
44.65720509452659
 20
-12.54482886540226
 30
0.0
 10
47.12759699054774
 20
-12.7523439733193
 30
0.0
 10
48.38846329065161
 20
-12.69531315784232
 30
0.0
 10
48.43980416618089
 20
-12.69299093541597
 30
0.0
  0
LWPOLYLINE
  5
A3
330
1F
100
AcDbEntity
  8
0
  6
Continuous
 62
     1
370
    15
100
AcDbPolyline
 90
       26
 70
   128
 43
0.0
 10
104.1427853382292
 20
9.97416781337125
 10
104.4775359626213
 20
10.01752473501404
 10
106.1904363635757
 20
9.906524852198698
 10
107.8662644884475
 20
9.453873323838623
 10
109.317486070662
 20
8.739383586514869
 10
110.6046815608167
 20
7.781464386828358
 10
111.4567416848104
 20
6.897017779932238
 10
112.107960565446
 20
5.964604738866274
 10
112.3714606594999
 20
5.42657829813628
 10
112.5182392047066
 20
4.937832756464196
 10
112.5353651519188
 20
4.626281580064727
 10
112.4557938575459
 20
4.394786783003509
 10
112.2793579440843
 20
4.275938445879496
 10
111.995437336502
 20
4.278975314655141
 10
111.6872972214095
 20
4.381973591418531
 10
111.3134177132062
 20
4.576387966170734
 10
110.4367966222069
 20
5.18233342905681
 10
109.7303099567969
 20
5.746078941693227
 10
108.9632287260562
 20
6.387655638045539
 10
107.8968202077552
 20
7.284227770656042
 10
106.7648332203892
 20
8.198699361445785
 10
105.2403516596595
 20
9.311093808005358
 10
103.6273247300714
 20
10.28557362401432
 10
102.2880249877666
 20
10.91127430762162
 10
100.8999999999999
 20
11.36824093503322
 10
100.8999999999999
 20
11.36824093503322
  0
SPLINE
  5
A4
330
1F
100
AcDbEntity
  8
0
  6
Continuous
 62
     1
370
    15
100
AcDbSpline
210
0.0
220
0.0
230
1.0
 70
     8
 71
     3
 72
    11
 73
     7
 74
     0
 42
0.000000001
 43
0.00000001
 40
0.0
 40
0.0
 40
0.0
 40
0.0
 40
0.3123732903913374
 40
0.6247602985474238
 40
0.93718611778953
 40
1.0
 40
1.0
 40
1.0
 40
1.0
 10
100.8999999999998
 20
11.36824093503323
 30
0.0
 10
99.84186207358448
 20
11.61899950342717
 30
0.0
 10
97.72553975299364
 20
12.12052765219064
 30
0.0
 10
94.55086780422367
 20
12.53585674361935
 30
0.0
 10
92.22154238881788
 20
12.72497817151825
 30
0.0
 10
90.95034877607222
 20
12.68539320951442
 30
0.0
 10
90.7375551789432
 20
12.67876681808784
 30
0.0
  0
SPLINE
  5
A5
330
1F
100
AcDbEntity
  8
0
  6
Continuous
 62
     1
370
    15
100
AcDbSpline
210
0.0
220
0.0
230
1.0
 70
     8
 71
     3
 72
    14
 73
    10
 74
     0
 42
0.000000001
 43
0.00000001
 40
0.0
 40
0.0
 40
0.0
 40
0.0
 40
0.0549141850079834
 40
0.2124284505920656
 40
0.3699427308482992
 40
0.5274570258469565
 40
0.6849713356582952
 40
0.8424856603525637
 40
1.0
 40
1.0
 40
1.0
 40
1.0
 10
35.03650457826473
 20
-10.38184815981235
 30
0.0
 10
34.61482764706484
 20
-10.52976381289853
 30
0.0
 10
32.9836247596472
 20
-11.10195646219021
 30
0.0
 10
30.14289573434639
 20
-11.80258442867786
 30
0.0
 10
26.51431738844204
 20
-12.44750731318802
 30
0.0
 10
22.88573863088522
 20
-12.73711985098861
 30
0.0
 10
19.25715946383304
 20
-12.68000838650899
 30
0.0
 10
15.62857989008956
 20
-12.29971077476193
 30
0.0
 10
13.20952666830412
 20
-11.76800569036528
 30
0.0
 10
11.99999999999996
 20
-11.50215313554798
 30
0.0
  0
SPLINE
  5
A6
330
1F
100
AcDbEntity
  8
0
  6
Continuous
 62
     1
370
    15
100
AcDbSpline
210
0.0
220
0.0
230
1.0
 70
     8
 71
     3
 72
    26
 73
    22
 74
     0
 42
0.000000001
 43
0.00000001
 40
0.0
 40
0.0
 40
0.0
 40
0.0
 40
0.0358849833354518
 40
0.0909765244222463
 40
0.1460680604511225
 40
0.2011595914466733
 40
0.256251117433494
 40
0.3113426384361855
 40
0.3664341544793491
 40
0.4215256655875933
 40
0.4766171717855273
 40
0.5317086730977654
 40
0.5868001695489267
 40
0.6418916611636297
 40
0.6969831479665016
 40
0.7520746299821692
 40
0.807166107235264
 40
0.8553854903307577
 40
0.9035950250219821
 40
0.9517985708855146
 40
1.0
 40
1.0
 40
1.0
 40
1.0
 10
35.03650457826457
 20
10.38184815981234
 30
0.0
 10
35.82435349526624
 20
10.64341308143524
 30
0.0
 10
37.82172815108311
 20
11.30653913774637
 30
0.0
 10
41.02862835850796
 20
12.03329381413247
 30
0.0
 10
44.65720509969236
 20
12.57144705486145
 30
0.0
 10
48.28578144042447
 20
12.75690149219935
 30
0.0
 10
51.91435738616686
 20
12.59907160006673
 30
0.0
 10
55.54293293755353
 20
12.09837065628931
 30
0.0
 10
59.17150809824388
 20
11.26942967484137
 30
0.0
 10
62.80008286462703
 20
10.13447565837166
 30
0.0
 10
66.42865725914871
 20
8.724396110337983
 30
0.0
 10
70.05723120730111
 20
7.07745316776406
 30
0.0
 10
73.6858049963346
 20
5.238366058759276
 30
0.0
 10
77.31437756342388
 20
3.257059356651768
 30
0.0
 10
80.94295288428788
 20
1.18733697533046
 30
0.0
 10
84.5715161305488
 20
-0.914658499185438
 30
0.0
 10
88.04924566353847
 20
-2.90531738495537
 30
0.0
 10
91.37574168778583
 20
-4.740128353959289
 30
0.0
 10
94.55087519366825
 20
-6.389703073376965
 30
0.0
 10
97.72553790582278
 20
-7.920020372270892
 30
0.0
 10
99.84186145786991
 20
-8.796098131822728
 30
0.0
 10
100.8999999999999
 20
-9.234127393647068
 30
0.0
  0
SPLINE
  5
A7
330
1F
100
AcDbEntity
  8
0
  6
Continuous
 62
     1
370
    15
100
AcDbSpline
210
0.0
220
0.0
230
1.0
 70
     8
 71
     3
 72
    16
 73
    12
 74
     0
 42
0.000000001
 43
0.00000001
 40
0.0
 40
0.0
 40
0.0
 40
0.0
 40
0.1280341178837542
 40
0.259820196754647
 40
0.3863798313916308
 40
0.5168135350696008
 40
0.6406787082347547
 40
0.7676195051711036
 40
0.870421379672778
 40
0.975539730381218
 40
1.0
 40
1.0
 40
1.0
 40
1.0
 10
100.8999999999999
 20
-9.234127393647055
 30
0.0
 10
101.4854114043161
 20
-9.438404365440292
 30
0.0
 10
102.6733893336828
 20
-9.852944519900925
 30
0.0
 10
104.459339193573
 20
-10.07183557921523
 30
0.0
 10
106.2219057518446
 20
-9.96087435194965
 30
0.0
 10
107.863586289635
 20
-9.513300532227714
 30
0.0
 10
109.3608264022559
 20
-8.770618807494987
 30
0.0
 10
110.5688430689862
 20
-7.866578605804949
 30
0.0
 10
111.4902104537652
 20
-6.898748740389122
 30
0.0
 10
112.0057285321001
 20
-6.188589283729355
 30
0.0
 10
112.1766380779926
 20
-5.826796285927228
 30
0.0
 10
112.2089002950343
 20
-5.758501421773869
 30
0.0
  0
SPLINE
  5
A8
330
1F
100
AcDbEntity
  8
0
  6
Continuous
 62
     1
370
    15
100
AcDbSpline
210
0.0
220
0.0
230
1.0
 70
     8
 71
     3
 72
    10
 73
     6
 74
     0
 42
0.000000001
 43
0.00000001
 40
0.0
 40
0.0
 40
0.0
 40
0.0
 40
0.1634348693496208
 40
0.578379117600468
 40
1.0
 40
1.0
 40
1.0
 40
1.0
 10
104.1427853382291
 20
-9.974167813371292
 30
0.0
 10
103.9714531002164
 20
-10.08043923694075
 30
0.0
 10
103.3651260108223
 20
-10.45652282568068
 30
0.0
 10
102.2851067422003
 20
-10.94634270995971
 30
0.0
 10
101.3641522960889
 20
-11.22686191786618
 30
0.0
 10
100.8999999999999
 20
-11.36824093503319
 30
0.0
  0
SPLINE
  5
A9
330
1F
100
AcDbEntity
  8
0
  6
Continuous
 62
     1
370
    15
100
AcDbSpline
210
0.0
220
0.0
230
1.0
 70
     8
 71
     3
 72
    30
 73
    26
 74
     0
 42
0.000000001
 43
0.00000001
 40
0.0
 40
0.0
 40
0.0
 40
0.0
 40
0.0400500942040383
 40
0.0801019471940776
 40
0.1201587762422462
 40
0.16022378823283
 40
0.205998755787952
 40
0.2517737273002485
 40
0.2975487027901868
 40
0.3433236822782286
 40
0.3890986657848347
 40
0.4348736533304632
 40
0.4806486449355678
 40
0.5264236406206009
 40
0.572198640406011
 40
0.6179736443122423
 40
0.6637486523597388
 40
0.7095236645689398
 40
0.7552986809602816
 40
0.8010737015541978
 40
0.8468487263711186
 40
0.8926237554314717
 40
0.9383987887556806
 40
0.9841738263641675
 40
1.0
 40
1.0
 40
1.0
 40
1.0
 10
100.8999999999998
 20
-11.36824093503322
 30
0.0
 10
99.84186145786988
 20
-11.61779797527337
 30
0.0
 10
97.72553790582275
 20
-12.11692301496458
 30
0.0
 10
94.55087519366815
 20
-12.55027677768723
 30
0.0
 10
91.37574168778578
 20
-12.73956053443363
 30
0.0
 10
88.04924566353847
 20
-12.65557466371857
 30
0.0
 10
84.57151613054874
 20
-12.25999470780169
 30
0.0
 10
80.9429528842879
 20
-11.51398815418032
 30
0.0
 10
77.31437756342388
 20
-10.45549980156987
 30
0.0
 10
73.68580499633457
 20
-9.113124620295949
 30
0.0
 10
70.05723120730117
 20
-7.523344818584589
 30
0.0
 10
66.42865725914845
 20
-5.729311167356101
 30
0.0
 10
62.8000828646276
 20
-3.779732735852959
 30
0.0
 10
59.17150809824157
 20
-1.727537763423232
 30
0.0
 10
55.542932937562
 20
0.3715576279502465
 30
0.0
 10
51.9143573861349
 20
2.460567999440611
 30
0.0
 10
48.28578144054362
 20
4.482767652046149
 30
0.0
 10
44.65720509924761
 20
6.383296924016451
 30
0.0
 10
41.02862836016779
 20
8.110404630166574
 30
0.0
 10
37.400051221504
 20
9.6177746075249
 30
0.0
 10
33.7714736808813
 20
10.86234391038282
 30
0.0
 10
30.14289573794668
 20
11.81830736926225
 30
0.0
 10
26.51431738483587
 20
12.42991566409945
 30
0.0
 10
23.67708571989368
 20
12.71284907833916
 30
0.0
 10
22.04938014906847
 20
12.67155279865869
 30
0.0
 10
21.63120085564966
 20
12.66094323304245
 30
0.0
  0
SPLINE
  5
AA
330
1F
100
AcDbEntity
  8
0
  6
Continuous
 62
     1
370
    15
100
AcDbSpline
210
0.0
220
0.0
230
1.0
 70
     8
 71
     3
 72
    27
 73
    23
 74
     0
 42
0.000000001
 43
0.00000001
 40
0.0
 40
0.0
 40
0.0
 40
0.0
 40
0.0511115024425677
 40
0.1022230000330133
 40
0.1533344927941272
 40
0.2044459807487048
 40
0.2555574639195445
 40
0.3066689423294479
 40
0.3577804160012196
 40
0.4088918849576695
 40
0.4600033492216091
 40
0.5111148088158542
 40
0.5622262637632237
 40
0.6133377140865407
 40
0.6644491598086295
 40
0.7155606009523207
 40
0.7666720375404456
 40
0.8177834695958403
 40
0.868894897141345
 40
0.9200063201998004
 40
0.9711177387940539
 40
1.0
 40
1.0
 40
1.0
 40
1.0
 10
11.99999999999999
 20
12.65329691240973
 30
0.0
 10
13.20952666830867
 20
12.67992340253407
 30
0.0
 10
15.62857989010315
 20
12.73317638025506
 30
0.0
 10
19.25715946377877
 20
12.37531458486328
 30
0.0
 10
22.88573863108891
 20
11.70613850006323
 30
0.0
 10
26.51431738768166
 20
10.71254297229784
 30
0.0
 10
30.14289573718414
 20
9.429882722251248
 30
0.0
 10
33.77147368108571
 20
7.890735534315464
 30
0.0
 10
37.40005122144898
 20
6.137489451763766
 30
0.0
 10
41.02862836018346
 20
4.21758231941118
 30
0.0
 10
44.65720509923995
 20
2.18318087752851
 30
0.0
 10
48.28578144055854
 20
0.0895061895591039
 30
0.0
 10
51.914357386083
 20
-2.006599372968827
 30
0.0
 10
55.5429329377548
 20
-4.048221795426186
 30
0.0
 10
59.17150809752259
 20
-5.979960974607734
 30
0.0
 10
62.80008286731078
 20
-7.749266758112638
 30
0.0
 10
66.42865724913509
 20
-9.308497318241459
 30
0.0
 10
70.05723124467161
 20
-10.6138538490905
 30
0.0
 10
73.6858048568661
 20
-11.63537289914651
 30
0.0
 10
77.31437808392732
 20
-12.32488563096018
 30
0.0
 10
80.41690996928189
 20
-12.67976808793209
 30
0.0
 10
82.30991742076671
 20
-12.66345147437056
 30
0.0
 10
82.99340061362825
 20
-12.65756025026314
 30
0.0
  0
SPLINE
  5
AB
330
1F
100
AcDbEntity
  8
0
  6
Continuous
 62
     1
370
    15
100
AcDbSpline
210
0.0
220
0.0
230
1.0
 70
     8
 71
     3
 72
    23
 73
    19
 74
     0
 42
0.000000001
 43
0.00000001
 40
0.0
 40
0.0
 40
0.0
 40
0.0
 40
0.0548452263600029
 40
0.1178555044364557
 40
0.1808657881290194
 40
0.2438760774658419
 40
0.3068863724750651
 40
0.3698966731848303
 40
0.4329069796232729
 40
0.495917291818524
 40
0.5589276097987105
 40
0.6219379335919556
 40
0.684948263226378
 40
0.7479585987300914
 40
0.8109689401312072
 40
0.8739792874578303
 40
0.936989640738062
 40
1.0
 40
1.0
 40
1.0
 40
1.0
 10
69.58703064371923
 20
-10.39804305468245
 30
0.0
 10
68.5342395480458
 20
-10.73185225003339
 30
0.0
 10
66.27192368426651
 20
-11.4491662938369
 30
0.0
 10
62.80008286628346
 20
-12.18033002272363
 30
0.0
 10
59.17150809779781
 20
-12.64146181577859
 30
0.0
 10
55.54293293768102
 20
-12.7519825944007
 30
0.0
 10
51.91435738610272
 20
-12.51828390154568
 30
0.0
 10
48.28578144055325
 20
-11.94419387632264
 30
0.0
 10
44.65720509924137
 20
-11.04597245609057
 30
0.0
 10
41.02862836018305
 20
-9.847826105838982
 30
0.0
 10
37.40005122144913
 20
-8.382326829702173
 30
0.0
 10
33.77147368108564
 20
-6.689266937165796
 30
0.0
 10
30.14289573718414
 20
-4.814546275062974
 30
0.0
 10
26.51431738768168
 20
-2.80931681170889
 30
0.0
 10
22.88573863108889
 20
-0.7270634738560574
 30
0.0
 10
19.25715946377875
 20
1.372116893635902
 30
0.0
 10
15.62857989010311
 20
3.444540766333878
 30
0.0
 10
13.20952666830865
 20
4.737700366725946
 30
0.0
 10
11.99999999999996
 20
5.384280197612573
 30
0.0
  0
LINE
  5
AC
330
1F
100
AcDbEntity
  8
0
  6
Continuous
 62
     1
370
    15
100
AcDbLine
 10
11.99999999999999
 20
-12.65329691240974
 30
0.0
 11
13.88714277847492
 21
-12.65689719233721
 31
0.0
  0
SPLINE
  5
AD
330
1F
100
AcDbEntity
  8
0
  6
Continuous
 62
     1
370
    15
100
AcDbSpline
210
0.0
220
0.0
230
1.0
 70
     8
 71
     3
 72
    17
 73
    13
 74
     0
 42
0.000000001
 43
0.00000001
 40
0.0
 40
0.0
 40
0.0
 40
0.0
 40
0.0150156830875718
 40
0.1308928238379477
 40
0.2467699544155205
 40
0.3626470748720896
 40
0.4785241852594542
 40
0.5944012856294232
 40
0.6958239116567662
 40
0.7972258229640304
 40
0.8986151376225545
 40
1.0
 40
1.0
 40
1.0
 40
1.0
 10
69.58703064371923
 20
10.39804305468244
 30
0.0
 10
69.74376420921207
 20
10.45483350964549
 30
0.0
 10
71.11002233133043
 20
10.94988012016622
 30
0.0
 10
73.6858049998286
 20
11.61575427913192
 30
0.0
 10
77.3143775624876
 20
12.33949439070995
 30
0.0
 10
80.94295288453884
 20
12.70112275741208
 30
0.0
 10
84.5715161304813
 20
12.72529096749569
 30
0.0
 10
88.0492456635541
 20
12.41509120532106
 30
0.0
 10
91.37574168778184
 20
11.83068505959987
 30
0.0
 10
94.55087519366928
 20
11.02307980858409
 30
0.0
 10
97.72553790582248
 20
9.99929628808996
 30
0.0
 10
99.8418614578698
 20
9.145756516825662
 30
0.0
 10
100.8999999999999
 20
8.71899600171354
 30
0.0
  0
SPLINE
  5
AE
330
1F
100
AcDbEntity
  8
0
  6
Continuous
 62
     1
370
    15
100
AcDbSpline
210
0.0
220
0.0
230
1.0
 70
     8
 71
     3
 72
    66
 73
    62
 74
     0
 42
0.000000001
 43
0.00000001
 40
0.0
 40
0.0
 40
0.0
 40
0.0
 40
0.0624999999999946
 40
0.0624999999999946
 40
0.0937499999999929
 40
0.0937499999999929
 40
0.1249999999999912
 40
0.1249999999999912
 40
0.1874999999999898
 40
0.1874999999999898
 40
0.21874999999999
 40
0.21874999999999
 40
0.2499999999999903
 40
0.2499999999999903
 40
0.312499999999991
 40
0.312499999999991
 40
0.3749999999999917
 40
0.3749999999999917
 40
0.406249999999992
 40
0.406249999999992
 40
0.4374999999999923
 40
0.4374999999999923
 40
0.4687499999999926
 40
0.4687499999999926
 40
0.4843749999999925
 40
0.4843749999999925
 40
0.4999999999999925
 40
0.4999999999999925
 40
0.5312499999999923
 40
0.5312499999999923
 40
0.5468749999999923
 40
0.5468749999999923
 40
0.5624999999999925
 40
0.5624999999999925
 40
0.5781249999999926
 40
0.5781249999999926
 40
0.5937499999999927
 40
0.5937499999999927
 40
0.6093749999999928
 40
0.6093749999999928
 40
0.6249999999999928
 40
0.6249999999999928
 40
0.656249999999993
 40
0.656249999999993
 40
0.6718749999999931
 40
0.6718749999999931
 40
0.6874999999999932
 40
0.6874999999999932
 40
0.7187499999999932
 40
0.7187499999999932
 40
0.7499999999999933
 40
0.7499999999999933
 40
0.7812499999999934
 40
0.7812499999999934
 40
0.8124999999999936
 40
0.8124999999999936
 40
0.8749999999999957
 40
0.8749999999999957
 40
0.9374999999999979
 40
0.9374999999999979
 40
1.0
 40
1.0
 40
1.0
 40
1.0
 10
100.8999999999999
 20
8.718996001713542
 30
0.0
 10
101.5451935776614
 20
8.44844666960124
 30
0.0
 10
102.1875589668455
 20
8.146101115450149
 30
0.0
 10
103.1534323459335
 20
7.655972300224526
 30
0.0
 10
103.4759077767218
 20
7.486638810386807
 30
0.0
 10
104.1228342072884
 20
7.137169813494765
 30
0.0
 10
104.4490440986115
 20
6.955927651671587
 30
0.0
 10
105.4156664164982
 20
6.40442373192831
 30
0.0
 10
106.0429895334265
 20
6.02767615811812
 30
0.0
 10
106.9575411493245
 20
5.446158011395884
 30
0.0
 10
107.2580591689239
 20
5.249783251876991
 30
0.0
 10
107.8493210233837
 20
4.849984157978784
 30
0.0
 10
108.1401349472977
 20
4.646405180290066
 30
0.0
 10
108.9788582154694
 20
4.033186303599407
 30
0.0
 10
109.4995438667293
 20
3.61747900116205
 30
0.0
 10
110.4535936091633
 20
2.742020182664973
 30
0.0
 10
110.8886534020619
 20
2.279633683695984
 30
0.0
 10
111.4399504425974
 20
1.543902905056578
 30
0.0
 10
111.6077572247693
 20
1.29074211454338
 30
0.0
 10
111.9083317253206
 20
0.7615050830108894
 30
0.0
 10
112.0416350460222
 20
0.4841981671374721
 30
0.0
 10
112.265624066989
 20
-0.0973446801258391
 30
0.0
 10
112.3552541133946
 20
-0.3982839348446013
 30
0.0
 10
112.4527696451311
 20
-0.8705058520130582
 30
0.0
 10
112.4790952100507
 20
-1.031398264653749
 30
0.0
 10
112.5183599246984
 20
-1.361407140139175
 30
0.0
 10
112.5312260867552
 20
-1.530845958498364
 30
0.0
 10
112.5476068923382
 20
-2.042469140107359
 30
0.0
 10
112.5297027359415
 20
-2.391151926995329
 30
0.0
 10
112.454375740997
 20
-2.929173123687189
 30
0.0
 10
112.4210156032653
 20
-3.110667865451134
 30
0.0
 10
112.339518066979
 20
-3.46784734722735
 30
0.0
 10
112.2912209188223
 20
-3.644897447038485
 30
0.0
 10
112.1794466644379
 20
-3.995934030462524
 30
0.0
 10
112.1159729657701
 20
-4.169921204082858
 30
0.0
 10
111.9731538727352
 20
-4.514699847833541
 30
0.0
 10
111.8941499811803
 20
-4.684303372041208
 30
0.0
 10
111.7254254213734
 20
-5.009465676533289
 30
0.0
 10
111.6351738275402
 20
-5.16634670562379
 30
0.0
 10
111.4430980543049
 20
-5.469061585898849
 30
0.0
 10
111.340610164052
 20
-5.615724449134504
 30
0.0
 10
111.0205335735599
 20
-6.032572370823772
 30
0.0
 10
110.7922325583942
 20
-6.278396288087647
 30
0.0
 10
110.4279477237444
 20
-6.605015191912159
 30
0.0
 10
110.3029427066374
 20
-6.706575946429813
 30
0.0
 10
110.0507483957237
 20
-6.892451015655079
 30
0.0
 10
109.9228956078742
 20
-6.977413057739136
 30
0.0
 10
109.5338240143521
 20
-7.21047506226556
 30
0.0
 10
109.2671205348404
 20
-7.336887089906099
 30
0.0
 10
108.7169745817664
 20
-7.538169004145496
 30
0.0
 10
108.4393281894377
 20
-7.610859905878456
 30
0.0
 10
107.8787590972075
 20
-7.709066704986862
 30
0.0
 10
107.5954032537124
 20
-7.734655796012483
 30
0.0
 10
107.01998130148
 20
-7.744439825423076
 30
0.0
 10
106.7262895345156
 20
-7.728225508939768
 30
0.0
 10
105.844627550576
 20
-7.625549788998874
 30
0.0
 10
105.2536944906309
 20
-7.487483222744365
 30
0.0
 10
104.0461409264661
 20
-7.107309414487689
 30
0.0
 10
103.4250073083885
 20
-6.862094581077324
 30
0.0
 10
102.1762843228905
 20
-6.305322986572501
 30
0.0
 10
101.545145607657
 20
-5.99459719731253
 30
0.0
 10
100.8999999999999
 20
-5.661545552500362
 30
0.0
  0
SPLINE
  5
AF
330
1F
100
AcDbEntity
  8
0
  6
Continuous
 62
     1
370
    15
100
AcDbSpline
210
0.0
220
0.0
230
1.0
 70
     8
 71
     3
 72
    20
 73
    16
 74
     0
 42
0.000000001
 43
0.00000001
 40
0.0
 40
0.0
 40
0.0
 40
0.0
 40
0.0709950205462235
 40
0.1419931588141605
 40
0.213000117919007
 40
0.2840215825618901
 40
0.3651648314522006
 40
0.4463080873572181
 40
0.5274513503132244
 40
0.608594620356491
 40
0.6897378975232877
 40
0.7708811818498799
 40
0.8520244733725246
 40
0.9331677721274771
 40
0.9999999999999999
 40
0.9999999999999999
 40
0.9999999999999999
 40
0.9999999999999999
 10
100.8999999999998
 20
-5.661545552500339
 30
0.0
 10
99.84186145786991
 20
-5.103231044351183
 30
0.0
 10
97.72553790582275
 20
-3.98657750986481
 30
0.0
 10
94.55087519366818
 20
-2.197102327313553
 30
0.0
 10
91.37574168778578
 20
-0.3702320533404874
 30
0.0
 10
88.04924566353856
 20
1.553597818791341
 30
0.0
 10
84.57151613054833
 20
3.528997126689916
 30
0.0
 10
80.94295288428951
 20
5.494299565383462
 30
0.0
 10
77.3143775634178
 20
7.310386703361206
 30
0.0
 10
73.68580499635705
 20
8.928193892414466
 30
0.0
 10
70.05723120721717
 20
10.30289972456958
 30
0.0
 10
66.42865725946196
 20
11.40053971354224
 30
0.0
 10
62.80008286345779
 20
12.17878346020029
 30
0.0
 10
59.38482954655603
 20
12.63478438206648
 30
0.0
 10
57.17910098904599
 20
12.66244137398815
 30
0.0
 10
56.18289738065099
 20
12.67493248267689
 30
0.0
  0
LINE
  5
B0
330
1F
100
AcDbEntity
  8
외형선
  6
Continuous
370
    15
100
AcDbLine
 10
11.99999999999996
 20
1.088153135548117
 30
0.0
 11
11.99999999999996
 21
5.384280197612573
 31
0.0
  0
LINE
  5
B1
330
1F
100
AcDbEntity
  8
외형선
  6
Continuous
370
    15
100
AcDbLine
 10
11.99999999999996
 20
-12.65329691240974
 30
0.0
 11
11.99999999999996
 21
-11.50215313554798
 31
0.0
  0
LINE
  5
B2
330
1F
100
AcDbEntity
  8
외형선
  6
Continuous
370
    15
100
AcDbLine
 10
-48.96000000000004
 20
-0.0000000000000056
 30
0.0
 11
-48.96000000000004
 21
10.795
 31
0.0
  0
LINE
  5
B3
330
1F
100
AcDbEntity
  8
외형선
  6
Continuous
370
    15
100
AcDbLine
 10
-48.96000000000004
 20
-12.7
 30
0.0
 11
-48.96000000000004
 21
-0.0000000000000056
 31
0.0
  0
LINE
  5
B4
330
1F
100
AcDbEntity
  8
외형선
  6
Continuous
370
    15
100
AcDbLine
 10
11.99999999999996
 20
-0.0000000000000056
 30
0.0
 11
11.99999999999996
 21
12.69999999999999
 31
0.0
  0
LINE
  5
B5
330
1F
100
AcDbEntity
  8
외형선
  6
Continuous
370
    15
100
AcDbLine
 10
11.99999999999996
 20
-12.7
 30
0.0
 11
11.99999999999996
 21
-0.0000000000000056
 31
0.0
  0
LINE
  5
B6
330
1F
100
AcDbEntity
  8
외형선
  6
Continuous
370
    15
100
AcDbLine
 10
-51.50000000000004
 20
-0.0000000000000056
 30
0.0
 11
-51.50000000000004
 21
10.16
 31
0.0
  0
LINE
  5
B7
330
1F
100
AcDbEntity
  8
외형선
  6
Continuous
370
    15
100
AcDbLine
 10
-51.50000000000004
 20
-10.16000000000001
 30
0.0
 11
-51.50000000000004
 21
-0.0000000000000056
 31
0.0
  0
LINE
  5
B8
330
1F
100
AcDbEntity
  8
중심선
100
AcDbLine
 10
-54.50000000000006
 20
-0.0000000000000056
 30
0.0
 11
116.6
 21
0.0000000000000119
 31
0.0
  0
LINE
  5
B9
330
1F
100
AcDbEntity
  8
참조1
100
AcDbLine
 10
130.7367613140311
 20
0.0010749287238892
 30
0.0
 11
130.7367613140311
 21
1.655200094750598
 31
0.0
  0
LINE
  5
BA
330
1F
100
AcDbEntity
  8
참조1
100
AcDbLine
 10
48.18676131403117
 20
0.0010749287238892
 30
0.0
 11
48.18676131403118
 21
-39.99892507127611
 31
0.0
  0
LINE
  5
BB
330
1F
100
AcDbEntity
  8
참조1
100
AcDbLine
 10
48.18676131403118
 20
-39.99892507127611
 30
0.0
 11
-20.1533455002775
 21
-39.9989250712761
 31
0.0
  0
CIRCLE
  5
BC
330
1F
100
AcDbEntity
  8
해칭선
100
AcDbCircle
 10
0.0
 20
0.0
 30
0.0
 40
3.000000000000002
  0
INSERT
  5
BD
330
1F
100
AcDbEntity
  8
0
  6
Continuous
 62
     7
100
AcDbBlockReference
 66
     1
  2
블럭10
 10
17.10972706787474
 20
-52.04717430164393
 30
0.0
  0
ATTRIB
  5
BE
330
BD
100
AcDbEntity
  8
FORMAT
 62
     2
100
AcDbText
 10
7.928431779133462
 20
-49.97180738881175
 30
0.0
 40
4.233333333333333
  1
E2021064 [ 4 FLUTE ]
 41
0.75
  7
SLDTEXTSTYLE0
 11
7.928431779133462
 21
-52.08847405547841
 31
0.0
100
AcDbAttribute
  2
AUTOATTR0
 70
     0
 74
     1
  0
SEQEND
  5
BF
330
BD
100
AcDbEntity
  8
0
  6
Continuous
 62
     7
  0
HATCH
  5
C0
330
1F
100
AcDbEntity
  8
중심선
100
AcDbHatch
 10
0.0
 20
0.0
 30
0.0
210
0.0
220
0.0
230
1.0
  2
SOLID
 70
     1
 71
     0
 91
        1
 92
        0
 93
        4
 72
     1
 10
22.82463637225556
 20
-35.8
 11
19.37836112841827
 21
-35.8
 72
     1
 10
19.37836112841827
 20
-35.8
 11
17.25013126921428
 21
-38.3363255805726
 72
     1
 10
17.25013126921428
 20
-38.33632558057261
 11
20.69643959816463
 21
-38.33628615127012
 72
     1
 10
20.69643959816463
 20
-38.33628615127012
 11
22.82463637225556
 21
-35.8
 97
        0
 75
     0
 76
     1
 98
        1
 10
-17.13676131403123
 20
-0.0010749287238987
  0
HATCH
  5
C1
330
1F
100
AcDbEntity
  8
중심선
100
AcDbHatch
 10
0.0
 20
0.0
 30
0.0
210
0.0
220
0.0
230
1.0
  2
SOLID
 70
     1
 71
     0
 91
        1
 92
        0
 93
        4
 72
     1
 10
27.83740036329156
 20
-35.79999999999998
 11
24.39112511945423
 21
-35.8
 72
     1
 10
24.39112511945423
 20
-35.8
 11
19.85998711109687
 21
-41.20000000000002
 72
     1
 10
19.85998711109687
 20
-41.20000000000002
 11
23.30626235493415
 21
-41.20000000000002
 72
     1
 10
23.30626235493415
 20
-41.20000000000002
 11
27.83740036329156
 21
-35.79999999999998
 97
        0
 75
     0
 76
     1
 98
        1
 10
-17.13676131403123
 20
-0.0010749287238987
  0
HATCH
  5
C2
330
1F
100
AcDbEntity
  8
중심선
100
AcDbHatch
 10
0.0
 20
0.0
 30
0.0
210
0.0
220
0.0
230
1.0
  2
SOLID
 70
     1
 71
     0
 91
        1
 92
        0
 93
        4
 72
     1
 10
32.85016435432746
 20
-35.79999999999998
 11
29.40388911049029
 21
-35.79999999999998
 72
     1
 10
29.40388911049029
 20
-35.79999999999998
 11
22.35545220860107
 21
-44.20000000000002
 72
     1
 10
22.35545220860107
 20
-44.20000000000002
 11
25.80172745243835
 21
-44.20000000000002
 72
     1
 10
25.80172745243835
 20
-44.20000000000002
 11
32.85016435432746
 21
-35.79999999999998
 97
        0
 75
     0
 76
     1
 98
        1
 10
-17.13676131403123
 20
-0.0010749287238987
  0
HATCH
  5
C3
330
1F
100
AcDbEntity
  8
중심선
100
AcDbHatch
 10
0.0
 20
0.0
 30
0.0
210
0.0
220
0.0
230
1.0
  2
SOLID
 70
     1
 71
     0
 91
        1
 92
        0
 93
        6
 72
     3
 10
37.65005478533961
 20
-40.00000000005127
 11
3.960054785062283
 21
1.540882976769353E-10
 40
0.3939339440162628
 50
17.09539180608432
 51
320.0019657685085
 73
     0
 72
     1
 10
39.33305444104023
 20
-38.5878940046383
 11
41.63835631474127
 21
-36.65356729459038
 72
     3
 10
37.65005478528676
 20
-40.00000000000016
 11
6.600054785286829
 21
-1.278976924368180E-13
 40
0.636358354079598
 50
39.99873849337392
 51
368.4976242363725
 73
     1
 72
     1
 10
44.07538727718739
 20
-39.03999999993003
 11
36.33012209212265
 21
-39.03999999993003
 72
     1
 10
36.33012209212265
 20
-39.03999999993003
 11
36.33009704767674
 21
-40.95999999992992
 72
     1
 10
36.33009704767674
 20
-40.95999999992992
 11
40.77147681714881
 21
-40.95999999992989
 97
        0
 75
     0
 76
     1
 98
        1
 10
-17.13676131403123
 20
-0.0010749287238987
  0
DIMENSION
  5
C4
330
1F
100
AcDbEntity
  8
치수문자_일반주서
100
AcDbDimension
  2
_D
 10
11.99999999999994
 20
23.28300249164677
 30
0.0
 11
78.12745754462998
 21
23.28300249164677
 31
0.0
 70
   160
  1
<>
 71
     2
 42
101.5999999999999
  3
SLDDIMSTYLE1
100
AcDbAlignedDimension
 13
113.5999999999999
 23
12.70000000000001
 33
0.0
 14
11.99999999999994
 24
12.65329691240973
 34
0.0
 50
0.000000000000004
100
AcDbRotatedDimension
1001
ACAD
1000
DSTYLE
1002
{
1070
   171
1070
     6
1070
   273
1070
     7
1002
}
  0
DIMENSION
  5
D9
330
1F
100
AcDbEntity
  8
치수문자_일반주서
100
AcDbDimension
  2
_D_1
 10
-51.50000000000007
 20
31.6091467932808
 30
0.0
 11
31.04999999999993
 21
31.6091467932808
 31
0.0
 70
   160
  1
<>
 71
     2
 42
165.0999999999999
  3
SLDDIMSTYLE1
100
AcDbAlignedDimension
 13
113.5999999999999
 23
12.70000000000001
 33
0.0
 14
-51.50000000000006
 24
10.16
 34
0.0
 50
0.0000000000000025
100
AcDbRotatedDimension
1001
ACAD
1000
DSTYLE
1002
{
1070
   171
1070
     6
1070
   273
1070
     7
1002
}
  0
DIMENSION
  5
EC
330
1F
100
AcDbEntity
  8
치수문자_일반주서
100
AcDbDimension
  2
_D_2
 10
-62.91250000000002
 20
-12.70000000000005
 30
0.0
 11
-62.91250000000007
 21
-0.0000000000000151
 31
0.0
 70
   160
  1
%%c<>
 71
     2
 42
25.39999999999998
 52
-270.0
  3
SLDDIMSTYLE1
100
AcDbAlignedDimension
 13
-51.50000000000006
 23
12.69999999999997
 33
0.0
 14
-48.96000000000006
 24
-12.69999999999999
 34
0.0
 50
90.0000000000002
100
AcDbRotatedDimension
1001
ACAD
1000
DSTYLE
1002
{
1070
   171
1070
     6
1070
   273
1070
     7
1002
}
  0
DIMENSION
  5
101
330
1F
100
AcDbEntity
  8
치수문자_일반주서
100
AcDbDimension
  2
_D_3
 10
122.6992558506513
 20
-12.69999999999995
 30
0.0
 11
122.6992558506511
 21
33.36650000000003
 31
0.0
 70
   160
  1
%%c<>
 71
     2
 42
25.39999999999999
 52
-270.0
  3
SLDDIMSTYLE1
100
AcDbAlignedDimension
 13
113.5999999999999
 23
12.70000000000001
 33
0.0
 14
113.5999999999999
 24
-12.69999999999998
 34
0.0
 50
90.0000000000002
100
AcDbRotatedDimension
1001
ACAD
1000
DSTYLE
1002
{
1070
   171
1070
     6
1070
   273
1070
     7
1002
}
  0
LINE
  5
114
330
1F
100
AcDbEntity
  8
참조1
100
AcDbLine
 10
77.81899512937676
 20
7.441074928723896
 30
0.0
 11
77.81899512937676
 21
-7.438925071276109
 31
0.0
  0
LINE
  5
115
330
1F
100
AcDbEntity
  8
참조1
100
AcDbLine
 10
90.51899512937676
 20
5.441074928723896
 30
0.0
 11
77.81899512937676
 21
5.441074928723896
 31
0.0
  0
SOLID
  5
116
330
1F
100
AcDbEntity
  8
참조1
100
AcDbTrace
 10
77.81899512937676
 20
5.441074928723896
 30
0.0
 11
84.16899512937675
 21
4.425074928723896
 31
0.0
 12
84.16899512937675
 22
6.457074928723896
 32
0.0
 13
84.16899512937675
 23
6.457074928723896
 33
0.0
  0
LINE
  5
117
330
1F
100
AcDbEntity
  8
참조1
100
AcDbLine
 10
90.51899512937676
 20
-5.438925071276109
 30
0.0
 11
77.81899512937676
 21
-5.438925071276109
 31
0.0
  0
SOLID
  5
118
330
1F
100
AcDbEntity
  8
참조1
100
AcDbTrace
 10
77.81899512937676
 20
-5.438925071276109
 30
0.0
 11
84.16899512937675
 21
-6.454925071276109
 31
0.0
 12
84.16899512937675
 22
-4.422925071276109
 32
0.0
 13
84.16899512937675
 23
-4.422925071276109
 33
0.0
  0
MTEXT
  5
119
330
1F
100
AcDbEntity
  8
참조1
100
AcDbMText
 10
87.21648522184704
 20
10.98929157337383
 30
0.0
 40
3.5
 41
0.0
 71
     1
 72
     1
  1
A
  7
SLDTEXTSTYLE0
 73
     1
 44
1.0
  0
MTEXT
  5
11A
330
1F
100
AcDbEntity
  8
참조1
100
AcDbMText
 10
87.21648522184704
 20
0.1092915733738259
 30
0.0
 40
3.5
 41
0.0
 71
     1
 72
     1
  1
A
  7
SLDTEXTSTYLE0
 73
     1
 44
1.0
  0
INSERT
  5
121
330
1F
100
AcDbEntity
  8
해칭선
100
AcDbBlockReference
  2
SW_DOWELSYMBOL_0
 10
0.0
 20
0.0
 30
0.0
  0
LINE
  5
1DE
330
1F
100
AcDbEntity
  8
외형선
  6
Continuous
370
    15
100
AcDbLine
 10
-29.08132499999995
 20
10.795
 30
0.0
 11
-15.97492500000006
 21
10.795
 31
0.0
  0
LINE
  5
1DF
330
1F
100
AcDbEntity
  8
외형선
  6
Continuous
370
    15
100
AcDbLine
 10
-29.08132499999995
 20
10.79500000000001
 30
0.0
 11
-30.98632499999993
 21
12.7
 31
0.0
  0
LINE
  5
1E0
330
1F
100
AcDbEntity
  8
외형선
  6
Continuous
370
    15
100
AcDbLine
 10
-15.97492500000006
 20
10.79500000000001
 30
0.0
 11
-14.06992500000003
 21
12.7
 31
0.0
  0
LINE
  5
1E2
330
1F
100
AcDbEntity
  8
외형선
  6
Continuous
370
    15
100
AcDbLine
 10
-50.86500000000005
 20
10.795
 30
0.0
 11
-38.80000000000003
 21
10.795
 31
0.0
  0
LINE
  5
1E3
330
1F
100
AcDbEntity
  8
외형선
  6
Continuous
370
    15
100
AcDbLine
 10
-38.80000000000003
 20
10.79500000000001
 30
0.0
 11
-36.89500000000005
 21
12.69999999999999
 31
0.0
  0
LINE
  5
1E4
330
1F
100
AcDbEntity
  8
외형선
  6
Continuous
370
    15
100
AcDbLine
 10
-30.9863249999999
 20
12.69999999999999
 30
0.0
 11
-36.89500000000005
 21
12.69999999999999
 31
0.0
  0
ENDSEC
  0
SECTION
  2
OBJECTS
  0
DICTIONARY
  5
C
330
0
100
AcDbDictionary
281
     1
  3
ACAD_GROUP
350
D
  3
ACAD_IMAGE_VARS
350
145
  3
ACAD_LAYOUT
350
1A
  3
ACAD_MLINESTYLE
350
17
  3
ACAD_PLOTSETTINGS
350
19
  3
ACAD_PLOTSTYLENAME
350
E
  3
ACAD_SCALELIST
350
47
  3
APPDATA
350
143
  3
DWGPROPS
350
1E7
  0
DICTIONARY
  5
173
330
2
100
AcDbDictionary
280
     1
281
     1
  3
ACAD_LAYERSTATES
360
174
  0
DICTIONARY
  5
D
102
{ACAD_REACTORS
330
C
102
}
330
C
100
AcDbDictionary
281
     1
  0
RASTERVARIABLES
  5
145
102
{ACAD_REACTORS
330
C
102
}
330
C
100
AcDbRasterVariables
 90
        0
 70
     1
 71
     1
 72
     1
  0
DICTIONARY
  5
1A
102
{ACAD_REACTORS
330
C
102
}
330
C
100
AcDbDictionary
281
     1
  3
Layout1
350
1E
  3
Layout2
350
26
  3
Model
350
22
  0
DICTIONARY
  5
17
102
{ACAD_REACTORS
330
C
102
}
330
C
100
AcDbDictionary
281
     1
  3
Standard
350
18
  0
DICTIONARY
  5
19
102
{ACAD_REACTORS
330
C
102
}
330
C
100
AcDbDictionary
281
     1
  0
ACDBDICTIONARYWDFLT
  5
E
102
{ACAD_REACTORS
330
C
102
}
330
C
100
AcDbDictionary
281
     1
  3
Normal
350
F
100
AcDbDictionaryWithDefault
340
F
  0
DICTIONARY
  5
47
102
{ACAD_REACTORS
330
C
102
}
330
C
100
AcDbDictionary
281
     1
  3
A0
350
48
  3
A1
350
49
  3
A2
350
4A
  3
A3
350
4B
  3
A4
350
4C
  3
A5
350
4D
  3
A6
350
4E
  3
A7
350
4F
  3
A8
350
50
  3
A9
350
51
  3
B0
350
52
  3
B1
350
53
  3
B2
350
54
  3
B3
350
55
  3
B4
350
56
  3
B5
350
57
  3
B6
350
58
  3
B7
350
59
  3
B8
350
5A
  3
B9
350
5B
  3
C0
350
5C
  3
C1
350
5D
  3
C2
350
5E
  3
C3
350
5F
  3
C4
350
60
  3
C5
350
61
  3
C6
350
62
  3
C7
350
63
  3
C8
350
64
  3
C9
350
65
  3
D0
350
66
  3
D1
350
67
  3
D2
350
68
  0
DICTIONARY
  5
143
102
{ACAD_REACTORS
330
C
102
}
330
C
100
AcDbDictionary
281
     1
  0
XRECORD
  5
1E7
102
{ACAD_REACTORS
330
C
102
}
330
C
100
AcDbXrecord
280
     1
  1
DWGPROPS COOKIE
  2

  3

  4

  6

  7

  8
12017012
  9

300
=
301
=
302
=
303
=
304
=
305
=
306
=
307
=
308
=
309
=
 40
0.0
 41
2458323.304977407
 42
2458324.059215949
  1

 90
        0
  0
DICTIONARY
  5
174
102
{ACAD_REACTORS
330
173
102
}
330
173
100
AcDbDictionary
281
     1
  0
LAYOUT
  5
1E
102
{ACAD_REACTORS
330
1A
102
}
330
1A
100
AcDbPlotSettings
  1

  2
none_device
  4

  6

 40
0.0
 41
0.0
 42
0.0
 43
0.0
 44
0.0
 45
0.0
 46
0.0
 47
0.0
 48
0.0
 49
0.0
140
0.0
141
0.0
142
1.0
143
1.0
 70
   688
 72
     1
 73
     0
 74
     5
  7

 75
    16
147
1.0
148
0.0
149
0.0
100
AcDbLayout
  1
Layout1
 70
     1
 71
     1
 10
0.0
 20
0.0
 11
420.0
 21
297.0
 12
0.0
 22
0.0
 32
0.0
 14
1.000000000000000E+20
 24
1.000000000000000E+20
 34
1.000000000000000E+20
 15
-1.000000000000000E+20
 25
-1.000000000000000E+20
 35
-1.000000000000000E+20
146
0.0
 13
0.0
 23
0.0
 33
0.0
 16
1.0
 26
0.0
 36
0.0
 17
0.0
 27
1.0
 37
0.0
 76
     0
330
1B
  0
LAYOUT
  5
26
102
{ACAD_REACTORS
330
1A
102
}
330
1A
100
AcDbPlotSettings
  1

  2
none_device
  4

  6

 40
0.0
 41
0.0
 42
0.0
 43
0.0
 44
0.0
 45
0.0
 46
0.0
 47
0.0
 48
0.0
 49
0.0
140
0.0
141
0.0
142
1.0
143
1.0
 70
   688
 72
     1
 73
     0
 74
     5
  7

 75
    16
147
1.0
148
0.0
149
0.0
100
AcDbLayout
  1
Layout2
 70
     1
 71
     2
 10
0.0
 20
0.0
 11
0.0
 21
0.0
 12
0.0
 22
0.0
 32
0.0
 14
0.0
 24
0.0
 34
0.0
 15
0.0
 25
0.0
 35
0.0
146
0.0
 13
0.0
 23
0.0
 33
0.0
 16
1.0
 26
0.0
 36
0.0
 17
0.0
 27
1.0
 37
0.0
 76
     0
330
23
  0
LAYOUT
  5
22
102
{ACAD_REACTORS
330
1A
102
}
330
1A
100
AcDbPlotSettings
  1

  2
none_device
  4
ANSI_A_(11.00_x_8.50_Inches)
  6

 40
6.35
 41
19.05
 42
6.35000508
 43
19.05000254
 44
279.4
 45
215.9
 46
76.50372387063159
 47
43.17679658125455
 48
0.0
 49
0.0
140
0.0
141
0.0
142
0.0474689590334287
143
1.0
 70
  1696
 72
     0
 73
     0
 74
     0
  7

 75
     0
147
0.0235690232323232
148
0.0
149
0.0
100
AcDbLayout
  1
Model
 70
     1
 71
     0
 10
0.0
 20
0.0
 11
420.0
 21
297.0
 12
0.0
 22
0.0
 32
0.0
 14
1.000000000000000E+20
 24
1.000000000000000E+20
 34
1.000000000000000E+20
 15
-1.000000000000000E+20
 25
-1.000000000000000E+20
 35
-1.000000000000000E+20
146
0.0
 13
0.0
 23
0.0
 33
0.0
 16
1.0
 26
0.0
 36
0.0
 17
0.0
 27
1.0
 37
0.0
 76
     0
330
1F
331
29
  0
MLINESTYLE
  5
18
102
{ACAD_REACTORS
330
17
102
}
330
17
100
AcDbMlineStyle
  2
Standard
 70
     0
  3

 62
   256
 51
90.0
 52
90.0
 71
     2
 49
0.5
 62
   256
  6
BYLAYER
 49
-0.5
 62
   256
  6
BYLAYER
  0
ACDBPLACEHOLDER
  5
F
102
{ACAD_REACTORS
330
E
102
}
330
E
  0
SCALE
  5
48
102
{ACAD_REACTORS
330
47
102
}
330
47
100
AcDbScale
 70
     0
300
1:1
140
1.0
141
1.0
290
     1
  0
SCALE
  5
49
102
{ACAD_REACTORS
330
47
102
}
330
47
100
AcDbScale
 70
     0
300
1:2
140
1.0
141
2.0
290
     0
  0
SCALE
  5
4A
102
{ACAD_REACTORS
330
47
102
}
330
47
100
AcDbScale
 70
     0
300
1:4
140
1.0
141
4.0
290
     0
  0
SCALE
  5
4B
102
{ACAD_REACTORS
330
47
102
}
330
47
100
AcDbScale
 70
     0
300
1:5
140
1.0
141
5.0
290
     0
  0
SCALE
  5
4C
102
{ACAD_REACTORS
330
47
102
}
330
47
100
AcDbScale
 70
     0
300
1:8
140
1.0
141
8.0
290
     0
  0
SCALE
  5
4D
102
{ACAD_REACTORS
330
47
102
}
330
47
100
AcDbScale
 70
     0
300
1:10
140
1.0
141
10.0
290
     0
  0
SCALE
  5
4E
102
{ACAD_REACTORS
330
47
102
}
330
47
100
AcDbScale
 70
     0
300
1:16
140
1.0
141
16.0
290
     0
  0
SCALE
  5
4F
102
{ACAD_REACTORS
330
47
102
}
330
47
100
AcDbScale
 70
     0
300
1:20
140
1.0
141
20.0
290
     0
  0
SCALE
  5
50
102
{ACAD_REACTORS
330
47
102
}
330
47
100
AcDbScale
 70
     0
300
1:30
140
1.0
141
30.0
290
     0
  0
SCALE
  5
51
102
{ACAD_REACTORS
330
47
102
}
330
47
100
AcDbScale
 70
     0
300
1:40
140
1.0
141
40.0
290
     0
  0
SCALE
  5
52
102
{ACAD_REACTORS
330
47
102
}
330
47
100
AcDbScale
 70
     0
300
1:50
140
1.0
141
50.0
290
     0
  0
SCALE
  5
53
102
{ACAD_REACTORS
330
47
102
}
330
47
100
AcDbScale
 70
     0
300
1:100
140
1.0
141
100.0
290
     0
  0
SCALE
  5
54
102
{ACAD_REACTORS
330
47
102
}
330
47
100
AcDbScale
 70
     0
300
2:1
140
2.0
141
1.0
290
     0
  0
SCALE
  5
55
102
{ACAD_REACTORS
330
47
102
}
330
47
100
AcDbScale
 70
     0
300
4:1
140
4.0
141
1.0
290
     0
  0
SCALE
  5
56
102
{ACAD_REACTORS
330
47
102
}
330
47
100
AcDbScale
 70
     0
300
8:1
140
8.0
141
1.0
290
     0
  0
SCALE
  5
57
102
{ACAD_REACTORS
330
47
102
}
330
47
100
AcDbScale
 70
     0
300
10:1
140
10.0
141
1.0
290
     0
  0
SCALE
  5
58
102
{ACAD_REACTORS
330
47
102
}
330
47
100
AcDbScale
 70
     0
300
100:1
140
100.0
141
1.0
290
     0
  0
SCALE
  5
59
102
{ACAD_REACTORS
330
47
102
}
330
47
100
AcDbScale
 70
     0
300
1/128" = 1'-0"
140
0.0078125
141
12.0
290
     0
  0
SCALE
  5
5A
102
{ACAD_REACTORS
330
47
102
}
330
47
100
AcDbScale
 70
     0
300
1/64" = 1'-0"
140
0.015625
141
12.0
290
     0
  0
SCALE
  5
5B
102
{ACAD_REACTORS
330
47
102
}
330
47
100
AcDbScale
 70
     0
300
1/32" = 1'-0"
140
0.03125
141
12.0
290
     0
  0
SCALE
  5
5C
102
{ACAD_REACTORS
330
47
102
}
330
47
100
AcDbScale
 70
     0
300
1/16" = 1'-0"
140
0.0625
141
12.0
290
     0
  0
SCALE
  5
5D
102
{ACAD_REACTORS
330
47
102
}
330
47
100
AcDbScale
 70
     0
300
3/32" = 1'-0"
140
0.09375
141
12.0
290
     0
  0
SCALE
  5
5E
102
{ACAD_REACTORS
330
47
102
}
330
47
100
AcDbScale
 70
     0
300
1/8" = 1'-0"
140
0.125
141
12.0
290
     0
  0
SCALE
  5
5F
102
{ACAD_REACTORS
330
47
102
}
330
47
100
AcDbScale
 70
     0
300
3/16" = 1'-0"
140
0.1875
141
12.0
290
     0
  0
SCALE
  5
60
102
{ACAD_REACTORS
330
47
102
}
330
47
100
AcDbScale
 70
     0
300
1/4" = 1'-0"
140
0.25
141
12.0
290
     0
  0
SCALE
  5
61
102
{ACAD_REACTORS
330
47
102
}
330
47
100
AcDbScale
 70
     0
300
3/8" = 1'-0"
140
0.375
141
12.0
290
     0
  0
SCALE
  5
62
102
{ACAD_REACTORS
330
47
102
}
330
47
100
AcDbScale
 70
     0
300
1/2" = 1'-0"
140
0.5
141
12.0
290
     0
  0
SCALE
  5
63
102
{ACAD_REACTORS
330
47
102
}
330
47
100
AcDbScale
 70
     0
300
3/4" = 1'-0"
140
0.75
141
12.0
290
     0
  0
SCALE
  5
64
102
{ACAD_REACTORS
330
47
102
}
330
47
100
AcDbScale
 70
     0
300
1" = 1'-0"
140
1.0
141
12.0
290
     0
  0
SCALE
  5
65
102
{ACAD_REACTORS
330
47
102
}
330
47
100
AcDbScale
 70
     0
300
1-1/2" = 1'-0"
140
1.5
141
12.0
290
     0
  0
SCALE
  5
66
102
{ACAD_REACTORS
330
47
102
}
330
47
100
AcDbScale
 70
     0
300
3" = 1'-0"
140
3.0
141
12.0
290
     0
  0
SCALE
  5
67
102
{ACAD_REACTORS
330
47
102
}
330
47
100
AcDbScale
 70
     0
300
6" = 1'-0"
140
6.0
141
12.0
290
     0
  0
SCALE
  5
68
102
{ACAD_REACTORS
330
47
102
}
330
47
100
AcDbScale
 70
     0
300
1'-0" = 1'-0"
140
12.0
141
12.0
290
     0
  0
ENDSEC
  0
EOF
