  0
SECTION
  2
HEADER
  9
$ACADVER
  1
AC1015
  9
$ACADMAINTVER
 70
     6
  9
$DWGCODEPAGE
  3
ANSI_949
  9
$INSBASE
 10
0.0
 20
0.0
 30
0.0
  9
$EXTMIN
 10
-51.3815270072384
 20
-49.97073246008785
 30
0.0
  9
$EXTMAX
 10
83.11575108711631
 20
38.17393103437242
 30
0.0
  9
$LIMMIN
 10
0.0
 20
0.0
  9
$LIMMAX
 10
420.0
 20
297.0
  9
$ORTHOMODE
 70
     1
  9
$REGENMODE
 70
     1
  9
$FILLMODE
 70
     1
  9
$QTEXTMODE
 70
     0
  9
$MIRRTEXT
 70
     1
  9
$LTSCALE
 40
1.0
  9
$ATTMODE
 70
     1
  9
$TEXTSIZE
 40
3.5
  9
$TRACEWID
 40
1.0
  9
$TEXTSTYLE
  7
Standard
  9
$CLAYER
  8
0
  9
$CELTYPE
  6
ByLayer
  9
$CECOLOR
 62
   256
  9
$CELTSCALE
 40
1.0
  9
$DISPSILH
 70
     0
  9
$DIMSCALE
 40
1.0
  9
$DIMASZ
 40
3.302
  9
$DIMEXO
 40
1.0
  9
$DIMDLI
 40
3.75
  9
$DIMRND
 40
0.0
  9
$DIMDLE
 40
0.0
  9
$DIMEXE
 40
1.0
  9
$DIMTP
 40
0.0
  9
$DIMTM
 40
0.0
  9
$DIMTXT
 40
3.5
  9
$DIMCEN
 40
2.5
  9
$DIMTSZ
 40
0.0
  9
$DIMTOL
 70
     0
  9
$DIMLIM
 70
     0
  9
$DIMTIH
 70
     1
  9
$DIMTOH
 70
     1
  9
$DIMSE1
 70
     0
  9
$DIMSE2
 70
     0
  9
$DIMTAD
 70
     1
  9
$DIMZIN
 70
     0
  9
$DIMBLK
  1

  9
$DIMASO
 70
     1
  9
$DIMSHO
 70
     1
  9
$DIMPOST
  1

  9
$DIMAPOST
  1

  9
$DIMALT
 70
     0
  9
$DIMALTD
 70
     3
  9
$DIMALTF
 40
0.0393700787401575
  9
$DIMLFAC
 40
1.0
  9
$DIMTOFL
 70
     1
  9
$DIMTVP
 40
0.0
  9
$DIMTIX
 70
     0
  9
$DIMSOXD
 70
     0
  9
$DIMSAH
 70
     0
  9
$DIMBLK1
  1

  9
$DIMBLK2
  1

  9
$DIMSTYLE
  2
ISO-25
  9
$DIMCLRD
 70
     0
  9
$DIMCLRE
 70
     0
  9
$DIMCLRT
 70
     0
  9
$DIMTFAC
 40
1.0
  9
$DIMGAP
 40
1.524
  9
$DIMJUST
 70
     0
  9
$DIMSD1
 70
     0
  9
$DIMSD2
 70
     0
  9
$DIMTOLJ
 70
     0
  9
$DIMTZIN
 70
     0
  9
$DIMALTZ
 70
     0
  9
$DIMALTTZ
 70
     0
  9
$DIMUPT
 70
     0
  9
$DIMDEC
 70
     2
  9
$DIMTDEC
 70
     2
  9
$DIMALTU
 70
     2
  9
$DIMALTTD
 70
     3
  9
$DIMTXSTY
  7
Standard
  9
$DIMAUNIT
 70
     0
  9
$DIMADEC
 70
     2
  9
$DIMALTRND
 40
0.0
  9
$DIMAZIN
 70
     0
  9
$DIMDSEP
 70
    44
  9
$DIMATFIT
 70
     3
  9
$DIMFRAC
 70
     0
  9
$DIMLDRBLK
  1

  9
$DIMLUNIT
 70
     2
  9
$DIMLWD
 70
    -2
  9
$DIMLWE
 70
    -2
  9
$DIMTMOVE
 70
     0
  9
$LUNITS
 70
     2
  9
$LUPREC
 70
     2
  9
$SKETCHINC
 40
1.0
  9
$FILLETRAD
 40
10.0
  9
$AUNITS
 70
     0
  9
$AUPREC
 70
     2
  9
$MENU
  1
.
  9
$ELEVATION
 40
0.0
  9
$PELEVATION
 40
0.0
  9
$THICKNESS
 40
0.0
  9
$LIMCHECK
 70
     0
  9
$CHAMFERA
 40
0.0
  9
$CHAMFERB
 40
0.0
  9
$CHAMFERC
 40
0.0
  9
$CHAMFERD
 40
0.0
  9
$SKPOLY
 70
     0
  9
$TDCREATE
 40
2458311.457119456
  9
$TDUCREATE
 40
2458311.082119456
  9
$TDUPDATE
 40
2458323.451441342
  9
$TDUUPDATE
 40
2458323.076441342
  9
$TDINDWG
 40
0.0012754282
  9
$TDUSRTIMER
 40
2458323.076403391
  9
$USRTIMER
 70
     1
  9
$ANGBASE
 50
0.0
  9
$ANGDIR
 70
     0
  9
$PDMODE
 70
     0
  9
$PDSIZE
 40
-1.0
  9
$PLINEWID
 40
0.0
  9
$SPLFRAME
 70
     0
  9
$SPLINETYPE
 70
     6
  9
$SPLINESEGS
 70
     8
  9
$HANDSEED
  5
21B
  9
$SURFTAB1
 70
     6
  9
$SURFTAB2
 70
     6
  9
$SURFTYPE
 70
     6
  9
$SURFU
 70
     6
  9
$SURFV
 70
     6
  9
$UCSBASE
  2

  9
$UCSNAME
  2

  9
$UCSORG
 10
0.0
 20
0.0
 30
0.0
  9
$UCSXDIR
 10
1.0
 20
0.0
 30
0.0
  9
$UCSYDIR
 10
0.0
 20
1.0
 30
0.0
  9
$UCSORTHOREF
  2

  9
$UCSORTHOVIEW
 70
     0
  9
$UCSORGTOP
 10
0.0
 20
0.0
 30
0.0
  9
$UCSORGBOTTOM
 10
0.0
 20
0.0
 30
0.0
  9
$UCSORGLEFT
 10
0.0
 20
0.0
 30
0.0
  9
$UCSORGRIGHT
 10
0.0
 20
0.0
 30
0.0
  9
$UCSORGFRONT
 10
0.0
 20
0.0
 30
0.0
  9
$UCSORGBACK
 10
0.0
 20
0.0
 30
0.0
  9
$PUCSBASE
  2

  9
$PUCSNAME
  2

  9
$PUCSORG
 10
0.0
 20
0.0
 30
0.0
  9
$PUCSXDIR
 10
1.0
 20
0.0
 30
0.0
  9
$PUCSYDIR
 10
0.0
 20
1.0
 30
0.0
  9
$PUCSORTHOREF
  2

  9
$PUCSORTHOVIEW
 70
     0
  9
$PUCSORGTOP
 10
0.0
 20
0.0
 30
0.0
  9
$PUCSORGBOTTOM
 10
0.0
 20
0.0
 30
0.0
  9
$PUCSORGLEFT
 10
0.0
 20
0.0
 30
0.0
  9
$PUCSORGRIGHT
 10
0.0
 20
0.0
 30
0.0
  9
$PUCSORGFRONT
 10
0.0
 20
0.0
 30
0.0
  9
$PUCSORGBACK
 10
0.0
 20
0.0
 30
0.0
  9
$USERI1
 70
     0
  9
$USERI2
 70
     0
  9
$USERI3
 70
     0
  9
$USERI4
 70
     0
  9
$USERI5
 70
     0
  9
$USERR1
 40
0.0
  9
$USERR2
 40
0.0
  9
$USERR3
 40
0.0
  9
$USERR4
 40
0.0
  9
$USERR5
 40
0.0
  9
$WORLDVIEW
 70
     1
  9
$SHADEDGE
 70
     3
  9
$SHADEDIF
 70
    70
  9
$TILEMODE
 70
     1
  9
$MAXACTVP
 70
    64
  9
$PINSBASE
 10
0.0
 20
0.0
 30
0.0
  9
$PLIMCHECK
 70
     0
  9
$PEXTMIN
 10
1.000000000000000E+20
 20
1.000000000000000E+20
 30
1.000000000000000E+20
  9
$PEXTMAX
 10
-1.000000000000000E+20
 20
-1.000000000000000E+20
 30
-1.000000000000000E+20
  9
$PLIMMIN
 10
0.0
 20
0.0
  9
$PLIMMAX
 10
0.0
 20
0.0
  9
$UNITMODE
 70
     0
  9
$VISRETAIN
 70
     1
  9
$PLINEGEN
 70
     0
  9
$PSLTSCALE
 70
     1
  9
$TREEDEPTH
 70
  3020
  9
$CMLSTYLE
  2
Standard
  9
$CMLJUST
 70
     0
  9
$CMLSCALE
 40
20.0
  9
$PROXYGRAPHICS
 70
     1
  9
$MEASUREMENT
 70
     1
  9
$CELWEIGHT
370
    -1
  9
$ENDCAPS
280
     0
  9
$JOINSTYLE
280
     0
  9
$LWDISPLAY
290
     1
  9
$INSUNITS
 70
     4
  9
$HYPERLINKBASE
  1

  9
$STYLESHEET
  1

  9
$XEDIT
290
     1
  9
$CEPSNTYPE
380
     0
  9
$PSTYLEMODE
290
     1
  9
$FINGERPRINTGUID
  2
{88B76806-EA66-400C-9D5A-77AB0587C2C2}
  9
$VERSIONGUID
  2
{FAEB1C32-E019-11D5-929B-00C0DF256EC4}
  9
$EXTNAMES
290
     1
  9
$PSVPSCALE
 40
0.0
  9
$OLESTARTUP
290
     0
  0
ENDSEC
  0
SECTION
  2
CLASSES
  0
CLASS
  1
ACDBDICTIONARYWDFLT
  2
AcDbDictionaryWithDefault
  3
ObjectDBX Classes
 90
        0
280
     0
281
     0
  0
CLASS
  1
VISUALSTYLE
  2
AcDbVisualStyle
  3
ObjectDBX Classes
 90
     4095
280
     0
281
     0
  0
CLASS
  1
MATERIAL
  2
AcDbMaterial
  3
ObjectDBX Classes
 90
     1153
280
     0
281
     0
  0
CLASS
  1
SCALE
  2
AcDbScale
  3
ObjectDBX Classes
 90
     1153
280
     0
281
     0
  0
CLASS
  1
SUN
  2
AcDbSun
  3
SCENEOE
 90
     1153
280
     0
281
     0
  0
CLASS
  1
ACDBPLACEHOLDER
  2
AcDbPlaceHolder
  3
ObjectDBX Classes
 90
        0
280
     0
281
     0
  0
CLASS
  1
LAYOUT
  2
AcDbLayout
  3
ObjectDBX Classes
 90
        0
280
     0
281
     0
  0
CLASS
  1
TABLESTYLE
  2
AcDbTableStyle
  3
ObjectDBX Classes
 90
     4095
280
     0
281
     0
  0
CLASS
  1
MLEADERSTYLE
  2
AcDbMLeaderStyle
  3
ACDB_MLEADERSTYLE_CLASS
 90
     4095
280
     0
281
     0
  0
CLASS
  1
DICTIONARYVAR
  2
AcDbDictionaryVar
  3
ObjectDBX Classes
 90
        0
280
     0
281
     0
  0
CLASS
  1
RASTERVARIABLES
  2
AcDbRasterVariables
  3
ISM
 90
        0
280
     0
281
     0
  0
ENDSEC
  0
SECTION
  2
TABLES
  0
TABLE
  2
VPORT
  5
8
330
0
100
AcDbSymbolTable
 70
     1
  0
VPORT
  5
29
330
8
100
AcDbSymbolTableRecord
100
AcDbViewportTableRecord
  2
*Active
 70
     0
 10
0.0
 20
0.0
 11
1.0
 21
1.0
 12
15.86711203993896
 22
-5.898400712857715
 13
0.0
 23
0.0
 14
10.0
 24
10.0
 15
10.0
 25
10.0
 16
0.0
 26
0.0
 36
1.0
 17
0.0
 27
0.0
 37
0.0
 40
89.90755676434948
 41
1.782762691853601
 42
50.0
 43
0.0
 44
0.0
 50
0.0
 51
0.0
 71
    16
 72
  2000
 73
     1
 74
     3
 75
     0
 76
     0
 77
     0
 78
     0
281
     0
 65
     1
110
0.0
120
0.0
130
0.0
111
1.0
121
0.0
131
0.0
112
0.0
122
1.0
132
0.0
 79
     0
146
0.0
  0
ENDTAB
  0
TABLE
  2
LTYPE
  5
5
330
0
100
AcDbSymbolTable
 70
     6
  0
LTYPE
  5
14
330
5
100
AcDbSymbolTableRecord
100
AcDbLinetypeTableRecord
  2
ByBlock
 70
     0
  3

 72
    65
 73
     0
 40
0.0
  0
LTYPE
  5
15
330
5
100
AcDbSymbolTableRecord
100
AcDbLinetypeTableRecord
  2
ByLayer
 70
     0
  3

 72
    65
 73
     0
 40
0.0
  0
LTYPE
  5
16
330
5
100
AcDbSymbolTableRecord
100
AcDbLinetypeTableRecord
  2
Continuous
 70
     0
  3
Solid line
 72
    65
 73
     0
 40
0.0
  0
LTYPE
  5
6A
330
5
100
AcDbSymbolTableRecord
100
AcDbLinetypeTableRecord
  2
HIDDEN
 70
     0
  3
Hidden __ __ __ __ __ __ __ __ __ __ __ __ __ __
 72
    65
 73
     2
 40
1.905
 49
1.27
 74
     0
 49
-0.635
 74
     0
  0
LTYPE
  5
6B
330
5
100
AcDbSymbolTableRecord
100
AcDbLinetypeTableRecord
  2
PHANTOM
 70
     0
  3
Phantom ______  __  __  ______  __  __  ______
 72
    65
 73
     6
 40
12.7
 49
6.35
 74
     0
 49
-1.27
 74
     0
 49
1.27
 74
     0
 49
-1.27
 74
     0
 49
1.27
 74
     0
 49
-1.27
 74
     0
  0
LTYPE
  5
6C
330
5
100
AcDbSymbolTableRecord
100
AcDbLinetypeTableRecord
  2
CENTER
 70
     0
  3
Center ____ _ ____ _ ____ _ ____ _ ____ _ ____
 72
    65
 73
     4
 40
10.16
 49
6.35
 74
     0
 49
-1.27
 74
     0
 49
1.27
 74
     0
 49
-1.27
 74
     0
  0
LTYPE
  5
6D
330
5
100
AcDbSymbolTableRecord
100
AcDbLinetypeTableRecord
  2
CENTERX2
 70
     0
  3
Center (2x) ________  __  ________  __  _____
 72
    65
 73
     4
 40
20.32
 49
12.7
 74
     0
 49
-2.54
 74
     0
 49
2.54
 74
     0
 49
-2.54
 74
     0
  0
LTYPE
  5
6E
330
5
100
AcDbSymbolTableRecord
100
AcDbLinetypeTableRecord
  2
DOT2
 70
     0
  3
Dot (.5x) ........................................
 72
    65
 73
     2
 40
0.635
 49
0.0
 74
     0
 49
-0.635
 74
     0
  0
ENDTAB
  0
TABLE
  2
LAYER
  5
2
102
{ACAD_XDICTIONARY
360
191
102
}
330
0
100
AcDbSymbolTable
 70
    18
  0
LAYER
  5
10
330
2
100
AcDbSymbolTableRecord
100
AcDbLayerTableRecord
  2
0
 70
     0
 62
     7
  6
Continuous
370
    -3
390
F
  0
LAYER
  5
6F
330
2
100
AcDbSymbolTableRecord
100
AcDbLayerTableRecord
  2
FORMAT
 70
     0
 62
     2
  6
Continuous
370
    -3
390
F
  0
LAYER
  5
70
330
2
100
AcDbSymbolTableRecord
100
AcDbLayerTableRecord
  2
외형선
 70
     0
 62
     4
  6
Continuous
370
    30
390
F
  0
LAYER
  5
71
330
2
100
AcDbSymbolTableRecord
100
AcDbLayerTableRecord
  2
숨은선
 70
     0
 62
     2
  6
HIDDEN
370
    15
390
F
  0
LAYER
  5
72
330
2
100
AcDbSymbolTableRecord
100
AcDbLayerTableRecord
  2
중심선
 70
     0
 62
     1
  6
CENTERX2
370
    -3
390
F
  0
LAYER
  5
73
330
2
100
AcDbSymbolTableRecord
100
AcDbLayerTableRecord
  2
파단선
 70
     0
 62
     4
  6
Continuous
370
    -3
390
F
  0
LAYER
  5
74
330
2
100
AcDbSymbolTableRecord
100
AcDbLayerTableRecord
  2
해칭선
 70
     0
 62
   100
  6
Continuous
370
    -3
390
F
  0
LAYER
  5
75
330
2
100
AcDbSymbolTableRecord
100
AcDbLayerTableRecord
  2
가는실선
 70
     0
 62
     4
  6
Continuous
370
    -3
390
F
  0
LAYER
  5
76
330
2
100
AcDbSymbolTableRecord
100
AcDbLayerTableRecord
  2
치수_보조선
 70
     0
 62
     4
  6
Continuous
370
    -3
390
F
  0
LAYER
  5
77
330
2
100
AcDbSymbolTableRecord
100
AcDbLayerTableRecord
  2
치수문자_일반주서
 70
     0
 62
     7
  6
Continuous
370
    15
390
F
  0
LAYER
  5
78
330
2
100
AcDbSymbolTableRecord
100
AcDbLayerTableRecord
  2
개별주서
 70
     0
 62
   100
  6
Continuous
370
    30
390
F
  0
LAYER
  5
79
330
2
100
AcDbSymbolTableRecord
100
AcDbLayerTableRecord
  2
중간선
 70
     0
 62
     2
  6
Continuous
370
    15
390
F
  0
LAYER
  5
7A
330
2
100
AcDbSymbolTableRecord
100
AcDbLayerTableRecord
  2
윤곽선
 70
     0
 62
     3
  6
Continuous
370
    40
390
F
  0
LAYER
  5
7B
330
2
100
AcDbSymbolTableRecord
100
AcDbLayerTableRecord
  2
중심마크
 70
     0
 62
   100
  6
Continuous
370
    30
390
F
  0
LAYER
  5
7C
330
2
100
AcDbSymbolTableRecord
100
AcDbLayerTableRecord
  2
가상선
 70
     0
 62
     4
  6
PHANTOM
370
    -3
390
F
  0
LAYER
  5
7D
330
2
100
AcDbSymbolTableRecord
100
AcDbLayerTableRecord
  2
특수지정선
 70
     0
 62
     5
  6
CENTERX2
370
    60
390
F
  0
LAYER
  5
7E
330
2
100
AcDbSymbolTableRecord
100
AcDbLayerTableRecord
  2
참조1
 70
     0
 62
    -4
  6
Continuous
370
    -3
390
F
  0
LAYER
  5
15A
330
2
100
AcDbSymbolTableRecord
100
AcDbLayerTableRecord
  2
Defpoints
 70
     0
 62
     7
  6
Continuous
290
     0
370
    -3
390
F
  0
ENDTAB
  0
TABLE
  2
STYLE
  5
3
330
0
100
AcDbSymbolTable
 70
     2
  0
STYLE
  5
11
330
3
100
AcDbSymbolTableRecord
100
AcDbTextStyleTableRecord
  2
Standard
 70
     0
 40
0.0
 41
1.0
 50
0.0
 71
     0
 42
3.5
  3
txt
  4

  0
STYLE
  5
94
330
3
100
AcDbSymbolTableRecord
100
AcDbTextStyleTableRecord
  2
SLDTEXTSTYLE0
 70
     0
 40
0.0
 41
0.75
 50
0.0
 71
     0
 42
3.5
  3
TXT
  4

  0
ENDTAB
  0
TABLE
  2
VIEW
  5
6
330
0
100
AcDbSymbolTable
 70
     0
  0
ENDTAB
  0
TABLE
  2
UCS
  5
7
330
0
100
AcDbSymbolTable
 70
     0
  0
ENDTAB
  0
TABLE
  2
APPID
  5
9
330
0
100
AcDbSymbolTable
 70
     2
  0
APPID
  5
12
330
9
100
AcDbSymbolTableRecord
100
AcDbRegAppTableRecord
  2
ACAD
 70
     0
  0
APPID
  5
161
330
9
100
AcDbSymbolTableRecord
100
AcDbRegAppTableRecord
  2
PE_URL
 70
     0
  0
ENDTAB
  0
TABLE
  2
DIMSTYLE
  5
A
330
0
100
AcDbSymbolTable
 70
     3
100
AcDbDimStyleTable
  0
DIMSTYLE
105
27
330
A
100
AcDbSymbolTableRecord
100
AcDbDimStyleTableRecord
  2
ISO-25
 70
     0
 41
2.5
 42
0.625
 43
3.75
 44
1.25
 73
     0
 74
     0
 77
     1
 78
     8
140
2.5
141
2.5
143
0.03937007874016
147
0.625
171
     3
172
     1
178
     0
271
     2
272
     2
274
     3
278
    44
283
     0
284
     8
340
11
  0
DIMSTYLE
105
D9
102
{ACAD_REACTORS
330
D8
330
115
330
ED
330
102
102
}
330
A
100
AcDbSymbolTableRecord
100
AcDbDimStyleTableRecord
  2
SLDDIMSTYLE0
 70
     0
 41
3.302
 44
0.0
 45
0.000000001
 73
     0
 74
     0
 77
     1
 78
    12
 79
     3
140
3.5
143
0.0393700787401575
147
0.875
148
0.000000001
170
     1
172
     1
173
     1
178
     0
271
     2
272
     2
276
     2
284
    12
289
     0
340
94
  0
DIMSTYLE
105
EE
330
A
100
AcDbSymbolTableRecord
100
AcDbDimStyleTableRecord
  2
SLDDIMSTYLE1
 70
     0
 41
3.302
 44
0.0
 45
0.000000001
 73
     0
 74
     0
 77
     1
 78
    12
 79
     3
140
3.5
143
0.0393700787401575
147
0.875
148
0.000000001
170
     1
173
     1
178
     0
271
     2
272
     2
276
     2
284
    12
340
94
  0
ENDTAB
  0
TABLE
  2
BLOCK_RECORD
  5
1
330
0
100
AcDbSymbolTable
 70
     9
  0
BLOCK_RECORD
  5
1F
330
1
100
AcDbSymbolTableRecord
100
AcDbBlockTableRecord
  2
*Model_Space
340
22
  0
BLOCK_RECORD
  5
1B
330
1
100
AcDbSymbolTableRecord
100
AcDbBlockTableRecord
  2
*Paper_Space
340
1E
  0
BLOCK_RECORD
  5
23
330
1
100
AcDbSymbolTableRecord
100
AcDbBlockTableRecord
  2
*Paper_Space0
340
26
  0
BLOCK_RECORD
  5
7F
330
1
100
AcDbSymbolTableRecord
100
AcDbBlockTableRecord
  2
블럭10
340
0
102
{BLKREFS
331
D1
102
}
  0
BLOCK_RECORD
  5
DA
330
1
100
AcDbSymbolTableRecord
100
AcDbBlockTableRecord
  2
_D
340
0
  0
BLOCK_RECORD
  5
EF
330
1
100
AcDbSymbolTableRecord
100
AcDbBlockTableRecord
  2
_D_1
340
0
  0
BLOCK_RECORD
  5
103
330
1
100
AcDbSymbolTableRecord
100
AcDbBlockTableRecord
  2
_D_2
340
0
  0
BLOCK_RECORD
  5
116
330
1
100
AcDbSymbolTableRecord
100
AcDbBlockTableRecord
  2
_D_3
340
0
  0
BLOCK_RECORD
  5
130
330
1
100
AcDbSymbolTableRecord
100
AcDbBlockTableRecord
  2
SW_DOWELSYMBOL_0
340
0
102
{BLKREFS
331
136
102
}
  0
BLOCK_RECORD
  5
195
330
1
100
AcDbSymbolTableRecord
100
AcDbBlockTableRecord
  2
*D7
340
0
  0
BLOCK_RECORD
  5
1A7
330
1
100
AcDbSymbolTableRecord
100
AcDbBlockTableRecord
  2
*D8
340
0
  0
ENDTAB
  0
ENDSEC
  0
SECTION
  2
BLOCKS
  0
BLOCK
  5
20
330
1F
100
AcDbEntity
  8
0
100
AcDbBlockBegin
  2
*Model_Space
 70
     0
 10
0.0
 20
0.0
 30
0.0
  3
*Model_Space
  1
*Model_Space
  0
ENDBLK
  5
21
330
1F
100
AcDbEntity
  8
0
100
AcDbBlockEnd
  0
BLOCK
  5
1C
330
1B
100
AcDbEntity
 67
     1
  8
0
100
AcDbBlockBegin
  2
*Paper_Space
 70
     0
 10
0.0
 20
0.0
 30
0.0
  3
*Paper_Space
  1
*Paper_Space
  0
ENDBLK
  5
1D
330
1B
100
AcDbEntity
 67
     1
  8
0
100
AcDbBlockEnd
  0
BLOCK
  5
24
330
23
100
AcDbEntity
  8
0
100
AcDbBlockBegin
  2
*Paper_Space0
 70
     0
 10
0.0
 20
0.0
 30
0.0
  3
*Paper_Space0
  1
*Paper_Space0
  0
ENDBLK
  5
25
330
23
100
AcDbEntity
  8
0
100
AcDbBlockEnd
  0
BLOCK
  5
80
330
7F
100
AcDbEntity
  8
0
100
AcDbBlockBegin
  2
블럭10
 70
     2
 10
0.0
 20
0.0
 30
0.0
  3
블럭10
  1
블럭10
  0
ELLIPSE
  5
82
330
7F
100
AcDbEntity
  8
중심선
100
AcDbEllipse
 10
20.54032771741204
 20
12.0471743016438
 30
0.0
 11
6.600054785286829
 21
-1.261213355974178E-13
 31
0.0
210
0.0
220
0.0
230
1.0
 40
0.636358354079598
 41
0.9219305317359503
 42
6.513795318482858
  0
ELLIPSE
  5
83
330
7F
100
AcDbEntity
  8
중심선
100
AcDbEllipse
 10
20.54032771746488
 20
12.04717430159265
 30
0.0
 11
3.960054785062283
 21
1.540847449632565E-10
 31
0.0
210
0.0
220
0.0
230
1.0
 40
0.3939339440162632
 41
1.131841032648279
 42
5.62031148352944
  0
LINE
  5
84
330
7F
100
AcDbEntity
  8
중심선
100
AcDbLine
 10
2.268634060543552
 20
16.24717430164393
 30
0.0
 11
5.714909304380834
 21
16.24717430164393
 31
0.0
  0
LINE
  5
85
330
7F
100
AcDbEntity
  8
중심선
100
AcDbLine
 10
5.245725140726316
 20
7.84717430164391
 30
0.0
 11
8.692000384563599
 21
7.84717430164391
 31
0.0
  0
LINE
  5
86
330
7F
100
AcDbEntity
  8
중심선
100
AcDbLine
 10
15.74043728645272
 20
16.24717430164393
 30
0.0
 11
8.692000384563599
 21
7.84717430164391
 31
0.0
  0
LINE
  5
87
330
7F
100
AcDbEntity
  8
중심선
100
AcDbLine
 10
0.1404042013395286
 20
13.71084872107135
 30
0.0
 11
3.58671253028996
 21
13.71088815037384
 31
0.0
  0
LINE
  5
88
330
7F
100
AcDbEntity
  8
중심선
100
AcDbLine
 10
2.750260043222114
 20
10.84717430164391
 30
0.0
 11
6.196535287059397
 21
10.84717430164391
 31
0.0
  0
LINE
  5
89
330
7F
100
AcDbEntity
  8
중심선
100
AcDbLine
 10
12.29416204261559
 20
16.24717430164393
 30
0.0
 11
5.245725140726316
 21
7.84717430164391
 31
0.0
  0
LINE
  5
8A
330
7F
100
AcDbEntity
  8
중심선
100
AcDbLine
 10
10.72767329541681
 20
16.24717430164393
 30
0.0
 11
6.196535287059397
 21
10.84717430164391
 31
0.0
  0
LINE
  5
8B
330
7F
100
AcDbEntity
  8
중심선
100
AcDbLine
 10
7.28139805157953
 20
16.24717430164393
 30
0.0
 11
2.750260043222114
 21
10.84717430164391
 31
0.0
  0
LINE
  5
8C
330
7F
100
AcDbEntity
  8
중심선
100
AcDbLine
 10
5.714909304380834
 20
16.24717430164393
 30
0.0
 11
3.58671253028996
 21
13.71088815037384
 31
0.0
  0
LINE
  5
8D
330
7F
100
AcDbEntity
  8
중심선
100
AcDbLine
 10
2.268634060543552
 20
16.24717430164393
 30
0.0
 11
0.1404042013395286
 21
13.71084872107135
 31
0.0
  0
LINE
  5
8E
330
7F
100
AcDbEntity
  8
중심선
100
AcDbLine
 10
7.28139805157953
 20
16.24717430164393
 30
0.0
 11
10.72767329541681
 21
16.24717430164393
 31
0.0
  0
LINE
  5
8F
330
7F
100
AcDbEntity
  8
중심선
100
AcDbLine
 10
12.29416204261559
 20
16.24717430164393
 30
0.0
 11
15.74043728645272
 21
16.24717430164393
 31
0.0
  0
LINE
  5
90
330
7F
100
AcDbEntity
  8
중심선
100
AcDbLine
 10
19.22036997980202
 20
11.08717430171403
 30
0.0
 11
23.66174974927406
 21
11.08717430171406
 31
0.0
  0
LINE
  5
91
330
7F
100
AcDbEntity
  8
중심선
100
AcDbLine
 10
19.22039502424796
 20
13.00717430171391
 30
0.0
 11
19.22036997980202
 21
11.08717430171403
 31
0.0
  0
LINE
  5
92
330
7F
100
AcDbEntity
  8
중심선
100
AcDbLine
 10
19.22039502424796
 20
13.00717430171391
 30
0.0
 11
26.96566020931264
 21
13.00717430171391
 31
0.0
  0
LINE
  5
93
330
7F
100
AcDbEntity
  8
중심선
100
AcDbLine
 10
22.22332737316547
 20
13.45928029700563
 30
0.0
 11
24.52862924686651
 21
15.39360700705356
 31
0.0
  0
ATTDEF
  5
95
330
7F
100
AcDbEntity
  8
FORMAT
 62
     2
100
AcDbText
 10
4.408487351596664
 20
2.075366912832191
 30
0.0
 40
4.233333333333333
  1
E1030018
 41
0.75
  7
SLDTEXTSTYLE0
 11
4.408487351596664
 21
-0.0412997538344756
 31
0.0
100
AcDbAttributeDefinition
  3

  2
AUTOATTR0
 70
     0
 74
     1
  0
ENDBLK
  5
81
330
7F
100
AcDbEntity
  8
0
100
AcDbBlockEnd
  0
BLOCK
  5
DB
330
DA
100
AcDbEntity
  8
0
100
AcDbBlockBegin
  2
_D
 70
     0
 10
0.0
 20
0.0
 30
0.0
  3
_D
  1
_D
  0
LINE
  5
DD
330
DA
100
AcDbEntity
  8
치수문자_일반주서
 62
     0
370
    -2
100
AcDbLine
 10
-36.25902700723832
 20
4.763574928723897
 30
0.0
 11
-47.0065270072383
 21
4.763574928723855
 31
0.0
  0
LINE
  5
DE
330
DA
100
AcDbEntity
  8
치수문자_일반주서
 62
     0
370
    -2
100
AcDbLine
 10
-36.25902700723832
 20
-4.761425071276109
 30
0.0
 11
-47.00652700723826
 21
-4.76142507127615
 31
0.0
  0
LINE
  5
DF
330
DA
100
AcDbEntity
  8
치수문자_일반주서
 62
     0
370
    -2
100
AcDbLine
 10
-47.0065270072383
 20
4.763574928723855
 30
0.0
 11
-47.00652700723842
 21
37.61757492872385
 31
0.0
  0
LINE
  5
E0
330
DA
100
AcDbEntity
  8
치수문자_일반주서
 62
     0
370
    -2
100
AcDbLine
 10
-47.0065270072383
 20
4.763574928723855
 30
0.0
 11
-47.00652700723826
 21
-4.76142507127615
 31
0.0
  0
LINE
  5
E1
330
DA
100
AcDbEntity
  8
치수문자_일반주서
 62
     0
370
    -2
100
AcDbLine
 10
-47.00652700723831
 20
8.065574928723855
 30
0.0
 11
-47.00652700723833
 21
11.36757492872385
 31
0.0
  0
LINE
  5
E2
330
DA
100
AcDbEntity
  8
치수문자_일반주서
 62
     0
370
    -2
100
AcDbLine
 10
-47.00652700723825
 20
-8.06342507127615
 30
0.0
 11
-47.00652700723823
 21
-11.36542507127615
 31
0.0
  0
SOLID
  5
E3
330
DA
100
AcDbEntity
  8
치수문자_일반주서
 62
     0
100
AcDbTrace
 10
-47.55686034057165
 20
8.065574928723853
 30
0.0
 11
-46.45619367390498
 21
8.065574928723857
 31
0.0
 12
-47.0065270072383
 22
4.763574928723855
 32
0.0
 13
-47.0065270072383
 23
4.763574928723855
 33
0.0
  0
SOLID
  5
E4
330
DA
100
AcDbEntity
  8
치수문자_일반주서
 62
     0
100
AcDbTrace
 10
-46.45619367390491
 20
-8.063425071276148
 30
0.0
 11
-47.55686034057158
 21
-8.063425071276152
 31
0.0
 12
-47.00652700723826
 22
-4.76142507127615
 32
0.0
 13
-47.00652700723826
 23
-4.76142507127615
 33
0.0
  0
MTEXT
  5
E5
330
DA
100
AcDbEntity
  8
치수문자_일반주서
 62
     0
100
AcDbMText
 10
-51.38152700723837
 20
24.49257492872384
 30
0.0
 40
3.5
 41
0.0
 71
     2
 72
     1
  1
\A1;%%c9.53 [3/8]
  7
SLDTEXTSTYLE0
 11
-3.729883127349606E-15
 21
1.0
 31
0.0
 73
     1
 44
1.0
  0
POINT
  5
1F3
330
DA
100
AcDbEntity
  8
Defpoints
 62
     0
100
AcDbPoint
 10
-36.19652700723832
 20
4.763574928723897
 30
0.0
  0
POINT
  5
1F4
330
DA
100
AcDbEntity
  8
Defpoints
 62
     0
100
AcDbPoint
 10
-36.19652700723832
 20
-4.761425071276109
 30
0.0
  0
POINT
  5
1F5
330
DA
100
AcDbEntity
  8
Defpoints
 62
     0
100
AcDbPoint
 10
-47.00652700723826
 20
-4.761425071276149
 30
0.0
  0
ENDBLK
  5
DC
330
DA
100
AcDbEntity
  8
0
100
AcDbBlockEnd
  0
BLOCK
  5
F0
330
EF
100
AcDbEntity
  8
0
100
AcDbBlockBegin
  2
_D_1
 70
     0
 10
0.0
 20
0.0
 30
0.0
  3
_D_1
  1
_D_1
  0
LINE
  5
F2
330
EF
100
AcDbEntity
  8
치수문자_일반주서
 62
     0
370
    -2
100
AcDbLine
 10
21.73097299276169
 20
3.632431034372278
 30
0.0
 11
21.73097299276169
 21
14.76357492872389
 31
0.0
  0
LINE
  5
F3
330
EF
100
AcDbEntity
  8
치수문자_일반주서
 62
     0
370
    -2
100
AcDbLine
 10
7.443472992761686
 20
3.178468659483988
 30
0.0
 11
7.443472992761684
 21
14.76357492872389
 31
0.0
  0
LINE
  5
F4
330
EF
100
AcDbEntity
  8
치수문자_일반주서
 62
     0
370
    -2
100
AcDbLine
 10
21.73097299276169
 20
14.76357492872389
 30
0.0
 11
55.45997299276168
 21
14.76357492872389
 31
0.0
  0
LINE
  5
F5
330
EF
100
AcDbEntity
  8
치수문자_일반주서
 62
     0
370
    -2
100
AcDbLine
 10
21.73097299276169
 20
14.76357492872389
 30
0.0
 11
7.443472992761684
 21
14.76357492872389
 31
0.0
  0
LINE
  5
F6
330
EF
100
AcDbEntity
  8
치수문자_일반주서
 62
     0
370
    -2
100
AcDbLine
 10
25.03297299276169
 20
14.76357492872389
 30
0.0
 11
28.33497299276168
 21
14.76357492872389
 31
0.0
  0
LINE
  5
F7
330
EF
100
AcDbEntity
  8
치수문자_일반주서
 62
     0
370
    -2
100
AcDbLine
 10
4.141472992761685
 20
14.76357492872389
 30
0.0
 11
0.8394729927616851
 21
14.76357492872389
 31
0.0
  0
SOLID
  5
F8
330
EF
100
AcDbEntity
  8
치수문자_일반주서
 62
     0
100
AcDbTrace
 10
25.03297299276169
 20
15.31390826205722
 30
0.0
 11
25.03297299276169
 21
14.21324159539056
 31
0.0
 12
21.73097299276169
 22
14.76357492872389
 32
0.0
 13
21.73097299276169
 23
14.76357492872389
 33
0.0
  0
SOLID
  5
F9
330
EF
100
AcDbEntity
  8
치수문자_일반주서
 62
     0
100
AcDbTrace
 10
4.141472992761685
 20
14.21324159539056
 30
0.0
 11
4.141472992761685
 21
15.31390826205722
 31
0.0
 12
7.443472992761684
 22
14.76357492872389
 32
0.0
 13
7.443472992761684
 23
14.76357492872389
 33
0.0
  0
MTEXT
  5
FA
330
EF
100
AcDbEntity
  8
치수문자_일반주서
 62
     0
100
AcDbMText
 10
41.89747299276168
 20
19.13857492872389
 30
0.0
 40
3.5
 41
0.0
 71
     2
 72
     1
  1
\A1;14.29 [9/16]
  7
SLDTEXTSTYLE0
 73
     1
 44
1.0
  0
POINT
  5
FB
330
EF
100
AcDbEntity
  8
Defpoints
 62
     0
100
AcDbPoint
 10
21.73097299276169
 20
3.569931034372278
 30
0.0
  0
POINT
  5
FC
330
EF
100
AcDbEntity
  8
Defpoints
 62
     0
100
AcDbPoint
 10
7.443472992761686
 20
3.115968659483988
 30
0.0
  0
POINT
  5
FD
330
EF
100
AcDbEntity
  8
Defpoints
 62
     0
100
AcDbPoint
 10
7.443472992761686
 20
14.76357492872389
 30
0.0
  0
ENDBLK
  5
F1
330
EF
100
AcDbEntity
  8
0
100
AcDbBlockEnd
  0
BLOCK
  5
104
330
103
100
AcDbEntity
  8
0
100
AcDbBlockBegin
  2
_D_2
 70
     0
 10
0.0
 20
0.0
 30
0.0
  3
_D_2
  1
_D_2
  0
LINE
  5
106
330
103
100
AcDbEntity
  8
치수문자_일반주서
 62
     0
370
    -2
100
AcDbLine
 10
21.73097299276169
 20
3.632431034372278
 30
0.0
 11
21.73097299276169
 21
24.76357492872389
 31
0.0
  0
LINE
  5
107
330
103
100
AcDbEntity
  8
치수문자_일반주서
 62
     0
370
    -2
100
AcDbLine
 10
-37.00652700723831
 20
4.016074928723889
 30
0.0
 11
-37.00652700723831
 21
24.76357492872389
 31
0.0
  0
LINE
  5
108
330
103
100
AcDbEntity
  8
치수문자_일반주서
 62
     0
370
    -2
100
AcDbLine
 10
18.42897299276169
 20
24.76357492872389
 30
0.0
 11
-33.70452700723831
 21
24.76357492872389
 31
0.0
  0
SOLID
  5
109
330
103
100
AcDbEntity
  8
치수문자_일반주서
 62
     0
100
AcDbTrace
 10
18.42897299276169
 20
24.21324159539056
 30
0.0
 11
18.42897299276169
 21
25.31390826205723
 31
0.0
 12
21.73097299276169
 22
24.76357492872389
 32
0.0
 13
21.73097299276169
 23
24.76357492872389
 33
0.0
  0
SOLID
  5
10A
330
103
100
AcDbEntity
  8
치수문자_일반주서
 62
     0
100
AcDbTrace
 10
-33.70452700723831
 20
25.31390826205723
 30
0.0
 11
-33.70452700723831
 21
24.21324159539056
 31
0.0
 12
-37.00652700723831
 22
24.76357492872389
 32
0.0
 13
-37.00652700723831
 23
24.76357492872389
 33
0.0
  0
MTEXT
  5
10B
330
103
100
AcDbEntity
  8
치수문자_일반주서
 62
     0
100
AcDbMText
 10
-7.63777700723835
 20
29.13857492872389
 30
0.0
 40
3.5
 41
0.0
 71
     2
 72
     1
  1
\A1;58.74 [2 5/16]
  7
SLDTEXTSTYLE0
 73
     1
 44
1.0
  0
POINT
  5
10C
330
103
100
AcDbEntity
  8
Defpoints
 62
     0
100
AcDbPoint
 10
21.73097299276169
 20
3.569931034372278
 30
0.0
  0
POINT
  5
10D
330
103
100
AcDbEntity
  8
Defpoints
 62
     0
100
AcDbPoint
 10
-37.00652700723831
 20
3.953574928723888
 30
0.0
  0
POINT
  5
10E
330
103
100
AcDbEntity
  8
Defpoints
 62
     0
100
AcDbPoint
 10
-37.00652700723831
 20
24.76357492872389
 30
0.0
  0
ENDBLK
  5
105
330
103
100
AcDbEntity
  8
0
100
AcDbBlockEnd
  0
BLOCK
  5
117
330
116
100
AcDbEntity
  8
0
100
AcDbBlockBegin
  2
_D_3
 70
     0
 10
0.0
 20
0.0
 30
0.0
  3
_D_3
  1
_D_3
  0
LINE
  5
119
330
116
100
AcDbEntity
  8
치수문자_일반주서
 62
     0
370
    -2
100
AcDbLine
 10
21.79347299276169
 20
-3.567781176924489
 30
0.0
 11
61.55772960740891
 21
-3.567781176924342
 31
0.0
  0
LINE
  5
11A
330
116
100
AcDbEntity
  8
치수문자_일반주서
 62
     0
370
    -2
100
AcDbLine
 10
21.79347299276169
 20
3.569931034372278
 30
0.0
 11
61.55772960740888
 21
3.569931034372427
 31
0.0
  0
LINE
  5
11B
330
116
100
AcDbEntity
  8
치수문자_일반주서
 62
     0
370
    -2
100
AcDbLine
 10
61.55772960740888
 20
3.569931034372427
 30
0.0
 11
61.55772960740874
 21
38.17393103437242
 31
0.0
  0
LINE
  5
11C
330
116
100
AcDbEntity
  8
치수문자_일반주서
 62
     0
370
    -2
100
AcDbLine
 10
61.55772960740891
 20
-3.567781176924342
 30
0.0
 11
61.55772960740888
 21
3.569931034372427
 31
0.0
  0
LINE
  5
11D
330
116
100
AcDbEntity
  8
치수문자_일반주서
 62
     0
370
    -2
100
AcDbLine
 10
61.55772960740892
 20
-6.869781176924342
 30
0.0
 11
61.55772960740894
 21
-10.17178117692434
 31
0.0
  0
LINE
  5
11E
330
116
100
AcDbEntity
  8
치수문자_일반주서
 62
     0
370
    -2
100
AcDbLine
 10
61.55772960740887
 20
6.871931034372427
 30
0.0
 11
61.55772960740885
 21
10.17393103437243
 31
0.0
  0
SOLID
  5
11F
330
116
100
AcDbEntity
  8
치수문자_일반주서
 62
     0
100
AcDbTrace
 10
62.10806294074226
 20
-6.86978117692434
 30
0.0
 11
61.00739627407559
 21
-6.869781176924343
 31
0.0
 12
61.55772960740891
 22
-3.567781176924342
 32
0.0
 13
61.55772960740891
 23
-3.567781176924342
 33
0.0
  0
SOLID
  5
120
330
116
100
AcDbEntity
  8
치수문자_일반주서
 62
     0
100
AcDbTrace
 10
61.00739627407553
 20
6.871931034372425
 30
0.0
 11
62.1080629407422
 21
6.871931034372428
 31
0.0
 12
61.55772960740888
 22
3.569931034372427
 32
0.0
 13
61.55772960740888
 23
3.569931034372427
 33
0.0
  0
MTEXT
  5
121
330
116
100
AcDbEntity
  8
치수문자_일반주서
 62
     0
100
AcDbMText
 10
57.1827296074088
 20
24.1739310343724
 30
0.0
 40
3.5
 41
0.0
 71
     2
 72
     1
  1
\A1;%%c7.14 [9/32]
  7
SLDTEXTSTYLE0
 11
-3.981907450039989E-15
 21
1.0
 31
0.0
 73
     1
 44
1.0
  0
POINT
  5
122
330
116
100
AcDbEntity
  8
Defpoints
 62
     0
100
AcDbPoint
 10
21.73097299276169
 20
-3.56778117692449
 30
0.0
  0
POINT
  5
123
330
116
100
AcDbEntity
  8
Defpoints
 62
     0
100
AcDbPoint
 10
21.73097299276169
 20
3.569931034372278
 30
0.0
  0
POINT
  5
124
330
116
100
AcDbEntity
  8
Defpoints
 62
     0
100
AcDbPoint
 10
61.55772960740888
 20
3.569931034372427
 30
0.0
  0
ENDBLK
  5
118
330
116
100
AcDbEntity
  8
0
100
AcDbBlockEnd
  0
BLOCK
  5
131
330
130
100
AcDbEntity
  8
0
100
AcDbBlockBegin
  2
SW_DOWELSYMBOL_0
 70
     0
 10
0.0
 20
0.0
 30
0.0
  3
SW_DOWELSYMBOL_0
  1
SW_DOWELSYMBOL_0
  0
CIRCLE
  5
133
330
130
100
AcDbEntity
  8
해칭선
 62
     0
100
AcDbCircle
 10
0.0
 20
0.0
 30
0.0
 40
2.999999999999999
  0
HATCH
  5
134
330
130
100
AcDbEntity
  8
0
  6
Continuous
 62
     0
370
     0
100
AcDbHatch
 10
0.0
 20
0.0
 30
0.0
210
0.0
220
0.0
230
1.0
  2
SOLID
 70
     1
 71
     0
 91
        1
 92
        0
 93
        3
 72
     2
 10
0.0
 20
0.0
 40
2.999999999999999
 50
0.0
 51
90.0
 73
     1
 72
     1
 10
0.0
 20
2.999999999999999
 11
0.0
 21
0.0
 72
     1
 10
0.0
 20
0.0
 11
2.999999999999999
 21
0.0
 97
        0
 75
     0
 76
     1
 98
        1
 10
0.0
 20
0.0
  0
HATCH
  5
135
330
130
100
AcDbEntity
  8
0
  6
Continuous
 62
     0
370
     0
100
AcDbHatch
 10
0.0
 20
0.0
 30
0.0
210
0.0
220
0.0
230
1.0
  2
SOLID
 70
     1
 71
     0
 91
        1
 92
        0
 93
        3
 72
     2
 10
0.0
 20
0.0
 40
2.999999999999999
 50
180.0
 51
270.0000000000007
 73
     1
 72
     1
 10
0.0
 20
-2.999999999999999
 11
0.0
 21
0.0
 72
     1
 10
0.0
 20
0.0
 11
-2.999999999999999
 21
0.0
 97
        0
 75
     0
 76
     1
 98
        1
 10
0.0
 20
0.0
  0
ENDBLK
  5
132
330
130
100
AcDbEntity
  8
0
100
AcDbBlockEnd
  0
BLOCK
  5
196
330
195
100
AcDbEntity
  8
0
100
AcDbBlockBegin
  2
*D7
 70
     1
 10
0.0
 20
0.0
 30
0.0
  3
*D7
  1
*D7
  0
LINE
  5
198
330
195
100
AcDbEntity
  8
치수문자_일반주서
 62
     0
370
    -2
100
AcDbLine
 10
16.129
 20
3.155101899082701
 30
0.0
 11
16.129
 21
16.26894362990564
 31
0.0
  0
LINE
  5
199
330
195
100
AcDbEntity
  8
치수문자_일반주서
 62
     0
370
    -2
100
AcDbLine
 10
6.603999999999996
 20
3.052606254210743
 30
0.0
 11
6.603999999999996
 21
16.26894362990564
 31
0.0
  0
LINE
  5
19A
330
195
100
AcDbEntity
  8
치수문자_일반주서
 62
     0
370
    -2
100
AcDbLine
 10
16.129
 20
16.26894362990564
 30
0.0
 11
46.57674999999999
 21
16.26894362990564
 31
0.0
  0
LINE
  5
19B
330
195
100
AcDbEntity
  8
치수문자_일반주서
 62
     0
370
    -2
100
AcDbLine
 10
16.129
 20
16.26894362990564
 30
0.0
 11
6.603999999999996
 21
16.26894362990564
 31
0.0
  0
LINE
  5
19C
330
195
100
AcDbEntity
  8
치수문자_일반주서
 62
     0
370
    -2
100
AcDbLine
 10
19.431
 20
16.26894362990564
 30
0.0
 11
22.733
 21
16.26894362990564
 31
0.0
  0
LINE
  5
19D
330
195
100
AcDbEntity
  8
치수문자_일반주서
 62
     0
370
    -2
100
AcDbLine
 10
3.301999999999996
 20
16.26894362990564
 30
0.0
 11
-0.0000000000000036
 21
16.26894362990564
 31
0.0
  0
SOLID
  5
19E
330
195
100
AcDbEntity
  8
치수문자_일반주서
 62
     0
100
AcDbTrace
 10
19.431
 20
16.81927696323897
 30
0.0
 11
19.431
 21
15.71861029657231
 31
0.0
 12
16.129
 22
16.26894362990564
 32
0.0
 13
16.129
 23
16.26894362990564
 33
0.0
  0
SOLID
  5
19F
330
195
100
AcDbEntity
  8
치수문자_일반주서
 62
     0
100
AcDbTrace
 10
3.301999999999996
 20
15.71861029657231
 30
0.0
 11
3.301999999999996
 21
16.81927696323897
 31
0.0
 12
6.603999999999996
 22
16.26894362990564
 32
0.0
 13
6.603999999999996
 23
16.26894362990564
 33
0.0
  0
MTEXT
  5
1A0
330
195
100
AcDbEntity
  8
치수문자_일반주서
 62
     0
100
AcDbMText
 10
34.76424999999999
 20
20.64394362990564
 30
0.0
 40
3.5
 41
0.0
 71
     2
 72
     1
  1
\A1;9.53 [3/8]
  7
SLDTEXTSTYLE0
 73
     1
 44
1.0
  0
POINT
  5
1A1
330
195
100
AcDbEntity
  8
Defpoints
 62
     0
100
AcDbPoint
 10
16.129
 20
3.092601899082701
 30
0.0
  0
POINT
  5
1A2
330
195
100
AcDbEntity
  8
Defpoints
 62
     0
100
AcDbPoint
 10
6.603999999999996
 20
2.990106254210743
 30
0.0
  0
POINT
  5
1A3
330
195
100
AcDbEntity
  8
Defpoints
 62
     0
100
AcDbPoint
 10
6.603999999999996
 20
16.26894362990564
 30
0.0
  0
ENDBLK
  5
197
330
195
100
AcDbEntity
  8
0
100
AcDbBlockEnd
  0
BLOCK
  5
1A8
330
1A7
100
AcDbEntity
  8
0
100
AcDbBlockBegin
  2
*D8
 70
     1
 10
0.0
 20
0.0
 30
0.0
  3
*D8
  1
*D8
  0
LINE
  5
1AA
330
1A7
100
AcDbEntity
  8
치수문자_일반주서
 62
     0
370
    -2
100
AcDbLine
 10
75.41330104822643
 20
-26.47027930825137
 30
0.0
 11
75.41330104822643
 21
-13.35643757742843
 31
0.0
  0
LINE
  5
1AB
330
1A7
100
AcDbEntity
  8
치수문자_일반주서
 62
     0
370
    -2
100
AcDbLine
 10
65.88830104822642
 20
-26.57277495312333
 30
0.0
 11
65.88830104822642
 21
-13.35643757742843
 31
0.0
  0
LINE
  5
1AC
330
1A7
100
AcDbEntity
  8
치수문자_일반주서
 62
     0
370
    -2
100
AcDbLine
 10
75.41330104822643
 20
-13.35643757742843
 30
0.0
 11
105.8610510482264
 21
-13.35643757742843
 31
0.0
  0
LINE
  5
1AD
330
1A7
100
AcDbEntity
  8
치수문자_일반주서
 62
     0
370
    -2
100
AcDbLine
 10
75.41330104822643
 20
-13.35643757742843
 30
0.0
 11
65.88830104822642
 21
-13.35643757742843
 31
0.0
  0
LINE
  5
1AE
330
1A7
100
AcDbEntity
  8
치수문자_일반주서
 62
     0
370
    -2
100
AcDbLine
 10
78.71530104822642
 20
-13.35643757742843
 30
0.0
 11
82.01730104822641
 21
-13.35643757742843
 31
0.0
  0
LINE
  5
1AF
330
1A7
100
AcDbEntity
  8
치수문자_일반주서
 62
     0
370
    -2
100
AcDbLine
 10
62.58630104822642
 20
-13.35643757742843
 30
0.0
 11
59.28430104822642
 21
-13.35643757742843
 31
0.0
  0
SOLID
  5
1B0
330
1A7
100
AcDbEntity
  8
치수문자_일반주서
 62
     0
100
AcDbTrace
 10
78.71530104822642
 20
-12.8061042440951
 30
0.0
 11
78.71530104822642
 21
-13.90677091076177
 31
0.0
 12
75.41330104822643
 22
-13.35643757742843
 32
0.0
 13
75.41330104822643
 23
-13.35643757742843
 33
0.0
  0
SOLID
  5
1B1
330
1A7
100
AcDbEntity
  8
치수문자_일반주서
 62
     0
100
AcDbTrace
 10
62.58630104822642
 20
-13.90677091076177
 30
0.0
 11
62.58630104822642
 21
-12.8061042440951
 31
0.0
 12
65.88830104822642
 22
-13.35643757742843
 32
0.0
 13
65.88830104822642
 23
-13.35643757742843
 33
0.0
  0
MTEXT
  5
1B2
330
1A7
100
AcDbEntity
  8
치수문자_일반주서
 62
     0
100
AcDbMText
 10
94.04855104822641
 20
-8.981437577428434
 30
0.0
 40
3.5
 41
0.0
 71
     2
 72
     1
  1
\A1;9.53 [3/8]
  7
SLDTEXTSTYLE0
 73
     1
 44
1.0
  0
POINT
  5
1B3
330
1A7
100
AcDbEntity
  8
Defpoints
 62
     0
100
AcDbPoint
 10
75.41330104822643
 20
-26.53277930825137
 30
0.0
  0
POINT
  5
1B4
330
1A7
100
AcDbEntity
  8
Defpoints
 62
     0
100
AcDbPoint
 10
65.88830104822642
 20
-26.63527495312333
 30
0.0
  0
POINT
  5
1B5
330
1A7
100
AcDbEntity
  8
Defpoints
 62
     0
100
AcDbPoint
 10
65.88830104822642
 20
-13.35643757742843
 30
0.0
  0
ENDBLK
  5
1A9
330
1A7
100
AcDbEntity
  8
0
100
AcDbBlockEnd
  0
ENDSEC
  0
SECTION
  2
ENTITIES
  0
LINE
  5
96
330
1F
100
AcDbEntity
  8
외형선
  6
Continuous
370
    15
100
AcDbLine
 10
2.000000000000004
 20
4.763574928723894
 30
0.0
 11
-12.3240770072382
 21
4.763574928723893
 31
0.0
  0
LINE
  5
97
330
1F
100
AcDbEntity
  8
외형선
  6
Continuous
370
    15
100
AcDbLine
 10
-36.19652700723832
 20
-4.761425071276108
 30
0.0
 11
2.000000000000004
 21
-4.761425071276105
 31
0.0
  0
LINE
  5
98
330
1F
100
AcDbEntity
  8
외형선
  6
Continuous
370
    15
100
AcDbLine
 10
2.000000000000004
 20
-4.761425071276106
 30
0.0
 11
5.923349733448395
 21
-3.710166678573747
 31
0.0
  0
LINE
  5
99
330
1F
100
AcDbEntity
  8
외형선
  6
Continuous
370
    15
100
AcDbLine
 10
5.923349733448395
 20
3.712316536021535
 30
0.0
 11
2.000000000000004
 21
4.763574928723894
 31
0.0
  0
LINE
  5
9A
330
1F
100
AcDbEntity
  8
외형선
  6
Continuous
370
    15
100
AcDbLine
 10
-36.19652700723832
 20
4.763574928723889
 30
0.0
 11
-37.00652700723831
 21
3.953574928723887
 31
0.0
  0
LINE
  5
9B
330
1F
100
AcDbEntity
  8
외형선
  6
Continuous
370
    15
100
AcDbLine
 10
-37.00652700723831
 20
-3.951425071276105
 30
0.0
 11
-36.19652700723832
 21
-4.761425071276106
 31
0.0
  0
SPLINE
  5
9C
330
1F
100
AcDbEntity
  8
외형선
  6
Continuous
370
    15
100
AcDbSpline
210
0.0
220
0.0
230
1.0
 70
     8
 71
     3
 72
     9
 73
     5
 74
     0
 42
0.000000001
 43
0.00000001
 40
0.0
 40
0.0
 40
0.0
 40
0.0
 40
0.563208301483728
 40
1.0
 40
1.0
 40
1.0
 40
1.0
 10
5.923302589478316
 20
-2.965724920111656
 30
0.0
 10
6.209551685406117
 20
-2.94089898186029
 30
0.0
 10
6.717798980720653
 20
-2.896819485542561
 30
0.0
 10
7.222864546446299
 20
-2.863782214376303
 30
0.0
 10
7.443472992761686
 20
-2.849351808589249
 30
0.0
  0
LINE
  5
9D
330
1F
100
AcDbEntity
  8
0
  6
Continuous
 62
     1
370
    15
100
AcDbLine
 10
12.47623560782648
 20
0.9163617591235461
 30
0.0
 11
11.48703201047926
 21
1.411947917134023
 31
0.0
1001
PE_URL
1000

  0
SPLINE
  5
9E
330
1F
100
AcDbEntity
  8
0
  6
Continuous
 62
     1
370
    15
100
AcDbSpline
210
0.0
220
0.0
230
1.0
 70
     8
 71
     3
 72
    17
 73
    13
 74
     0
 42
0.000000001
 43
0.00000001
 40
0.0
 40
0.0
 40
0.0
 40
0.0
 40
0.1354724848006687
 40
0.2380122899864713
 40
0.3204758752664651
 40
0.4199103417000627
 40
0.5328645333167271
 40
0.6416023501359025
 40
0.7552096196622609
 40
0.857100846086253
 40
0.9525995203453363
 40
1.0
 40
1.0
 40
1.0
 40
1.0
 10
11.29657466593708
 20
2.839424056571745
 30
0.0
 10
11.16566072398676
 20
2.832845445504641
 30
0.0
 10
10.935657360864
 20
2.821287450629773
 30
0.0
 10
10.62238468833815
 20
2.809602396713595
 30
0.0
 10
10.34065912795291
 20
2.8012345877992
 30
0.0
 10
10.05151421004509
 20
2.794925754138728
 30
0.0
 10
9.736898852676516
 20
2.790988616374183
 30
0.0
 10
9.404392400527998
 20
2.790025801977817
 30
0.0
 10
9.079471095142749
 20
2.791209955437724
 30
0.0
 10
8.781385403189992
 20
2.797092116625207
 30
0.0
 10
8.556623485392006
 20
2.802873290980991
 30
0.0
 10
8.417036439459814
 20
2.807304550302193
 30
0.0
 10
8.37073460526731
 20
2.808774424766432
 30
0.0
1001
PE_URL
1000

  0
SPLINE
  5
9F
330
1F
100
AcDbEntity
  8
0
  6
Continuous
 62
     1
370
    15
100
AcDbSpline
210
0.0
220
0.0
230
1.0
 70
     8
 71
     3
 72
    27
 73
    23
 74
     0
 42
0.000000001
 43
0.00000001
 40
0.0
 40
0.0
 40
0.0
 40
0.0
 40
0.0657610180922965
 40
0.1157027259429745
 40
0.1496655524993017
 40
0.180478891094921
 40
0.2193737827605851
 40
0.2651596991281371
 40
0.3075316213517065
 40
0.3712849712638645
 40
0.4254862050991462
 40
0.4793649904402653
 40
0.532936834356004
 40
0.5926250716490319
 40
0.6564827048144846
 40
0.7103885412244352
 40
0.7403320335590053
 40
0.7679065073515013
 40
0.7957471555364551
 40
0.8417349721623472
 40
0.9097924999449362
 40
1.0
 40
1.0
 40
1.0
 40
1.0
 10
20.40283050345213
 20
2.44406817781383
 30
0.0
 10
20.26662773652058
 20
2.432918369821679
 30
0.0
 10
20.02698680832145
 20
2.413300924474012
 30
0.0
 10
19.71685174708161
 20
2.393733124276505
 30
0.0
 10
19.47724571102261
 20
2.380968484056877
 30
0.0
 10
19.25983466977137
 20
2.371221398322326
 30
0.0
 10
19.01898376693065
 20
2.362532772774244
 30
0.0
 10
18.75465757492137
 20
2.355838158054631
 30
0.0
 10
18.43905207117115
 20
2.351387211592803
 30
0.0
 10
18.10581565463619
 20
2.351282507357805
 30
0.0
 10
17.74830926882659
 20
2.356571602142961
 30
0.0
 10
17.41184779883237
 20
2.366186687944129
 30
0.0
 10
17.06439040806772
 20
2.380862301760864
 30
0.0
 10
16.69470801328226
 20
2.401945597863003
 30
0.0
 10
16.3221608825096
 20
2.42877531711465
 30
0.0
 10
16.0150057985745
 20
2.455342469962535
 30
0.0
 10
15.78688518578676
 20
2.47736315078594
 30
0.0
 10
15.61150896049184
 20
2.495452536926341
 30
0.0
 10
15.40285054790988
 20
2.518312509749635
 30
0.0
 10
15.10820992926786
 20
2.553389203292983
 30
0.0
 10
14.68281197026064
 20
2.608748910758655
 30
0.0
 10
14.3518629938744
 20
2.658974758727611
 30
0.0
 10
14.16322953382655
 20
2.687602360449407
 30
0.0
1001
PE_URL
1000

  0
SPLINE
  5
A0
330
1F
100
AcDbEntity
  8
0
  6
Continuous
 62
     1
370
    15
100
AcDbSpline
210
0.0
220
0.0
230
1.0
 70
     8
 71
     3
 72
    17
 73
    13
 74
     0
 42
0.000000001
 43
0.00000001
 40
0.0
 40
0.0
 40
0.0
 40
0.0
 40
0.149107879668471
 40
0.2648430620201645
 40
0.3469135462590041
 40
0.422113591448136
 40
0.5146592607159194
 40
0.6224386092391737
 40
0.7211289041659641
 40
0.8643851969836108
 40
0.9876405869687945
 40
1.0
 40
1.0
 40
1.0
 40
1.0
 10
14.16322953382655
 20
-2.685452503001618
 30
0.0
 10
14.2944822898313
 20
-2.665321904160114
 30
0.0
 10
14.52761136306454
 20
-2.629566252283517
 30
0.0
 10
14.83346614973712
 20
-2.587276657716816
 30
0.0
 10
15.07639827842718
 20
-2.555695771017992
 30
0.0
 10
15.29954244290907
 20
-2.528276576295079
 30
0.0
 10
15.54409987705989
 20
-2.500282947565593
 30
0.0
 10
15.80889435646294
 20
-2.472762313954174
 30
0.0
 10
16.11837923597593
 20
-2.443744764111615
 30
0.0
 10
16.4419855395261
 20
-2.417901985833671
 30
0.0
 10
16.68761366158473
 20
-2.400296678416677
 30
0.0
 10
16.80735014509823
 20
-2.393865853248254
 30
0.0
 10
16.81826246898715
 20
-2.39327977250618
 30
0.0
1001
PE_URL
1000

  0
SPLINE
  5
A1
330
1F
100
AcDbEntity
  8
0
  6
Continuous
 62
     1
370
    15
100
AcDbSpline
210
0.0
220
0.0
230
1.0
 70
     8
 71
     3
 72
    19
 73
    15
 74
     0
 42
0.000000001
 43
0.00000001
 40
0.0
 40
0.0
 40
0.0
 40
0.0
 40
0.1257740491457452
 40
0.2129493236147277
 40
0.2685181245638988
 40
0.3223897213143287
 40
0.4117393808190151
 40
0.5124138696101788
 40
0.5950492454292793
 40
0.6808888580647598
 40
0.7564541466044062
 40
0.819122402785554
 40
0.8970475955640439
 40
1.0
 40
1.0
 40
1.0
 40
1.0
 10
7.443472992761686
 20
-2.849351808589249
 30
0.0
 10
7.605482130869209
 20
-2.840356037483978
 30
0.0
 10
7.879781452658747
 20
-2.825125205803901
 30
0.0
 10
8.225113472058453
 20
-2.811314954759255
 30
0.0
 10
8.479062645648279
 20
-2.80298788222054
 30
0.0
 10
8.72606545587002
 20
-2.796405080123054
 30
0.0
 10
9.023973678568636
 20
-2.789476323191058
 30
0.0
 10
9.38609866786827
 20
-2.787788890781491
 30
0.0
 10
9.736791656191185
 20
-2.788847212470411
 30
0.0
 10
10.05153969309387
 20
-2.792773887090775
 30
0.0
 10
10.3406539389702
 20
-2.799085139556
 30
0.0
 10
10.6223863021832
 20
-2.807452411997548
 30
0.0
 10
10.93565675519594
 20
-2.819137640945136
 30
0.0
 10
11.16566050429546
 20
-2.83069560538177
 30
0.0
 10
11.29657466593708
 20
-2.837274199123956
 30
0.0
1001
PE_URL
1000

  0
LINE
  5
A2
330
1F
100
AcDbEntity
  8
외형선
  6
Continuous
370
    15
100
AcDbLine
 10
2.000000000000004
 20
4.763574928723894
 30
0.0
 11
2.000000000000004
 21
-4.761425071276105
 31
0.0
  0
LINE
  5
A3
330
1F
100
AcDbEntity
  8
외형선
  6
Continuous
370
    15
100
AcDbLine
 10
-36.19652700723832
 20
4.763574928723889
 30
0.0
 11
-36.19652700723832
 21
-4.761425071276108
 31
0.0
  0
SPLINE
  5
A4
330
1F
100
AcDbEntity
  8
외형선
  6
Continuous
370
    15
100
AcDbSpline
210
0.0
220
0.0
230
1.0
 70
     8
 71
     3
 72
     8
 73
     4
 74
     0
 42
0.000000001
 43
0.00000001
 40
0.0
 40
0.0
 40
0.0
 40
0.0
 40
1.0
 40
1.0
 40
1.0
 40
1.0
 10
6.44347299276169
 20
3.35691886286713
 30
0.0
 10
6.26956694395863
 20
3.428131058796959
 30
0.0
 10
6.096151198081229
 20
3.497557249510634
 30
0.0
 10
5.923220631255441
 20
3.565021856656982
 30
0.0
  0
LINE
  5
A5
330
1F
100
AcDbEntity
  8
외형선
  6
Continuous
370
    15
100
AcDbLine
 10
6.44347299276169
 20
3.356918862867146
 30
0.0
 11
6.44347299276169
 21
2.888527982648027
 31
0.0
  0
SPLINE
  5
A6
330
1F
100
AcDbEntity
  8
외형선
  6
Continuous
370
    15
100
AcDbSpline
210
0.0
220
0.0
230
1.0
 70
     8
 71
     3
 72
     8
 73
     4
 74
     0
 42
0.000000001
 43
0.00000001
 40
0.0
 40
0.0
 40
0.0
 40
0.0
 40
0.0005964863428173
 40
0.0005964863428173
 40
0.0005964863428173
 40
0.0005964863428173
 10
5.923349733448395
 20
3.147611654741642
 30
0.0
 10
6.09681034926793
 20
3.062949956873102
 30
0.0
 10
6.270228543660728
 20
2.976569594582674
 30
0.0
 10
6.443472992762075
 20
2.888527982646661
 30
0.0
  0
LINE
  5
A7
330
1F
100
AcDbEntity
  8
외형선
  6
Continuous
370
    15
100
AcDbLine
 10
5.923349733448395
 20
-3.710166678573747
 30
0.0
 11
5.923349733448395
 21
3.147646163691675
 31
0.0
  0
SPLINE
  5
A8
330
1F
100
AcDbEntity
  8
외형선
  6
Continuous
370
    15
100
AcDbSpline
210
0.0
220
0.0
230
1.0
 70
     8
 71
     3
 72
     8
 73
     4
 74
     0
 42
0.000000001
 43
0.00000001
 40
0.0
 40
0.0
 40
0.0
 40
0.0
 40
1.0
 40
1.0
 40
1.0
 40
1.0
 10
6.44347299276169
 20
-3.354769005419342
 30
0.0
 10
6.26956694395863
 20
-3.425981201349171
 30
0.0
 10
6.096151198081229
 20
-3.495407392062846
 30
0.0
 10
5.923220631255441
 20
-3.562871999209194
 30
0.0
  0
LINE
  5
A9
330
1F
100
AcDbEntity
  8
외형선
  6
Continuous
370
    15
100
AcDbLine
 10
5.923349733448395
 20
3.565019099505383
 30
0.0
 11
5.923349733448395
 21
3.712316536021535
 31
0.0
  0
LINE
  5
AA
330
1F
100
AcDbEntity
  8
외형선
  6
Continuous
370
    15
100
AcDbLine
 10
-37.00652700723831
 20
3.953574928723888
 30
0.0
 11
-37.00652700723831
 21
-3.951425071276105
 31
0.0
  0
SPLINE
  5
AB
330
1F
100
AcDbEntity
  8
외형선
  6
Continuous
370
    15
100
AcDbSpline
210
0.0
220
0.0
230
1.0
 70
    24
 71
     3
 72
    14
 73
    10
 74
     0
 42
0.000000001
 43
0.00000001
 40
0.0
 40
0.0
 40
0.0
 40
0.0
 40
0.25
 40
0.25
 40
0.5
 40
0.5
 40
0.75
 40
0.75
 40
1.0
 40
1.0
 40
1.0
 40
1.0
 10
7.44347299276169
 20
1.684166236144816
 30
0.0
 10
7.44347299276169
 20
1.410196420349356
 30
0.0
 10
7.44347299276169
 20
1.108025625701771
 30
0.0
 10
7.44347299276169
 20
0.469308511550013
 30
0.0
 10
7.44347299276169
 20
0.1330058520681022
 30
0.0
 10
7.44347299276169
 20
-0.5416924998347037
 30
0.0
 10
7.44347299276169
 20
-0.8797286847657677
 30
0.0
 10
7.44347299276169
 20
-1.525051090992074
 30
0.0
 10
7.44347299276169
 20
-1.832084374775931
 30
0.0
 10
7.44347299276169
 20
-2.112057188544764
 30
0.0
  0
SPLINE
  5
AC
330
1F
100
AcDbEntity
  8
외형선
  6
Continuous
370
    15
100
AcDbSpline
210
0.0
220
0.0
230
1.0
 70
     8
 71
     3
 72
    10
 73
     6
 74
     0
 42
0.000000001
 43
0.00000001
 40
0.0
 40
0.0
 40
0.0
 40
0.0
 40
0.5
 40
0.5
 40
1.0
 40
1.0
 40
1.0
 40
1.0
 10
7.44347299276169
 20
-2.112057188544764
 30
0.0
 10
7.190366812388977
 20
-2.033309603162262
 30
0.0
 10
6.939775508026052
 20
-1.949529825384439
 30
0.0
 10
6.432035425066532
 20
-1.771860828784087
 30
0.0
 10
6.176873463269258
 20
-1.6781690230152
 30
0.0
 10
5.923302589478316
 20
-1.580683651257762
 30
0.0
  0
SPLINE
  5
AD
330
1F
100
AcDbEntity
  8
외형선
  6
Continuous
370
    15
100
AcDbSpline
210
0.0
220
0.0
230
1.0
 70
     8
 71
     3
 72
    10
 73
     6
 74
     0
 42
0.000000001
 43
0.00000001
 40
0.0
 40
0.0
 40
0.0
 40
0.0
 40
0.5
 40
0.5
 40
1.0
 40
1.0
 40
1.0
 40
1.0
 10
7.44347299276169
 20
1.684166236144816
 30
0.0
 10
7.190369480784492
 20
1.759861332697719
 30
0.0
 10
6.939780833700821
 20
1.831091509558732
 30
0.0
 10
6.432046158082466
 20
1.964607624592898
 30
0.0
 10
6.176886896722777
 20
2.026682128447607
 30
0.0
 10
5.923318629247982
 20
2.083377591585454
 30
0.0
  0
SPLINE
  5
AE
330
1F
100
AcDbEntity
  8
외형선
  6
Continuous
370
    15
100
AcDbSpline
210
0.0
220
0.0
230
1.0
 70
    24
 71
     3
 72
    10
 73
     6
 74
     0
 42
0.000000001
 43
0.00000001
 40
0.0
 40
0.0
 40
0.0
 40
0.0
 40
0.5
 40
0.5
 40
1.0
 40
1.0
 40
1.0
 40
1.0
 10
7.443472992761686
 20
2.512035374018539
 30
0.0
 10
7.443472992761686
 20
2.425467253192886
 30
0.0
 10
7.443472992761686
 20
2.303950239688729
 30
0.0
 10
7.443472992761686
 20
2.016195862981502
 30
0.0
 10
7.443472992761686
 20
1.850901154199758
 30
0.0
 10
7.443472992761686
 20
1.684166236144818
 30
0.0
  0
SPLINE
  5
AF
330
1F
100
AcDbEntity
  8
외형선
  6
Continuous
370
    15
100
AcDbSpline
210
0.0
220
0.0
230
1.0
 70
     8
 71
     3
 72
     8
 73
     4
 74
     0
 42
0.000000001
 43
0.00000001
 40
0.0
 40
0.0
 40
0.0
 40
0.0
 40
1.0
 40
1.0
 40
1.0
 40
1.0
 10
6.44347299276169
 20
2.888527982648027
 30
0.0
 10
6.778753010770881
 20
2.774890625154542
 30
0.0
 10
7.109898549936872
 20
2.649098577832141
 30
0.0
 10
7.44347299276024
 20
2.512035374019135
 30
0.0
  0
SPLINE
  5
B0
330
1F
100
AcDbEntity
  8
외형선
  6
Continuous
370
    15
100
AcDbSpline
210
0.0
220
0.0
230
1.0
 70
     8
 71
     3
 72
     8
 73
     4
 74
     0
 42
0.000000001
 43
0.00000001
 40
0.0
 40
0.0
 40
0.0
 40
0.0
 40
1.0
 40
1.0
 40
1.0
 40
1.0
 10
7.443472992761686
 20
3.115968659483988
 30
0.0
 10
7.10989854993783
 20
3.210284576701654
 30
0.0
 10
6.778753010771366
 20
3.290801012429159
 30
0.0
 10
6.44347299276169
 20
3.356918862867147
 30
0.0
  0
LINE
  5
B1
330
1F
100
AcDbEntity
  8
외형선
  6
Continuous
370
    15
100
AcDbLine
 10
7.443472992761686
 20
3.115968659483987
 30
0.0
 11
7.443472992761686
 21
2.512035374020939
 31
0.0
  0
SPLINE
  5
B2
330
1F
100
AcDbEntity
  8
외형선
  6
Continuous
370
    15
100
AcDbSpline
210
0.0
220
0.0
230
1.0
 70
    24
 71
     3
 72
    12
 73
     8
 74
     0
 42
0.000000001
 43
0.00000001
 40
0.0
 40
0.0
 40
0.0
 40
0.0
 40
0.1818999373540369
 40
0.3661867026891503
 40
0.6329375435109387
 40
0.9074241767875441
 40
0.9999999999999999
 40
0.9999999999999999
 40
0.9999999999999999
 40
0.9999999999999999
 10
7.443472992761686
 20
-2.112057188544764
 30
0.0
 10
7.443472992761686
 20
-2.194593256188914
 30
0.0
 10
7.44347299276169
 20
-2.360748401172362
 30
0.0
 10
7.44347299276169
 20
-2.584879654621888
 30
0.0
 10
7.443472992761686
 20
-2.763236271834378
 30
0.0
 10
7.44347299276169
 20
-2.85208386770119
 30
0.0
 10
7.44347299276169
 20
-2.841579250949413
 30
0.0
 10
7.44347299276169
 20
-2.838929910146137
 30
0.0
  0
SPLINE
  5
B3
330
1F
100
AcDbEntity
  8
외형선
  6
Continuous
370
    15
100
AcDbSpline
210
0.0
220
0.0
230
1.0
 70
     8
 71
     3
 72
     8
 73
     4
 74
     0
 42
0.000000001
 43
0.00000001
 40
0.0
 40
0.0
 40
0.0
 40
0.0
 40
1.0
 40
1.0
 40
1.0
 40
1.0
 10
7.443472992761686
 20
-3.1138188020362
 30
0.0
 10
7.10989854993783
 20
-3.208134719253866
 30
0.0
 10
6.778753010771366
 20
-3.288651154981371
 30
0.0
 10
6.44347299276169
 20
-3.354769005419359
 30
0.0
  0
SPLINE
  5
B4
330
1F
100
AcDbEntity
  8
외형선
  6
Continuous
370
    15
100
AcDbSpline
210
0.0
220
0.0
230
1.0
 70
    24
 71
     3
 72
    10
 73
     6
 74
     0
 42
0.000000001
 43
0.00000001
 40
0.0
 40
0.0
 40
0.0
 40
0.0
 40
0.091453822049724
 40
0.7706717589902715
 40
1.0
 40
1.0
 40
1.0
 40
1.0
 10
7.44347299276169
 20
-2.880101056502544
 30
0.0
 10
7.44347299276169
 20
-2.887846252041632
 30
0.0
 10
7.44347299276169
 20
-2.953114201877414
 30
0.0
 10
7.44347299276169
 20
-3.029800361324696
 30
0.0
 10
7.44347299276169
 20
-3.096885649383453
 30
0.0
 10
7.44347299276169
 20
-3.113818802019517
 30
0.0
  0
SPLINE
  5
B5
330
1F
100
AcDbEntity
  8
0
  6
Continuous
 62
     1
370
    15
100
AcDbSpline
210
0.0
220
0.0
230
1.0
 70
     8
 71
     3
 72
    38
 73
    34
 74
     0
 42
0.000000001
 43
0.00000001
 40
0.0
 40
0.0
 40
0.0
 40
0.0
 40
0.0625
 40
0.0625
 40
0.125
 40
0.125
 40
0.1875000000000001
 40
0.1875000000000001
 40
0.2500000000000001
 40
0.2500000000000001
 40
0.3125000000000001
 40
0.3125000000000001
 40
0.3750000000000001
 40
0.3750000000000001
 40
0.4375000000000001
 40
0.4375000000000001
 40
0.5000000000000001
 40
0.5000000000000001
 40
0.5625000000000001
 40
0.5625000000000001
 40
0.6250000000000001
 40
0.6250000000000001
 40
0.6875000000000001
 40
0.6875000000000001
 40
0.7500000000000002
 40
0.7500000000000002
 40
0.8125000000000002
 40
0.8125000000000002
 40
0.8750000000000001
 40
0.8750000000000001
 40
0.9375
 40
0.9375
 40
1.0
 40
1.0
 40
1.0
 40
1.0
 10
21.73097299276169
 20
-3.388423238563799
 30
0.0
 10
21.43589032282738
 20
-3.334371509832355
 30
0.0
 10
21.13660019699974
 20
-3.268302779382132
 30
0.0
 10
20.53886617749657
 20
-3.113893213518677
 30
0.0
 10
20.24269923141714
 20
-3.025815830366597
 30
0.0
 10
19.6497303208378
 20
-2.829321810588447
 30
0.0
 10
19.34988710007286
 20
-2.720511449215612
 30
0.0
 10
18.75280087447386
 20
-2.485016390416151
 30
0.0
 10
18.45833291404823
 20
-2.358780179001507
 30
0.0
 10
17.86319109960839
 20
-2.089983047870975
 30
0.0
 10
17.56312218199958
 20
-1.947445864314961
 30
0.0
 10
16.96732920602579
 20
-1.650516197087763
 30
0.0
 10
16.67312994323645
 20
-1.496437125672522
 30
0.0
 10
16.07645368098954
 20
-1.17753721764468
 30
0.0
 10
15.77648729091848
 20
-1.013124294875214
 30
0.0
 10
15.18262836162631
 20
-0.679524733179761
 30
0.0
 10
14.88726654382203
 20
-0.5100845157622123
 30
0.0
 10
14.28969981134463
 20
-0.1675297613573293
 30
0.0
 10
13.99016379773874
 20
0.0050753432932399
 30
0.0
 10
13.39887276821287
 20
0.3475712017796315
 30
0.0
 10
13.10092131464722
 20
0.5186568379171259
 30
0.0
 10
12.5031113017319
 20
0.8564041830299824
 30
0.0
 10
12.20593851623886
 20
1.02255425365856
 30
0.0
 10
11.61394850359139
 20
1.346226199642425
 30
0.0
 10
11.31427459249323
 20
1.504615602332408
 30
0.0
 10
10.71686936754194
 20
1.809487637500157
 30
0.0
 10
10.42193113928471
 20
1.955534670243253
 30
0.0
 10
9.827530463636874
 20
2.233848209392568
 30
0.0
 10
9.527507802871844
 20
2.366143780592522
 30
0.0
 10
8.93115397263252
 20
2.61284279411559
 30
0.0
 10
8.63702170130025
 20
2.727022206316992
 30
0.0
 10
8.040846158031243
 20
2.936715683377277
 30
0.0
 10
7.74080280256948
 20
3.03190066707203
 30
0.0
 10
7.443472992756996
 20
3.115968659485316
 30
0.0
1001
PE_URL
1000

  0
SPLINE
  5
B6
330
1F
100
AcDbEntity
  8
0
  6
Continuous
 62
     1
370
    15
100
AcDbSpline
210
0.0
220
0.0
230
1.0
 70
     8
 71
     3
 72
    15
 73
    11
 74
     0
 42
0.000000001
 43
0.00000001
 40
0.0
 40
0.0
 40
0.0
 40
0.0
 40
0.1422254227797059
 40
0.2842798731109673
 40
0.4262649644638279
 40
0.5682831001156391
 40
0.7104363067854393
 40
0.8527123918290086
 40
0.9948159674264906
 40
1.0
 40
1.0
 40
1.0
 40
1.0
 10
21.73097299276169
 20
-2.817035378066327
 30
0.0
 10
21.29144606669531
 20
-2.724514791560371
 30
0.0
 10
20.4129205799788
 20
-2.539584839671217
 30
0.0
 10
19.09594624258008
 20
-2.113164600227059
 30
0.0
 10
17.77968120370742
 20
-1.600374216962539
 30
0.0
 10
16.46307437099723
 20
-1.013177788292184
 30
0.0
 10
15.1453726249177
 20
-0.3792219880434811
 30
0.0
 10
13.8271105757432
 20
0.2658131563257802
 30
0.0
 10
12.93242204828501
 20
0.7107568499824887
 30
0.0
 10
12.47737913679929
 20
0.9152711148578813
 30
0.0
 10
12.46136314397559
 20
0.9224693348848542
 30
0.0
1001
PE_URL
1000

  0
LINE
  5
B7
330
1F
100
AcDbEntity
  8
0
  6
Continuous
 62
     1
370
    15
100
AcDbLine
 10
21.73097299276162
 20
-3.388423238563799
 30
0.0
 11
21.73097299276169
 21
-2.817035378066327
 31
0.0
1001
PE_URL
1000

  0
SPLINE
  5
B8
330
1F
100
AcDbEntity
  8
0
  6
Continuous
 62
     1
370
    15
100
AcDbSpline
210
0.0
220
0.0
230
1.0
 70
     8
 71
     3
 72
    38
 73
    34
 74
     0
 42
0.000000001
 43
0.00000001
 40
0.0
 40
0.0
 40
0.0
 40
0.0
 40
0.0625
 40
0.0625
 40
0.125
 40
0.125
 40
0.1875
 40
0.1875
 40
0.25
 40
0.25
 40
0.3125
 40
0.3125
 40
0.375
 40
0.375
 40
0.4375
 40
0.4375
 40
0.5
 40
0.5
 40
0.5625
 40
0.5625
 40
0.625
 40
0.625
 40
0.6875
 40
0.6875
 40
0.75
 40
0.75
 40
0.8125
 40
0.8125
 40
0.875
 40
0.875
 40
0.9375
 40
0.9375
 40
1.0
 40
1.0
 40
1.0
 40
1.0
 10
7.443472992760833
 20
2.512035374019063
 30
0.0
 10
7.740802802573265
 20
2.389864814496938
 30
0.0
 10
8.040846158034949
 20
2.258568212904244
 30
0.0
 10
8.63702170130376
 20
1.981769045480617
 30
0.0
 10
8.93115397263596
 20
1.836647832574154
 30
0.0
 10
9.527507802875151
 20
1.533378493203399
 30
0.0
 10
9.82753046364009
 20
1.375550855174134
 30
0.0
 10
10.42193113928773
 20
1.05245493752001
 30
0.0
 10
10.71686936754491
 20
0.8871192190882412
 30
0.0
 10
11.31427459249605
 20
0.5500477150869642
 30
0.0
 10
11.61394850359412
 20
0.3788243132281904
 30
0.0
 10
12.20593851624139
 20
0.0363545631207284
 30
0.0
 10
12.5031113017344
 20
-0.1358237809831967
 30
0.0
 10
13.10092131464956
 20
-0.4787019525974027
 30
0.0
 10
13.39887276821507
 20
-0.6488774059888216
 30
0.0
 10
13.99016379774083
 20
-0.9826986712765395
 30
0.0
 10
14.28969981134665
 20
-1.147500687999283
 30
0.0
 10
14.88726654382386
 20
-1.467688641996183
 30
0.0
 10
15.18262836162805
 20
-1.622623127062058
 30
0.0
 10
15.77648729092009
 20
-1.920747174417223
 30
0.0
 10
16.07645368099107
 20
-2.064137977794558
 30
0.0
 10
16.67312994323781
 20
-2.335049845360798
 30
0.0
 10
16.96732920602706
 20
-2.462258806189351
 30
0.0
 10
17.56312218200072
 20
-2.699792225312812
 30
0.0
 10
17.86319109960944
 20
-2.809828998400921
 30
0.0
 10
18.45833291404909
 20
-3.009038021915881
 30
0.0
 10
18.75280087447466
 20
-3.098231352215362
 30
0.0
 10
19.3498871000735
 20
-3.25530420819745
 30
0.0
 10
19.64973032083836
 20
-3.322840438408539
 30
0.0
 10
20.24269923141754
 20
-3.433968569134352
 30
0.0
 10
20.53886617749689
 20
-3.477817377988969
 30
0.0
 10
21.1366001969999
 20
-3.541277972669957
 30
0.0
 10
21.43589032282745
 20
-3.560737935201468
 30
0.0
 10
21.73097299276169
 20
-3.567781176924843
 30
0.0
1001
PE_URL
1000

  0
SPLINE
  5
B9
330
1F
100
AcDbEntity
  8
0
  6
Continuous
 62
     1
370
    15
100
AcDbSpline
210
0.0
220
0.0
230
1.0
 70
     8
 71
     3
 72
    12
 73
     8
 74
     0
 42
0.000000001
 43
0.00000001
 40
0.0
 40
0.0
 40
0.0
 40
0.0
 40
0.0631059732861872
 40
0.3065169523494743
 40
0.5499220487904449
 40
0.7748126694413948
 40
0.9999999999999999
 40
0.9999999999999999
 40
0.9999999999999999
 40
0.9999999999999999
 10
12.85070249957387
 20
-0.3349220740452239
 30
0.0
 10
12.73695680250228
 20
-0.2899541388091343
 30
0.0
 10
12.18447369205032
 20
-0.0715368679193174
 30
0.0
 10
11.1933916776239
 20
0.3350093848318813
 30
0.0
 10
9.910690510167543
 20
0.8396437632489925
 30
0.0
 10
8.66078212692767
 20
1.302075970647991
 30
0.0
 10
7.849420998365742
 20
1.556746851137548
 30
0.0
 10
7.44347299276169
 20
1.684166236144816
 30
0.0
1001
PE_URL
1000

  0
SPLINE
  5
BA
330
1F
100
AcDbEntity
  8
외형선
  6
Continuous
370
    15
100
AcDbSpline
210
0.0
220
0.0
230
1.0
 70
    24
 71
     3
 72
    10
 73
     6
 74
     0
 42
0.000000001
 43
0.00000001
 40
0.0
 40
0.0
 40
0.0
 40
0.0
 40
0.5
 40
0.5
 40
1.0
 40
1.0
 40
1.0
 40
1.0
 10
7.44347299276169
 20
2.512035374018539
 30
0.0
 10
7.44347299276169
 20
2.425467253192886
 30
0.0
 10
7.44347299276169
 20
2.303950239688729
 30
0.0
 10
7.44347299276169
 20
2.0161958629815
 30
0.0
 10
7.44347299276169
 20
1.850901154199757
 30
0.0
 10
7.44347299276169
 20
1.684166236144817
 30
0.0
  0
LINE
  5
BB
330
1F
100
AcDbEntity
  8
0
  6
Continuous
 62
     1
370
    15
100
AcDbLine
 10
21.73097299276169
 20
-3.56778117692449
 30
0.0
 11
21.7309729927616
 21
-3.388423238563794
 31
0.0
1001
PE_URL
1000

  0
SPLINE
  5
BC
330
1F
100
AcDbEntity
  8
0
  6
Continuous
 62
     1
370
    15
100
AcDbSpline
210
0.0
220
0.0
230
1.0
 70
     8
 71
     3
 72
     8
 73
     4
 74
     0
 42
0.000000001
 43
0.00000001
 40
0.0
 40
0.0
 40
0.0
 40
0.0
 40
1.0
 40
1.0
 40
1.0
 40
1.0
 10
19.52026331741051
 20
1.000816862336491
 30
0.0
 10
19.39349178942352
 20
1.151035215058841
 30
0.0
 10
19.28042596607727
 20
1.29553092007474
 30
0.0
 10
19.18424822012561
 20
1.432975216943295
 30
0.0
1001
PE_URL
1000

  0
LINE
  5
BD
330
1F
100
AcDbEntity
  8
0
  6
Continuous
 62
     1
370
    15
100
AcDbLine
 10
19.22939774987294
 20
1.470860170702109
 30
0.0
 11
21.73097299276169
 21
0.0010749287238959
 31
0.0
1001
PE_URL
1000

  0
LINE
  5
BE
330
1F
100
AcDbEntity
  8
0
  6
Continuous
 62
     1
370
    15
100
AcDbLine
 10
21.73097299276169
 20
0.0010749287238959
 30
0.0
 11
21.73097299276169
 21
-0.9534834691257418
 31
0.0
1001
PE_URL
1000

  0
SPLINE
  5
BF
330
1F
100
AcDbEntity
  8
0
  6
Continuous
 62
     1
370
    15
100
AcDbSpline
210
0.0
220
0.0
230
1.0
 70
     8
 71
     3
 72
    10
 73
     6
 74
     0
 42
0.000000001
 43
0.00000001
 40
0.0
 40
0.0
 40
0.0
 40
0.0
 40
0.5
 40
0.5
 40
1.0
 40
1.0
 40
1.0
 40
1.0
 10
21.73097299276169
 20
-0.9534834691257427
 30
0.0
 10
21.34828352670832
 20
-0.65262337353742
 30
0.0
 10
20.97199018386097
 20
-0.3394232868182933
 30
0.0
 10
20.23251479503163
 20
0.3122724104584526
 30
0.0
 10
19.86589015555128
 20
0.6542022587058247
 30
0.0
 10
19.52026331741051
 20
1.000816862336495
 30
0.0
1001
PE_URL
1000

  0
SPLINE
  5
C0
330
1F
100
AcDbEntity
  8
0
  6
Continuous
 62
     1
370
    15
100
AcDbSpline
210
0.0
220
0.0
230
1.0
 70
     8
 71
     3
 72
    14
 73
    10
 74
     0
 42
0.000000001
 43
0.00000001
 40
0.0
 40
0.0
 40
0.0
 40
0.0
 40
0.1059967739747388
 40
0.2116450797043021
 40
0.3716994879108527
 40
0.5319082697876877
 40
0.6922574423191264
 40
0.8524094582769515
 40
1.0
 40
1.0
 40
1.0
 40
1.0
 10
19.52026331740571
 20
1.000816862338567
 30
0.0
 10
19.22960660396901
 20
1.124409774562279
 30
0.0
 10
18.64924872160026
 20
1.371189282820789
 30
0.0
 10
17.6308024214468
 20
1.768217718759083
 30
0.0
 10
16.46304718247951
 20
2.167237184636222
 30
0.0
 10
15.14541012153919
 20
2.519657259634166
 30
0.0
 10
13.82715654731503
 20
2.755333231224935
 30
0.0
 10
12.54387873881313
 20
2.874715006553322
 30
0.0
 10
11.70026509328144
 20
2.847715272189501
 30
0.0
 10
11.29567563419826
 20
2.83476644427579
 30
0.0
1001
PE_URL
1000

  0
SPLINE
  5
C1
330
1F
100
AcDbEntity
  8
0
  6
Continuous
 62
     1
370
    15
100
AcDbSpline
210
0.0
220
0.0
230
1.0
 70
    24
 71
     3
 72
    10
 73
     6
 74
     0
 42
0.000000001
 43
0.00000001
 40
0.0
 40
0.0
 40
0.0
 40
0.0
 40
0.5
 40
0.5
 40
1.0
 40
1.0
 40
1.0
 40
1.0
 10
21.73097299276169
 20
-2.817035378066327
 30
0.0
 10
21.73097299276169
 20
-2.601005251374072
 30
0.0
 10
21.73097299276169
 20
-2.328042902854524
 30
0.0
 10
21.73097299276168
 20
-1.693431712242442
 30
0.0
 10
21.73097299276169
 20
-1.332332594425004
 30
0.0
 10
21.73097299276169
 20
-0.953483469125858
 30
0.0
1001
PE_URL
1000

  0
SPLINE
  5
C2
330
1F
100
AcDbEntity
  8
0
  6
Continuous
 62
     1
370
    15
100
AcDbSpline
210
0.0
220
0.0
230
1.0
 70
    24
 71
     3
 72
     8
 73
     4
 74
     0
 42
0.000000001
 43
0.00000001
 40
0.0
 40
0.0
 40
0.0
 40
0.0
 40
1.0
 40
1.0
 40
1.0
 40
1.0
 10
19.55707871397823
 20
1.745817146824602
 30
0.0
 10
19.43917946600945
 20
1.646887931337921
 30
0.0
 10
19.31450831958823
 20
1.54227641835949
 30
0.0
 10
19.18424822012566
 20
1.432975216943333
 30
0.0
1001
PE_URL
1000

  0
SPLINE
  5
C3
330
1F
100
AcDbEntity
  8
0
  6
Continuous
 62
     1
370
    15
100
AcDbSpline
210
0.0
220
0.0
230
1.0
 70
     8
 71
     3
 72
     9
 73
     5
 74
     0
 42
0.000000001
 43
0.00000001
 40
0.0
 40
0.0
 40
0.0
 40
0.0
 40
0.9926626363938029
 40
0.9999999999999999
 40
0.9999999999999999
 40
0.9999999999999999
 40
0.9999999999999999
 10
21.73097299276169
 20
2.501387428723894
 30
0.0
 10
21.29143929031964
 20
2.500844726190683
 30
0.0
 10
20.84865673124318
 20
2.500298012218269
 30
0.0
 10
20.40595988995964
 20
2.44407180139906
 30
0.0
 10
20.40271166226783
 20
2.443659249246081
 30
0.0
1001
PE_URL
1000

  0
SPLINE
  5
C4
330
1F
100
AcDbEntity
  8
0
  6
Continuous
 62
     1
370
    15
100
AcDbSpline
210
0.0
220
0.0
230
1.0
 70
     8
 71
     3
 72
    10
 73
     6
 74
     0
 42
0.000000001
 43
0.00000001
 40
0.0
 40
0.0
 40
0.0
 40
0.0
 40
0.5
 40
0.5
 40
1.0
 40
1.0
 40
1.0
 40
1.0
 10
21.73097299276169
 20
2.501387428723895
 30
0.0
 10
21.36360132989569
 20
2.401683694258411
 30
0.0
 10
20.9984520307114
 20
2.289895872576906
 30
0.0
 10
20.27307731384913
 20
2.039546657429349
 30
0.0
 10
19.91278406410575
 20
1.901481427477593
 30
0.0
 10
19.55707871398416
 20
1.745817146828675
 30
0.0
1001
PE_URL
1000

  0
SPLINE
  5
C5
330
1F
100
AcDbEntity
  8
0
  6
Continuous
 62
     1
370
    15
100
AcDbSpline
210
0.0
220
0.0
230
1.0
 70
     8
 71
     3
 72
    13
 73
     9
 74
     0
 42
0.000000001
 43
0.00000001
 40
0.0
 40
0.0
 40
0.0
 40
0.0
 40
0.0508907133540288
 40
0.2467428478415531
 40
0.4424474554999541
 40
0.6381474518983359
 40
0.8189575456080439
 40
0.9999999999999999
 40
0.9999999999999999
 40
0.9999999999999999
 40
0.9999999999999999
 10
14.16900547415085
 20
-2.67304182761707
 30
0.0
 10
14.05489509696308
 20
-2.694460100174847
 30
0.0
 10
13.50163267284037
 20
-2.798306268138498
 30
0.0
 10
12.50977729020413
 20
-2.8628031461343
 30
0.0
 10
11.19337094543171
 20
-2.854747272809847
 30
0.0
 10
9.910692891158812
 20
-2.710296526937965
 30
0.0
 10
8.660799251733073
 20
-2.466485045934358
 30
0.0
 10
7.849422085510147
 20
-2.230250373068411
 30
0.0
 10
7.443472992761686
 20
-2.112057188544764
 30
0.0
1001
PE_URL
1000

  0
SPLINE
  5
C6
330
1F
100
AcDbEntity
  8
외형선
  6
Continuous
370
    15
100
AcDbSpline
210
0.0
220
0.0
230
1.0
 70
    24
 71
     3
 72
    14
 73
    10
 74
     0
 42
0.000000001
 43
0.00000001
 40
0.0
 40
0.0
 40
0.0
 40
0.0
 40
0.25
 40
0.25
 40
0.5
 40
0.5
 40
0.75
 40
0.75
 40
1.0
 40
1.0
 40
1.0
 40
1.0
 10
7.44347299276169
 20
1.684166236144816
 30
0.0
 10
7.44347299276169
 20
1.410196420349356
 30
0.0
 10
7.44347299276169
 20
1.108025625701771
 30
0.0
 10
7.44347299276169
 20
0.469308511550013
 30
0.0
 10
7.44347299276169
 20
0.1330058520681022
 30
0.0
 10
7.44347299276169
 20
-0.5416924998347037
 30
0.0
 10
7.44347299276169
 20
-0.8797286847657677
 30
0.0
 10
7.44347299276169
 20
-1.525051090992074
 30
0.0
 10
7.44347299276169
 20
-1.832084374775931
 30
0.0
 10
7.44347299276169
 20
-2.112057188544764
 30
0.0
  0
LINE
  5
C7
330
1F
100
AcDbEntity
  8
0
  6
Continuous
 62
     1
370
    15
100
AcDbLine
 10
21.73097299276169
 20
0.0010749287238959
 30
0.0
 11
21.73097299276169
 21
2.501387428723896
 31
0.0
1001
PE_URL
1000

  0
SPLINE
  5
C8
330
1F
100
AcDbEntity
  8
외형선
  6
Continuous
370
    15
100
AcDbSpline
210
0.0
220
0.0
230
1.0
 70
    24
 71
     3
 72
    12
 73
     8
 74
     0
 42
0.000000001
 43
0.00000001
 40
0.0
 40
0.0
 40
0.0
 40
0.0
 40
0.182062500604019
 40
0.3665139622877807
 40
0.6335031972742414
 40
0.9082351381624447
 40
1.0
 40
1.0
 40
1.0
 40
1.0
 10
7.443472992761686
 20
-2.112057188544764
 30
0.0
 10
7.44347299276169
 20
-2.194592959136104
 30
0.0
 10
7.44347299276169
 20
-2.360747506116104
 30
0.0
 10
7.44347299276169
 20
-2.584883968366879
 30
0.0
 10
7.443472992761686
 20
-2.763211530137191
 30
0.0
 10
7.44347299276169
 20
-2.8520262335402
 30
0.0
 10
7.44347299276169
 20
-2.841583298511803
 30
0.0
 10
7.44347299276169
 20
-2.838968556765267
 30
0.0
  0
SPLINE
  5
C9
330
1F
100
AcDbEntity
  8
0
  6
Continuous
 62
     1
370
    15
100
AcDbSpline
210
0.0
220
0.0
230
1.0
 70
    24
 71
     3
 72
    10
 73
     6
 74
     0
 42
0.000000001
 43
0.00000001
 40
0.0
 40
0.0
 40
0.0
 40
0.0
 40
0.5
 40
0.5
 40
1.0
 40
1.0
 40
1.0
 40
1.0
 10
21.73097299276169
 20
2.501387428723894
 30
0.0
 10
21.73097299276169
 20
2.652950146007517
 30
0.0
 10
21.73097299276169
 20
2.829080059708627
 30
0.0
 10
21.73097299276169
 20
3.198600144280948
 30
0.0
 10
21.73097299276169
 20
3.391046607227278
 30
0.0
 10
21.73097299276169
 20
3.569931034372278
 30
0.0
1001
PE_URL
1000

  0
SPLINE
  5
CA
330
1F
100
AcDbEntity
  8
0
  6
Continuous
 62
     1
370
    15
100
AcDbSpline
210
0.0
220
0.0
230
1.0
 70
     8
 71
     3
 72
    14
 73
    10
 74
     0
 42
0.000000001
 43
0.00000001
 40
0.0
 40
0.0
 40
0.0
 40
0.0
 40
0.0195785081325843
 40
0.1244066677694556
 40
0.2295968879798393
 40
0.419700441431369
 40
0.6103493072570333
 40
0.804883317187327
 40
1.0
 40
1.0
 40
1.0
 40
1.0
 10
16.81647740747842
 20
2.395926502297668
 30
0.0
 10
16.84853016122393
 20
2.410064735790492
 30
0.0
 10
17.05220126115194
 20
2.499902557195359
 30
0.0
 10
17.42808081096292
 20
2.649555756874862
 30
0.0
 10
18.08425516029263
 20
2.892474999382481
 30
0.0
 10
18.87924201790079
 20
3.144951490216756
 30
0.0
 10
19.82287730705438
 20
3.368629623730102
 30
0.0
 10
20.77268880392808
 20
3.522563635035857
 30
0.0
 10
21.41122664586695
 20
3.554126168679818
 30
0.0
 10
21.73097299276144
 20
3.56993103437227
 30
0.0
1001
PE_URL
1000

  0
LINE
  5
CB
330
1F
100
AcDbEntity
  8
0
  6
Continuous
 62
     1
370
    15
100
AcDbLine
 10
8.370322446400863
 20
-2.806761112200749
 30
0.0
 11
7.443472992756993
 21
-3.113818802037529
 31
0.0
1001
PE_URL
1000

  0
SPLINE
  5
CC
330
1F
100
AcDbEntity
  8
외형선
  6
Continuous
370
    15
100
AcDbSpline
210
0.0
220
0.0
230
1.0
 70
    24
 71
     3
 72
    11
 73
     7
 74
     0
 42
0.000000001
 43
0.00000001
 40
0.0
 40
0.0
 40
0.0
 40
0.0
 40
0.0929200329837542
 40
0.4317945330996185
 40
0.7710669531266064
 40
1.0
 40
1.0
 40
1.0
 40
1.0
 10
7.44347299276169
 20
-2.880101056502544
 30
0.0
 10
7.44347299276169
 20
-2.887844157790852
 30
0.0
 10
7.44347299276169
 20
-2.923825944475238
 30
0.0
 10
7.44347299276169
 20
-2.984972452105356
 30
0.0
 10
7.44347299276169
 20
-3.055042986933912
 30
0.0
 10
7.44347299276169
 20
-3.096938766495561
 30
0.0
 10
7.44347299276169
 20
-3.113818802019518
 30
0.0
  0
LINE
  5
CD
330
1F
100
AcDbEntity
  8
중심선
 62
     1
100
AcDbLine
 10
-40.0065270072383
 20
0.0010749287238888
 30
0.0
 11
24.73097299276169
 21
0.0010749287238967
 31
0.0
  0
LINE
  5
CE
330
1F
100
AcDbEntity
  8
참조1
100
AcDbLine
 10
-7.637777007238314
 20
0.0010749287238892
 30
0.0
 11
-7.637777007238308
 21
-39.99892507127611
 31
0.0
  0
LINE
  5
CF
330
1F
100
AcDbEntity
  8
참조1
100
AcDbLine
 10
-7.637777007238308
 20
-39.99892507127611
 30
0.0
 11
-27.55658954253795
 21
-39.9989250712761
 31
0.0
  0
CIRCLE
  5
D0
330
1F
100
AcDbEntity
  8
해칭선
100
AcDbCircle
 10
0.0
 20
0.0
 30
0.0
 40
2.999999999999999
  0
INSERT
  5
D1
330
1F
100
AcDbEntity
  8
0
  6
Continuous
 62
     7
100
AcDbBlockReference
 66
     1
  2
블럭10
 10
-21.57804993936352
 20
-52.04609937292004
 30
0.0
  0
ATTRIB
  5
D2
330
D1
100
AcDbEntity
  8
FORMAT
 62
     2
100
AcDbText
 10
-30.7593452281048
 20
-49.97073246008785
 30
0.0
 40
4.233333333333333
  1
E2030018 [ 2 FLUTE ]
 41
0.75
  7
SLDTEXTSTYLE0
 11
-30.7593452281048
 21
-52.08739912675452
 31
0.0
100
AcDbAttribute
  2
AUTOATTR0
 70
     0
 74
     1
  0
SEQEND
  5
D3
330
D1
100
AcDbEntity
  8
0
  6
Continuous
 62
     7
  0
HATCH
  5
D4
330
1F
100
AcDbEntity
  8
중심선
100
AcDbHatch
 10
0.0
 20
0.0
 30
0.0
210
0.0
220
0.0
230
1.0
  2
SOLID
 70
     1
 71
     0
 91
        1
 92
        0
 93
        4
 72
     1
 10
-15.86314063498267
 20
-35.7989250712761
 11
-19.30941587881996
 21
-35.7989250712761
 72
     1
 10
-19.30941587881996
 20
-35.7989250712761
 11
-21.43764573802398
 21
-38.3352506518487
 72
     1
 10
-21.43764573802398
 20
-38.3352506518487
 11
-17.99133740907355
 21
-38.33521122254621
 72
     1
 10
-17.99133740907354
 20
-38.33521122254621
 11
-15.86314063498267
 21
-35.7989250712761
 97
        0
 75
     0
 76
     1
 98
        1
 10
-7.405788321269478
 20
0.0
  0
HATCH
  5
D5
330
1F
100
AcDbEntity
  8
중심선
100
AcDbHatch
 10
0.0
 20
0.0
 30
0.0
210
0.0
220
0.0
230
1.0
  2
SOLID
 70
     1
 71
     0
 91
        1
 92
        0
 93
        4
 72
     1
 10
-10.8503766439467
 20
-35.7989250712761
 11
-14.29665188778398
 21
-35.7989250712761
 72
     1
 10
-14.29665188778398
 20
-35.7989250712761
 11
-18.82778989614139
 21
-41.19892507127612
 72
     1
 10
-18.82778989614139
 20
-41.19892507127612
 11
-15.38151465230411
 21
-41.19892507127612
 72
     1
 10
-15.38151465230411
 20
-41.19892507127612
 11
-10.8503766439467
 21
-35.7989250712761
 97
        0
 75
     0
 76
     1
 98
        1
 10
-7.405788321269478
 20
0.0
  0
HATCH
  5
D6
330
1F
100
AcDbEntity
  8
중심선
100
AcDbHatch
 10
0.0
 20
0.0
 30
0.0
210
0.0
220
0.0
230
1.0
  2
SOLID
 70
     1
 71
     0
 91
        1
 92
        0
 93
        4
 72
     1
 10
-5.837612652910827
 20
-35.7989250712761
 11
-9.283887896747915
 21
-35.7989250712761
 72
     1
 10
-9.283887896747915
 20
-35.7989250712761
 11
-16.33232479863719
 21
-44.19892507127612
 72
     1
 10
-16.33232479863719
 20
-44.19892507127612
 11
-12.88604955479991
 21
-44.19892507127612
 72
     1
 10
-12.88604955479991
 20
-44.19892507127612
 11
-5.837612652910827
 21
-35.7989250712761
 97
        0
 75
     0
 76
     1
 98
        1
 10
-7.405788321269478
 20
0.0
  0
HATCH
  5
D7
330
1F
100
AcDbEntity
  8
중심선
100
AcDbHatch
 10
0.0
 20
0.0
 30
0.0
210
0.0
220
0.0
230
1.0
  2
SOLID
 70
     1
 71
     0
 91
        1
 92
        0
 93
        6
 72
     3
 10
-1.037722221898628
 20
-39.99892507132738
 11
3.960054785062283
 21
1.540882976769353E-10
 40
0.3939339440162628
 50
17.09539180608436
 51
320.0019657685087
 73
     0
 72
     1
 10
0.6452774338019687
 20
-38.58681907591443
 11
2.950579307503006
 21
-36.65249236586651
 72
     3
 10
-1.037722221951475
 20
-39.99892507127625
 11
6.600054785286829
 21
-1.278976924368180E-13
 40
0.636358354079598
 50
39.99873849337382
 51
368.4976242363724
 73
     1
 72
     1
 10
5.387610269949135
 20
-39.03892507120613
 11
-2.357654915115551
 21
-39.03892507120613
 72
     1
 10
-2.357654915115551
 20
-39.03892507120613
 11
-2.357679959561485
 21
-40.95892507120602
 72
     1
 10
-2.357679959561485
 20
-40.95892507120602
 11
2.083699809910553
 21
-40.95892507120599
 97
        0
 75
     0
 76
     1
 98
        1
 10
-7.405788321269478
 20
0.0
  0
DIMENSION
  5
D8
330
1F
100
AcDbEntity
  8
치수문자_일반주서
100
AcDbDimension
  2
_D
 10
-47.00652700723826
 20
-4.76142507127615
 30
0.0
 11
-47.00652700723837
 21
24.49257492872386
 31
0.0
 70
   160
  1
%%c<>
 71
     2
 42
9.525000000000006
 52
-270.0
  3
SLDDIMSTYLE0
100
AcDbAlignedDimension
 13
-36.19652700723832
 23
4.763574928723897
 33
0.0
 14
-36.19652700723832
 24
-4.761425071276109
 34
0.0
 50
90.0000000000002
100
AcDbRotatedDimension
1001
PE_URL
1000

1001
ACAD
1000
DSTYLE
1002
{
1070
   171
1070
     8
1070
   273
1070
     7
1002
}
  0
DIMENSION
  5
ED
330
1F
100
AcDbEntity
  8
치수문자_일반주서
100
AcDbDimension
  2
_D_1
 10
7.443472992761684
 20
14.76357492872389
 30
0.0
 11
41.89747299276168
 21
14.76357492872389
 31
0.0
 70
   160
  1
<>
 71
     2
 42
14.2875
  3
SLDDIMSTYLE0
100
AcDbAlignedDimension
 13
21.73097299276169
 23
3.569931034372278
 33
0.0
 14
7.443472992761686
 24
3.115968659483988
 34
0.0
100
AcDbRotatedDimension
1001
PE_URL
1000

1001
ACAD
1000
DSTYLE
1002
{
1070
   171
1070
     8
1070
   273
1070
     7
1002
}
  0
DIMENSION
  5
102
330
1F
100
AcDbEntity
  8
치수문자_일반주서
100
AcDbDimension
  2
_D_2
 10
-37.00652700723831
 20
24.76357492872389
 30
0.0
 11
-7.63777700723835
 21
24.76357492872389
 31
0.0
 70
   160
  1
<>
 71
     2
 42
58.7375
  3
SLDDIMSTYLE0
100
AcDbAlignedDimension
 13
21.73097299276169
 23
3.569931034372278
 33
0.0
 14
-37.00652700723831
 24
3.953574928723888
 34
0.0
 50
0.0000000000000139
100
AcDbRotatedDimension
1001
PE_URL
1000

1001
ACAD
1000
DSTYLE
1002
{
1070
   171
1070
     8
1070
   273
1070
     7
1002
}
  0
DIMENSION
  5
115
330
1F
100
AcDbEntity
  8
치수문자_일반주서
100
AcDbDimension
  2
_D_3
 10
61.55772960740888
 20
3.569931034372427
 30
0.0
 11
61.5577296074088
 21
24.17393103437242
 31
0.0
 70
   160
  1
%%c<>
 71
     2
 42
7.137712211296767
 52
-270.0
  3
SLDDIMSTYLE0
100
AcDbAlignedDimension
 13
21.73097299276169
 23
-3.56778117692449
 33
0.0
 14
21.73097299276169
 24
3.569931034372278
 34
0.0
 50
90.0000000000002
100
AcDbRotatedDimension
1001
PE_URL
1000

1001
ACAD
1000
DSTYLE
1002
{
1070
   171
1070
     8
1070
   273
1070
     7
1002
}
  0
LINE
  5
129
330
1F
100
AcDbEntity
  8
참조1
100
AcDbLine
 10
70.4157510871163
 20
7.441074928723896
 30
0.0
 11
70.4157510871163
 21
-7.438925071276109
 31
0.0
  0
LINE
  5
12A
330
1F
100
AcDbEntity
  8
참조1
100
AcDbLine
 10
83.11575108711631
 20
5.441074928723896
 30
0.0
 11
70.4157510871163
 21
5.441074928723896
 31
0.0
  0
SOLID
  5
12B
330
1F
100
AcDbEntity
  8
참조1
100
AcDbTrace
 10
70.4157510871163
 20
5.441074928723896
 30
0.0
 11
76.7657510871163
 21
4.425074928723896
 31
0.0
 12
76.7657510871163
 22
6.457074928723896
 32
0.0
 13
76.7657510871163
 23
6.457074928723896
 33
0.0
  0
LINE
  5
12C
330
1F
100
AcDbEntity
  8
참조1
100
AcDbLine
 10
83.11575108711631
 20
-5.438925071276109
 30
0.0
 11
70.4157510871163
 21
-5.438925071276109
 31
0.0
  0
SOLID
  5
12D
330
1F
100
AcDbEntity
  8
참조1
100
AcDbTrace
 10
70.4157510871163
 20
-5.438925071276109
 30
0.0
 11
76.7657510871163
 21
-6.454925071276109
 31
0.0
 12
76.7657510871163
 22
-4.422925071276109
 32
0.0
 13
76.7657510871163
 23
-4.422925071276109
 33
0.0
  0
MTEXT
  5
12E
330
1F
100
AcDbEntity
  8
참조1
100
AcDbMText
 10
79.8001012197423
 20
11.01136670591222
 30
0.0
 40
3.5
 41
0.0
 71
     1
 72
     1
  1
A
  7
SLDTEXTSTYLE0
 73
     1
 44
1.0
  0
MTEXT
  5
12F
330
1F
100
AcDbEntity
  8
참조1
100
AcDbMText
 10
79.8001012197423
 20
0.1313667059122192
 30
0.0
 40
3.5
 41
0.0
 71
     1
 72
     1
  1
A
  7
SLDTEXTSTYLE0
 73
     1
 44
1.0
  0
INSERT
  5
136
330
1F
100
AcDbEntity
  8
해칭선
100
AcDbBlockReference
  2
SW_DOWELSYMBOL_0
 10
0.0
 20
0.0
 30
0.0
  0
LINE
  5
1EC
330
1F
100
AcDbEntity
  8
외형선
  6
Continuous
370
    15
100
AcDbLine
 10
-20.73147700723843
 20
3.493574928723898
 30
0.0
 11
-13.59407700723831
 21
3.493574928723898
 31
0.0
1001
PE_URL
1000

  0
LINE
  5
1ED
330
1F
100
AcDbEntity
  8
외형선
  6
Continuous
370
    15
100
AcDbLine
 10
-20.73147700723843
 20
3.493574928723898
 30
0.0
 11
-22.00147700723841
 21
4.76357492872388
 31
0.0
1001
PE_URL
1000

  0
LINE
  5
1EE
330
1F
100
AcDbEntity
  8
외형선
  6
Continuous
370
    15
100
AcDbLine
 10
-13.59407700723831
 20
3.493574928723898
 30
0.0
 11
-12.32407700723821
 21
4.76357492872388
 31
0.0
1001
PE_URL
1000

  0
LINE
  5
1EF
330
1F
100
AcDbEntity
  8
외형선
  6
Continuous
370
    15
100
AcDbLine
 10
-22.00147700723843
 20
4.763574928723892
 30
0.0
 11
-36.19652700723831
 21
4.763574928723891
 31
0.0
  0
ENDSEC
  0
SECTION
  2
OBJECTS
  0
DICTIONARY
  5
C
330
0
100
AcDbDictionary
281
     1
  3
ACAD_DETAILVIEWSTYLE
350
1EA
  3
ACAD_GROUP
350
D
  3
ACAD_IMAGE_VARS
350
219
  3
ACAD_LAYOUT
350
1A
  3
ACAD_MLINESTYLE
350
17
  3
ACAD_PLOTSETTINGS
350
19
  3
ACAD_PLOTSTYLENAME
350
E
  3
ACAD_SCALELIST
350
47
  3
ACAD_SECTIONVIEWSTYLE
350
1EB
  3
AcDbVariableDictionary
350
1E5
  3
APPDATA
350
158
  3
DWGPROPS
350
21A
  0
DICTIONARY
  5
191
330
2
100
AcDbDictionary
280
     1
281
     1
  3
ACAD_LAYERSTATES
360
192
  0
DICTIONARY
  5
1EA
102
{ACAD_REACTORS
330
C
102
}
330
C
100
AcDbDictionary
281
     1
  0
DICTIONARY
  5
D
102
{ACAD_REACTORS
330
C
102
}
330
C
100
AcDbDictionary
281
     1
  0
RASTERVARIABLES
  5
219
102
{ACAD_REACTORS
330
C
102
}
330
C
100
AcDbRasterVariables
 90
        0
 70
     1
 71
     1
 72
     1
  0
DICTIONARY
  5
1A
102
{ACAD_REACTORS
330
C
102
}
330
C
100
AcDbDictionary
281
     1
  3
Layout1
350
1E
  3
Layout2
350
26
  3
Model
350
22
  0
DICTIONARY
  5
17
102
{ACAD_REACTORS
330
C
102
}
330
C
100
AcDbDictionary
281
     1
  3
Standard
350
18
  0
DICTIONARY
  5
19
102
{ACAD_REACTORS
330
C
102
}
330
C
100
AcDbDictionary
281
     1
  0
ACDBDICTIONARYWDFLT
  5
E
102
{ACAD_REACTORS
330
C
102
}
330
C
100
AcDbDictionary
281
     1
  3
Normal
350
F
100
AcDbDictionaryWithDefault
340
F
  0
DICTIONARY
  5
47
102
{ACAD_REACTORS
330
C
102
}
330
C
100
AcDbDictionary
281
     1
  3
A0
350
48
  3
A1
350
49
  3
A2
350
4A
  3
A3
350
4B
  3
A4
350
4C
  3
A5
350
4D
  3
A6
350
4E
  3
A7
350
4F
  3
A8
350
50
  3
A9
350
51
  3
B0
350
52
  3
B1
350
53
  3
B2
350
54
  3
B3
350
55
  3
B4
350
56
  3
B5
350
57
  3
B6
350
58
  3
B7
350
59
  3
B8
350
5A
  3
B9
350
5B
  3
C0
350
5C
  3
C1
350
5D
  3
C2
350
5E
  3
C3
350
5F
  3
C4
350
60
  3
C5
350
61
  3
C6
350
62
  3
C7
350
63
  3
C8
350
64
  3
C9
350
65
  3
D0
350
66
  3
D1
350
67
  3
D2
350
68
  0
DICTIONARY
  5
1EB
102
{ACAD_REACTORS
330
C
102
}
330
C
100
AcDbDictionary
281
     1
  0
DICTIONARY
  5
1E5
102
{ACAD_REACTORS
330
C
102
}
330
C
100
AcDbDictionary
281
     1
  0
DICTIONARY
  5
158
102
{ACAD_REACTORS
330
C
102
}
330
C
100
AcDbDictionary
281
     1
  0
XRECORD
  5
21A
102
{ACAD_REACTORS
330
C
102
}
330
C
100
AcDbXrecord
280
     1
  1
DWGPROPS COOKIE
  2

  3

  4

  6

  7

  8
12016016
  9

300
=
301
=
302
=
303
=
304
=
305
=
306
=
307
=
308
=
309
=
 40
0.0
 41
2458311.082119456
 42
2458323.076441342
  1

 90
        0
  0
DICTIONARY
  5
192
102
{ACAD_REACTORS
330
191
102
}
330
191
100
AcDbDictionary
281
     1
  0
LAYOUT
  5
1E
102
{ACAD_REACTORS
330
1A
102
}
330
1A
100
AcDbPlotSettings
  1

  2
none_device
  4

  6

 40
0.0
 41
0.0
 42
0.0
 43
0.0
 44
0.0
 45
0.0
 46
0.0
 47
0.0
 48
0.0
 49
0.0
140
0.0
141
0.0
142
1.0
143
1.0
 70
   688
 72
     1
 73
     0
 74
     5
  7

 75
    16
147
1.0
148
0.0
149
0.0
100
AcDbLayout
  1
Layout1
 70
     1
 71
     1
 10
0.0
 20
0.0
 11
420.0
 21
297.0
 12
0.0
 22
0.0
 32
0.0
 14
1.000000000000000E+20
 24
1.000000000000000E+20
 34
1.000000000000000E+20
 15
-1.000000000000000E+20
 25
-1.000000000000000E+20
 35
-1.000000000000000E+20
146
0.0
 13
0.0
 23
0.0
 33
0.0
 16
1.0
 26
0.0
 36
0.0
 17
0.0
 27
1.0
 37
0.0
 76
     0
330
1B
  0
LAYOUT
  5
26
102
{ACAD_REACTORS
330
1A
102
}
330
1A
100
AcDbPlotSettings
  1

  2
none_device
  4

  6

 40
0.0
 41
0.0
 42
0.0
 43
0.0
 44
0.0
 45
0.0
 46
0.0
 47
0.0
 48
0.0
 49
0.0
140
0.0
141
0.0
142
1.0
143
1.0
 70
   688
 72
     1
 73
     0
 74
     5
  7

 75
    16
147
1.0
148
0.0
149
0.0
100
AcDbLayout
  1
Layout2
 70
     1
 71
     2
 10
0.0
 20
0.0
 11
0.0
 21
0.0
 12
0.0
 22
0.0
 32
0.0
 14
0.0
 24
0.0
 34
0.0
 15
0.0
 25
0.0
 35
0.0
146
0.0
 13
0.0
 23
0.0
 33
0.0
 16
1.0
 26
0.0
 36
0.0
 17
0.0
 27
1.0
 37
0.0
 76
     0
330
23
  0
LAYOUT
  5
22
102
{ACAD_REACTORS
330
1A
102
}
330
1A
100
AcDbPlotSettings
  1

  2
none_device
  4
ANSI_A_(11.00_x_8.50_Inches)
  6

 40
6.35
 41
19.05
 42
6.35000508
 43
19.05000254
 44
279.4
 45
215.9
 46
97.29435350420616
 47
94.68397083529565
 48
0.0
 49
0.0
140
0.0
141
0.0
142
0.0758329297803653
143
1.0
 70
  1696
 72
     0
 73
     0
 74
     0
  7

 75
     0
147
0.0235690232323232
148
0.0
149
0.0
100
AcDbLayout
  1
Model
 70
     1
 71
     0
 10
0.0
 20
0.0
 11
420.0
 21
297.0
 12
0.0
 22
0.0
 32
0.0
 14
-51.3815270072384
 24
-49.97073246008785
 34
0.0
 15
83.11575108711631
 25
38.17393103437242
 35
0.0
146
0.0
 13
0.0
 23
0.0
 33
0.0
 16
1.0
 26
0.0
 36
0.0
 17
0.0
 27
1.0
 37
0.0
 76
     0
330
1F
331
29
  0
MLINESTYLE
  5
18
102
{ACAD_REACTORS
330
17
102
}
330
17
100
AcDbMlineStyle
  2
Standard
 70
     0
  3

 62
   256
 51
90.0
 52
90.0
 71
     2
 49
0.5
 62
   256
  6
BYLAYER
 49
-0.5
 62
   256
  6
BYLAYER
  0
ACDBPLACEHOLDER
  5
F
102
{ACAD_REACTORS
330
E
102
}
330
E
  0
SCALE
  5
48
102
{ACAD_REACTORS
330
47
102
}
330
47
100
AcDbScale
 70
     0
300
1:1
140
1.0
141
1.0
290
     1
  0
SCALE
  5
49
102
{ACAD_REACTORS
330
47
102
}
330
47
100
AcDbScale
 70
     0
300
1:2
140
1.0
141
2.0
290
     0
  0
SCALE
  5
4A
102
{ACAD_REACTORS
330
47
102
}
330
47
100
AcDbScale
 70
     0
300
1:4
140
1.0
141
4.0
290
     0
  0
SCALE
  5
4B
102
{ACAD_REACTORS
330
47
102
}
330
47
100
AcDbScale
 70
     0
300
1:5
140
1.0
141
5.0
290
     0
  0
SCALE
  5
4C
102
{ACAD_REACTORS
330
47
102
}
330
47
100
AcDbScale
 70
     0
300
1:8
140
1.0
141
8.0
290
     0
  0
SCALE
  5
4D
102
{ACAD_REACTORS
330
47
102
}
330
47
100
AcDbScale
 70
     0
300
1:10
140
1.0
141
10.0
290
     0
  0
SCALE
  5
4E
102
{ACAD_REACTORS
330
47
102
}
330
47
100
AcDbScale
 70
     0
300
1:16
140
1.0
141
16.0
290
     0
  0
SCALE
  5
4F
102
{ACAD_REACTORS
330
47
102
}
330
47
100
AcDbScale
 70
     0
300
1:20
140
1.0
141
20.0
290
     0
  0
SCALE
  5
50
102
{ACAD_REACTORS
330
47
102
}
330
47
100
AcDbScale
 70
     0
300
1:30
140
1.0
141
30.0
290
     0
  0
SCALE
  5
51
102
{ACAD_REACTORS
330
47
102
}
330
47
100
AcDbScale
 70
     0
300
1:40
140
1.0
141
40.0
290
     0
  0
SCALE
  5
52
102
{ACAD_REACTORS
330
47
102
}
330
47
100
AcDbScale
 70
     0
300
1:50
140
1.0
141
50.0
290
     0
  0
SCALE
  5
53
102
{ACAD_REACTORS
330
47
102
}
330
47
100
AcDbScale
 70
     0
300
1:100
140
1.0
141
100.0
290
     0
  0
SCALE
  5
54
102
{ACAD_REACTORS
330
47
102
}
330
47
100
AcDbScale
 70
     0
300
2:1
140
2.0
141
1.0
290
     0
  0
SCALE
  5
55
102
{ACAD_REACTORS
330
47
102
}
330
47
100
AcDbScale
 70
     0
300
4:1
140
4.0
141
1.0
290
     0
  0
SCALE
  5
56
102
{ACAD_REACTORS
330
47
102
}
330
47
100
AcDbScale
 70
     0
300
8:1
140
8.0
141
1.0
290
     0
  0
SCALE
  5
57
102
{ACAD_REACTORS
330
47
102
}
330
47
100
AcDbScale
 70
     0
300
10:1
140
10.0
141
1.0
290
     0
  0
SCALE
  5
58
102
{ACAD_REACTORS
330
47
102
}
330
47
100
AcDbScale
 70
     0
300
100:1
140
100.0
141
1.0
290
     0
  0
SCALE
  5
59
102
{ACAD_REACTORS
330
47
102
}
330
47
100
AcDbScale
 70
     0
300
1/128" = 1'-0"
140
0.0078125
141
12.0
290
     0
  0
SCALE
  5
5A
102
{ACAD_REACTORS
330
47
102
}
330
47
100
AcDbScale
 70
     0
300
1/64" = 1'-0"
140
0.015625
141
12.0
290
     0
  0
SCALE
  5
5B
102
{ACAD_REACTORS
330
47
102
}
330
47
100
AcDbScale
 70
     0
300
1/32" = 1'-0"
140
0.03125
141
12.0
290
     0
  0
SCALE
  5
5C
102
{ACAD_REACTORS
330
47
102
}
330
47
100
AcDbScale
 70
     0
300
1/16" = 1'-0"
140
0.0625
141
12.0
290
     0
  0
SCALE
  5
5D
102
{ACAD_REACTORS
330
47
102
}
330
47
100
AcDbScale
 70
     0
300
3/32" = 1'-0"
140
0.09375
141
12.0
290
     0
  0
SCALE
  5
5E
102
{ACAD_REACTORS
330
47
102
}
330
47
100
AcDbScale
 70
     0
300
1/8" = 1'-0"
140
0.125
141
12.0
290
     0
  0
SCALE
  5
5F
102
{ACAD_REACTORS
330
47
102
}
330
47
100
AcDbScale
 70
     0
300
3/16" = 1'-0"
140
0.1875
141
12.0
290
     0
  0
SCALE
  5
60
102
{ACAD_REACTORS
330
47
102
}
330
47
100
AcDbScale
 70
     0
300
1/4" = 1'-0"
140
0.25
141
12.0
290
     0
  0
SCALE
  5
61
102
{ACAD_REACTORS
330
47
102
}
330
47
100
AcDbScale
 70
     0
300
3/8" = 1'-0"
140
0.375
141
12.0
290
     0
  0
SCALE
  5
62
102
{ACAD_REACTORS
330
47
102
}
330
47
100
AcDbScale
 70
     0
300
1/2" = 1'-0"
140
0.5
141
12.0
290
     0
  0
SCALE
  5
63
102
{ACAD_REACTORS
330
47
102
}
330
47
100
AcDbScale
 70
     0
300
3/4" = 1'-0"
140
0.75
141
12.0
290
     0
  0
SCALE
  5
64
102
{ACAD_REACTORS
330
47
102
}
330
47
100
AcDbScale
 70
     0
300
1" = 1'-0"
140
1.0
141
12.0
290
     0
  0
SCALE
  5
65
102
{ACAD_REACTORS
330
47
102
}
330
47
100
AcDbScale
 70
     0
300
1-1/2" = 1'-0"
140
1.5
141
12.0
290
     0
  0
SCALE
  5
66
102
{ACAD_REACTORS
330
47
102
}
330
47
100
AcDbScale
 70
     0
300
3" = 1'-0"
140
3.0
141
12.0
290
     0
  0
SCALE
  5
67
102
{ACAD_REACTORS
330
47
102
}
330
47
100
AcDbScale
 70
     0
300
6" = 1'-0"
140
6.0
141
12.0
290
     0
  0
SCALE
  5
68
102
{ACAD_REACTORS
330
47
102
}
330
47
100
AcDbScale
 70
     0
300
1'-0" = 1'-0"
140
12.0
141
12.0
290
     0
  0
ENDSEC
  0
EOF
