  0
SECTION
  2
HEADER
  9
$ACADVER
  1
AC1015
  9
$ACADMAINTVER
 70
     6
  9
$DWGCODEPAGE
  3
ANSI_949
  9
$INSBASE
 10
0.0
 20
0.0
 30
0.0
  9
$EXTMIN
 10
-53.49692116787315
 20
-49.91900435901375
 30
0.0
  9
$EXTMAX
 10
88.14158764747253
 20
42.8743174046235
 30
0.0
  9
$LIMMIN
 10
0.0
 20
0.0
  9
$LIMMAX
 10
420.0
 20
297.0
  9
$ORTHOMODE
 70
     1
  9
$REGENMODE
 70
     1
  9
$FILLMODE
 70
     1
  9
$QTEXTMODE
 70
     0
  9
$MIRRTEXT
 70
     1
  9
$LTSCALE
 40
1.0
  9
$ATTMODE
 70
     1
  9
$TEXTSIZE
 40
3.5
  9
$TRACEWID
 40
1.0
  9
$TEXTSTYLE
  7
Standard
  9
$CLAYER
  8
0
  9
$CELTYPE
  6
ByLayer
  9
$CECOLOR
 62
   256
  9
$CELTSCALE
 40
1.0
  9
$DISPSILH
 70
     0
  9
$DIMSCALE
 40
1.0
  9
$DIMASZ
 40
3.302
  9
$DIMEXO
 40
1.0
  9
$DIMDLI
 40
3.75
  9
$DIMRND
 40
0.0
  9
$DIMDLE
 40
0.0
  9
$DIMEXE
 40
1.0
  9
$DIMTP
 40
0.0
  9
$DIMTM
 40
0.0
  9
$DIMTXT
 40
3.5
  9
$DIMCEN
 40
2.5
  9
$DIMTSZ
 40
0.0
  9
$DIMTOL
 70
     0
  9
$DIMLIM
 70
     0
  9
$DIMTIH
 70
     1
  9
$DIMTOH
 70
     1
  9
$DIMSE1
 70
     0
  9
$DIMSE2
 70
     0
  9
$DIMTAD
 70
     1
  9
$DIMZIN
 70
     0
  9
$DIMBLK
  1

  9
$DIMASO
 70
     1
  9
$DIMSHO
 70
     1
  9
$DIMPOST
  1

  9
$DIMAPOST
  1

  9
$DIMALT
 70
     0
  9
$DIMALTD
 70
     3
  9
$DIMALTF
 40
0.0393700787401575
  9
$DIMLFAC
 40
1.0
  9
$DIMTOFL
 70
     1
  9
$DIMTVP
 40
0.0
  9
$DIMTIX
 70
     0
  9
$DIMSOXD
 70
     0
  9
$DIMSAH
 70
     0
  9
$DIMBLK1
  1

  9
$DIMBLK2
  1

  9
$DIMSTYLE
  2
ISO-25
  9
$DIMCLRD
 70
     0
  9
$DIMCLRE
 70
     0
  9
$DIMCLRT
 70
     0
  9
$DIMTFAC
 40
1.0
  9
$DIMGAP
 40
1.524
  9
$DIMJUST
 70
     0
  9
$DIMSD1
 70
     0
  9
$DIMSD2
 70
     0
  9
$DIMTOLJ
 70
     0
  9
$DIMTZIN
 70
     0
  9
$DIMALTZ
 70
     0
  9
$DIMALTTZ
 70
     0
  9
$DIMUPT
 70
     0
  9
$DIMDEC
 70
     2
  9
$DIMTDEC
 70
     2
  9
$DIMALTU
 70
     2
  9
$DIMALTTD
 70
     3
  9
$DIMTXSTY
  7
Standard
  9
$DIMAUNIT
 70
     0
  9
$DIMADEC
 70
     2
  9
$DIMALTRND
 40
0.0
  9
$DIMAZIN
 70
     0
  9
$DIMDSEP
 70
    44
  9
$DIMATFIT
 70
     3
  9
$DIMFRAC
 70
     0
  9
$DIMLDRBLK
  1

  9
$DIMLUNIT
 70
     2
  9
$DIMLWD
 70
    -2
  9
$DIMLWE
 70
    -2
  9
$DIMTMOVE
 70
     0
  9
$LUNITS
 70
     2
  9
$LUPREC
 70
     2
  9
$SKETCHINC
 40
1.0
  9
$FILLETRAD
 40
10.0
  9
$AUNITS
 70
     0
  9
$AUPREC
 70
     2
  9
$MENU
  1
.
  9
$ELEVATION
 40
0.0
  9
$PELEVATION
 40
0.0
  9
$THICKNESS
 40
0.0
  9
$LIMCHECK
 70
     0
  9
$CHAMFERA
 40
0.0
  9
$CHAMFERB
 40
0.0
  9
$CHAMFERC
 40
0.0
  9
$CHAMFERD
 40
0.0
  9
$SKPOLY
 70
     0
  9
$TDCREATE
 40
2458311.558860278
  9
$TDUCREATE
 40
2458311.183860278
  9
$TDUPDATE
 40
2458323.451050162
  9
$TDUUPDATE
 40
2458323.076050162
  9
$TDINDWG
 40
0.0018072685
  9
$TDUSRTIMER
 40
2458323.076008808
  9
$USRTIMER
 70
     1
  9
$ANGBASE
 50
0.0
  9
$ANGDIR
 70
     0
  9
$PDMODE
 70
     0
  9
$PDSIZE
 40
-1.0
  9
$PLINEWID
 40
0.0
  9
$SPLFRAME
 70
     0
  9
$SPLINETYPE
 70
     6
  9
$SPLINESEGS
 70
     8
  9
$HANDSEED
  5
2BA
  9
$SURFTAB1
 70
     6
  9
$SURFTAB2
 70
     6
  9
$SURFTYPE
 70
     6
  9
$SURFU
 70
     6
  9
$SURFV
 70
     6
  9
$UCSBASE
  2

  9
$UCSNAME
  2

  9
$UCSORG
 10
0.0
 20
0.0
 30
0.0
  9
$UCSXDIR
 10
1.0
 20
0.0
 30
0.0
  9
$UCSYDIR
 10
0.0
 20
1.0
 30
0.0
  9
$UCSORTHOREF
  2

  9
$UCSORTHOVIEW
 70
     0
  9
$UCSORGTOP
 10
0.0
 20
0.0
 30
0.0
  9
$UCSORGBOTTOM
 10
0.0
 20
0.0
 30
0.0
  9
$UCSORGLEFT
 10
0.0
 20
0.0
 30
0.0
  9
$UCSORGRIGHT
 10
0.0
 20
0.0
 30
0.0
  9
$UCSORGFRONT
 10
0.0
 20
0.0
 30
0.0
  9
$UCSORGBACK
 10
0.0
 20
0.0
 30
0.0
  9
$PUCSBASE
  2

  9
$PUCSNAME
  2

  9
$PUCSORG
 10
0.0
 20
0.0
 30
0.0
  9
$PUCSXDIR
 10
1.0
 20
0.0
 30
0.0
  9
$PUCSYDIR
 10
0.0
 20
1.0
 30
0.0
  9
$PUCSORTHOREF
  2

  9
$PUCSORTHOVIEW
 70
     0
  9
$PUCSORGTOP
 10
0.0
 20
0.0
 30
0.0
  9
$PUCSORGBOTTOM
 10
0.0
 20
0.0
 30
0.0
  9
$PUCSORGLEFT
 10
0.0
 20
0.0
 30
0.0
  9
$PUCSORGRIGHT
 10
0.0
 20
0.0
 30
0.0
  9
$PUCSORGFRONT
 10
0.0
 20
0.0
 30
0.0
  9
$PUCSORGBACK
 10
0.0
 20
0.0
 30
0.0
  9
$USERI1
 70
     0
  9
$USERI2
 70
     0
  9
$USERI3
 70
     0
  9
$USERI4
 70
     0
  9
$USERI5
 70
     0
  9
$USERR1
 40
0.0
  9
$USERR2
 40
0.0
  9
$USERR3
 40
0.0
  9
$USERR4
 40
0.0
  9
$USERR5
 40
0.0
  9
$WORLDVIEW
 70
     1
  9
$SHADEDGE
 70
     3
  9
$SHADEDIF
 70
    70
  9
$TILEMODE
 70
     1
  9
$MAXACTVP
 70
    64
  9
$PINSBASE
 10
0.0
 20
0.0
 30
0.0
  9
$PLIMCHECK
 70
     0
  9
$PEXTMIN
 10
1.000000000000000E+20
 20
1.000000000000000E+20
 30
1.000000000000000E+20
  9
$PEXTMAX
 10
-1.000000000000000E+20
 20
-1.000000000000000E+20
 30
-1.000000000000000E+20
  9
$PLIMMIN
 10
0.0
 20
0.0
  9
$PLIMMAX
 10
0.0
 20
0.0
  9
$UNITMODE
 70
     0
  9
$VISRETAIN
 70
     1
  9
$PLINEGEN
 70
     0
  9
$PSLTSCALE
 70
     1
  9
$TREEDEPTH
 70
  3020
  9
$CMLSTYLE
  2
Standard
  9
$CMLJUST
 70
     0
  9
$CMLSCALE
 40
20.0
  9
$PROXYGRAPHICS
 70
     1
  9
$MEASUREMENT
 70
     1
  9
$CELWEIGHT
370
    -1
  9
$ENDCAPS
280
     0
  9
$JOINSTYLE
280
     0
  9
$LWDISPLAY
290
     1
  9
$INSUNITS
 70
     4
  9
$HYPERLINKBASE
  1

  9
$STYLESHEET
  1

  9
$XEDIT
290
     1
  9
$CEPSNTYPE
380
     0
  9
$PSTYLEMODE
290
     1
  9
$FINGERPRINTGUID
  2
{52C1457B-34D0-4946-B7AB-7A9676CA5824}
  9
$VERSIONGUID
  2
{FAEB1C32-E019-11D5-929B-00C0DF256EC4}
  9
$EXTNAMES
290
     1
  9
$PSVPSCALE
 40
0.0
  9
$OLESTARTUP
290
     0
  0
ENDSEC
  0
SECTION
  2
CLASSES
  0
CLASS
  1
ACDBDICTIONARYWDFLT
  2
AcDbDictionaryWithDefault
  3
ObjectDBX Classes
 90
        0
280
     0
281
     0
  0
CLASS
  1
VISUALSTYLE
  2
AcDbVisualStyle
  3
ObjectDBX Classes
 90
     4095
280
     0
281
     0
  0
CLASS
  1
MATERIAL
  2
AcDbMaterial
  3
ObjectDBX Classes
 90
     1153
280
     0
281
     0
  0
CLASS
  1
SCALE
  2
AcDbScale
  3
ObjectDBX Classes
 90
     1153
280
     0
281
     0
  0
CLASS
  1
SUN
  2
AcDbSun
  3
SCENEOE
 90
     1153
280
     0
281
     0
  0
CLASS
  1
ACDBPLACEHOLDER
  2
AcDbPlaceHolder
  3
ObjectDBX Classes
 90
        0
280
     0
281
     0
  0
CLASS
  1
LAYOUT
  2
AcDbLayout
  3
ObjectDBX Classes
 90
        0
280
     0
281
     0
  0
CLASS
  1
TABLESTYLE
  2
AcDbTableStyle
  3
ObjectDBX Classes
 90
     4095
280
     0
281
     0
  0
CLASS
  1
MLEADERSTYLE
  2
AcDbMLeaderStyle
  3
ACDB_MLEADERSTYLE_CLASS
 90
     4095
280
     0
281
     0
  0
CLASS
  1
RASTERVARIABLES
  2
AcDbRasterVariables
  3
ISM
 90
        0
280
     0
281
     0
  0
ENDSEC
  0
SECTION
  2
TABLES
  0
TABLE
  2
VPORT
  5
8
330
0
100
AcDbSymbolTable
 70
     1
  0
VPORT
  5
29
330
8
100
AcDbSymbolTableRecord
100
AcDbViewportTableRecord
  2
*Active
 70
     0
 10
0.0
 20
0.0
 11
1.0
 21
1.0
 12
17.32233323979969
 22
-3.522343477195079
 13
0.0
 23
0.0
 14
10.0
 24
10.0
 15
10.0
 25
10.0
 16
0.0
 26
0.0
 36
1.0
 17
0.0
 27
0.0
 37
0.0
 40
94.6491881989101
 41
1.782762691853601
 42
50.0
 43
0.0
 44
0.0
 50
0.0
 51
0.0
 71
    16
 72
  2000
 73
     1
 74
     3
 75
     0
 76
     0
 77
     0
 78
     0
281
     0
 65
     1
110
0.0
120
0.0
130
0.0
111
1.0
121
0.0
131
0.0
112
0.0
122
1.0
132
0.0
 79
     0
146
0.0
  0
ENDTAB
  0
TABLE
  2
LTYPE
  5
5
330
0
100
AcDbSymbolTable
 70
     6
  0
LTYPE
  5
14
330
5
100
AcDbSymbolTableRecord
100
AcDbLinetypeTableRecord
  2
ByBlock
 70
     0
  3

 72
    65
 73
     0
 40
0.0
  0
LTYPE
  5
15
330
5
100
AcDbSymbolTableRecord
100
AcDbLinetypeTableRecord
  2
ByLayer
 70
     0
  3

 72
    65
 73
     0
 40
0.0
  0
LTYPE
  5
16
330
5
100
AcDbSymbolTableRecord
100
AcDbLinetypeTableRecord
  2
Continuous
 70
     0
  3
Solid line
 72
    65
 73
     0
 40
0.0
  0
LTYPE
  5
6A
330
5
100
AcDbSymbolTableRecord
100
AcDbLinetypeTableRecord
  2
HIDDEN
 70
     0
  3
Hidden __ __ __ __ __ __ __ __ __ __ __ __ __ __
 72
    65
 73
     2
 40
1.905
 49
1.27
 74
     0
 49
-0.635
 74
     0
  0
LTYPE
  5
6B
330
5
100
AcDbSymbolTableRecord
100
AcDbLinetypeTableRecord
  2
PHANTOM
 70
     0
  3
Phantom ______  __  __  ______  __  __  ______
 72
    65
 73
     6
 40
12.7
 49
6.35
 74
     0
 49
-1.27
 74
     0
 49
1.27
 74
     0
 49
-1.27
 74
     0
 49
1.27
 74
     0
 49
-1.27
 74
     0
  0
LTYPE
  5
6C
330
5
100
AcDbSymbolTableRecord
100
AcDbLinetypeTableRecord
  2
CENTER
 70
     0
  3
Center ____ _ ____ _ ____ _ ____ _ ____ _ ____
 72
    65
 73
     4
 40
10.16
 49
6.35
 74
     0
 49
-1.27
 74
     0
 49
1.27
 74
     0
 49
-1.27
 74
     0
  0
LTYPE
  5
6D
330
5
100
AcDbSymbolTableRecord
100
AcDbLinetypeTableRecord
  2
CENTERX2
 70
     0
  3
Center (2x) ________  __  ________  __  _____
 72
    65
 73
     4
 40
20.32
 49
12.7
 74
     0
 49
-2.54
 74
     0
 49
2.54
 74
     0
 49
-2.54
 74
     0
  0
LTYPE
  5
6E
330
5
100
AcDbSymbolTableRecord
100
AcDbLinetypeTableRecord
  2
DOT2
 70
     0
  3
Dot (.5x) ........................................
 72
    65
 73
     2
 40
0.635
 49
0.0
 74
     0
 49
-0.635
 74
     0
  0
ENDTAB
  0
TABLE
  2
LAYER
  5
2
102
{ACAD_XDICTIONARY
360
18C
102
}
330
0
100
AcDbSymbolTable
 70
    18
  0
LAYER
  5
10
330
2
100
AcDbSymbolTableRecord
100
AcDbLayerTableRecord
  2
0
 70
     0
 62
     7
  6
Continuous
370
    -3
390
F
  0
LAYER
  5
6F
330
2
100
AcDbSymbolTableRecord
100
AcDbLayerTableRecord
  2
FORMAT
 70
     0
 62
     2
  6
Continuous
370
    -3
390
F
  0
LAYER
  5
70
330
2
100
AcDbSymbolTableRecord
100
AcDbLayerTableRecord
  2
외형선
 70
     0
 62
     4
  6
Continuous
370
    30
390
F
  0
LAYER
  5
71
330
2
100
AcDbSymbolTableRecord
100
AcDbLayerTableRecord
  2
숨은선
 70
     0
 62
     2
  6
HIDDEN
370
    15
390
F
  0
LAYER
  5
72
330
2
100
AcDbSymbolTableRecord
100
AcDbLayerTableRecord
  2
중심선
 70
     0
 62
     1
  6
CENTERX2
370
    -3
390
F
  0
LAYER
  5
73
330
2
100
AcDbSymbolTableRecord
100
AcDbLayerTableRecord
  2
파단선
 70
     0
 62
     4
  6
Continuous
370
    -3
390
F
  0
LAYER
  5
74
330
2
100
AcDbSymbolTableRecord
100
AcDbLayerTableRecord
  2
해칭선
 70
     0
 62
   100
  6
Continuous
370
    -3
390
F
  0
LAYER
  5
75
330
2
100
AcDbSymbolTableRecord
100
AcDbLayerTableRecord
  2
가는실선
 70
     0
 62
     4
  6
Continuous
370
    -3
390
F
  0
LAYER
  5
76
330
2
100
AcDbSymbolTableRecord
100
AcDbLayerTableRecord
  2
치수_보조선
 70
     0
 62
     4
  6
Continuous
370
    -3
390
F
  0
LAYER
  5
77
330
2
100
AcDbSymbolTableRecord
100
AcDbLayerTableRecord
  2
치수문자_일반주서
 70
     0
 62
     7
  6
Continuous
370
    15
390
F
  0
LAYER
  5
78
330
2
100
AcDbSymbolTableRecord
100
AcDbLayerTableRecord
  2
개별주서
 70
     0
 62
   100
  6
Continuous
370
    30
390
F
  0
LAYER
  5
79
330
2
100
AcDbSymbolTableRecord
100
AcDbLayerTableRecord
  2
중간선
 70
     0
 62
     2
  6
Continuous
370
    15
390
F
  0
LAYER
  5
7A
330
2
100
AcDbSymbolTableRecord
100
AcDbLayerTableRecord
  2
윤곽선
 70
     0
 62
     3
  6
Continuous
370
    40
390
F
  0
LAYER
  5
7B
330
2
100
AcDbSymbolTableRecord
100
AcDbLayerTableRecord
  2
중심마크
 70
     0
 62
   100
  6
Continuous
370
    30
390
F
  0
LAYER
  5
7C
330
2
100
AcDbSymbolTableRecord
100
AcDbLayerTableRecord
  2
가상선
 70
     0
 62
     4
  6
PHANTOM
370
    -3
390
F
  0
LAYER
  5
7D
330
2
100
AcDbSymbolTableRecord
100
AcDbLayerTableRecord
  2
특수지정선
 70
     0
 62
     5
  6
CENTERX2
370
    60
390
F
  0
LAYER
  5
7E
330
2
100
AcDbSymbolTableRecord
100
AcDbLayerTableRecord
  2
참조1
 70
     0
 62
    -4
  6
Continuous
370
    -3
390
F
  0
LAYER
  5
231
330
2
100
AcDbSymbolTableRecord
100
AcDbLayerTableRecord
  2
Defpoints
 70
     0
 62
     7
  6
Continuous
290
     0
370
    -3
390
F
  0
ENDTAB
  0
TABLE
  2
STYLE
  5
3
330
0
100
AcDbSymbolTable
 70
     2
  0
STYLE
  5
11
330
3
100
AcDbSymbolTableRecord
100
AcDbTextStyleTableRecord
  2
Standard
 70
     0
 40
0.0
 41
1.0
 50
0.0
 71
     0
 42
3.5
  3
txt
  4

  0
STYLE
  5
94
330
3
100
AcDbSymbolTableRecord
100
AcDbTextStyleTableRecord
  2
SLDTEXTSTYLE0
 70
     0
 40
0.0
 41
0.75
 50
0.0
 71
     0
 42
3.5
  3
TXT
  4

  0
ENDTAB
  0
TABLE
  2
VIEW
  5
6
330
0
100
AcDbSymbolTable
 70
     0
  0
ENDTAB
  0
TABLE
  2
UCS
  5
7
330
0
100
AcDbSymbolTable
 70
     0
  0
ENDTAB
  0
TABLE
  2
APPID
  5
9
330
0
100
AcDbSymbolTable
 70
     2
  0
APPID
  5
12
330
9
100
AcDbSymbolTableRecord
100
AcDbRegAppTableRecord
  2
ACAD
 70
     0
  0
APPID
  5
142
330
9
100
AcDbSymbolTableRecord
100
AcDbRegAppTableRecord
  2
PE_URL
 70
     0
  0
ENDTAB
  0
TABLE
  2
DIMSTYLE
  5
A
330
0
100
AcDbSymbolTable
 70
     5
100
AcDbDimStyleTable
  0
DIMSTYLE
105
27
330
A
100
AcDbSymbolTableRecord
100
AcDbDimStyleTableRecord
  2
ISO-25
 70
     0
 41
2.5
 42
0.625
 43
3.75
 44
1.25
 73
     0
 74
     0
 77
     1
 78
     8
140
2.5
141
2.5
143
0.03937007874016
147
0.625
171
     3
172
     1
178
     0
271
     2
272
     2
274
     3
278
    44
283
     0
284
     8
340
11
  0
DIMSTYLE
105
C1
330
A
100
AcDbSymbolTableRecord
100
AcDbDimStyleTableRecord
  2
SLDDIMSTYLE0
 70
     0
 41
3.302
 44
0.0
 45
0.000000001
 73
     0
 74
     0
 77
     1
 78
    12
 79
     3
140
3.5
147
0.875
172
     1
173
     1
178
     0
271
     2
272
     2
276
     2
284
    12
289
     0
340
94
  0
DIMSTYLE
105
CF
102
{ACAD_REACTORS
330
CE
330
E4
330
F8
330
C0
102
}
330
A
100
AcDbSymbolTableRecord
100
AcDbDimStyleTableRecord
  2
SLDDIMSTYLE1
 70
     0
 41
3.302
 44
0.0
 45
0.000000001
 73
     0
 74
     0
 77
     1
 78
    12
 79
     3
140
3.5
143
0.0393700787401575
147
0.875
148
0.000000001
170
     1
172
     1
173
     1
178
     0
271
     2
272
     2
276
     2
284
    12
289
     0
340
94
  0
DIMSTYLE
105
E5
330
A
100
AcDbSymbolTableRecord
100
AcDbDimStyleTableRecord
  2
SLDDIMSTYLE2
 70
     0
 41
3.302
 44
0.0
 45
0.000000001
 73
     0
 74
     0
 77
     1
 78
     4
 79
     1
140
3.5
143
0.0393700787401575
147
0.875
148
0.000000001
170
     1
173
     1
178
     0
271
     2
272
     2
276
     2
284
    12
340
94
  0
DIMSTYLE
105
F9
330
A
100
AcDbSymbolTableRecord
100
AcDbDimStyleTableRecord
  2
SLDDIMSTYLE3
 70
     0
 41
3.302
 44
0.0
 45
0.000000001
 73
     0
 74
     0
 77
     1
 78
    12
 79
     3
140
3.5
143
0.0393700787401575
147
0.875
148
0.000000001
170
     1
173
     1
178
     0
271
     2
272
     2
276
     2
284
    12
340
94
  0
ENDTAB
  0
TABLE
  2
BLOCK_RECORD
  5
1
330
0
100
AcDbSymbolTable
 70
     9
  0
BLOCK_RECORD
  5
1F
330
1
100
AcDbSymbolTableRecord
100
AcDbBlockTableRecord
  2
*Model_Space
340
22
  0
BLOCK_RECORD
  5
1B
330
1
100
AcDbSymbolTableRecord
100
AcDbBlockTableRecord
  2
*Paper_Space
340
1E
  0
BLOCK_RECORD
  5
23
330
1
100
AcDbSymbolTableRecord
100
AcDbBlockTableRecord
  2
*Paper_Space0
340
26
  0
BLOCK_RECORD
  5
7F
330
1
100
AcDbSymbolTableRecord
100
AcDbBlockTableRecord
  2
블럭10
340
0
102
{BLKREFS
331
B9
102
}
  0
BLOCK_RECORD
  5
C2
330
1
100
AcDbSymbolTableRecord
100
AcDbBlockTableRecord
  2
_D
340
0
  0
BLOCK_RECORD
  5
D0
330
1
100
AcDbSymbolTableRecord
100
AcDbBlockTableRecord
  2
_D_1
340
0
  0
BLOCK_RECORD
  5
E6
330
1
100
AcDbSymbolTableRecord
100
AcDbBlockTableRecord
  2
_D_2
340
0
  0
BLOCK_RECORD
  5
FA
330
1
100
AcDbSymbolTableRecord
100
AcDbBlockTableRecord
  2
_D_3
340
0
  0
BLOCK_RECORD
  5
113
330
1
100
AcDbSymbolTableRecord
100
AcDbBlockTableRecord
  2
SW_DOWELSYMBOL_0
340
0
102
{BLKREFS
331
119
102
}
  0
BLOCK_RECORD
  5
26B
330
1
100
AcDbSymbolTableRecord
100
AcDbBlockTableRecord
  2
*D7
340
0
  0
BLOCK_RECORD
  5
27D
330
1
100
AcDbSymbolTableRecord
100
AcDbBlockTableRecord
  2
*D8
340
0
  0
ENDTAB
  0
ENDSEC
  0
SECTION
  2
BLOCKS
  0
BLOCK
  5
20
330
1F
100
AcDbEntity
  8
0
100
AcDbBlockBegin
  2
*Model_Space
 70
     0
 10
0.0
 20
0.0
 30
0.0
  3
*Model_Space
  1
*Model_Space
  0
ENDBLK
  5
21
330
1F
100
AcDbEntity
  8
0
100
AcDbBlockEnd
  0
BLOCK
  5
1C
330
1B
100
AcDbEntity
 67
     1
  8
0
100
AcDbBlockBegin
  2
*Paper_Space
 70
     0
 10
0.0
 20
0.0
 30
0.0
  3
*Paper_Space
  1
*Paper_Space
  0
ENDBLK
  5
1D
330
1B
100
AcDbEntity
 67
     1
  8
0
100
AcDbBlockEnd
  0
BLOCK
  5
24
330
23
100
AcDbEntity
  8
0
100
AcDbBlockBegin
  2
*Paper_Space0
 70
     0
 10
0.0
 20
0.0
 30
0.0
  3
*Paper_Space0
  1
*Paper_Space0
  0
ENDBLK
  5
25
330
23
100
AcDbEntity
  8
0
100
AcDbBlockEnd
  0
BLOCK
  5
80
330
7F
100
AcDbEntity
  8
0
100
AcDbBlockBegin
  2
블럭10
 70
     2
 10
0.0
 20
0.0
 30
0.0
  3
블럭10
  1
블럭10
  0
ELLIPSE
  5
82
330
7F
100
AcDbEntity
  8
중심선
100
AcDbEllipse
 10
20.54032771741204
 20
12.0471743016438
 30
0.0
 11
6.600054785286829
 21
-1.261213355974178E-13
 31
0.0
210
0.0
220
0.0
230
1.0
 40
0.636358354079598
 41
0.9219305317359503
 42
6.513795318482858
  0
ELLIPSE
  5
83
330
7F
100
AcDbEntity
  8
중심선
100
AcDbEllipse
 10
20.54032771746488
 20
12.04717430159265
 30
0.0
 11
3.960054785062283
 21
1.540847449632565E-10
 31
0.0
210
0.0
220
0.0
230
1.0
 40
0.3939339440162632
 41
1.131841032648279
 42
5.62031148352944
  0
LINE
  5
84
330
7F
100
AcDbEntity
  8
중심선
100
AcDbLine
 10
2.268634060543552
 20
16.24717430164393
 30
0.0
 11
5.714909304380834
 21
16.24717430164393
 31
0.0
  0
LINE
  5
85
330
7F
100
AcDbEntity
  8
중심선
100
AcDbLine
 10
5.245725140726316
 20
7.84717430164391
 30
0.0
 11
8.692000384563599
 21
7.84717430164391
 31
0.0
  0
LINE
  5
86
330
7F
100
AcDbEntity
  8
중심선
100
AcDbLine
 10
15.74043728645272
 20
16.24717430164393
 30
0.0
 11
8.692000384563599
 21
7.84717430164391
 31
0.0
  0
LINE
  5
87
330
7F
100
AcDbEntity
  8
중심선
100
AcDbLine
 10
0.1404042013395286
 20
13.71084872107135
 30
0.0
 11
3.58671253028996
 21
13.71088815037384
 31
0.0
  0
LINE
  5
88
330
7F
100
AcDbEntity
  8
중심선
100
AcDbLine
 10
2.750260043222114
 20
10.84717430164391
 30
0.0
 11
6.196535287059397
 21
10.84717430164391
 31
0.0
  0
LINE
  5
89
330
7F
100
AcDbEntity
  8
중심선
100
AcDbLine
 10
12.29416204261559
 20
16.24717430164393
 30
0.0
 11
5.245725140726316
 21
7.84717430164391
 31
0.0
  0
LINE
  5
8A
330
7F
100
AcDbEntity
  8
중심선
100
AcDbLine
 10
10.72767329541681
 20
16.24717430164393
 30
0.0
 11
6.196535287059397
 21
10.84717430164391
 31
0.0
  0
LINE
  5
8B
330
7F
100
AcDbEntity
  8
중심선
100
AcDbLine
 10
7.28139805157953
 20
16.24717430164393
 30
0.0
 11
2.750260043222114
 21
10.84717430164391
 31
0.0
  0
LINE
  5
8C
330
7F
100
AcDbEntity
  8
중심선
100
AcDbLine
 10
5.714909304380834
 20
16.24717430164393
 30
0.0
 11
3.58671253028996
 21
13.71088815037384
 31
0.0
  0
LINE
  5
8D
330
7F
100
AcDbEntity
  8
중심선
100
AcDbLine
 10
2.268634060543552
 20
16.24717430164393
 30
0.0
 11
0.1404042013395286
 21
13.71084872107135
 31
0.0
  0
LINE
  5
8E
330
7F
100
AcDbEntity
  8
중심선
100
AcDbLine
 10
7.28139805157953
 20
16.24717430164393
 30
0.0
 11
10.72767329541681
 21
16.24717430164393
 31
0.0
  0
LINE
  5
8F
330
7F
100
AcDbEntity
  8
중심선
100
AcDbLine
 10
12.29416204261559
 20
16.24717430164393
 30
0.0
 11
15.74043728645272
 21
16.24717430164393
 31
0.0
  0
LINE
  5
90
330
7F
100
AcDbEntity
  8
중심선
100
AcDbLine
 10
19.22036997980202
 20
11.08717430171403
 30
0.0
 11
23.66174974927406
 21
11.08717430171406
 31
0.0
  0
LINE
  5
91
330
7F
100
AcDbEntity
  8
중심선
100
AcDbLine
 10
19.22039502424796
 20
13.00717430171391
 30
0.0
 11
19.22036997980202
 21
11.08717430171403
 31
0.0
  0
LINE
  5
92
330
7F
100
AcDbEntity
  8
중심선
100
AcDbLine
 10
19.22039502424796
 20
13.00717430171391
 30
0.0
 11
26.96566020931264
 21
13.00717430171391
 31
0.0
  0
LINE
  5
93
330
7F
100
AcDbEntity
  8
중심선
100
AcDbLine
 10
22.22332737316547
 20
13.45928029700563
 30
0.0
 11
24.52862924686651
 21
15.39360700705356
 31
0.0
  0
ATTDEF
  5
95
330
7F
100
AcDbEntity
  8
FORMAT
 62
     2
100
AcDbText
 10
4.408487351596664
 20
2.075366912832191
 30
0.0
 40
4.233333333333333
  1
E1030026
 41
0.75
  7
SLDTEXTSTYLE0
 11
4.408487351596664
 21
-0.0412997538344756
 31
0.0
100
AcDbAttributeDefinition
  3

  2
AUTOATTR0
 70
     0
 74
     1
  0
ENDBLK
  5
81
330
7F
100
AcDbEntity
  8
0
100
AcDbBlockEnd
  0
BLOCK
  5
C3
330
C2
100
AcDbEntity
  8
0
100
AcDbBlockBegin
  2
_D
 70
     0
 10
0.0
 20
0.0
 30
0.0
  3
_D
  1
_D
  0
LINE
  5
C5
330
C2
100
AcDbEntity
  8
치수문자_일반주서
 62
     0
370
    -2
100
AcDbLine
 10
-38.18442116787305
 20
4.815303029797995
 30
0.0
 11
-49.12192116787305
 21
4.815303029797953
 31
0.0
  0
LINE
  5
C6
330
C2
100
AcDbEntity
  8
치수문자_일반주서
 62
     0
370
    -2
100
AcDbLine
 10
-38.18442116787305
 20
-4.70969697020201
 30
0.0
 11
-49.12192116787301
 21
-4.709696970202053
 31
0.0
  0
LINE
  5
C7
330
C2
100
AcDbEntity
  8
치수문자_일반주서
 62
     0
370
    -2
100
AcDbLine
 10
-49.12192116787305
 20
4.815303029797953
 30
0.0
 11
-49.12192116787317
 21
37.66930302979795
 31
0.0
  0
LINE
  5
C8
330
C2
100
AcDbEntity
  8
치수문자_일반주서
 62
     0
370
    -2
100
AcDbLine
 10
-49.12192116787305
 20
4.815303029797953
 30
0.0
 11
-49.12192116787301
 21
-4.709696970202053
 31
0.0
  0
LINE
  5
C9
330
C2
100
AcDbEntity
  8
치수문자_일반주서
 62
     0
370
    -2
100
AcDbLine
 10
-49.12192116787306
 20
8.117303029797952
 30
0.0
 11
-49.12192116787308
 21
11.41930302979795
 31
0.0
  0
LINE
  5
CA
330
C2
100
AcDbEntity
  8
치수문자_일반주서
 62
     0
370
    -2
100
AcDbLine
 10
-49.121921167873
 20
-8.011696970202053
 30
0.0
 11
-49.12192116787298
 21
-11.31369697020205
 31
0.0
  0
SOLID
  5
CB
330
C2
100
AcDbEntity
  8
치수문자_일반주서
 62
     0
100
AcDbTrace
 10
-49.6722545012064
 20
8.11730302979795
 30
0.0
 11
-48.57158783453973
 21
8.117303029797954
 31
0.0
 12
-49.12192116787305
 22
4.815303029797953
 32
0.0
 13
-49.12192116787305
 23
4.815303029797953
 33
0.0
  0
SOLID
  5
CC
330
C2
100
AcDbEntity
  8
치수문자_일반주서
 62
     0
100
AcDbTrace
 10
-48.57158783453966
 20
-8.01169697020205
 30
0.0
 11
-49.67225450120633
 21
-8.011696970202054
 31
0.0
 12
-49.12192116787301
 22
-4.709696970202053
 32
0.0
 13
-49.12192116787301
 23
-4.709696970202053
 33
0.0
  0
MTEXT
  5
CD
330
C2
100
AcDbEntity
  8
치수문자_일반주서
 62
     0
100
AcDbMText
 10
-53.49692116787312
 20
24.54430302979793
 30
0.0
 40
3.5
 41
0.0
 71
     2
 72
     1
  1
\A1;%%c9.53 [3/8]
  7
SLDTEXTSTYLE0
 11
-3.729883127349605E-15
 21
1.0
 31
0.0
 73
     1
 44
1.0
  0
POINT
  5
28F
330
C2
100
AcDbEntity
  8
Defpoints
 62
     0
100
AcDbPoint
 10
-38.12192116787305
 20
4.815303029797995
 30
0.0
  0
POINT
  5
290
330
C2
100
AcDbEntity
  8
Defpoints
 62
     0
100
AcDbPoint
 10
-38.12192116787305
 20
-4.70969697020201
 30
0.0
  0
POINT
  5
291
330
C2
100
AcDbEntity
  8
Defpoints
 62
     0
100
AcDbPoint
 10
-49.121921167873
 20
-4.709696970202051
 30
0.0
  0
ENDBLK
  5
C4
330
C2
100
AcDbEntity
  8
0
100
AcDbBlockEnd
  0
BLOCK
  5
D1
330
D0
100
AcDbEntity
  8
0
100
AcDbBlockBegin
  2
_D_1
 70
     0
 10
0.0
 20
0.0
 30
0.0
  3
_D_1
  1
_D_1
  0
LINE
  5
D3
330
D0
100
AcDbEntity
  8
치수문자_일반주서
 62
     0
370
    -2
100
AcDbLine
 10
24.37807883212693
 20
5.270317404623437
 30
0.0
 11
24.37807883212693
 21
14.79487191860149
 31
0.0
  0
LINE
  5
D4
330
D0
100
AcDbEntity
  8
치수문자_일반주서
 62
     0
370
    -2
100
AcDbLine
 10
3.74057883212694
 20
4.647180794739771
 30
0.0
 11
3.740578832126943
 21
14.79487191860149
 31
0.0
  0
LINE
  5
D5
330
D0
100
AcDbEntity
  8
치수문자_일반주서
 62
     0
370
    -2
100
AcDbLine
 10
24.37807883212693
 20
14.79487191860149
 30
0.0
 11
60.29457883212693
 21
14.79487191860149
 31
0.0
  0
LINE
  5
D6
330
D0
100
AcDbEntity
  8
치수문자_일반주서
 62
     0
370
    -2
100
AcDbLine
 10
24.37807883212693
 20
14.79487191860149
 30
0.0
 11
3.740578832126943
 21
14.79487191860149
 31
0.0
  0
LINE
  5
D7
330
D0
100
AcDbEntity
  8
치수문자_일반주서
 62
     0
370
    -2
100
AcDbLine
 10
27.68007883212693
 20
14.79487191860149
 30
0.0
 11
30.98207883212693
 21
14.79487191860149
 31
0.0
  0
LINE
  5
D8
330
D0
100
AcDbEntity
  8
치수문자_일반주서
 62
     0
370
    -2
100
AcDbLine
 10
0.438578832126943
 20
14.79487191860149
 30
0.0
 11
-2.863421167873057
 21
14.79487191860149
 31
0.0
  0
SOLID
  5
D9
330
D0
100
AcDbEntity
  8
치수문자_일반주서
 62
     0
100
AcDbTrace
 10
27.68007883212693
 20
15.34520525193483
 30
0.0
 11
27.68007883212693
 21
14.24453858526816
 31
0.0
 12
24.37807883212693
 22
14.79487191860149
 32
0.0
 13
24.37807883212693
 23
14.79487191860149
 33
0.0
  0
SOLID
  5
DA
330
D0
100
AcDbEntity
  8
치수문자_일반주서
 62
     0
100
AcDbTrace
 10
0.438578832126943
 20
14.24453858526816
 30
0.0
 11
0.438578832126943
 21
15.34520525193483
 31
0.0
 12
3.740578832126943
 22
14.79487191860149
 32
0.0
 13
3.740578832126943
 23
14.79487191860149
 33
0.0
  0
MTEXT
  5
DB
330
D0
100
AcDbEntity
  8
치수문자_일반주서
 62
     0
100
AcDbMText
 10
45.63832883212693
 20
19.16987191860149
 30
0.0
 40
3.5
 41
0.0
 71
     2
 72
     1
  1
\A1;20.64 [13/16]
  7
SLDTEXTSTYLE0
 73
     1
 44
1.0
  0
POINT
  5
292
330
D0
100
AcDbEntity
  8
Defpoints
 62
     0
100
AcDbPoint
 10
24.37807883212693
 20
5.207817404623437
 30
0.0
  0
POINT
  5
293
330
D0
100
AcDbEntity
  8
Defpoints
 62
     0
100
AcDbPoint
 10
3.74057883212694
 20
4.584680794739771
 30
0.0
  0
POINT
  5
294
330
D0
100
AcDbEntity
  8
Defpoints
 62
     0
100
AcDbPoint
 10
3.74057883212694
 20
14.79487191860149
 30
0.0
  0
ENDBLK
  5
D2
330
D0
100
AcDbEntity
  8
0
100
AcDbBlockEnd
  0
BLOCK
  5
E7
330
E6
100
AcDbEntity
  8
0
100
AcDbBlockBegin
  2
_D_2
 70
     0
 10
0.0
 20
0.0
 30
0.0
  3
_D_2
  1
_D_2
  0
LINE
  5
E9
330
E6
100
AcDbEntity
  8
치수문자_일반주서
 62
     0
370
    -2
100
AcDbLine
 10
24.37807883212693
 20
5.270317404623437
 30
0.0
 11
24.37807883212693
 21
24.7948719186015
 31
0.0
  0
LINE
  5
EA
330
E6
100
AcDbEntity
  8
치수문자_일반주서
 62
     0
370
    -2
100
AcDbLine
 10
-39.12192116787307
 20
3.877803029797988
 30
0.0
 11
-39.12192116787307
 21
24.7948719186015
 31
0.0
  0
LINE
  5
EB
330
E6
100
AcDbEntity
  8
치수문자_일반주서
 62
     0
370
    -2
100
AcDbLine
 10
21.07607883212693
 20
24.7948719186015
 30
0.0
 11
-35.81992116787307
 21
24.7948719186015
 31
0.0
  0
SOLID
  5
EC
330
E6
100
AcDbEntity
  8
치수문자_일반주서
 62
     0
100
AcDbTrace
 10
21.07607883212693
 20
24.24453858526816
 30
0.0
 11
21.07607883212693
 21
25.34520525193483
 31
0.0
 12
24.37807883212693
 22
24.7948719186015
 32
0.0
 13
24.37807883212693
 23
24.7948719186015
 33
0.0
  0
SOLID
  5
ED
330
E6
100
AcDbEntity
  8
치수문자_일반주서
 62
     0
100
AcDbTrace
 10
-35.81992116787307
 20
25.34520525193483
 30
0.0
 11
-35.81992116787307
 21
24.24453858526816
 31
0.0
 12
-39.12192116787307
 22
24.7948719186015
 32
0.0
 13
-39.12192116787307
 23
24.7948719186015
 33
0.0
  0
MTEXT
  5
EE
330
E6
100
AcDbEntity
  8
치수문자_일반주서
 62
     0
100
AcDbMText
 10
-7.371921167873076
 20
29.1698719186015
 30
0.0
 40
3.5
 41
0.0
 71
     2
 72
     1
  1
\A1;63.5 [2 1/2]
  7
SLDTEXTSTYLE0
 73
     1
 44
1.0
  0
POINT
  5
EF
330
E6
100
AcDbEntity
  8
Defpoints
 62
     0
100
AcDbPoint
 10
24.37807883212693
 20
5.207817404623437
 30
0.0
  0
POINT
  5
F0
330
E6
100
AcDbEntity
  8
Defpoints
 62
     0
100
AcDbPoint
 10
-39.12192116787307
 20
3.815303029797988
 30
0.0
  0
POINT
  5
F1
330
E6
100
AcDbEntity
  8
Defpoints
 62
     0
100
AcDbPoint
 10
-39.12192116787307
 20
24.7948719186015
 30
0.0
  0
ENDBLK
  5
E8
330
E6
100
AcDbEntity
  8
0
100
AcDbBlockEnd
  0
BLOCK
  5
FB
330
FA
100
AcDbEntity
  8
0
100
AcDbBlockBegin
  2
_D_3
 70
     0
 10
0.0
 20
0.0
 30
0.0
  3
_D_3
  1
_D_3
  0
LINE
  5
FD
330
FA
100
AcDbEntity
  8
치수문자_일반주서
 62
     0
370
    -2
100
AcDbLine
 10
24.44057883212693
 20
-5.102211345027452
 30
0.0
 11
67.79411398051958
 21
-5.102211345027285
 31
0.0
  0
LINE
  5
FE
330
FA
100
AcDbEntity
  8
치수문자_일반주서
 62
     0
370
    -2
100
AcDbLine
 10
24.44057883212693
 20
5.207817404623436
 30
0.0
 11
67.79411398051954
 21
5.207817404623594
 31
0.0
  0
LINE
  5
FF
330
FA
100
AcDbEntity
  8
치수문자_일반주서
 62
     0
370
    -2
100
AcDbLine
 10
67.79411398051954
 20
5.207817404623594
 30
0.0
 11
67.79411398051938
 21
42.8743174046236
 31
0.0
  0
LINE
  5
100
330
FA
100
AcDbEntity
  8
치수문자_일반주서
 62
     0
370
    -2
100
AcDbLine
 10
67.79411398051958
 20
-5.102211345027285
 30
0.0
 11
67.79411398051954
 21
5.207817404623594
 31
0.0
  0
LINE
  5
101
330
FA
100
AcDbEntity
  8
치수문자_일반주서
 62
     0
370
    -2
100
AcDbLine
 10
67.7941139805196
 20
-8.404211345027285
 30
0.0
 11
67.79411398051961
 21
-11.70621134502728
 31
0.0
  0
LINE
  5
102
330
FA
100
AcDbEntity
  8
치수문자_일반주서
 62
     0
370
    -2
100
AcDbLine
 10
67.79411398051953
 20
8.509817404623593
 30
0.0
 11
67.79411398051951
 21
11.81181740462359
 31
0.0
  0
SOLID
  5
103
330
FA
100
AcDbEntity
  8
치수문자_일반주서
 62
     0
100
AcDbTrace
 10
68.34444731385292
 20
-8.404211345027283
 30
0.0
 11
67.24378064718627
 21
-8.404211345027287
 31
0.0
 12
67.79411398051958
 22
-5.102211345027285
 32
0.0
 13
67.79411398051958
 23
-5.102211345027285
 33
0.0
  0
SOLID
  5
104
330
FA
100
AcDbEntity
  8
치수문자_일반주서
 62
     0
100
AcDbTrace
 10
67.2437806471862
 20
8.509817404623591
 30
0.0
 11
68.34444731385285
 21
8.509817404623595
 31
0.0
 12
67.79411398051954
 22
5.207817404623594
 32
0.0
 13
67.79411398051954
 23
5.207817404623594
 33
0.0
  0
MTEXT
  5
105
330
FA
100
AcDbEntity
  8
치수문자_일반주서
 62
     0
100
AcDbMText
 10
63.41911398051946
 20
27.34306740462358
 30
0.0
 40
3.5
 41
0.0
 71
     2
 72
     1
  1
\A1;%%c10.31 [13/32]
  7
SLDTEXTSTYLE0
 11
-4.135057736579988E-15
 21
1.0
 31
0.0
 73
     1
 44
1.0
  0
POINT
  5
106
330
FA
100
AcDbEntity
  8
Defpoints
 62
     0
100
AcDbPoint
 10
24.37807883212693
 20
-5.102211345027452
 30
0.0
  0
POINT
  5
107
330
FA
100
AcDbEntity
  8
Defpoints
 62
     0
100
AcDbPoint
 10
24.37807883212693
 20
5.207817404623436
 30
0.0
  0
POINT
  5
108
330
FA
100
AcDbEntity
  8
Defpoints
 62
     0
100
AcDbPoint
 10
67.79411398051954
 20
5.207817404623598
 30
0.0
  0
ENDBLK
  5
FC
330
FA
100
AcDbEntity
  8
0
100
AcDbBlockEnd
  0
BLOCK
  5
114
330
113
100
AcDbEntity
  8
0
100
AcDbBlockBegin
  2
SW_DOWELSYMBOL_0
 70
     0
 10
0.0
 20
0.0
 30
0.0
  3
SW_DOWELSYMBOL_0
  1
SW_DOWELSYMBOL_0
  0
CIRCLE
  5
116
330
113
100
AcDbEntity
  8
해칭선
 62
     0
100
AcDbCircle
 10
0.0
 20
0.0
 30
0.0
 40
3.000000000000001
  0
HATCH
  5
117
330
113
100
AcDbEntity
  8
0
  6
Continuous
 62
     0
370
     0
100
AcDbHatch
 10
0.0
 20
0.0
 30
0.0
210
0.0
220
0.0
230
1.0
  2
SOLID
 70
     1
 71
     0
 91
        1
 92
        0
 93
        3
 72
     2
 10
-0.0000000000000017
 20
0.0
 40
3.000000000000001
 50
0.0
 51
90.0
 73
     1
 72
     1
 10
-0.0000000000000017
 20
3.000000000000001
 11
-0.0000000000000017
 21
0.0
 72
     1
 10
-0.0000000000000017
 20
0.0
 11
3.0
 21
0.0
 97
        0
 75
     0
 76
     1
 98
        1
 10
0.0
 20
0.0
  0
HATCH
  5
118
330
113
100
AcDbEntity
  8
0
  6
Continuous
 62
     0
370
     0
100
AcDbHatch
 10
0.0
 20
0.0
 30
0.0
210
0.0
220
0.0
230
1.0
  2
SOLID
 70
     1
 71
     0
 91
        1
 92
        0
 93
        3
 72
     2
 10
-0.0000000000000017
 20
0.0
 40
3.000000000000001
 50
180.0
 51
270.0000000000007
 73
     1
 72
     1
 10
-0.0000000000000017
 20
-3.000000000000001
 11
-0.0000000000000017
 21
0.0
 72
     1
 10
-0.0000000000000017
 20
0.0
 11
-3.000000000000003
 21
0.0
 97
        0
 75
     0
 76
     1
 98
        1
 10
0.0
 20
0.0
  0
ENDBLK
  5
115
330
113
100
AcDbEntity
  8
0
100
AcDbBlockEnd
  0
BLOCK
  5
26C
330
26B
100
AcDbEntity
  8
0
100
AcDbBlockBegin
  2
*D7
 70
     1
 10
0.0
 20
0.0
 30
0.0
  3
*D7
  1
*D7
  0
LINE
  5
26E
330
26B
100
AcDbEntity
  8
치수문자_일반주서
 62
     0
370
    -2
100
AcDbLine
 10
27.24149999999999
 20
9.726880934633439
 30
0.0
 11
27.24149999999999
 21
19.47013634345511
 31
0.0
  0
LINE
  5
26F
330
26B
100
AcDbEntity
  8
치수문자_일반주서
 62
     0
370
    -2
100
AcDbLine
 10
6.604000000000002
 20
9.302014108396905
 30
0.0
 11
6.603999999999999
 21
19.47013634345511
 31
0.0
  0
LINE
  5
270
330
26B
100
AcDbEntity
  8
치수문자_일반주서
 62
     0
370
    -2
100
AcDbLine
 10
27.24149999999999
 20
19.47013634345511
 30
0.0
 11
63.15799999999999
 21
19.47013634345511
 31
0.0
  0
LINE
  5
271
330
26B
100
AcDbEntity
  8
치수문자_일반주서
 62
     0
370
    -2
100
AcDbLine
 10
27.24149999999999
 20
19.47013634345511
 30
0.0
 11
6.603999999999999
 21
19.47013634345511
 31
0.0
  0
LINE
  5
272
330
26B
100
AcDbEntity
  8
치수문자_일반주서
 62
     0
370
    -2
100
AcDbLine
 10
30.54349999999999
 20
19.47013634345511
 30
0.0
 11
33.84549999999999
 21
19.47013634345511
 31
0.0
  0
LINE
  5
273
330
26B
100
AcDbEntity
  8
치수문자_일반주서
 62
     0
370
    -2
100
AcDbLine
 10
3.302
 20
19.47013634345511
 30
0.0
 11
0.0
 21
19.47013634345511
 31
0.0
  0
SOLID
  5
274
330
26B
100
AcDbEntity
  8
치수문자_일반주서
 62
     0
100
AcDbTrace
 10
30.54349999999999
 20
20.02046967678845
 30
0.0
 11
30.54349999999999
 21
18.91980301012178
 31
0.0
 12
27.24149999999999
 22
19.47013634345511
 32
0.0
 13
27.24149999999999
 23
19.47013634345511
 33
0.0
  0
SOLID
  5
275
330
26B
100
AcDbEntity
  8
치수문자_일반주서
 62
     0
100
AcDbTrace
 10
3.302
 20
18.91980301012178
 30
0.0
 11
3.302
 21
20.02046967678845
 31
0.0
 12
6.603999999999999
 22
19.47013634345511
 32
0.0
 13
6.603999999999999
 23
19.47013634345511
 33
0.0
  0
MTEXT
  5
276
330
26B
100
AcDbEntity
  8
치수문자_일반주서
 62
     0
100
AcDbMText
 10
48.50174999999999
 20
23.84513634345511
 30
0.0
 40
3.5
 41
0.0
 71
     2
 72
     1
  1
\A1;20.64 [13/16]
  7
SLDTEXTSTYLE0
 73
     1
 44
1.0
  0
POINT
  5
277
330
26B
100
AcDbEntity
  8
Defpoints
 62
     0
100
AcDbPoint
 10
27.24149999999999
 20
9.664380934633439
 30
0.0
  0
POINT
  5
278
330
26B
100
AcDbEntity
  8
Defpoints
 62
     0
100
AcDbPoint
 10
6.604000000000002
 20
9.239514108396905
 30
0.0
  0
POINT
  5
279
330
26B
100
AcDbEntity
  8
Defpoints
 62
     0
100
AcDbPoint
 10
6.604000000000002
 20
19.47013634345511
 30
0.0
  0
ENDBLK
  5
26D
330
26B
100
AcDbEntity
  8
0
100
AcDbBlockEnd
  0
BLOCK
  5
27E
330
27D
100
AcDbEntity
  8
0
100
AcDbBlockBegin
  2
*D8
 70
     1
 10
0.0
 20
0.0
 30
0.0
  3
*D8
  1
*D8
  0
LINE
  5
280
330
27D
100
AcDbEntity
  8
치수문자_일반주서
 62
     0
370
    -2
100
AcDbLine
 10
53.79935068006933
 20
-22.87091658823593
 30
0.0
 11
53.79935068006933
 21
-13.12766117941426
 31
0.0
  0
LINE
  5
281
330
27D
100
AcDbEntity
  8
치수문자_일반주서
 62
     0
370
    -2
100
AcDbLine
 10
33.16185068006934
 20
-23.29578341447247
 30
0.0
 11
33.16185068006934
 21
-13.12766117941426
 31
0.0
  0
LINE
  5
282
330
27D
100
AcDbEntity
  8
치수문자_일반주서
 62
     0
370
    -2
100
AcDbLine
 10
53.79935068006933
 20
-13.12766117941426
 30
0.0
 11
89.71585068006934
 21
-13.12766117941426
 31
0.0
  0
LINE
  5
283
330
27D
100
AcDbEntity
  8
치수문자_일반주서
 62
     0
370
    -2
100
AcDbLine
 10
53.79935068006933
 20
-13.12766117941426
 30
0.0
 11
33.16185068006934
 21
-13.12766117941426
 31
0.0
  0
LINE
  5
284
330
27D
100
AcDbEntity
  8
치수문자_일반주서
 62
     0
370
    -2
100
AcDbLine
 10
57.10135068006933
 20
-13.12766117941426
 30
0.0
 11
60.40335068006933
 21
-13.12766117941426
 31
0.0
  0
LINE
  5
285
330
27D
100
AcDbEntity
  8
치수문자_일반주서
 62
     0
370
    -2
100
AcDbLine
 10
29.85985068006934
 20
-13.12766117941426
 30
0.0
 11
26.55785068006934
 21
-13.12766117941426
 31
0.0
  0
SOLID
  5
286
330
27D
100
AcDbEntity
  8
치수문자_일반주서
 62
     0
100
AcDbTrace
 10
57.10135068006933
 20
-12.57732784608092
 30
0.0
 11
57.10135068006933
 21
-13.67799451274759
 31
0.0
 12
53.79935068006933
 22
-13.12766117941426
 32
0.0
 13
53.79935068006933
 23
-13.12766117941426
 33
0.0
  0
SOLID
  5
287
330
27D
100
AcDbEntity
  8
치수문자_일반주서
 62
     0
100
AcDbTrace
 10
29.85985068006934
 20
-13.67799451274759
 30
0.0
 11
29.85985068006934
 21
-12.57732784608092
 31
0.0
 12
33.16185068006934
 22
-13.12766117941426
 32
0.0
 13
33.16185068006934
 23
-13.12766117941426
 33
0.0
  0
MTEXT
  5
288
330
27D
100
AcDbEntity
  8
치수문자_일반주서
 62
     0
100
AcDbMText
 10
75.05960068006934
 20
-8.752661179414257
 30
0.0
 40
3.5
 41
0.0
 71
     2
 72
     1
  1
\A1;20.64 [13/16]
  7
SLDTEXTSTYLE0
 73
     1
 44
1.0
  0
POINT
  5
289
330
27D
100
AcDbEntity
  8
Defpoints
 62
     0
100
AcDbPoint
 10
53.79935068006933
 20
-22.93341658823593
 30
0.0
  0
POINT
  5
28A
330
27D
100
AcDbEntity
  8
Defpoints
 62
     0
100
AcDbPoint
 10
33.16185068006934
 20
-23.35828341447247
 30
0.0
  0
POINT
  5
28B
330
27D
100
AcDbEntity
  8
Defpoints
 62
     0
100
AcDbPoint
 10
33.16185068006934
 20
-13.12766117941426
 30
0.0
  0
ENDBLK
  5
27F
330
27D
100
AcDbEntity
  8
0
100
AcDbBlockEnd
  0
ENDSEC
  0
SECTION
  2
ENTITIES
  0
SPLINE
  5
96
330
1F
100
AcDbEntity
  8
0
  6
Continuous
 62
     1
370
    15
100
AcDbSpline
210
0.0
220
0.0
230
1.0
 70
     8
 71
     3
 72
    18
 73
    14
 74
     0
 42
0.000000001
 43
0.00000001
 40
0.0
 40
0.0
 40
0.0
 40
0.0
 40
0.1399767684365838
 40
0.2489928958080372
 40
0.3318780228842075
 40
0.4057949002720167
 40
0.4724538001992829
 40
0.5312513808760762
 40
0.5934890478541889
 40
0.6692404301454314
 40
0.764508357417947
 40
0.8749095917641422
 40
1.0
 40
1.0
 40
1.0
 40
1.0
 10
11.0106534922209
 20
1.374892530048099
 30
0.0
 10
10.94544679534496
 20
1.405534010271918
 30
0.0
 10
10.82945608872585
 20
1.460039561285765
 30
0.0
 10
10.67170231817895
 20
1.535960212745914
 30
0.0
 10
10.54175223373429
 20
1.599374015172201
 30
0.0
 10
10.43375645812394
 20
1.652688838459431
 30
0.0
 10
10.33857061128064
 20
1.700178825848424
 30
0.0
 10
10.2492004707276
 20
1.745116105534027
 30
0.0
 10
10.1562481507253
 20
1.792142100020844
 30
0.0
 10
10.0427783588464
 20
1.849983842732711
 30
0.0
 10
9.903772293407163
 20
1.921444763829436
 30
0.0
 10
9.745153330505707
 20
2.00390749800832
 30
0.0
 10
9.637743063621766
 20
2.060624017580058
 30
0.0
 10
9.580687985208304
 20
2.090751169903409
 30
0.0
1001
PE_URL
1000

  0
LINE
  5
97
330
1F
100
AcDbEntity
  8
0
  6
Continuous
 62
     1
370
    15
100
AcDbLine
 10
8.120856462976356
 20
1.526298771907971
 30
0.0
 11
8.103107156631175
 21
1.536122682897525
 31
0.0
1001
PE_URL
1000

  0
SPLINE
  5
98
330
1F
100
AcDbEntity
  8
0
  6
Continuous
 62
     1
370
    15
100
AcDbSpline
210
0.0
220
0.0
230
1.0
 70
     8
 71
     3
 72
    26
 73
    22
 74
     0
 42
0.000000001
 43
0.00000001
 40
0.0
 40
0.0
 40
0.0
 40
0.0
 40
0.0483610959955117
 40
0.0901192823467497
 40
0.1246085770188523
 40
0.1599289810679711
 40
0.1949954905819752
 40
0.2297392035100632
 40
0.2643300713161997
 40
0.3293867233781748
 40
0.3874136846891115
 40
0.4545523590569743
 40
0.5226018277098177
 40
0.5821188845377832
 40
0.6427380409268829
 40
0.710127452128531
 40
0.7852985788848188
 40
0.8729679935003707
 40
0.9220110812354638
 40
0.974653026021479
 40
1.0
 40
1.0
 40
1.0
 40
1.0
 10
9.305766798550907
 20
4.152643052735568
 30
0.0
 10
9.255840134989315
 20
4.149729543433526
 30
0.0
 10
9.162803469927873
 20
4.144300316448371
 30
0.0
 10
8.99807634084703
 20
4.134646170397186
 30
0.0
 10
8.835675714245326
 20
4.127657986202382
 30
0.0
 10
8.687110077842979
 20
4.122630072897623
 30
0.0
 10
8.536288866419802
 20
4.117131279737257
 30
0.0
 10
8.3861216224725
 20
4.111864698728087
 30
0.0
 10
8.192904346948726
 20
4.105424066302217
 30
0.0
 10
7.966995114969155
 20
4.098801801881668
 30
0.0
 10
7.69869051043137
 20
4.092461260234262
 30
0.0
 10
7.428021020718768
 20
4.087513470376011
 30
0.0
 10
7.151914876734327
 20
4.084065873939632
 30
0.0
 10
6.885627308885253
 20
4.082228109571543
 30
0.0
 10
6.62020597123542
 20
4.081784083812908
 30
0.0
 10
6.332788467186098
 20
4.082917578804408
 30
0.0
 10
6.00698645816427
 20
4.086255419719117
 30
0.0
 10
5.707113766410369
 20
4.091425200890797
 30
0.0
 10
5.439128217344687
 20
4.097684882324534
 30
0.0
 10
5.259355929710913
 20
4.102524637962912
 30
0.0
 10
5.148985635929108
 20
4.106121350130822
 30
0.0
 10
5.113114476169407
 20
4.107290308120912
 30
0.0
1001
PE_URL
1000

  0
SPLINE
  5
99
330
1F
100
AcDbEntity
  8
0
  6
Continuous
 62
     1
370
    15
100
AcDbSpline
210
0.0
220
0.0
230
1.0
 70
     8
 71
     3
 72
    45
 73
    41
 74
     0
 42
0.000000001
 43
0.00000001
 40
0.0
 40
0.0
 40
0.0
 40
0.0
 40
0.0321954666385342
 40
0.0595679423490344
 40
0.0820464286958386
 40
0.0995958981804533
 40
0.1122401129715328
 40
0.1212380859705817
 40
0.1303219913063544
 40
0.1480348445153027
 40
0.1674160814038876
 40
0.1901363210020922
 40
0.2262956283055386
 40
0.2646979758670586
 40
0.3020287397196009
 40
0.3359240597463972
 40
0.3629597469594684
 40
0.3865948014918646
 40
0.4073124863876435
 40
0.4260646221361256
 40
0.4439953858670772
 40
0.463696240004757
 40
0.4861768624855182
 40
0.5137213289260568
 40
0.5607197851847645
 40
0.6029003690033021
 40
0.6447593752476141
 40
0.6851913574894812
 40
0.7217156268888515
 40
0.755438830431321
 40
0.7873858991352344
 40
0.8197131666351052
 40
0.857334861643032
 40
0.8772672164393276
 40
0.8970600941740621
 40
0.9169450830242033
 40
0.9332497818100037
 40
0.9522123145733968
 40
0.974372631109724
 40
1.0
 40
1.0
 40
1.0
 40
1.0
 10
22.4605801777443
 20
3.581569938704665
 30
0.0
 10
22.36526393020005
 20
3.573540237057419
 30
0.0
 10
22.18891013472978
 20
3.558683710510584
 30
0.0
 10
21.94479829217544
 20
3.540401348545344
 30
0.0
 10
21.74293825383933
 20
3.526454666148128
 30
0.0
 10
21.58371257646309
 20
3.516311906651956
 30
0.0
 10
21.46339581000775
 20
3.509161495734715
 30
0.0
 10
21.36772759620824
 20
3.503762340316524
 30
0.0
 10
21.25703514647649
 20
3.497685063536329
 30
0.0
 10
21.11555879253343
 20
3.490396163595558
 30
0.0
 10
20.93756280294385
 20
3.482112253594697
 30
0.0
 10
20.70313668007673
 20
3.47239149320206
 30
0.0
 10
20.40992847478289
 20
3.462402619622613
 30
0.0
 10
20.07392665124737
 20
3.454177273053899
 30
0.0
 10
19.74496322220623
 20
3.449337270926732
 30
0.0
 10
19.44772844284491
 20
3.447701270453581
 30
0.0
 10
19.19119767572802
 20
3.448314659123807
 30
0.0
 10
18.9754362405824
 20
3.450239579823364
 30
0.0
 10
18.78518018358166
 20
3.453025470585412
 30
0.0
 10
18.61201860587743
 20
3.456445411819776
 30
0.0
 10
18.44193478727956
 20
3.460615555118701
 30
0.0
 10
18.26071739526733
 20
3.46595233606418
 30
0.0
 10
18.05047460859516
 20
3.473270434565121
 30
0.0
 10
17.75796092682492
 20
3.485302845471499
 30
0.0
 10
17.40579017157073
 20
3.503091794431527
 30
0.0
 10
17.01098805847129
 20
3.527442871343589
 30
0.0
 10
16.63238349457662
 20
3.554768959673377
 30
0.0
 10
16.27101202991564
 20
3.584700397388263
 30
0.0
 10
15.94249764259895
 20
3.614995042368824
 30
0.0
 10
15.63514350941323
 20
3.645735499125084
 30
0.0
 10
15.34079964240887
 20
3.677454390467454
 30
0.0
 10
15.03864494647151
 20
3.712129610812919
 30
0.0
 10
14.7637987405499
 20
3.746037486764368
 30
0.0
 10
14.52587707634322
 20
3.776919352305748
 30
0.0
 10
14.34147183803861
 20
3.801602928411175
 30
0.0
 10
14.16999072939304
 20
3.824464762283011
 30
0.0
 10
13.99890880242097
 20
3.848288959892073
 30
0.0
 10
13.82886092763495
 20
3.873645747635894
 30
0.0
 10
13.6414065011302
 20
3.90284770837656
 30
0.0
 10
13.51557639578346
 20
3.922699467782257
 30
0.0
 10
13.44809678260621
 20
3.933345481642714
 30
0.0
1001
PE_URL
1000

  0
SPLINE
  5
9A
330
1F
100
AcDbEntity
  8
0
  6
Continuous
 62
     1
370
    15
100
AcDbSpline
210
0.0
220
0.0
230
1.0
 70
     8
 71
     3
 72
    27
 73
    23
 74
     0
 42
0.000000001
 43
0.00000001
 40
0.0
 40
0.0
 40
0.0
 40
0.0
 40
0.0429222710774718
 40
0.0807844243685567
 40
0.1162184484252203
 40
0.15325078131973
 40
0.1906985111476375
 40
0.2249611246451958
 40
0.256073589223312
 40
0.2850206309102708
 40
0.3456937322928753
 40
0.4132953773357441
 40
0.466274281198256
 40
0.5232173905630882
 40
0.5869016652605593
 40
0.6580037720245074
 40
0.7232496018727068
 40
0.7917919605681347
 40
0.8493858608596733
 40
0.9024554349960254
 40
0.9539640885066519
 40
1.0
 40
1.0
 40
1.0
 40
1.0
 10
13.44809678260621
 20
-3.827739422046729
 30
0.0
 10
13.48230050394286
 20
-3.822117574551402
 30
0.0
 10
13.54667566094369
 20
-3.811536640635345
 30
0.0
 10
13.67166522384602
 20
-3.790179467283162
 30
0.0
 10
13.81171422947608
 20
-3.768261201974267
 30
0.0
 10
13.95998482820047
 20
-3.747576657856015
 30
0.0
 10
14.10280894028422
 20
-3.728378855757557
 30
0.0
 10
14.23934720365945
 20
-3.709838671588033
 30
0.0
 10
14.36464660266512
 20
-3.692936155737601
 30
0.0
 10
14.52547094718216
 20
-3.671419595367052
 30
0.0
 10
14.73464949587342
 20
-3.644122390731363
 30
0.0
 10
14.96887063404854
 20
-3.615155378468293
 30
0.0
 10
15.19922078918855
 20
-3.588020221755502
 30
0.0
 10
15.4248415593708
 20
-3.562683022630089
 30
0.0
 10
15.67436269395513
 20
-3.536161957864047
 30
0.0
 10
15.93491115004759
 20
-3.510226257720427
 30
0.0
 10
16.20161107913087
 20
-3.485511704261371
 30
0.0
 10
16.45047511187578
 20
-3.464119526202868
 30
0.0
 10
16.6835147622969
 20
-3.445694555445137
 30
0.0
 10
16.8945562577928
 20
-3.430313435092527
 30
0.0
 10
17.0904573896381
 20
-3.417036425386107
 30
0.0
 10
17.21670667937761
 20
-3.409403414654055
 30
0.0
 10
17.27628971333043
 20
-3.405801034485829
 30
0.0
1001
PE_URL
1000

  0
SPLINE
  5
9B
330
1F
100
AcDbEntity
  8
0
  6
Continuous
 62
     1
370
    15
100
AcDbSpline
210
0.0
220
0.0
230
1.0
 70
     8
 71
     3
 72
    38
 73
    34
 74
     0
 42
0.000000001
 43
0.00000001
 40
0.0
 40
0.0
 40
0.0
 40
0.0
 40
0.0473756672181058
 40
0.0876902781258171
 40
0.1209943382612928
 40
0.1496448614426853
 40
0.1700119437817759
 40
0.1866052014604505
 40
0.202686605860451
 40
0.2182524631667372
 40
0.2333315694796231
 40
0.2714449008227161
 40
0.3140751367868699
 40
0.3399549205086645
 40
0.3662557169772055
 40
0.3930609757044559
 40
0.4209237029788704
 40
0.4508658898231937
 40
0.4823898590200066
 40
0.5176675064836666
 40
0.5487425993474835
 40
0.5860369299362918
 40
0.6327817796764726
 40
0.6804814998529337
 40
0.725647005537532
 40
0.7653783411142124
 40
0.8008520788559523
 40
0.8330697513136595
 40
0.8628857971554913
 40
0.8879630160639038
 40
0.9232371022159007
 40
0.9583444499164575
 40
1.0
 40
1.0
 40
1.0
 40
1.0
 10
3.740578832126928
 20
-4.064598271033215
 30
0.0
 10
3.828978792001888
 20
-4.05947284553192
 30
0.0
 10
3.99260323304794
 20
-4.049985908162733
 30
0.0
 10
4.218264173370494
 20
-4.038277100209665
 30
0.0
 10
4.408937107075714
 20
-4.029077776903221
 30
0.0
 10
4.56244196148997
 20
-4.022236069923868
 30
0.0
 10
4.684813785795966
 20
-4.017122879383257
 30
0.0
 10
4.783758791435391
 20
-4.013198337693204
 30
0.0
 10
4.873746902405374
 20
-4.009796854008273
 30
0.0
 10
4.96090587448827
 20
-4.006659437654426
 30
0.0
 10
5.089193926644556
 20
-4.002265893838564
 30
0.0
 10
5.26767575304698
 20
-3.996688617521476
 30
0.0
 10
5.467558834676144
 20
-3.991374385879825
 30
0.0
 10
5.638531055104425
 20
-3.987463674516442
 30
0.0
 10
5.771474628232045
 20
-3.984478257369895
 30
0.0
 10
5.909163296057141
 20
-3.981326331602795
 30
0.0
 10
6.067707071416637
 20
-3.978931208182062
 30
0.0
 10
6.237635024916935
 20
-3.977602351025416
 30
0.0
 10
6.42016275873821
 20
-3.976907503395214
 30
0.0
 10
6.606600624152843
 20
-3.976330324888485
 30
0.0
 10
6.801041867841567
 20
-3.976429114959436
 30
0.0
 10
7.015369992572624
 20
-3.977383563156187
 30
0.0
 10
7.261333286537774
 20
-3.979662374193377
 30
0.0
 10
7.521689849294239
 20
-3.983485805422609
 30
0.0
 10
7.768888507027614
 20
-3.98842782262177
 30
0.0
 10
7.993289264795698
 20
-3.994015649391563
 30
0.0
 10
8.193256855478579
 20
-3.999840738911767
 30
0.0
 10
8.377926211160625
 20
-4.006012723305178
 30
0.0
 10
8.542951027974103
 20
-4.01180158643469
 30
0.0
 10
8.71393423521369
 20
-4.018402882775582
 30
0.0
 10
8.889859934395236
 20
-4.026170588874255
 30
0.0
 10
9.093433756434615
 20
-4.03591685211371
 30
0.0
 10
9.231075313993095
 20
-4.043125308771309
 30
0.0
 10
9.305766798550907
 20
-4.047036993139583
 30
0.0
1001
PE_URL
1000

  0
SPLINE
  5
9C
330
1F
100
AcDbEntity
  8
0
  6
Continuous
 62
     1
370
    15
100
AcDbSpline
210
0.0
220
0.0
230
1.0
 70
     8
 71
     3
 72
    38
 73
    34
 74
     0
 42
0.000000001
 43
0.00000001
 40
0.0
 40
0.0
 40
0.0
 40
0.0
 40
0.0625
 40
0.0625
 40
0.125
 40
0.125
 40
0.1875
 40
0.1875
 40
0.25
 40
0.25
 40
0.3125
 40
0.3125
 40
0.375
 40
0.375
 40
0.4375
 40
0.4375
 40
0.5
 40
0.5
 40
0.5625
 40
0.5625
 40
0.625
 40
0.625
 40
0.6875
 40
0.6875
 40
0.75
 40
0.75
 40
0.8125
 40
0.8125
 40
0.875
 40
0.875
 40
0.9375
 40
0.9375
 40
1.0
 40
1.0
 40
1.0
 40
1.0
 10
24.37807883212693
 20
-4.843138767395341
 30
0.0
 10
23.95081183064666
 20
-4.764993523615387
 30
0.0
 10
23.51832752323321
 20
-4.669512677565208
 30
0.0
 10
22.65634396935833
 20
-4.44656210077533
 30
0.0
 10
22.2299421112699
 20
-4.319490504175548
 30
0.0
 10
21.36877559406918
 20
-4.035103281790224
 30
0.0
 10
20.93595880178357
 20
-3.877887590152119
 30
0.0
 10
20.07931186788528
 20
-3.53844720117365
 30
0.0
 10
19.64921983379912
 20
-3.355439574544818
 30
0.0
 10
18.7867405882936
 20
-2.966661073189405
 30
0.0
 10
18.35975027108755
 20
-2.761751971033455
 30
0.0
 10
17.49972112013493
 20
-2.33290848588893
 30
0.0
 10
17.06673477673204
 20
-2.108920629863448
 30
0.0
 10
16.2082896454835
 20
-1.648810807604474
 30
0.0
 10
15.78000599811712
 20
-1.412224051193386
 30
0.0
 10
14.91735302267795
 20
-0.9293950664745527
 30
0.0
 10
14.48918651727194
 20
-0.6843174341932307
 30
0.0
 10
13.63061365050367
 20
-0.1903373234421492
 30
0.0
 10
13.19762090366907
 20
0.0590678517084069
 30
0.0
 10
12.33769453080707
 20
0.5549495510991832
 30
0.0
 10
11.91063314440319
 20
0.8014534997799531
 30
0.0
 10
11.04812861695449
 20
1.289151505412794
 30
0.0
 10
10.61819965243778
 20
1.529286461870841
 30
0.0
 10
9.761400183658607
 20
1.997127329180307
 30
0.0
 10
9.328564189159447
 20
2.225895075609237
 30
0.0
 10
8.467475365169967
 20
2.665938825705789
 30
0.0
 10
8.04104859879143
 20
2.876965538747798
 30
0.0
 10
7.179014512493186
 20
3.279460362444688
 30
0.0
 10
6.746739000473444
 20
3.470323410573777
 30
0.0
 10
5.892027851546831
 20
3.825699808568386
 30
0.0
 10
5.459511567361115
 20
3.991601229083384
 30
0.0
 10
4.597580525316879
 20
4.294450735942028
 30
0.0
 10
4.171199950753691
 20
4.431152929874024
 30
0.0
 10
3.740578832123485
 20
4.552655644147389
 30
0.0
1001
PE_URL
1000

  0
SPLINE
  5
9D
330
1F
100
AcDbEntity
  8
0
  6
Continuous
 62
     1
370
    15
100
AcDbSpline
210
0.0
220
0.0
230
1.0
 70
     8
 71
     3
 72
    22
 73
    18
 74
     0
 42
0.000000001
 43
0.00000001
 40
0.0
 40
0.0
 40
0.0
 40
0.0
 40
0.0705937846235982
 40
0.1412510080854132
 40
0.2117823246336027
 40
0.2824874180466065
 40
0.3529737710878767
 40
0.4237111234235636
 40
0.4941700512966579
 40
0.564924023106831
 40
0.6353730847534271
 40
0.7061280219417133
 40
0.7765847837163329
 40
0.8473250313353496
 40
0.9178070538070944
 40
0.9885169698571065
 40
1.0
 40
1.0
 40
1.0
 40
1.0
 10
24.37807883212693
 20
-4.017800746676772
 30
0.0
 10
24.06332211426365
 20
-3.955912915722109
 30
0.0
 10
23.43352582360008
 20
-3.832081638546989
 30
0.0
 10
22.4888816896833
 20
-3.591306881451231
 30
0.0
 10
21.54446348946162
 20
-3.312101633135618
 30
0.0
 10
20.59978961850675
 20
-2.996085958558936
 30
0.0
 10
19.65547270017271
 20
-2.644055369153041
 30
0.0
 10
18.71077769460458
 20
-2.264666014814285
 30
0.0
 10
17.76652284940961
 20
-1.856117639661984
 30
0.0
 10
16.82181684764002
 20
-1.429984878751621
 30
0.0
 10
15.87758448036841
 20
-0.9833006291369852
 30
0.0
 10
14.93287734262852
 20
-0.5291757371914306
 30
0.0
 10
13.98862939329573
 20
-0.0645258284294939
 30
0.0
 10
13.04392500201629
 20
0.3978657981320853
 30
0.0
 10
12.09964575194981
 20
0.8586066299846608
 30
0.0
 10
11.41833721145951
 20
1.185913264615329
 30
0.0
 10
11.05190925052536
 20
1.355007977867851
 30
0.0
 10
11.00071625264048
 20
1.378631899131428
 30
0.0
1001
PE_URL
1000

  0
LINE
  5
9E
330
1F
100
AcDbEntity
  8
0
  6
Continuous
 62
     1
370
    15
100
AcDbLine
 10
24.37807883212693
 20
-4.843138767395343
 30
0.0
 11
24.37807883212693
 21
-4.017800746676772
 31
0.0
1001
PE_URL
1000

  0
SPLINE
  5
9F
330
1F
100
AcDbEntity
  8
0
  6
Continuous
 62
     1
370
    15
100
AcDbSpline
210
0.0
220
0.0
230
1.0
 70
     8
 71
     3
 72
    38
 73
    34
 74
     0
 42
0.000000001
 43
0.00000001
 40
0.0
 40
0.0
 40
0.0
 40
0.0
 40
0.0625
 40
0.0625
 40
0.125
 40
0.125
 40
0.1875
 40
0.1875
 40
0.25
 40
0.25
 40
0.3125
 40
0.3125
 40
0.375
 40
0.375
 40
0.4375
 40
0.4375
 40
0.5
 40
0.5
 40
0.5625
 40
0.5625
 40
0.625
 40
0.625
 40
0.6875
 40
0.6875
 40
0.75
 40
0.75
 40
0.8125
 40
0.8125
 40
0.875
 40
0.875
 40
0.9375
 40
0.9375
 40
1.0
 40
1.0
 40
1.0
 40
1.0
 10
24.37807883212694
 20
-5.102211345027449
 30
0.0
 10
23.95081183064675
 20
-5.092028583913383
 30
0.0
 10
23.51832752323336
 20
-5.063885150721498
 30
0.0
 10
22.65634396935861
 20
-4.972244926466495
 30
0.0
 10
22.22994211127024
 20
-4.908999817753229
 30
0.0
 10
21.36877559406966
 20
-4.748150020976583
 30
0.0
 10
20.93595880178413
 20
-4.650532780258444
 30
0.0
 10
20.07931186788597
 20
-4.424122054235113
 30
0.0
 10
19.64921983379989
 20
-4.294829117575945
 30
0.0
 10
18.78674058829452
 20
-4.006670134185404
 30
0.0
 10
18.35975027108851
 20
-3.848468564311846
 30
0.0
 10
17.49972112013604
 20
-3.505410541023906
 30
0.0
 10
17.06673477673323
 20
-3.320469919452597
 30
0.0
 10
16.2082896454848
 20
-2.929563794610504
 30
0.0
 10
15.78000599811851
 20
-2.723232909629099
 30
0.0
 10
14.91735302267949
 20
-2.291737210889724
 30
0.0
 10
14.48918651727352
 20
-2.067613958612473
 30
0.0
 10
13.6306136505054
 20
-1.605866107020837
 30
0.0
 10
13.19762090367088
 20
-1.367743367746128
 30
0.0
 10
12.337694530809
 20
-0.8843926706498635
 30
0.0
 10
11.91063314440521
 20
-0.6391733150393643
 30
0.0
 10
11.04812861695665
 20
-0.1440402225879596
 30
0.0
 10
10.61819965243997
 20
0.1048172368557435
 30
0.0
 10
9.761400183660971
 20
0.5998636729560138
 30
0.0
 10
9.328564189161886
 20
0.8471938806575698
 30
0.0
 10
8.467475365172527
 20
1.333752311069041
 30
0.0
 10
8.041048598794063
 20
1.572660431360137
 30
0.0
 10
7.179014512495972
 20
2.039971740897625
 30
0.0
 10
6.746739000476246
 20
2.267719320452562
 30
0.0
 10
5.920849360675797
 20
2.752343471347002
 30
0.0
 10
5.456454375032449
 20
3.013770638752691
 30
0.0
 10
4.883971893820037
 20
3.315891549890395
 30
0.0
 10
4.336141768257916
 20
3.626822161695922
 30
0.0
 10
3.740578832126973
 20
3.8306074801104
 30
0.0
1001
PE_URL
1000

  0
SPLINE
  5
A0
330
1F
100
AcDbEntity
  8
0
  6
Continuous
 62
     1
370
    15
100
AcDbSpline
210
0.0
220
0.0
230
1.0
 70
     8
 71
     3
 72
    14
 73
    10
 74
     0
 42
0.000000001
 43
0.00000001
 40
0.0
 40
0.0
 40
0.0
 40
0.0
 40
0.1003438627423323
 40
0.2450388346225392
 40
0.3901730885924938
 40
0.5349981465333067
 40
0.6899587012233126
 40
0.8452067291432227
 40
1.0
 40
1.0
 40
1.0
 40
1.0
 10
11.56066432844877
 20
-0.4377315798996252
 30
0.0
 10
11.29901836341301
 20
-0.3331304723269058
 30
0.0
 10
10.66008120668141
 20
-0.0776954830873215
 30
0.0
 10
9.643489111030414
 20
0.3360242560946053
 30
0.0
 10
8.510052323617462
 20
0.7889669258134953
 30
0.0
 10
7.350501792488879
 20
1.242583555681087
 30
0.0
 10
6.164468095016686
 20
1.684787409641433
 30
0.0
 10
4.951969724193357
 20
2.108922043406258
 30
0.0
 10
4.37204685081165
 20
2.426259844636343
 30
0.0
 10
3.740578832126959
 20
2.59706426236311
 30
0.0
1001
PE_URL
1000

  0
SPLINE
  5
A1
330
1F
100
AcDbEntity
  8
외형선
  6
Continuous
370
    15
100
AcDbSpline
210
0.0
220
0.0
230
1.0
 70
    24
 71
     3
 72
    10
 73
     6
 74
     0
 42
0.000000001
 43
0.00000001
 40
0.0
 40
0.0
 40
0.0
 40
0.0
 40
0.5
 40
0.5
 40
1.0
 40
1.0
 40
1.0
 40
1.0
 10
3.74057883212694
 20
3.680562205740146
 30
0.0
 10
3.74057883212694
 20
3.555466952590162
 30
0.0
 10
3.74057883212694
 20
3.379894296927574
 30
0.0
 10
3.740578832126942
 20
2.964172689670331
 30
0.0
 10
3.740578832126942
 20
2.725385484337643
 30
0.0
 10
3.740578832126942
 20
2.48452907449585
 30
0.0
  0
LINE
  5
A2
330
1F
100
AcDbEntity
  8
외형선
  6
Continuous
370
    15
100
AcDbLine
 10
3.74057883212694
 20
3.680562205740145
 30
0.0
 11
3.74057883212694
 21
4.552655644134568
 31
0.0
  0
LINE
  5
A3
330
1F
100
AcDbEntity
  8
0
  6
Continuous
 62
     1
370
    15
100
AcDbLine
 10
24.37807883212693
 20
-5.102211345027452
 30
0.0
 11
24.37807883212693
 21
-4.843138767395343
 31
0.0
1001
PE_URL
1000

  0
SPLINE
  5
A4
330
1F
100
AcDbEntity
  8
0
  6
Continuous
 62
     1
370
    15
100
AcDbSpline
210
0.0
220
0.0
230
1.0
 70
     8
 71
     3
 72
     8
 73
     4
 74
     0
 42
0.000000001
 43
0.00000001
 40
0.0
 40
0.0
 40
0.0
 40
0.0
 40
1.0
 40
1.0
 40
1.0
 40
1.0
 10
21.18570325057818
 20
1.495973895857922
 30
0.0
 10
21.00212073402982
 20
1.713461567571408
 30
0.0
 10
20.8385315594015
 20
1.922486286005374
 30
0.0
 10
20.69949428312247
 20
2.121118466289256
 30
0.0
1001
PE_URL
1000

  0
LINE
  5
A5
330
1F
100
AcDbEntity
  8
0
  6
Continuous
 62
     1
370
    15
100
AcDbLine
 10
20.76469237017652
 20
2.175826157099857
 30
0.0
 11
24.37807883212693
 21
0.0528030297979949
 31
0.0
1001
PE_URL
1000

  0
LINE
  5
A6
330
1F
100
AcDbEntity
  8
0
  6
Continuous
 62
     1
370
    15
100
AcDbLine
 10
24.37807883212693
 20
0.0528030297979949
 30
0.0
 11
24.37807883212693
 21
-1.326003544873704
 31
0.0
1001
PE_URL
1000

  0
SPLINE
  5
A7
330
1F
100
AcDbEntity
  8
0
  6
Continuous
 62
     1
370
    15
100
AcDbSpline
210
0.0
220
0.0
230
1.0
 70
     8
 71
     3
 72
    12
 73
     8
 74
     0
 42
0.000000001
 43
0.00000001
 40
0.0
 40
0.0
 40
0.0
 40
0.0
 40
0.5
 40
0.5
 40
0.75
 40
0.75
 40
1.0
 40
1.0
 40
1.0
 40
1.0
 10
24.37807883212693
 20
-1.326003544873704
 30
0.0
 10
23.82546889039712
 20
-0.8915588766657637
 30
0.0
 10
23.28208911402343
 20
-0.4393007794021361
 30
0.0
 10
22.48122057943436
 20
0.2664933317530556
 30
0.0
 10
22.21667245648409
 20
0.5064053759722015
 30
0.0
 10
21.69297920127461
 20
0.9966567739603215
 30
0.0
 10
21.43526312863635
 20
1.24572393189738
 30
0.0
 10
21.18570325057818
 20
1.495973895857923
 30
0.0
1001
PE_URL
1000

  0
SPLINE
  5
A8
330
1F
100
AcDbEntity
  8
0
  6
Continuous
 62
     1
370
    15
100
AcDbSpline
210
0.0
220
0.0
230
1.0
 70
     8
 71
     3
 72
    19
 73
    15
 74
     0
 42
0.000000001
 43
0.00000001
 40
0.0
 40
0.0
 40
0.0
 40
0.0
 40
0.0694091195204024
 40
0.1388267576967682
 40
0.2084073524336704
 40
0.3036728192086214
 40
0.3991591966427925
 40
0.4945358320488748
 40
0.5898662458051432
 40
0.6853946766459208
 40
0.7806416238027716
 40
0.8762242999607863
 40
0.9714712090950797
 40
1.0
 40
1.0
 40
1.0
 40
1.0
 10
21.18570324778726
 20
1.49597389706335
 30
0.0
 10
20.91086419794107
 20
1.613762068648391
 30
0.0
 10
20.36115236695623
 20
1.84935286808758
 30
0.0
 10
19.53604759549504
 20
2.184642264184791
 30
0.0
 10
18.60792104717391
 20
2.540890731240182
 30
0.0
 10
17.57749293575466
 20
2.907429631471933
 30
0.0
 10
16.44401573126896
 20
3.262928395938559
 30
0.0
 10
15.31072560709092
 20
3.567656867775538
 30
0.0
 10
14.17747531057822
 20
3.816099925944695
 30
0.0
 10
13.04390643610832
 20
4.003069087326963
 30
0.0
 10
11.91058779293217
 20
4.128693045530159
 30
0.0
 10
10.77688307907621
 20
4.183366099792868
 30
0.0
 10
9.90878790214123
 20
4.188490973918284
 30
0.0
 10
9.41849583003348
 20
4.153727399039706
 30
0.0
 10
9.305489480620222
 20
4.145714818553357
 30
0.0
1001
PE_URL
1000

  0
SPLINE
  5
A9
330
1F
100
AcDbEntity
  8
0
  6
Continuous
 62
     1
370
    15
100
AcDbSpline
210
0.0
220
0.0
230
1.0
 70
    24
 71
     3
 72
    10
 73
     6
 74
     0
 42
0.000000001
 43
0.00000001
 40
0.0
 40
0.0
 40
0.0
 40
0.0
 40
0.5
 40
0.5
 40
1.0
 40
1.0
 40
1.0
 40
1.0
 10
24.37807883212693
 20
-4.017800746676771
 30
0.0
 10
24.37807883212695
 20
-3.705757230343513
 30
0.0
 10
24.37807883212693
 20
-3.311478282481944
 30
0.0
 10
24.37807883212693
 20
-2.394817673820045
 30
0.0
 10
24.37807883212693
 20
-1.873230059194857
 30
0.0
 10
24.37807883212694
 20
-1.326003544873869
 30
0.0
1001
PE_URL
1000

  0
SPLINE
  5
AA
330
1F
100
AcDbEntity
  8
0
  6
Continuous
 62
     1
370
    15
100
AcDbSpline
210
0.0
220
0.0
230
1.0
 70
    24
 71
     3
 72
     8
 73
     4
 74
     0
 42
0.000000001
 43
0.00000001
 40
0.0
 40
0.0
 40
0.0
 40
0.0
 40
1.0
 40
1.0
 40
1.0
 40
1.0
 10
21.23767260425502
 20
2.572703697068914
 30
0.0
 10
21.06737636507651
 20
2.42980818558335
 30
0.0
 10
20.88740391555693
 20
2.278793369569732
 30
0.0
 10
20.69949428311812
 20
2.121118466295669
 30
0.0
1001
PE_URL
1000

  0
SPLINE
  5
AB
330
1F
100
AcDbEntity
  8
0
  6
Continuous
 62
     1
370
    15
100
AcDbSpline
210
0.0
220
0.0
230
1.0
 70
     8
 71
     3
 72
     9
 73
     5
 74
     0
 42
0.000000001
 43
0.00000001
 40
0.0
 40
0.0
 40
0.0
 40
0.0
 40
0.5909054556658475
 40
1.0
 40
1.0
 40
1.0
 40
1.0
 10
24.37807883212693
 20
3.664365529797991
 30
0.0
 10
24.00011936745706
 20
3.660369233631512
 30
0.0
 10
23.36049172305836
 20
3.653606229282573
 30
0.0
 10
22.72101230326507
 20
3.598075546463006
 30
0.0
 10
22.45940476141366
 20
3.575358247078372
 30
0.0
1001
PE_URL
1000

  0
SPLINE
  5
AC
330
1F
100
AcDbEntity
  8
0
  6
Continuous
 62
     1
370
    15
100
AcDbSpline
210
0.0
220
0.0
230
1.0
 70
     8
 71
     3
 72
    10
 73
     6
 74
     0
 42
0.000000001
 43
0.00000001
 40
0.0
 40
0.0
 40
0.0
 40
0.0
 40
0.5
 40
0.5
 40
1.0
 40
1.0
 40
1.0
 40
1.0
 10
24.37807883212693
 20
3.664365529797994
 30
0.0
 10
23.84735474692679
 20
3.520400031916766
 30
0.0
 10
23.31986820548275
 20
3.3588299815581
 30
0.0
 10
22.27197701626282
 20
2.997181190885547
 30
0.0
 10
21.75151809893872
 20
2.79763271175636
 30
0.0
 10
21.23767260426495
 20
2.57270369707354
 30
0.0
1001
PE_URL
1000

  0
SPLINE
  5
AD
330
1F
100
AcDbEntity
  8
0
  6
Continuous
 62
     1
370
    15
100
AcDbSpline
210
0.0
220
0.0
230
1.0
 70
     8
 71
     3
 72
    17
 73
    13
 74
     0
 42
0.000000001
 43
0.00000001
 40
0.0
 40
0.0
 40
0.0
 40
0.0
 40
0.0417877716418218
 40
0.158343103840792
 40
0.2753092734096473
 40
0.3918645590797581
 40
0.5087644684960932
 40
0.6254218008096415
 40
0.7191635396753224
 40
0.8127040031450273
 40
0.9065380005231537
 40
1.0
 40
1.0
 40
1.0
 40
1.0
 10
13.44876775571358
 20
-3.820432035067886
 30
0.0
 10
13.31350073795848
 20
-3.843605332422413
 30
0.0
 10
12.8009441072241
 20
-3.931414078502313
 30
0.0
 10
11.91059769564832
 20
-4.019680382409953
 30
0.0
 10
10.77689476079305
 20
-4.081496367884753
 30
0.0
 10
9.64358477825558
 20
-4.072938214198202
 30
0.0
 10
8.509979043697632
 20
-3.999405554405362
 30
0.0
 10
7.451181429981526
 20
-3.869129996691752
 30
0.0
 10
6.467277884448161
 20
-3.699755267203088
 30
0.0
 10
5.558036429592629
 20
-3.502901157877686
 30
0.0
 10
4.648695390936167
 20
-3.272868255370004
 30
0.0
 10
4.042883273864134
 20
-3.090088855722354
 30
0.0
 10
3.740578832126942
 20
-2.998880669529914
 30
0.0
1001
PE_URL
1000

  0
SPLINE
  5
AE
330
1F
100
AcDbEntity
  8
외형선
  6
Continuous
370
    15
100
AcDbSpline
210
0.0
220
0.0
230
1.0
 70
    24
 71
     3
 72
    14
 73
    10
 74
     0
 42
0.000000001
 43
0.00000001
 40
0.0
 40
0.0
 40
0.0
 40
0.0
 40
0.25
 40
0.25
 40
0.5
 40
0.5
 40
0.75
 40
0.75
 40
1.0
 40
1.0
 40
1.0
 40
1.0
 10
3.740578832126942
 20
2.48452907449585
 30
0.0
 10
3.740578832126942
 20
2.088845778103195
 30
0.0
 10
3.74057883212694
 20
1.652418576718077
 30
0.0
 10
3.74057883212694
 20
0.7298853170091719
 30
0.0
 10
3.74057883212694
 20
0.2441311345547554
 30
0.0
 10
3.740578832126942
 20
-0.7304288697485983
 30
0.0
 10
3.74057883212694
 20
-1.218715405282623
 30
0.0
 10
3.740578832126942
 20
-2.150897748444482
 30
0.0
 10
3.740578832126942
 20
-2.594428127544596
 30
0.0
 10
3.740578832126942
 20
-2.998880669529913
 30
0.0
  0
LINE
  5
AF
330
1F
100
AcDbEntity
  8
0
  6
Continuous
 62
     1
370
    15
100
AcDbLine
 10
24.37807883212693
 20
0.0528030297979949
 30
0.0
 11
24.37807883212693
 21
3.664365529797993
 31
0.0
1001
PE_URL
1000

  0
SPLINE
  5
B0
330
1F
100
AcDbEntity
  8
외형선
  6
Continuous
370
    15
100
AcDbSpline
210
0.0
220
0.0
230
1.0
 70
    24
 71
     3
 72
    15
 73
    11
 74
     0
 42
0.000000001
 43
0.00000001
 40
0.0
 40
0.0
 40
0.0
 40
0.0
 40
0.1217339662439738
 40
0.2436437561882316
 40
0.3653777224322054
 40
0.4988442486868157
 40
0.6323107749414257
 40
0.7696547925514918
 40
0.9069988101615578
 40
0.9999999999999999
 40
0.9999999999999999
 40
0.9999999999999999
 40
0.9999999999999999
 10
3.740578832126942
 20
-2.998880669529914
 30
0.0
 10
3.740578832126942
 20
-3.079974070967095
 30
0.0
 10
3.740578832126942
 20
-3.242277999261333
 30
0.0
 10
3.74057883212694
 20
-3.450725301877865
 30
0.0
 10
3.74057883212694
 20
-3.637963900576854
 30
0.0
 10
3.74057883212694
 20
-3.796438292243647
 30
0.0
 10
3.74057883212694
 20
-3.924265399122136
 30
0.0
 10
3.74057883212694
 20
-4.012316326758054
 30
0.0
 10
3.74057883212694
 20
-4.059233045388677
 30
0.0
 10
3.74057883212694
 20
-4.061046938017396
 30
0.0
 10
3.74057883212694
 20
-4.061779291751078
 30
0.0
  0
SPLINE
  5
B1
330
1F
100
AcDbEntity
  8
0
  6
Continuous
 62
     1
370
    15
100
AcDbSpline
210
0.0
220
0.0
230
1.0
 70
     8
 71
     3
 72
    15
 73
    11
 74
     0
 42
0.000000001
 43
0.00000001
 40
0.0
 40
0.0
 40
0.0
 40
0.0
 40
0.0076304815953783
 40
0.1508776574135335
 40
0.2940945321101169
 40
0.4373102175985661
 40
0.5779949206852468
 40
0.7186550476917418
 40
0.8593316404025698
 40
1.0
 40
1.0
 40
1.0
 40
1.0
 10
17.27696856988117
 20
3.511710717552195
 30
0.0
 10
17.29502916026624
 20
3.519806355734829
 30
0.0
 10
17.65214155674386
 20
3.679881563176912
 30
0.0
 10
18.34834748684951
 20
3.951009148890514
 30
0.0
 10
19.36537473542418
 20
4.315048908155494
 30
0.0
 10
20.37635447721051
 20
4.617133839946568
 30
0.0
 10
21.38134728657626
 20
4.861124061293665
 30
0.0
 10
22.38024525635261
 20
5.042114500511491
 30
0.0
 10
23.37916914289661
 20
5.165498052075574
 30
0.0
 10
24.04511543167048
 20
5.193711228978757
 30
0.0
 10
24.37807883212694
 20
5.207817404623433
 30
0.0
1001
PE_URL
1000

  0
SPLINE
  5
B2
330
1F
100
AcDbEntity
  8
0
  6
Continuous
 62
     1
370
    15
100
AcDbSpline
210
0.0
220
0.0
230
1.0
 70
    24
 71
     3
 72
    10
 73
     6
 74
     0
 42
0.000000001
 43
0.00000001
 40
0.0
 40
0.0
 40
0.0
 40
0.0
 40
0.5
 40
0.5
 40
1.0
 40
1.0
 40
1.0
 40
1.0
 10
24.37807883212693
 20
3.664365529797992
 30
0.0
 10
24.37807883212693
 20
3.883289454763226
 30
0.0
 10
24.37807883212693
 20
4.137699330109276
 30
0.0
 10
24.37807883212695
 20
4.671450563380406
 30
0.0
 10
24.37807883212694
 20
4.949428787636214
 30
0.0
 10
24.37807883212693
 20
5.207817404623437
 30
0.0
1001
PE_URL
1000

  0
SPLINE
  5
B3
330
1F
100
AcDbEntity
  8
0
  6
Continuous
 62
     1
370
    15
100
AcDbSpline
210
0.0
220
0.0
230
1.0
 70
     8
 71
     3
 72
     9
 73
     5
 74
     0
 42
0.000000001
 43
0.00000001
 40
0.0
 40
0.0
 40
0.0
 40
0.0
 40
0.2737610511086314
 40
0.9999999999999999
 40
0.9999999999999999
 40
0.9999999999999999
 40
0.9999999999999999
 10
5.113149692583101
 20
-4.001671508822349
 30
0.0
 10
4.987814679466672
 20
-4.047891885349455
 30
0.0
 10
4.529988364843513
 20
-4.216726627691111
 30
0.0
 10
4.077495494422119
 20
-4.428520247686405
 30
0.0
 10
3.740578832126966
 20
-4.499505846327542
 30
0.0
1001
PE_URL
1000

  0
SPLINE
  5
B4
330
1F
100
AcDbEntity
  8
외형선
  6
Continuous
370
    15
100
AcDbSpline
210
0.0
220
0.0
230
1.0
 70
    24
 71
     3
 72
    11
 73
     7
 74
     0
 42
0.000000001
 43
0.00000001
 40
0.0
 40
0.0
 40
0.0
 40
0.0
 40
0.1619626614033927
 40
0.4737962784218152
 40
0.7859943899067571
 40
1.0
 40
1.0
 40
1.0
 40
1.0
 10
3.74057883212694
 20
-4.079052309175548
 30
0.0
 10
3.74057883212694
 20
-4.100237559148781
 30
0.0
 10
3.74057883212694
 20
-4.162211674094651
 30
0.0
 10
3.74057883212694
 20
-4.260167431407421
 30
0.0
 10
3.74057883212694
 20
-4.361527982649328
 30
0.0
 10
3.74057883212694
 20
-4.422324007859978
 30
0.0
 10
3.74057883212694
 20
-4.447049584538583
 30
0.0
  0
LINE
  5
B5
330
1F
100
AcDbEntity
  8
중심선
 62
     1
100
AcDbLine
 10
-42.12192116787307
 20
0.0528030297979883
 30
0.0
 11
27.37807883212695
 21
0.0528030297979922
 31
0.0
  0
LINE
  5
B6
330
1F
100
AcDbEntity
  8
참조1
100
AcDbLine
 10
-7.371921167873057
 20
0.0528030297979922
 30
0.0
 11
-7.371921167873052
 21
-39.94719697020201
 31
0.0
  0
LINE
  5
B7
330
1F
100
AcDbEntity
  8
참조1
100
AcDbLine
 10
-7.371921167873052
 20
-39.94719697020201
 30
0.0
 11
-22.53075298218174
 21
-39.94719697020201
 31
0.0
  0
CIRCLE
  5
B8
330
1F
100
AcDbEntity
  8
해칭선
100
AcDbCircle
 10
0.0
 20
0.0517281010740991
 30
0.0
 40
3.000000000000001
  0
INSERT
  5
B9
330
1F
100
AcDbEntity
  8
0
  6
Continuous
 62
     7
100
AcDbBlockReference
 66
     1
  2
블럭10
 10
-21.31219409999827
 20
-51.99437127184594
 30
0.0
  0
ATTRIB
  5
BA
330
B9
100
AcDbEntity
  8
FORMAT
 62
     2
100
AcDbText
 10
-30.49348938873955
 20
-49.91900435901375
 30
0.0
 40
4.233333333333333
  1
E2030026 [ 2 FLUTE ]
 41
0.75
  7
SLDTEXTSTYLE0
 11
-30.49348938873955
 21
-52.03567102568042
 31
0.0
100
AcDbAttribute
  2
AUTOATTR0
 70
     0
 74
     1
  0
SEQEND
  5
BB
330
B9
100
AcDbEntity
  8
0
  6
Continuous
 62
     7
  0
HATCH
  5
BC
330
1F
100
AcDbEntity
  8
중심선
100
AcDbHatch
 10
0.0
 20
0.0
 30
0.0
210
0.0
220
0.0
230
1.0
  2
SOLID
 70
     1
 71
     0
 91
        1
 92
        0
 93
        4
 72
     1
 10
-15.59728479561742
 20
-35.747196970202
 11
-19.0435600394547
 21
-35.747196970202
 72
     1
 10
-19.0435600394547
 20
-35.747196970202
 11
-21.17178989865875
 21
-38.28352255077461
 72
     1
 10
-21.17178989865875
 20
-38.28352255077461
 11
-17.7254815697083
 21
-38.28348312147212
 72
     1
 10
-17.7254815697083
 20
-38.28348312147212
 11
-15.59728479561742
 21
-35.747196970202
 97
        0
 75
     0
 76
     1
 98
        1
 10
0.0000000000000017
 20
0.0517281010740991
  0
HATCH
  5
BD
330
1F
100
AcDbEntity
  8
중심선
100
AcDbHatch
 10
0.0
 20
0.0
 30
0.0
210
0.0
220
0.0
230
1.0
  2
SOLID
 70
     1
 71
     0
 91
        1
 92
        0
 93
        4
 72
     1
 10
-10.58452080458144
 20
-35.747196970202
 11
-14.03079604841872
 21
-35.747196970202
 72
     1
 10
-14.03079604841872
 20
-35.747196970202
 11
-18.56193405677614
 21
-41.14719697020202
 72
     1
 10
-18.56193405677614
 20
-41.14719697020202
 11
-15.11565881293886
 21
-41.14719697020202
 72
     1
 10
-15.11565881293886
 20
-41.14719697020202
 11
-10.58452080458144
 21
-35.747196970202
 97
        0
 75
     0
 76
     1
 98
        1
 10
0.0000000000000017
 20
0.0517281010740991
  0
HATCH
  5
BE
330
1F
100
AcDbEntity
  8
중심선
100
AcDbHatch
 10
0.0
 20
0.0
 30
0.0
210
0.0
220
0.0
230
1.0
  2
SOLID
 70
     1
 71
     0
 91
        1
 92
        0
 93
        4
 72
     1
 10
-5.571756813545546
 20
-35.74719697020198
 11
-9.018032057382689
 21
-35.747196970202
 72
     1
 10
-9.018032057382689
 20
-35.747196970202
 11
-16.06646895927194
 21
-44.14719697020202
 72
     1
 10
-16.06646895927194
 20
-44.14719697020202
 11
-12.62019371543466
 21
-44.14719697020202
 72
     1
 10
-12.62019371543466
 20
-44.14719697020202
 11
-5.571756813545546
 21
-35.74719697020198
 97
        0
 75
     0
 76
     1
 98
        1
 10
0.0000000000000017
 20
0.0517281010740991
  0
HATCH
  5
BF
330
1F
100
AcDbEntity
  8
중심선
100
AcDbHatch
 10
0.0
 20
0.0
 30
0.0
210
0.0
220
0.0
230
1.0
  2
SOLID
 70
     1
 71
     0
 91
        1
 92
        0
 93
        6
 72
     3
 10
-0.7718663825333743
 20
-39.94719697025328
 11
3.960054785062283
 21
1.540882976769353E-10
 40
0.3939339440162628
 50
17.09539180608436
 51
320.0019657685081
 73
     0
 72
     1
 10
0.9111332731672213
 20
-38.53509097484031
 11
3.216435146868287
 21
-36.60076426479236
 72
     3
 10
-0.7718663825862209
 20
-39.94719697020216
 11
6.600054785286829
 21
-1.278976924368180E-13
 40
0.636358354079598
 50
39.99873849337413
 51
368.4976242363724
 73
     1
 72
     1
 10
5.653466109314389
 20
-38.98719697013203
 11
-2.091799075750298
 21
-38.987196970132
 72
     1
 10
-2.091799075750298
 20
-38.987196970132
 11
-2.091824120196232
 21
-40.90719697013192
 72
     1
 10
-2.091824120196232
 20
-40.90719697013192
 11
2.349555649275806
 21
-40.90719697013189
 97
        0
 75
     0
 76
     1
 98
        1
 10
0.0000000000000017
 20
0.0517281010740991
  0
DIMENSION
  5
C0
330
1F
100
AcDbEntity
  8
치수문자_일반주서
100
AcDbDimension
  2
_D
 10
-49.12192116787301
 20
-4.709696970202053
 30
0.0
 11
-49.12192116787312
 21
24.54430302979795
 31
0.0
 70
   160
  1
%%c<>
 71
     2
 42
9.525000000000006
 52
-270.0
  3
SLDDIMSTYLE1
100
AcDbAlignedDimension
 13
-38.12192116787305
 23
4.815303029797995
 33
0.0
 14
-38.12192116787305
 24
-4.70969697020201
 34
0.0
 50
90.0000000000002
100
AcDbRotatedDimension
1001
PE_URL
1000

1001
ACAD
1000
DSTYLE
1002
{
1070
   171
1070
     8
1070
   273
1070
     7
1002
}
  0
DIMENSION
  5
CE
330
1F
100
AcDbEntity
  8
치수문자_일반주서
100
AcDbDimension
  2
_D_1
 10
3.740578832126943
 20
14.79487191860149
 30
0.0
 11
45.63832883212693
 21
14.79487191860149
 31
0.0
 70
   160
  1
<>
 71
     2
 42
20.6375
  3
SLDDIMSTYLE1
100
AcDbAlignedDimension
 13
24.37807883212693
 23
5.207817404623437
 33
0.0
 14
3.74057883212694
 24
4.584680794739771
 34
0.0
100
AcDbRotatedDimension
1001
PE_URL
1000

1001
ACAD
1000
DSTYLE
1002
{
1070
   171
1070
     8
1070
   273
1070
     7
1002
}
  0
DIMENSION
  5
E4
330
1F
100
AcDbEntity
  8
치수문자_일반주서
100
AcDbDimension
  2
_D_2
 10
-39.12192116787307
 20
24.7948719186015
 30
0.0
 11
-7.371921167873076
 21
24.7948719186015
 31
0.0
 70
   160
  1
<>
 71
     2
 42
63.5
  3
SLDDIMSTYLE1
100
AcDbAlignedDimension
 13
24.37807883212693
 23
5.207817404623437
 33
0.0
 14
-39.12192116787307
 24
3.815303029797988
 34
0.0
 50
0.0000000000000128
100
AcDbRotatedDimension
1001
PE_URL
1000

1001
ACAD
1000
DSTYLE
1002
{
1070
   171
1070
     8
1070
   273
1070
     7
1002
}
  0
DIMENSION
  5
F8
330
1F
100
AcDbEntity
  8
치수문자_일반주서
100
AcDbDimension
  2
_D_3
 10
67.79411398051954
 20
5.207817404623594
 30
0.0
 11
67.79411398051946
 21
27.3430674046236
 31
0.0
 70
   160
  1
%%c<>
 71
     2
 42
10.31002874965089
 52
-270.0
  3
SLDDIMSTYLE1
100
AcDbAlignedDimension
 13
24.37807883212693
 23
-5.102211345027452
 33
0.0
 14
24.37807883212693
 24
5.207817404623436
 34
0.0
 50
90.0000000000002
100
AcDbRotatedDimension
1001
PE_URL
1000

1001
ACAD
1000
DSTYLE
1002
{
1070
   171
1070
     8
1070
   273
1070
     7
1002
}
  0
LINE
  5
10C
330
1F
100
AcDbEntity
  8
참조1
100
AcDbLine
 10
75.44158764747253
 20
7.492803029797995
 30
0.0
 11
75.44158764747253
 21
-7.38719697020201
 31
0.0
  0
LINE
  5
10D
330
1F
100
AcDbEntity
  8
참조1
100
AcDbLine
 10
88.14158764747253
 20
5.492803029797995
 30
0.0
 11
75.44158764747253
 21
5.492803029797995
 31
0.0
  0
SOLID
  5
10E
330
1F
100
AcDbEntity
  8
참조1
100
AcDbTrace
 10
75.44158764747253
 20
5.492803029797995
 30
0.0
 11
81.79158764747253
 21
4.476803029797995
 31
0.0
 12
81.79158764747253
 22
6.508803029797995
 32
0.0
 13
81.79158764747253
 23
6.508803029797995
 33
0.0
  0
LINE
  5
10F
330
1F
100
AcDbEntity
  8
참조1
100
AcDbLine
 10
88.14158764747253
 20
-5.38719697020201
 30
0.0
 11
75.44158764747253
 21
-5.38719697020201
 31
0.0
  0
SOLID
  5
110
330
1F
100
AcDbEntity
  8
참조1
100
AcDbTrace
 10
75.44158764747253
 20
-5.38719697020201
 30
0.0
 11
81.79158764747253
 21
-6.40319697020201
 31
0.0
 12
81.79158764747253
 22
-4.37119697020201
 32
0.0
 13
81.79158764747253
 23
-4.37119697020201
 33
0.0
  0
MTEXT
  5
111
330
1F
100
AcDbEntity
  8
참조1
100
AcDbMText
 10
84.82593778009851
 20
11.06309480698632
 30
0.0
 40
3.5
 41
0.0
 71
     1
 72
     1
  1
A
  7
SLDTEXTSTYLE0
 73
     1
 44
1.0
  0
MTEXT
  5
112
330
1F
100
AcDbEntity
  8
참조1
100
AcDbMText
 10
84.82593778009851
 20
0.1830948069863192
 30
0.0
 40
3.5
 41
0.0
 71
     1
 72
     1
  1
A
  7
SLDTEXTSTYLE0
 73
     1
 44
1.0
  0
INSERT
  5
119
330
1F
100
AcDbEntity
  8
해칭선
100
AcDbBlockReference
  2
SW_DOWELSYMBOL_0
 10
0.0
 20
0.0517281010740991
 30
0.0
  0
LINE
  5
20C
330
1F
100
AcDbEntity
  8
외형선
  6
Continuous
370
    15
100
AcDbLine
 10
2.22058368099446
 20
4.853977137787433
 30
0.0
 11
2.000000000000016
 21
4.794871918601489
 31
0.0
  0
LINE
  5
20D
330
1F
100
AcDbEntity
  8
외형선
  6
Continuous
370
    15
100
AcDbLine
 10
2.000000000000016
 20
-4.730128081398513
 30
0.0
 11
2.22058368099446
 21
-4.789233300584458
 31
0.0
  0
LINE
  5
20E
330
1F
100
AcDbEntity
  8
외형선
  6
Continuous
370
    15
100
AcDbLine
 10
2.000000000000016
 20
4.794871918601485
 30
0.0
 11
-14.43947116787294
 21
4.794871918601485
 31
0.0
  0
LINE
  5
20F
330
1F
100
AcDbEntity
  8
외형선
  6
Continuous
370
    15
100
AcDbLine
 10
-38.12192116787305
 20
-4.730128081398513
 30
0.0
 11
2.000000000000016
 21
-4.73012808139851
 31
0.0
  0
LINE
  5
210
330
1F
100
AcDbEntity
  8
외형선
  6
Continuous
370
    15
100
AcDbLine
 10
-38.12192116787305
 20
4.794871918601482
 30
0.0
 11
-39.12192116787305
 21
3.794871918601485
 31
0.0
  0
LINE
  5
211
330
1F
100
AcDbEntity
  8
외형선
  6
Continuous
370
    15
100
AcDbLine
 10
-39.12192116787305
 20
-3.730128081398513
 30
0.0
 11
-38.12192116787305
 21
-4.730128081398513
 31
0.0
  0
SPLINE
  5
212
330
1F
100
AcDbEntity
  8
외형선
  6
Continuous
370
    15
100
AcDbSpline
210
0.0
220
0.0
230
1.0
 70
     8
 71
     3
 72
     9
 73
     5
 74
     0
 42
0.000000001
 43
0.00000001
 40
0.0
 40
0.0
 40
0.0
 40
0.0
 40
0.499860150242014
 40
1.0
 40
1.0
 40
1.0
 40
1.0
 10
2.50134464383134
 20
-4.087981144139663
 30
0.0
 10
2.70809572991651
 20
-4.068165982105354
 30
0.0
 10
3.117747383734841
 20
-4.082893714298393
 30
0.0
 10
3.521408993607194
 20
-4.05184282123129
 30
0.0
 10
3.745464658282514
 20
-4.064314992882141
 30
0.0
  0
SPLINE
  5
213
330
1F
100
AcDbEntity
  8
외형선
  6
Continuous
370
    15
100
AcDbSpline
210
0.0
220
0.0
230
1.0
 70
     8
 71
     3
 72
     8
 73
     4
 74
     0
 42
0.000000001
 43
0.00000001
 40
0.0
 40
0.0
 40
0.0
 40
0.0
 40
1.0
 40
1.0
 40
1.0
 40
1.0
 10
2.740578832126966
 20
4.768188560708323
 30
0.0
 10
2.568112440889843
 20
4.759641642204956
 30
0.0
 10
2.394832684290003
 20
4.745824071558998
 30
0.0
 10
2.220588764500457
 20
4.726959056658179
 30
0.0
  0
LINE
  5
214
330
1F
100
AcDbEntity
  8
외형선
  6
Continuous
370
    15
100
AcDbLine
 10
2.740578832126966
 20
4.768188560708341
 30
0.0
 11
2.740578832126966
 21
4.175941265462109
 31
0.0
  0
SPLINE
  5
215
330
1F
100
AcDbEntity
  8
외형선
  6
Continuous
370
    15
100
AcDbSpline
210
0.0
220
0.0
230
1.0
 70
     8
 71
     3
 72
     8
 73
     4
 74
     0
 42
0.000000001
 43
0.00000001
 40
0.0
 40
0.0
 40
0.0
 40
0.0
 40
1.0
 40
1.0
 40
1.0
 40
1.0
 10
2.22058368099446
 20
4.23036137877539
 30
0.0
 10
2.39528997375078
 20
4.217692454284622
 30
0.0
 10
2.568564841683434
 20
4.199654207206732
 30
0.0
 10
2.740578832126966
 20
4.175941265462109
 30
0.0
  0
SPLINE
  5
216
330
1F
100
AcDbEntity
  8
외형선
  6
Continuous
370
    15
100
AcDbSpline
210
0.0
220
0.0
230
1.0
 70
     8
 71
     3
 72
     8
 73
     4
 74
     0
 42
0.000000001
 43
0.00000001
 40
0.0
 40
0.0
 40
0.0
 40
0.0
 40
1.0
 40
1.0
 40
1.0
 40
1.0
 10
2.740578832126966
 20
-4.703444723505347
 30
0.0
 10
2.568112440889843
 20
-4.694897805001981
 30
0.0
 10
2.394832684290003
 20
-4.681080234356022
 30
0.0
 10
2.220588764500457
 20
-4.6622152194552
 30
0.0
  0
LINE
  5
217
330
1F
100
AcDbEntity
  8
외형선
  6
Continuous
370
    15
100
AcDbLine
 10
2.22058368099446
 20
4.727009200722856
 30
0.0
 11
2.22058368099446
 21
4.853977137787433
 31
0.0
  0
LINE
  5
218
330
1F
100
AcDbEntity
  8
외형선
  6
Continuous
370
    15
100
AcDbLine
 10
2.000000000000016
 20
4.794871918601489
 30
0.0
 11
2.000000000000016
 21
-4.730128081398513
 31
0.0
  0
LINE
  5
219
330
1F
100
AcDbEntity
  8
외형선
  6
Continuous
370
    15
100
AcDbLine
 10
2.22058368099446
 20
-4.789233300584458
 30
0.0
 11
2.22058368099446
 21
4.230387121790619
 31
0.0
  0
LINE
  5
21A
330
1F
100
AcDbEntity
  8
외형선
  6
Continuous
370
    15
100
AcDbLine
 10
-38.12192116787305
 20
4.794871918601482
 30
0.0
 11
-38.12192116787305
 21
-4.730128081398513
 31
0.0
  0
LINE
  5
21B
330
1F
100
AcDbEntity
  8
외형선
  6
Continuous
370
    15
100
AcDbLine
 10
-39.12192116787305
 20
3.794871918601485
 30
0.0
 11
-39.12192116787305
 21
-3.730128081398513
 31
0.0
  0
SPLINE
  5
21C
330
1F
100
AcDbEntity
  8
외형선
  6
Continuous
370
    15
100
AcDbSpline
210
0.0
220
0.0
230
1.0
 70
    24
 71
     3
 72
    14
 73
    10
 74
     0
 42
0.000000001
 43
0.00000001
 40
0.0
 40
0.0
 40
0.0
 40
0.0
 40
0.25
 40
0.25
 40
0.5
 40
0.5
 40
0.75
 40
0.75
 40
1.0
 40
1.0
 40
1.0
 40
1.0
 10
3.740578832126959
 20
2.59706426236311
 30
0.0
 10
3.740578832126959
 20
2.238469156877413
 30
0.0
 10
3.740578832126966
 20
1.837219617070653
 30
0.0
 10
3.740578832126959
 20
0.9770789952153063
 30
0.0
 10
3.740578832126959
 20
0.518493973681073
 30
0.0
 10
3.740578832126959
 20
-0.4128879140850952
 30
0.0
 10
3.740578832126966
 20
-0.8851885011078036
 30
0.0
 10
3.740578832126959
 20
-1.797589859062073
 30
0.0
 10
3.740578832126959
 20
-2.237311166455575
 30
0.0
 10
3.740578832126959
 20
-2.64340168763948
 30
0.0
  0
SPLINE
  5
21D
330
1F
100
AcDbEntity
  8
외형선
  6
Continuous
370
    15
100
AcDbSpline
210
0.0
220
0.0
230
1.0
 70
     8
 71
     3
 72
    10
 73
     6
 74
     0
 42
0.000000001
 43
0.00000001
 40
0.0
 40
0.0
 40
0.0
 40
0.0
 40
0.5
 40
0.5
 40
1.0
 40
1.0
 40
1.0
 40
1.0
 10
3.740578832126942
 20
-2.998880669529914
 30
0.0
 10
3.399159657018172
 20
-2.836902991478966
 30
0.0
 10
3.043810386383285
 20
-2.614809697332161
 30
0.0
 10
2.703267335358182
 20
-2.466747501234291
 30
0.0
 10
2.474896763442198
 20
-2.184698085341418
 30
0.0
 10
2.220585536914664
 20
-2.085568838382885
 30
0.0
  0
SPLINE
  5
21E
330
1F
100
AcDbEntity
  8
외형선
  6
Continuous
370
    15
100
AcDbSpline
210
0.0
220
0.0
230
1.0
 70
     8
 71
     3
 72
    10
 73
     6
 74
     0
 42
0.000000001
 43
0.00000001
 40
0.0
 40
0.0
 40
0.0
 40
0.0
 40
0.5
 40
0.5
 40
1.0
 40
1.0
 40
1.0
 40
1.0
 10
3.740578832126959
 20
2.59706426236311
 30
0.0
 10
3.486661509866765
 20
2.666177865476888
 30
0.0
 10
3.234682066369951
 20
2.731768875507958
 30
0.0
 10
2.729173115066013
 20
2.855892568862869
 30
0.0
 10
2.474896237284442
 20
2.914473355283222
 30
0.0
 10
2.220584905461005
 20
2.969206745406074
 30
0.0
  0
LINE
  5
21F
330
1F
100
AcDbEntity
  8
외형선
  6
Continuous
370
    15
100
AcDbLine
 10
2.502017969337581
 20
-4.084841013465228
 30
0.0
 11
2.220588764500457
 21
-4.115028560825676
 31
0.0
  0
SPLINE
  5
220
330
1F
100
AcDbEntity
  8
외형선
  6
Continuous
370
    15
100
AcDbSpline
210
0.0
220
0.0
230
1.0
 70
    24
 71
     3
 72
    13
 73
     9
 74
     0
 42
0.000000001
 43
0.00000001
 40
0.0
 40
0.0
 40
0.0
 40
0.0
 40
0.1570783618121704
 40
0.316208208231654
 40
0.5470874379448776
 40
0.7846621809606552
 40
0.9929246111127845
 40
1.0
 40
1.0
 40
1.0
 40
1.0
 10
3.740578832126959
 20
-2.64340168763948
 30
0.0
 10
3.740578832126959
 20
-2.773182051699409
 30
0.0
 10
3.740578832126959
 20
-3.0344377454156
 30
0.0
 10
3.740578832126959
 20
-3.402235814491844
 30
0.0
 10
3.740578832126959
 20
-3.731597700244832
 30
0.0
 10
3.740578832126959
 20
-3.925552109461583
 30
0.0
 10
3.740578832126966
 20
-4.000891402805864
 30
0.0
 10
3.740578832126959
 20
-3.9787059871172
 30
0.0
 10
3.740578832126959
 20
-3.977977037393822
 30
0.0
  0
SPLINE
  5
221
330
1F
100
AcDbEntity
  8
외형선
  6
Continuous
370
    15
100
AcDbSpline
210
0.0
220
0.0
230
1.0
 70
     8
 71
     3
 72
     8
 73
     4
 74
     0
 42
0.000000001
 43
0.00000001
 40
0.0
 40
0.0
 40
0.0
 40
0.0
 40
1.0
 40
1.0
 40
1.0
 40
1.0
 10
3.740578832126973
 20
3.8306074801104
 30
0.0
 10
3.405980100019919
 20
3.954745218653423
 30
0.0
 10
3.074721647810771
 20
4.069874858395382
 30
0.0
 10
2.740578832126966
 20
4.175941265462109
 30
0.0
  0
SPLINE
  5
222
330
1F
100
AcDbEntity
  8
외형선
  6
Continuous
370
    15
100
AcDbSpline
210
0.0
220
0.0
230
1.0
 70
    24
 71
     3
 72
    10
 73
     6
 74
     0
 42
0.000000001
 43
0.00000001
 40
0.0
 40
0.0
 40
0.0
 40
0.0
 40
0.5
 40
0.5
 40
1.0
 40
1.0
 40
1.0
 40
1.0
 10
3.740578832126959
 20
3.8306074801104
 30
0.0
 10
3.740578832126959
 20
3.689977811372307
 30
0.0
 10
3.740578832126959
 20
3.502742618515805
 30
0.0
 10
3.740578832126959
 20
3.074309749264581
 30
0.0
 10
3.740578832126959
 20
2.834469322138487
 30
0.0
 10
3.740578832126959
 20
2.59706426236311
 30
0.0
  0
SPLINE
  5
223
330
1F
100
AcDbEntity
  8
외형선
  6
Continuous
370
    15
100
AcDbSpline
210
0.0
220
0.0
230
1.0
 70
     8
 71
     3
 72
     8
 73
     4
 74
     0
 42
0.000000001
 43
0.00000001
 40
0.0
 40
0.0
 40
0.0
 40
0.0
 40
1.0
 40
1.0
 40
1.0
 40
1.0
 10
3.740578832126959
 20
4.564249683543265
 30
0.0
 10
3.405980100019912
 20
4.642754169178238
 30
0.0
 10
3.074721647810764
 20
4.710742289035162
 30
0.0
 10
2.740578832126966
 20
4.768188560708344
 30
0.0
  0
SPLINE
  5
225
330
1F
100
AcDbEntity
  8
외형선
  6
Continuous
370
    15
100
AcDbSpline
210
0.0
220
0.0
230
1.0
 70
     8
 71
     3
 72
     8
 73
     4
 74
     0
 42
0.000000001
 43
0.00000001
 40
0.0
 40
0.0
 40
0.0
 40
0.0
 40
1.0
 40
1.0
 40
1.0
 40
1.0
 10
3.740578832126959
 20
-4.499505846340293
 30
0.0
 10
3.405980100019912
 20
-4.578010331975262
 30
0.0
 10
3.074721647810764
 20
-4.645998451832186
 30
0.0
 10
2.740578832126966
 20
-4.703444723505372
 30
0.0
  0
SPLINE
  5
226
330
1F
100
AcDbEntity
  8
외형선
  6
Continuous
370
    15
100
AcDbSpline
210
0.0
220
0.0
230
1.0
 70
    24
 71
     3
 72
    10
 73
     6
 74
     0
 42
0.000000001
 43
0.00000001
 40
0.0
 40
0.0
 40
0.0
 40
0.0
 40
0.3594513896827398
 40
0.8364083631556398
 40
1.0
 40
1.0
 40
1.0
 40
1.0
 10
3.740578832126959
 20
-3.98004586137507
 30
0.0
 10
3.740578832126959
 20
-4.045923308288389
 30
0.0
 10
3.740578832126959
 20
-4.199213708946653
 30
0.0
 10
3.740578832126959
 20
-4.36912803585331
 30
0.0
 10
3.740578832126959
 20
-4.47298221504459
 30
0.0
 10
3.740578832126959
 20
-4.499505846340293
 30
0.0
  0
CIRCLE
  5
22B
330
1F
100
AcDbEntity
  8
해칭선
100
AcDbCircle
 10
0.0000000000000231
 20
0.0312969898775943
 30
0.0
 40
3.000000000000001
  0
LINE
  5
22D
330
1F
100
AcDbEntity
  8
외형선
  6
Continuous
370
    15
100
AcDbLine
 10
-22.84687116787317
 20
3.524871918601493
 30
0.0
 11
-15.70947116787304
 21
3.524871918601493
 31
0.0
1001
PE_URL
1000

  0
LINE
  5
22E
330
1F
100
AcDbEntity
  8
외형선
  6
Continuous
370
    15
100
AcDbLine
 10
-22.84687116787317
 20
3.524871918601493
 30
0.0
 11
-24.11687116787315
 21
4.794871918601475
 31
0.0
1001
PE_URL
1000

  0
LINE
  5
22F
330
1F
100
AcDbEntity
  8
외형선
  6
Continuous
370
    15
100
AcDbLine
 10
-15.70947116787304
 20
3.524871918601493
 30
0.0
 11
-14.43947116787295
 21
4.794871918601475
 31
0.0
1001
PE_URL
1000

  0
LINE
  5
230
330
1F
100
AcDbEntity
  8
외형선
  6
Continuous
370
    15
100
AcDbLine
 10
-24.11687116787317
 20
4.794871918601485
 30
0.0
 11
-38.12192116787305
 21
4.794871918601485
 31
0.0
  0
ENDSEC
  0
SECTION
  2
OBJECTS
  0
DICTIONARY
  5
C
330
0
100
AcDbDictionary
281
     1
  3
ACAD_GROUP
350
D
  3
ACAD_IMAGE_VARS
350
2B8
  3
ACAD_LAYOUT
350
1A
  3
ACAD_MLINESTYLE
350
17
  3
ACAD_PLOTSETTINGS
350
19
  3
ACAD_PLOTSTYLENAME
350
E
  3
ACAD_SCALELIST
350
47
  3
APPDATA
350
13B
  3
DWGPROPS
350
2B9
  0
DICTIONARY
  5
18C
330
2
100
AcDbDictionary
280
     1
281
     1
  3
ACAD_LAYERSTATES
360
18D
  0
DICTIONARY
  5
D
102
{ACAD_REACTORS
330
C
102
}
330
C
100
AcDbDictionary
281
     1
  0
RASTERVARIABLES
  5
2B8
102
{ACAD_REACTORS
330
C
102
}
330
C
100
AcDbRasterVariables
 90
        0
 70
     1
 71
     1
 72
     1
  0
DICTIONARY
  5
1A
102
{ACAD_REACTORS
330
C
102
}
330
C
100
AcDbDictionary
281
     1
  3
Layout1
350
1E
  3
Layout2
350
26
  3
Model
350
22
  0
DICTIONARY
  5
17
102
{ACAD_REACTORS
330
C
102
}
330
C
100
AcDbDictionary
281
     1
  3
Standard
350
18
  0
DICTIONARY
  5
19
102
{ACAD_REACTORS
330
C
102
}
330
C
100
AcDbDictionary
281
     1
  0
ACDBDICTIONARYWDFLT
  5
E
102
{ACAD_REACTORS
330
C
102
}
330
C
100
AcDbDictionary
281
     1
  3
Normal
350
F
100
AcDbDictionaryWithDefault
340
F
  0
DICTIONARY
  5
47
102
{ACAD_REACTORS
330
C
102
}
330
C
100
AcDbDictionary
281
     1
  3
A0
350
48
  3
A1
350
49
  3
A2
350
4A
  3
A3
350
4B
  3
A4
350
4C
  3
A5
350
4D
  3
A6
350
4E
  3
A7
350
4F
  3
A8
350
50
  3
A9
350
51
  3
B0
350
52
  3
B1
350
53
  3
B2
350
54
  3
B3
350
55
  3
B4
350
56
  3
B5
350
57
  3
B6
350
58
  3
B7
350
59
  3
B8
350
5A
  3
B9
350
5B
  3
C0
350
5C
  3
C1
350
5D
  3
C2
350
5E
  3
C3
350
5F
  3
C4
350
60
  3
C5
350
61
  3
C6
350
62
  3
C7
350
63
  3
C8
350
64
  3
C9
350
65
  3
D0
350
66
  3
D1
350
67
  3
D2
350
68
  0
DICTIONARY
  5
13B
102
{ACAD_REACTORS
330
C
102
}
330
C
100
AcDbDictionary
281
     1
  0
XRECORD
  5
2B9
102
{ACAD_REACTORS
330
C
102
}
330
C
100
AcDbXrecord
280
     1
  1
DWGPROPS COOKIE
  2

  3

  4

  6

  7

  8
12016016
  9

300
=
301
=
302
=
303
=
304
=
305
=
306
=
307
=
308
=
309
=
 40
0.0
 41
2458311.183860278
 42
2458323.076050162
  1

 90
        0
  0
DICTIONARY
  5
18D
102
{ACAD_REACTORS
330
18C
102
}
330
18C
100
AcDbDictionary
281
     1
  0
LAYOUT
  5
1E
102
{ACAD_REACTORS
330
1A
102
}
330
1A
100
AcDbPlotSettings
  1

  2
none_device
  4

  6

 40
0.0
 41
0.0
 42
0.0
 43
0.0
 44
0.0
 45
0.0
 46
0.0
 47
0.0
 48
0.0
 49
0.0
140
0.0
141
0.0
142
1.0
143
1.0
 70
   688
 72
     1
 73
     0
 74
     5
  7

 75
    16
147
1.0
148
0.0
149
0.0
100
AcDbLayout
  1
Layout1
 70
     1
 71
     1
 10
0.0
 20
0.0
 11
420.0
 21
297.0
 12
0.0
 22
0.0
 32
0.0
 14
1.000000000000000E+20
 24
1.000000000000000E+20
 34
1.000000000000000E+20
 15
-1.000000000000000E+20
 25
-1.000000000000000E+20
 35
-1.000000000000000E+20
146
0.0
 13
0.0
 23
0.0
 33
0.0
 16
1.0
 26
0.0
 36
0.0
 17
0.0
 27
1.0
 37
0.0
 76
     0
330
1B
  0
LAYOUT
  5
26
102
{ACAD_REACTORS
330
1A
102
}
330
1A
100
AcDbPlotSettings
  1

  2
none_device
  4

  6

 40
0.0
 41
0.0
 42
0.0
 43
0.0
 44
0.0
 45
0.0
 46
0.0
 47
0.0
 48
0.0
 49
0.0
140
0.0
141
0.0
142
1.0
143
1.0
 70
   688
 72
     1
 73
     0
 74
     5
  7

 75
    16
147
1.0
148
0.0
149
0.0
100
AcDbLayout
  1
Layout2
 70
     1
 71
     2
 10
0.0
 20
0.0
 11
0.0
 21
0.0
 12
0.0
 22
0.0
 32
0.0
 14
0.0
 24
0.0
 34
0.0
 15
0.0
 25
0.0
 35
0.0
146
0.0
 13
0.0
 23
0.0
 33
0.0
 16
1.0
 26
0.0
 36
0.0
 17
0.0
 27
1.0
 37
0.0
 76
     0
330
23
  0
LAYOUT
  5
22
102
{ACAD_REACTORS
330
1A
102
}
330
1A
100
AcDbPlotSettings
  1

  2
none_device
  4
ANSI_A_(11.00_x_8.50_Inches)
  6

 40
6.35
 41
19.05
 42
6.35000508
 43
19.05000254
 44
279.4
 45
215.9
 46
102.7296375289642
 47
99.62994852068644
 48
0.0
 49
0.0
140
0.0
141
0.0
142
0.0754527591236048
143
1.0
 70
  1696
 72
     0
 73
     0
 74
     0
  7

 75
     0
147
0.0235690232323232
148
0.0
149
0.0
100
AcDbLayout
  1
Model
 70
     1
 71
     0
 10
0.0
 20
0.0
 11
420.0
 21
297.0
 12
0.0
 22
0.0
 32
0.0
 14
-53.49692116787315
 24
-49.91900435901375
 34
0.0
 15
88.14158764747253
 25
42.8743174046235
 35
0.0
146
0.0
 13
0.0
 23
0.0
 33
0.0
 16
1.0
 26
0.0
 36
0.0
 17
0.0
 27
1.0
 37
0.0
 76
     0
330
1F
331
29
  0
MLINESTYLE
  5
18
102
{ACAD_REACTORS
330
17
102
}
330
17
100
AcDbMlineStyle
  2
Standard
 70
     0
  3

 62
   256
 51
90.0
 52
90.0
 71
     2
 49
0.5
 62
   256
  6
BYLAYER
 49
-0.5
 62
   256
  6
BYLAYER
  0
ACDBPLACEHOLDER
  5
F
102
{ACAD_REACTORS
330
E
102
}
330
E
  0
SCALE
  5
48
102
{ACAD_REACTORS
330
47
102
}
330
47
100
AcDbScale
 70
     0
300
1:1
140
1.0
141
1.0
290
     1
  0
SCALE
  5
49
102
{ACAD_REACTORS
330
47
102
}
330
47
100
AcDbScale
 70
     0
300
1:2
140
1.0
141
2.0
290
     0
  0
SCALE
  5
4A
102
{ACAD_REACTORS
330
47
102
}
330
47
100
AcDbScale
 70
     0
300
1:4
140
1.0
141
4.0
290
     0
  0
SCALE
  5
4B
102
{ACAD_REACTORS
330
47
102
}
330
47
100
AcDbScale
 70
     0
300
1:5
140
1.0
141
5.0
290
     0
  0
SCALE
  5
4C
102
{ACAD_REACTORS
330
47
102
}
330
47
100
AcDbScale
 70
     0
300
1:8
140
1.0
141
8.0
290
     0
  0
SCALE
  5
4D
102
{ACAD_REACTORS
330
47
102
}
330
47
100
AcDbScale
 70
     0
300
1:10
140
1.0
141
10.0
290
     0
  0
SCALE
  5
4E
102
{ACAD_REACTORS
330
47
102
}
330
47
100
AcDbScale
 70
     0
300
1:16
140
1.0
141
16.0
290
     0
  0
SCALE
  5
4F
102
{ACAD_REACTORS
330
47
102
}
330
47
100
AcDbScale
 70
     0
300
1:20
140
1.0
141
20.0
290
     0
  0
SCALE
  5
50
102
{ACAD_REACTORS
330
47
102
}
330
47
100
AcDbScale
 70
     0
300
1:30
140
1.0
141
30.0
290
     0
  0
SCALE
  5
51
102
{ACAD_REACTORS
330
47
102
}
330
47
100
AcDbScale
 70
     0
300
1:40
140
1.0
141
40.0
290
     0
  0
SCALE
  5
52
102
{ACAD_REACTORS
330
47
102
}
330
47
100
AcDbScale
 70
     0
300
1:50
140
1.0
141
50.0
290
     0
  0
SCALE
  5
53
102
{ACAD_REACTORS
330
47
102
}
330
47
100
AcDbScale
 70
     0
300
1:100
140
1.0
141
100.0
290
     0
  0
SCALE
  5
54
102
{ACAD_REACTORS
330
47
102
}
330
47
100
AcDbScale
 70
     0
300
2:1
140
2.0
141
1.0
290
     0
  0
SCALE
  5
55
102
{ACAD_REACTORS
330
47
102
}
330
47
100
AcDbScale
 70
     0
300
4:1
140
4.0
141
1.0
290
     0
  0
SCALE
  5
56
102
{ACAD_REACTORS
330
47
102
}
330
47
100
AcDbScale
 70
     0
300
8:1
140
8.0
141
1.0
290
     0
  0
SCALE
  5
57
102
{ACAD_REACTORS
330
47
102
}
330
47
100
AcDbScale
 70
     0
300
10:1
140
10.0
141
1.0
290
     0
  0
SCALE
  5
58
102
{ACAD_REACTORS
330
47
102
}
330
47
100
AcDbScale
 70
     0
300
100:1
140
100.0
141
1.0
290
     0
  0
SCALE
  5
59
102
{ACAD_REACTORS
330
47
102
}
330
47
100
AcDbScale
 70
     0
300
1/128" = 1'-0"
140
0.0078125
141
12.0
290
     0
  0
SCALE
  5
5A
102
{ACAD_REACTORS
330
47
102
}
330
47
100
AcDbScale
 70
     0
300
1/64" = 1'-0"
140
0.015625
141
12.0
290
     0
  0
SCALE
  5
5B
102
{ACAD_REACTORS
330
47
102
}
330
47
100
AcDbScale
 70
     0
300
1/32" = 1'-0"
140
0.03125
141
12.0
290
     0
  0
SCALE
  5
5C
102
{ACAD_REACTORS
330
47
102
}
330
47
100
AcDbScale
 70
     0
300
1/16" = 1'-0"
140
0.0625
141
12.0
290
     0
  0
SCALE
  5
5D
102
{ACAD_REACTORS
330
47
102
}
330
47
100
AcDbScale
 70
     0
300
3/32" = 1'-0"
140
0.09375
141
12.0
290
     0
  0
SCALE
  5
5E
102
{ACAD_REACTORS
330
47
102
}
330
47
100
AcDbScale
 70
     0
300
1/8" = 1'-0"
140
0.125
141
12.0
290
     0
  0
SCALE
  5
5F
102
{ACAD_REACTORS
330
47
102
}
330
47
100
AcDbScale
 70
     0
300
3/16" = 1'-0"
140
0.1875
141
12.0
290
     0
  0
SCALE
  5
60
102
{ACAD_REACTORS
330
47
102
}
330
47
100
AcDbScale
 70
     0
300
1/4" = 1'-0"
140
0.25
141
12.0
290
     0
  0
SCALE
  5
61
102
{ACAD_REACTORS
330
47
102
}
330
47
100
AcDbScale
 70
     0
300
3/8" = 1'-0"
140
0.375
141
12.0
290
     0
  0
SCALE
  5
62
102
{ACAD_REACTORS
330
47
102
}
330
47
100
AcDbScale
 70
     0
300
1/2" = 1'-0"
140
0.5
141
12.0
290
     0
  0
SCALE
  5
63
102
{ACAD_REACTORS
330
47
102
}
330
47
100
AcDbScale
 70
     0
300
3/4" = 1'-0"
140
0.75
141
12.0
290
     0
  0
SCALE
  5
64
102
{ACAD_REACTORS
330
47
102
}
330
47
100
AcDbScale
 70
     0
300
1" = 1'-0"
140
1.0
141
12.0
290
     0
  0
SCALE
  5
65
102
{ACAD_REACTORS
330
47
102
}
330
47
100
AcDbScale
 70
     0
300
1-1/2" = 1'-0"
140
1.5
141
12.0
290
     0
  0
SCALE
  5
66
102
{ACAD_REACTORS
330
47
102
}
330
47
100
AcDbScale
 70
     0
300
3" = 1'-0"
140
3.0
141
12.0
290
     0
  0
SCALE
  5
67
102
{ACAD_REACTORS
330
47
102
}
330
47
100
AcDbScale
 70
     0
300
6" = 1'-0"
140
6.0
141
12.0
290
     0
  0
SCALE
  5
68
102
{ACAD_REACTORS
330
47
102
}
330
47
100
AcDbScale
 70
     0
300
1'-0" = 1'-0"
140
12.0
141
12.0
290
     0
  0
ENDSEC
  0
EOF
