  0
SECTION
  2
HEADER
  9
$ACADVER
  1
AC1015
  9
$ACADMAINTVER
 70
     6
  9
$DWGCODEPAGE
  3
ANSI_949
  9
$INSBASE
 10
0.0
 20
0.0
 30
0.0
  9
$EXTMIN
 10
-53.49692116787318
 20
-49.97073246008785
 30
0.0
  9
$EXTMAX
 10
88.14158764747253
 20
37.61757492872385
 30
0.0
  9
$LIMMIN
 10
0.0
 20
0.0
  9
$LIMMAX
 10
420.0
 20
297.0
  9
$ORTHOMODE
 70
     1
  9
$REGENMODE
 70
     1
  9
$FILLMODE
 70
     1
  9
$QTEXTMODE
 70
     0
  9
$MIRRTEXT
 70
     1
  9
$LTSCALE
 40
1.0
  9
$ATTMODE
 70
     1
  9
$TEXTSIZE
 40
3.5
  9
$TRACEWID
 40
1.0
  9
$TEXTSTYLE
  7
Standard
  9
$CLAYER
  8
0
  9
$CELTYPE
  6
ByLayer
  9
$CECOLOR
 62
   256
  9
$CELTSCALE
 40
1.0
  9
$DISPSILH
 70
     0
  9
$DIMSCALE
 40
1.0
  9
$DIMASZ
 40
3.302
  9
$DIMEXO
 40
1.0
  9
$DIMDLI
 40
3.75
  9
$DIMRND
 40
0.0
  9
$DIMDLE
 40
0.0
  9
$DIMEXE
 40
1.0
  9
$DIMTP
 40
0.0
  9
$DIMTM
 40
0.0
  9
$DIMTXT
 40
3.5
  9
$DIMCEN
 40
2.5
  9
$DIMTSZ
 40
0.0
  9
$DIMTOL
 70
     0
  9
$DIMLIM
 70
     0
  9
$DIMTIH
 70
     1
  9
$DIMTOH
 70
     1
  9
$DIMSE1
 70
     0
  9
$DIMSE2
 70
     0
  9
$DIMTAD
 70
     1
  9
$DIMZIN
 70
     0
  9
$DIMBLK
  1

  9
$DIMASO
 70
     1
  9
$DIMSHO
 70
     1
  9
$DIMPOST
  1

  9
$DIMAPOST
  1

  9
$DIMALT
 70
     0
  9
$DIMALTD
 70
     3
  9
$DIMALTF
 40
0.0393700787401575
  9
$DIMLFAC
 40
1.0
  9
$DIMTOFL
 70
     1
  9
$DIMTVP
 40
0.0
  9
$DIMTIX
 70
     0
  9
$DIMSOXD
 70
     0
  9
$DIMSAH
 70
     0
  9
$DIMBLK1
  1

  9
$DIMBLK2
  1

  9
$DIMSTYLE
  2
ISO-25
  9
$DIMCLRD
 70
     0
  9
$DIMCLRE
 70
     0
  9
$DIMCLRT
 70
     0
  9
$DIMTFAC
 40
1.0
  9
$DIMGAP
 40
1.524
  9
$DIMJUST
 70
     0
  9
$DIMSD1
 70
     0
  9
$DIMSD2
 70
     0
  9
$DIMTOLJ
 70
     0
  9
$DIMTZIN
 70
     0
  9
$DIMALTZ
 70
     0
  9
$DIMALTTZ
 70
     0
  9
$DIMUPT
 70
     0
  9
$DIMDEC
 70
     2
  9
$DIMTDEC
 70
     2
  9
$DIMALTU
 70
     2
  9
$DIMALTTD
 70
     3
  9
$DIMTXSTY
  7
Standard
  9
$DIMAUNIT
 70
     0
  9
$DIMADEC
 70
     2
  9
$DIMALTRND
 40
0.0
  9
$DIMAZIN
 70
     0
  9
$DIMDSEP
 70
    44
  9
$DIMATFIT
 70
     3
  9
$DIMFRAC
 70
     0
  9
$DIMLDRBLK
  1

  9
$DIMLUNIT
 70
     2
  9
$DIMLWD
 70
    -2
  9
$DIMLWE
 70
    -2
  9
$DIMTMOVE
 70
     0
  9
$LUNITS
 70
     2
  9
$LUPREC
 70
     2
  9
$SKETCHINC
 40
1.0
  9
$FILLETRAD
 40
10.0
  9
$AUNITS
 70
     0
  9
$AUPREC
 70
     2
  9
$MENU
  1
.
  9
$ELEVATION
 40
0.0
  9
$PELEVATION
 40
0.0
  9
$THICKNESS
 40
0.0
  9
$LIMCHECK
 70
     0
  9
$CHAMFERA
 40
0.0
  9
$CHAMFERB
 40
0.0
  9
$CHAMFERC
 40
0.0
  9
$CHAMFERD
 40
0.0
  9
$SKPOLY
 70
     0
  9
$TDCREATE
 40
2458311.559283322
  9
$TDUCREATE
 40
2458311.184283322
  9
$TDUPDATE
 40
2458323.450947697
  9
$TDUUPDATE
 40
2458323.075947697
  9
$TDINDWG
 40
0.0001977894
  9
$TDUSRTIMER
 40
2458323.075910891
  9
$USRTIMER
 70
     1
  9
$ANGBASE
 50
0.0
  9
$ANGDIR
 70
     0
  9
$PDMODE
 70
     0
  9
$PDSIZE
 40
-1.0
  9
$PLINEWID
 40
0.0
  9
$SPLFRAME
 70
     0
  9
$SPLINETYPE
 70
     6
  9
$SPLINESEGS
 70
     8
  9
$HANDSEED
  5
26D
  9
$SURFTAB1
 70
     6
  9
$SURFTAB2
 70
     6
  9
$SURFTYPE
 70
     6
  9
$SURFU
 70
     6
  9
$SURFV
 70
     6
  9
$UCSBASE
  2

  9
$UCSNAME
  2

  9
$UCSORG
 10
0.0
 20
0.0
 30
0.0
  9
$UCSXDIR
 10
1.0
 20
0.0
 30
0.0
  9
$UCSYDIR
 10
0.0
 20
1.0
 30
0.0
  9
$UCSORTHOREF
  2

  9
$UCSORTHOVIEW
 70
     0
  9
$UCSORGTOP
 10
0.0
 20
0.0
 30
0.0
  9
$UCSORGBOTTOM
 10
0.0
 20
0.0
 30
0.0
  9
$UCSORGLEFT
 10
0.0
 20
0.0
 30
0.0
  9
$UCSORGRIGHT
 10
0.0
 20
0.0
 30
0.0
  9
$UCSORGFRONT
 10
0.0
 20
0.0
 30
0.0
  9
$UCSORGBACK
 10
0.0
 20
0.0
 30
0.0
  9
$PUCSBASE
  2

  9
$PUCSNAME
  2

  9
$PUCSORG
 10
0.0
 20
0.0
 30
0.0
  9
$PUCSXDIR
 10
1.0
 20
0.0
 30
0.0
  9
$PUCSYDIR
 10
0.0
 20
1.0
 30
0.0
  9
$PUCSORTHOREF
  2

  9
$PUCSORTHOVIEW
 70
     0
  9
$PUCSORGTOP
 10
0.0
 20
0.0
 30
0.0
  9
$PUCSORGBOTTOM
 10
0.0
 20
0.0
 30
0.0
  9
$PUCSORGLEFT
 10
0.0
 20
0.0
 30
0.0
  9
$PUCSORGRIGHT
 10
0.0
 20
0.0
 30
0.0
  9
$PUCSORGFRONT
 10
0.0
 20
0.0
 30
0.0
  9
$PUCSORGBACK
 10
0.0
 20
0.0
 30
0.0
  9
$USERI1
 70
     0
  9
$USERI2
 70
     0
  9
$USERI3
 70
     0
  9
$USERI4
 70
     0
  9
$USERI5
 70
     0
  9
$USERR1
 40
0.0
  9
$USERR2
 40
0.0
  9
$USERR3
 40
0.0
  9
$USERR4
 40
0.0
  9
$USERR5
 40
0.0
  9
$WORLDVIEW
 70
     1
  9
$SHADEDGE
 70
     3
  9
$SHADEDIF
 70
    70
  9
$TILEMODE
 70
     1
  9
$MAXACTVP
 70
    64
  9
$PINSBASE
 10
0.0
 20
0.0
 30
0.0
  9
$PLIMCHECK
 70
     0
  9
$PEXTMIN
 10
1.000000000000000E+20
 20
1.000000000000000E+20
 30
1.000000000000000E+20
  9
$PEXTMAX
 10
-1.000000000000000E+20
 20
-1.000000000000000E+20
 30
-1.000000000000000E+20
  9
$PLIMMIN
 10
0.0
 20
0.0
  9
$PLIMMAX
 10
0.0
 20
0.0
  9
$UNITMODE
 70
     0
  9
$VISRETAIN
 70
     1
  9
$PLINEGEN
 70
     0
  9
$PSLTSCALE
 70
     1
  9
$TREEDEPTH
 70
  3020
  9
$CMLSTYLE
  2
Standard
  9
$CMLJUST
 70
     0
  9
$CMLSCALE
 40
20.0
  9
$PROXYGRAPHICS
 70
     1
  9
$MEASUREMENT
 70
     1
  9
$CELWEIGHT
370
    -1
  9
$ENDCAPS
280
     0
  9
$JOINSTYLE
280
     0
  9
$LWDISPLAY
290
     1
  9
$INSUNITS
 70
     4
  9
$HYPERLINKBASE
  1

  9
$STYLESHEET
  1

  9
$XEDIT
290
     1
  9
$CEPSNTYPE
380
     0
  9
$PSTYLEMODE
290
     1
  9
$FINGERPRINTGUID
  2
{CB475444-044C-4ACC-A83C-997BF96B3A04}
  9
$VERSIONGUID
  2
{FAEB1C32-E019-11D5-929B-00C0DF256EC4}
  9
$EXTNAMES
290
     1
  9
$PSVPSCALE
 40
0.0
  9
$OLESTARTUP
290
     0
  0
ENDSEC
  0
SECTION
  2
CLASSES
  0
CLASS
  1
ACDBDICTIONARYWDFLT
  2
AcDbDictionaryWithDefault
  3
ObjectDBX Classes
 90
        0
280
     0
281
     0
  0
CLASS
  1
VISUALSTYLE
  2
AcDbVisualStyle
  3
ObjectDBX Classes
 90
     4095
280
     0
281
     0
  0
CLASS
  1
MATERIAL
  2
AcDbMaterial
  3
ObjectDBX Classes
 90
     1153
280
     0
281
     0
  0
CLASS
  1
SCALE
  2
AcDbScale
  3
ObjectDBX Classes
 90
     1153
280
     0
281
     0
  0
CLASS
  1
SUN
  2
AcDbSun
  3
SCENEOE
 90
     1153
280
     0
281
     0
  0
CLASS
  1
ACDBPLACEHOLDER
  2
AcDbPlaceHolder
  3
ObjectDBX Classes
 90
        0
280
     0
281
     0
  0
CLASS
  1
LAYOUT
  2
AcDbLayout
  3
ObjectDBX Classes
 90
        0
280
     0
281
     0
  0
CLASS
  1
TABLESTYLE
  2
AcDbTableStyle
  3
ObjectDBX Classes
 90
     4095
280
     0
281
     0
  0
CLASS
  1
MLEADERSTYLE
  2
AcDbMLeaderStyle
  3
ACDB_MLEADERSTYLE_CLASS
 90
     4095
280
     0
281
     0
  0
CLASS
  1
DICTIONARYVAR
  2
AcDbDictionaryVar
  3
ObjectDBX Classes
 90
        0
280
     0
281
     0
  0
CLASS
  1
RASTERVARIABLES
  2
AcDbRasterVariables
  3
ISM
 90
        0
280
     0
281
     0
  0
ENDSEC
  0
SECTION
  2
TABLES
  0
TABLE
  2
VPORT
  5
8
330
0
100
AcDbSymbolTable
 70
     1
  0
VPORT
  5
29
330
8
100
AcDbSymbolTableRecord
100
AcDbViewportTableRecord
  2
*Active
 70
     0
 10
0.0
 20
0.0
 11
1.0
 21
1.0
 12
17.32233323979968
 22
-6.176578765682002
 13
0.0
 23
0.0
 14
10.0
 24
10.0
 15
10.0
 25
10.0
 16
0.0
 26
0.0
 36
1.0
 17
0.0
 27
0.0
 37
0.0
 40
89.34007353658794
 41
1.782762691853601
 42
50.0
 43
0.0
 44
0.0
 50
0.0
 51
0.0
 71
    16
 72
  2000
 73
     1
 74
     3
 75
     0
 76
     0
 77
     0
 78
     0
281
     0
 65
     1
110
0.0
120
0.0
130
0.0
111
1.0
121
0.0
131
0.0
112
0.0
122
1.0
132
0.0
 79
     0
146
0.0
  0
ENDTAB
  0
TABLE
  2
LTYPE
  5
5
330
0
100
AcDbSymbolTable
 70
     6
  0
LTYPE
  5
14
330
5
100
AcDbSymbolTableRecord
100
AcDbLinetypeTableRecord
  2
ByBlock
 70
     0
  3

 72
    65
 73
     0
 40
0.0
  0
LTYPE
  5
15
330
5
100
AcDbSymbolTableRecord
100
AcDbLinetypeTableRecord
  2
ByLayer
 70
     0
  3

 72
    65
 73
     0
 40
0.0
  0
LTYPE
  5
16
330
5
100
AcDbSymbolTableRecord
100
AcDbLinetypeTableRecord
  2
Continuous
 70
     0
  3
Solid line
 72
    65
 73
     0
 40
0.0
  0
LTYPE
  5
6A
330
5
100
AcDbSymbolTableRecord
100
AcDbLinetypeTableRecord
  2
HIDDEN
 70
     0
  3
Hidden __ __ __ __ __ __ __ __ __ __ __ __ __ __
 72
    65
 73
     2
 40
1.905
 49
1.27
 74
     0
 49
-0.635
 74
     0
  0
LTYPE
  5
6B
330
5
100
AcDbSymbolTableRecord
100
AcDbLinetypeTableRecord
  2
PHANTOM
 70
     0
  3
Phantom ______  __  __  ______  __  __  ______
 72
    65
 73
     6
 40
12.7
 49
6.35
 74
     0
 49
-1.27
 74
     0
 49
1.27
 74
     0
 49
-1.27
 74
     0
 49
1.27
 74
     0
 49
-1.27
 74
     0
  0
LTYPE
  5
6C
330
5
100
AcDbSymbolTableRecord
100
AcDbLinetypeTableRecord
  2
CENTER
 70
     0
  3
Center ____ _ ____ _ ____ _ ____ _ ____ _ ____
 72
    65
 73
     4
 40
10.16
 49
6.35
 74
     0
 49
-1.27
 74
     0
 49
1.27
 74
     0
 49
-1.27
 74
     0
  0
LTYPE
  5
6D
330
5
100
AcDbSymbolTableRecord
100
AcDbLinetypeTableRecord
  2
CENTERX2
 70
     0
  3
Center (2x) ________  __  ________  __  _____
 72
    65
 73
     4
 40
20.32
 49
12.7
 74
     0
 49
-2.54
 74
     0
 49
2.54
 74
     0
 49
-2.54
 74
     0
  0
LTYPE
  5
6E
330
5
100
AcDbSymbolTableRecord
100
AcDbLinetypeTableRecord
  2
DOT2
 70
     0
  3
Dot (.5x) ........................................
 72
    65
 73
     2
 40
0.635
 49
0.0
 74
     0
 49
-0.635
 74
     0
  0
ENDTAB
  0
TABLE
  2
LAYER
  5
2
102
{ACAD_XDICTIONARY
360
18C
102
}
330
0
100
AcDbSymbolTable
 70
    18
  0
LAYER
  5
10
330
2
100
AcDbSymbolTableRecord
100
AcDbLayerTableRecord
  2
0
 70
     0
 62
     7
  6
Continuous
370
    -3
390
F
  0
LAYER
  5
6F
330
2
100
AcDbSymbolTableRecord
100
AcDbLayerTableRecord
  2
FORMAT
 70
     0
 62
     2
  6
Continuous
370
    -3
390
F
  0
LAYER
  5
70
330
2
100
AcDbSymbolTableRecord
100
AcDbLayerTableRecord
  2
외형선
 70
     0
 62
     4
  6
Continuous
370
    30
390
F
  0
LAYER
  5
71
330
2
100
AcDbSymbolTableRecord
100
AcDbLayerTableRecord
  2
숨은선
 70
     0
 62
     2
  6
HIDDEN
370
    15
390
F
  0
LAYER
  5
72
330
2
100
AcDbSymbolTableRecord
100
AcDbLayerTableRecord
  2
중심선
 70
     0
 62
     1
  6
CENTERX2
370
    -3
390
F
  0
LAYER
  5
73
330
2
100
AcDbSymbolTableRecord
100
AcDbLayerTableRecord
  2
파단선
 70
     0
 62
     4
  6
Continuous
370
    -3
390
F
  0
LAYER
  5
74
330
2
100
AcDbSymbolTableRecord
100
AcDbLayerTableRecord
  2
해칭선
 70
     0
 62
   100
  6
Continuous
370
    -3
390
F
  0
LAYER
  5
75
330
2
100
AcDbSymbolTableRecord
100
AcDbLayerTableRecord
  2
가는실선
 70
     0
 62
     4
  6
Continuous
370
    -3
390
F
  0
LAYER
  5
76
330
2
100
AcDbSymbolTableRecord
100
AcDbLayerTableRecord
  2
치수_보조선
 70
     0
 62
     4
  6
Continuous
370
    -3
390
F
  0
LAYER
  5
77
330
2
100
AcDbSymbolTableRecord
100
AcDbLayerTableRecord
  2
치수문자_일반주서
 70
     0
 62
     7
  6
Continuous
370
    15
390
F
  0
LAYER
  5
78
330
2
100
AcDbSymbolTableRecord
100
AcDbLayerTableRecord
  2
개별주서
 70
     0
 62
   100
  6
Continuous
370
    30
390
F
  0
LAYER
  5
79
330
2
100
AcDbSymbolTableRecord
100
AcDbLayerTableRecord
  2
중간선
 70
     0
 62
     2
  6
Continuous
370
    15
390
F
  0
LAYER
  5
7A
330
2
100
AcDbSymbolTableRecord
100
AcDbLayerTableRecord
  2
윤곽선
 70
     0
 62
     3
  6
Continuous
370
    40
390
F
  0
LAYER
  5
7B
330
2
100
AcDbSymbolTableRecord
100
AcDbLayerTableRecord
  2
중심마크
 70
     0
 62
   100
  6
Continuous
370
    30
390
F
  0
LAYER
  5
7C
330
2
100
AcDbSymbolTableRecord
100
AcDbLayerTableRecord
  2
가상선
 70
     0
 62
     4
  6
PHANTOM
370
    -3
390
F
  0
LAYER
  5
7D
330
2
100
AcDbSymbolTableRecord
100
AcDbLayerTableRecord
  2
특수지정선
 70
     0
 62
     5
  6
CENTERX2
370
    60
390
F
  0
LAYER
  5
7E
330
2
100
AcDbSymbolTableRecord
100
AcDbLayerTableRecord
  2
참조1
 70
     0
 62
    -4
  6
Continuous
370
    -3
390
F
  0
LAYER
  5
1E4
330
2
100
AcDbSymbolTableRecord
100
AcDbLayerTableRecord
  2
Defpoints
 70
     0
 62
     7
  6
Continuous
290
     0
370
    -3
390
F
  0
ENDTAB
  0
TABLE
  2
STYLE
  5
3
330
0
100
AcDbSymbolTable
 70
     2
  0
STYLE
  5
11
330
3
100
AcDbSymbolTableRecord
100
AcDbTextStyleTableRecord
  2
Standard
 70
     0
 40
0.0
 41
1.0
 50
0.0
 71
     0
 42
3.5
  3
txt
  4

  0
STYLE
  5
94
330
3
100
AcDbSymbolTableRecord
100
AcDbTextStyleTableRecord
  2
SLDTEXTSTYLE0
 70
     0
 40
0.0
 41
0.75
 50
0.0
 71
     0
 42
3.5
  3
TXT
  4

  0
ENDTAB
  0
TABLE
  2
VIEW
  5
6
330
0
100
AcDbSymbolTable
 70
     0
  0
ENDTAB
  0
TABLE
  2
UCS
  5
7
330
0
100
AcDbSymbolTable
 70
     0
  0
ENDTAB
  0
TABLE
  2
APPID
  5
9
330
0
100
AcDbSymbolTable
 70
     2
  0
APPID
  5
12
330
9
100
AcDbSymbolTableRecord
100
AcDbRegAppTableRecord
  2
ACAD
 70
     0
  0
APPID
  5
141
330
9
100
AcDbSymbolTableRecord
100
AcDbRegAppTableRecord
  2
PE_URL
 70
     0
  0
ENDTAB
  0
TABLE
  2
DIMSTYLE
  5
A
330
0
100
AcDbSymbolTable
 70
     4
100
AcDbDimStyleTable
  0
DIMSTYLE
105
27
330
A
100
AcDbSymbolTableRecord
100
AcDbDimStyleTableRecord
  2
ISO-25
 70
     0
 41
2.5
 42
0.625
 43
3.75
 44
1.25
 73
     0
 74
     0
 77
     1
 78
     8
140
2.5
141
2.5
143
0.03937007874016
147
0.625
171
     3
172
     1
178
     0
271
     2
272
     2
274
     3
278
    44
283
     0
284
     8
340
11
  0
DIMSTYLE
105
BF
330
A
100
AcDbSymbolTableRecord
100
AcDbDimStyleTableRecord
  2
SLDDIMSTYLE0
 70
     0
 41
3.302
 44
0.0
 45
0.000000001
 73
     0
 74
     0
 77
     1
 78
    12
 79
     3
140
3.5
147
0.875
172
     1
173
     1
178
     0
271
     2
272
     2
276
     2
284
    12
289
     0
340
94
  0
DIMSTYLE
105
CD
102
{ACAD_REACTORS
330
CC
330
E2
330
F6
330
BE
102
}
330
A
100
AcDbSymbolTableRecord
100
AcDbDimStyleTableRecord
  2
SLDDIMSTYLE1
 70
     0
 41
3.302
 44
0.0
 45
0.000000001
 73
     0
 74
     0
 77
     1
 78
    12
 79
     3
140
3.5
143
0.0393700787401575
147
0.875
148
0.000000001
170
     1
172
     1
173
     1
178
     0
271
     2
272
     2
276
     2
284
    12
289
     0
340
94
  0
DIMSTYLE
105
E3
330
A
100
AcDbSymbolTableRecord
100
AcDbDimStyleTableRecord
  2
SLDDIMSTYLE2
 70
     0
 41
3.302
 44
0.0
 45
0.000000001
 73
     0
 74
     0
 77
     1
 78
     4
 79
     1
140
3.5
143
0.0393700787401575
147
0.875
148
0.000000001
170
     1
173
     1
178
     0
271
     2
272
     2
276
     2
284
    12
340
94
  0
ENDTAB
  0
TABLE
  2
BLOCK_RECORD
  5
1
330
0
100
AcDbSymbolTable
 70
     9
  0
BLOCK_RECORD
  5
1F
330
1
100
AcDbSymbolTableRecord
100
AcDbBlockTableRecord
  2
*Model_Space
340
22
  0
BLOCK_RECORD
  5
1B
330
1
100
AcDbSymbolTableRecord
100
AcDbBlockTableRecord
  2
*Paper_Space
340
1E
  0
BLOCK_RECORD
  5
23
330
1
100
AcDbSymbolTableRecord
100
AcDbBlockTableRecord
  2
*Paper_Space0
340
26
  0
BLOCK_RECORD
  5
7F
330
1
100
AcDbSymbolTableRecord
100
AcDbBlockTableRecord
  2
블럭10
340
0
102
{BLKREFS
331
B7
102
}
  0
BLOCK_RECORD
  5
C0
330
1
100
AcDbSymbolTableRecord
100
AcDbBlockTableRecord
  2
_D
340
0
  0
BLOCK_RECORD
  5
CE
330
1
100
AcDbSymbolTableRecord
100
AcDbBlockTableRecord
  2
_D_1
340
0
  0
BLOCK_RECORD
  5
E4
330
1
100
AcDbSymbolTableRecord
100
AcDbBlockTableRecord
  2
_D_2
340
0
  0
BLOCK_RECORD
  5
F7
330
1
100
AcDbSymbolTableRecord
100
AcDbBlockTableRecord
  2
_D_3
340
0
  0
BLOCK_RECORD
  5
110
330
1
100
AcDbSymbolTableRecord
100
AcDbBlockTableRecord
  2
SW_DOWELSYMBOL_0
340
0
102
{BLKREFS
331
116
102
}
  0
BLOCK_RECORD
  5
21D
330
1
100
AcDbSymbolTableRecord
100
AcDbBlockTableRecord
  2
*D7
340
0
  0
BLOCK_RECORD
  5
22F
330
1
100
AcDbSymbolTableRecord
100
AcDbBlockTableRecord
  2
*D8
340
0
  0
ENDTAB
  0
ENDSEC
  0
SECTION
  2
BLOCKS
  0
BLOCK
  5
20
330
1F
100
AcDbEntity
  8
0
100
AcDbBlockBegin
  2
*Model_Space
 70
     0
 10
0.0
 20
0.0
 30
0.0
  3
*Model_Space
  1
*Model_Space
  0
ENDBLK
  5
21
330
1F
100
AcDbEntity
  8
0
100
AcDbBlockEnd
  0
BLOCK
  5
1C
330
1B
100
AcDbEntity
 67
     1
  8
0
100
AcDbBlockBegin
  2
*Paper_Space
 70
     0
 10
0.0
 20
0.0
 30
0.0
  3
*Paper_Space
  1
*Paper_Space
  0
ENDBLK
  5
1D
330
1B
100
AcDbEntity
 67
     1
  8
0
100
AcDbBlockEnd
  0
BLOCK
  5
24
330
23
100
AcDbEntity
  8
0
100
AcDbBlockBegin
  2
*Paper_Space0
 70
     0
 10
0.0
 20
0.0
 30
0.0
  3
*Paper_Space0
  1
*Paper_Space0
  0
ENDBLK
  5
25
330
23
100
AcDbEntity
  8
0
100
AcDbBlockEnd
  0
BLOCK
  5
80
330
7F
100
AcDbEntity
  8
0
100
AcDbBlockBegin
  2
블럭10
 70
     2
 10
0.0
 20
0.0
 30
0.0
  3
블럭10
  1
블럭10
  0
ELLIPSE
  5
82
330
7F
100
AcDbEntity
  8
중심선
100
AcDbEllipse
 10
20.54032771741204
 20
12.0471743016438
 30
0.0
 11
6.600054785286829
 21
-1.261213355974178E-13
 31
0.0
210
0.0
220
0.0
230
1.0
 40
0.636358354079598
 41
0.9219305317359503
 42
6.513795318482858
  0
ELLIPSE
  5
83
330
7F
100
AcDbEntity
  8
중심선
100
AcDbEllipse
 10
20.54032771746488
 20
12.04717430159265
 30
0.0
 11
3.960054785062283
 21
1.540847449632565E-10
 31
0.0
210
0.0
220
0.0
230
1.0
 40
0.3939339440162632
 41
1.131841032648279
 42
5.62031148352944
  0
LINE
  5
84
330
7F
100
AcDbEntity
  8
중심선
100
AcDbLine
 10
2.268634060543552
 20
16.24717430164393
 30
0.0
 11
5.714909304380834
 21
16.24717430164393
 31
0.0
  0
LINE
  5
85
330
7F
100
AcDbEntity
  8
중심선
100
AcDbLine
 10
5.245725140726316
 20
7.84717430164391
 30
0.0
 11
8.692000384563599
 21
7.84717430164391
 31
0.0
  0
LINE
  5
86
330
7F
100
AcDbEntity
  8
중심선
100
AcDbLine
 10
15.74043728645272
 20
16.24717430164393
 30
0.0
 11
8.692000384563599
 21
7.84717430164391
 31
0.0
  0
LINE
  5
87
330
7F
100
AcDbEntity
  8
중심선
100
AcDbLine
 10
0.1404042013395286
 20
13.71084872107135
 30
0.0
 11
3.58671253028996
 21
13.71088815037384
 31
0.0
  0
LINE
  5
88
330
7F
100
AcDbEntity
  8
중심선
100
AcDbLine
 10
2.750260043222114
 20
10.84717430164391
 30
0.0
 11
6.196535287059397
 21
10.84717430164391
 31
0.0
  0
LINE
  5
89
330
7F
100
AcDbEntity
  8
중심선
100
AcDbLine
 10
12.29416204261559
 20
16.24717430164393
 30
0.0
 11
5.245725140726316
 21
7.84717430164391
 31
0.0
  0
LINE
  5
8A
330
7F
100
AcDbEntity
  8
중심선
100
AcDbLine
 10
10.72767329541681
 20
16.24717430164393
 30
0.0
 11
6.196535287059397
 21
10.84717430164391
 31
0.0
  0
LINE
  5
8B
330
7F
100
AcDbEntity
  8
중심선
100
AcDbLine
 10
7.28139805157953
 20
16.24717430164393
 30
0.0
 11
2.750260043222114
 21
10.84717430164391
 31
0.0
  0
LINE
  5
8C
330
7F
100
AcDbEntity
  8
중심선
100
AcDbLine
 10
5.714909304380834
 20
16.24717430164393
 30
0.0
 11
3.58671253028996
 21
13.71088815037384
 31
0.0
  0
LINE
  5
8D
330
7F
100
AcDbEntity
  8
중심선
100
AcDbLine
 10
2.268634060543552
 20
16.24717430164393
 30
0.0
 11
0.1404042013395286
 21
13.71084872107135
 31
0.0
  0
LINE
  5
8E
330
7F
100
AcDbEntity
  8
중심선
100
AcDbLine
 10
7.28139805157953
 20
16.24717430164393
 30
0.0
 11
10.72767329541681
 21
16.24717430164393
 31
0.0
  0
LINE
  5
8F
330
7F
100
AcDbEntity
  8
중심선
100
AcDbLine
 10
12.29416204261559
 20
16.24717430164393
 30
0.0
 11
15.74043728645272
 21
16.24717430164393
 31
0.0
  0
LINE
  5
90
330
7F
100
AcDbEntity
  8
중심선
100
AcDbLine
 10
19.22036997980202
 20
11.08717430171403
 30
0.0
 11
23.66174974927406
 21
11.08717430171406
 31
0.0
  0
LINE
  5
91
330
7F
100
AcDbEntity
  8
중심선
100
AcDbLine
 10
19.22039502424796
 20
13.00717430171391
 30
0.0
 11
19.22036997980202
 21
11.08717430171403
 31
0.0
  0
LINE
  5
92
330
7F
100
AcDbEntity
  8
중심선
100
AcDbLine
 10
19.22039502424796
 20
13.00717430171391
 30
0.0
 11
26.96566020931264
 21
13.00717430171391
 31
0.0
  0
LINE
  5
93
330
7F
100
AcDbEntity
  8
중심선
100
AcDbLine
 10
22.22332737316547
 20
13.45928029700563
 30
0.0
 11
24.52862924686651
 21
15.39360700705356
 31
0.0
  0
ATTDEF
  5
95
330
7F
100
AcDbEntity
  8
FORMAT
 62
     2
100
AcDbText
 10
4.408487351596664
 20
2.075366912832191
 30
0.0
 40
4.233333333333333
  1
E1030028
 41
0.75
  7
SLDTEXTSTYLE0
 11
4.408487351596664
 21
-0.0412997538344756
 31
0.0
100
AcDbAttributeDefinition
  3

  2
AUTOATTR0
 70
     0
 74
     1
  0
ENDBLK
  5
81
330
7F
100
AcDbEntity
  8
0
100
AcDbBlockEnd
  0
BLOCK
  5
C1
330
C0
100
AcDbEntity
  8
0
100
AcDbBlockBegin
  2
_D
 70
     0
 10
0.0
 20
0.0
 30
0.0
  3
_D
  1
_D
  0
LINE
  5
C3
330
C0
100
AcDbEntity
  8
치수문자_일반주서
 62
     0
370
    -2
100
AcDbLine
 10
-38.18442116787305
 20
4.763574928723896
 30
0.0
 11
-49.12192116787307
 21
4.763574928723852
 31
0.0
  0
LINE
  5
C4
330
C0
100
AcDbEntity
  8
치수문자_일반주서
 62
     0
370
    -2
100
AcDbLine
 10
-38.18442116787305
 20
-4.761425071276109
 30
0.0
 11
-49.12192116787303
 21
-4.761425071276154
 31
0.0
  0
LINE
  5
C5
330
C0
100
AcDbEntity
  8
치수문자_일반주서
 62
     0
370
    -2
100
AcDbLine
 10
-49.12192116787307
 20
4.763574928723852
 30
0.0
 11
-49.12192116787319
 21
37.61757492872385
 31
0.0
  0
LINE
  5
C6
330
C0
100
AcDbEntity
  8
치수문자_일반주서
 62
     0
370
    -2
100
AcDbLine
 10
-49.12192116787307
 20
4.763574928723852
 30
0.0
 11
-49.12192116787303
 21
-4.761425071276154
 31
0.0
  0
LINE
  5
C7
330
C0
100
AcDbEntity
  8
치수문자_일반주서
 62
     0
370
    -2
100
AcDbLine
 10
-49.12192116787308
 20
8.065574928723851
 30
0.0
 11
-49.1219211678731
 21
11.36757492872385
 31
0.0
  0
LINE
  5
C8
330
C0
100
AcDbEntity
  8
치수문자_일반주서
 62
     0
370
    -2
100
AcDbLine
 10
-49.12192116787302
 20
-8.063425071276153
 30
0.0
 11
-49.121921167873
 21
-11.36542507127615
 31
0.0
  0
SOLID
  5
C9
330
C0
100
AcDbEntity
  8
치수문자_일반주서
 62
     0
100
AcDbTrace
 10
-49.67225450120642
 20
8.06557492872385
 30
0.0
 11
-48.57158783453975
 21
8.065574928723853
 31
0.0
 12
-49.12192116787307
 22
4.763574928723852
 32
0.0
 13
-49.12192116787307
 23
4.763574928723852
 33
0.0
  0
SOLID
  5
CA
330
C0
100
AcDbEntity
  8
치수문자_일반주서
 62
     0
100
AcDbTrace
 10
-48.57158783453968
 20
-8.063425071276152
 30
0.0
 11
-49.67225450120635
 21
-8.063425071276155
 31
0.0
 12
-49.12192116787303
 22
-4.761425071276154
 32
0.0
 13
-49.12192116787303
 23
-4.761425071276154
 33
0.0
  0
MTEXT
  5
CB
330
C0
100
AcDbEntity
  8
치수문자_일반주서
 62
     0
100
AcDbMText
 10
-53.49692116787314
 20
24.49257492872384
 30
0.0
 40
3.5
 41
0.0
 71
     2
 72
     1
  1
\A1;%%c9.53 [3/8]
  7
SLDTEXTSTYLE0
 11
-3.729883127349605E-15
 21
1.0
 31
0.0
 73
     1
 44
1.0
  0
POINT
  5
242
330
C0
100
AcDbEntity
  8
Defpoints
 62
     0
100
AcDbPoint
 10
-38.12192116787305
 20
4.763574928723896
 30
0.0
  0
POINT
  5
243
330
C0
100
AcDbEntity
  8
Defpoints
 62
     0
100
AcDbPoint
 10
-38.12192116787305
 20
-4.761425071276109
 30
0.0
  0
POINT
  5
244
330
C0
100
AcDbEntity
  8
Defpoints
 62
     0
100
AcDbPoint
 10
-49.12192116787303
 20
-4.76142507127615
 30
0.0
  0
ENDBLK
  5
C2
330
C0
100
AcDbEntity
  8
0
100
AcDbBlockEnd
  0
BLOCK
  5
CF
330
CE
100
AcDbEntity
  8
0
100
AcDbBlockBegin
  2
_D_1
 70
     0
 10
0.0
 20
0.0
 30
0.0
  3
_D_1
  1
_D_1
  0
LINE
  5
D1
330
CE
100
AcDbEntity
  8
치수문자_일반주서
 62
     0
370
    -2
100
AcDbLine
 10
24.37807883212693
 20
5.615128870843598
 30
0.0
 11
24.37807883212693
 21
14.74314381752739
 31
0.0
  0
LINE
  5
D2
330
CE
100
AcDbEntity
  8
치수문자_일반주서
 62
     0
370
    -2
100
AcDbLine
 10
3.740578832126938
 20
4.595452693665671
 30
0.0
 11
3.740578832126936
 21
14.74314381752739
 31
0.0
  0
LINE
  5
D3
330
CE
100
AcDbEntity
  8
치수문자_일반주서
 62
     0
370
    -2
100
AcDbLine
 10
24.37807883212693
 20
14.74314381752739
 30
0.0
 11
60.29457883212693
 21
14.74314381752739
 31
0.0
  0
LINE
  5
D4
330
CE
100
AcDbEntity
  8
치수문자_일반주서
 62
     0
370
    -2
100
AcDbLine
 10
24.37807883212693
 20
14.74314381752739
 30
0.0
 11
3.740578832126936
 21
14.74314381752739
 31
0.0
  0
LINE
  5
D5
330
CE
100
AcDbEntity
  8
치수문자_일반주서
 62
     0
370
    -2
100
AcDbLine
 10
27.68007883212693
 20
14.74314381752739
 30
0.0
 11
30.98207883212693
 21
14.74314381752739
 31
0.0
  0
LINE
  5
D6
330
CE
100
AcDbEntity
  8
치수문자_일반주서
 62
     0
370
    -2
100
AcDbLine
 10
0.4385788321269359
 20
14.74314381752739
 30
0.0
 11
-2.863421167873064
 21
14.74314381752739
 31
0.0
  0
SOLID
  5
D7
330
CE
100
AcDbEntity
  8
치수문자_일반주서
 62
     0
100
AcDbTrace
 10
27.68007883212693
 20
15.29347715086072
 30
0.0
 11
27.68007883212693
 21
14.19281048419405
 31
0.0
 12
24.37807883212693
 22
14.74314381752739
 32
0.0
 13
24.37807883212693
 23
14.74314381752739
 33
0.0
  0
SOLID
  5
D8
330
CE
100
AcDbEntity
  8
치수문자_일반주서
 62
     0
100
AcDbTrace
 10
0.4385788321269359
 20
14.19281048419405
 30
0.0
 11
0.4385788321269359
 21
15.29347715086072
 31
0.0
 12
3.740578832126936
 22
14.74314381752739
 32
0.0
 13
3.740578832126936
 23
14.74314381752739
 33
0.0
  0
MTEXT
  5
D9
330
CE
100
AcDbEntity
  8
치수문자_일반주서
 62
     0
100
AcDbMText
 10
45.63832883212693
 20
19.11814381752739
 30
0.0
 40
3.5
 41
0.0
 71
     2
 72
     1
  1
\A1;20.64 [13/16]
  7
SLDTEXTSTYLE0
 73
     1
 44
1.0
  0
POINT
  5
245
330
CE
100
AcDbEntity
  8
Defpoints
 62
     0
100
AcDbPoint
 10
24.37807883212693
 20
5.552628870843598
 30
0.0
  0
POINT
  5
246
330
CE
100
AcDbEntity
  8
Defpoints
 62
     0
100
AcDbPoint
 10
3.740578832126938
 20
4.532952693665671
 30
0.0
  0
POINT
  5
247
330
CE
100
AcDbEntity
  8
Defpoints
 62
     0
100
AcDbPoint
 10
3.740578832126938
 20
14.74314381752739
 30
0.0
  0
ENDBLK
  5
D0
330
CE
100
AcDbEntity
  8
0
100
AcDbBlockEnd
  0
BLOCK
  5
E5
330
E4
100
AcDbEntity
  8
0
100
AcDbBlockBegin
  2
_D_2
 70
     0
 10
0.0
 20
0.0
 30
0.0
  3
_D_2
  1
_D_2
  0
LINE
  5
E7
330
E4
100
AcDbEntity
  8
치수문자_일반주서
 62
     0
370
    -2
100
AcDbLine
 10
24.37807883212693
 20
5.615128870843598
 30
0.0
 11
24.37807883212693
 21
24.74314381752739
 31
0.0
  0
LINE
  5
E8
330
E4
100
AcDbEntity
  8
치수문자_일반주서
 62
     0
370
    -2
100
AcDbLine
 10
-39.12192116787307
 20
3.826074928723889
 30
0.0
 11
-39.12192116787307
 21
24.74314381752739
 31
0.0
  0
LINE
  5
E9
330
E4
100
AcDbEntity
  8
치수문자_일반주서
 62
     0
370
    -2
100
AcDbLine
 10
21.07607883212693
 20
24.74314381752739
 30
0.0
 11
-35.81992116787307
 21
24.74314381752739
 31
0.0
  0
SOLID
  5
EA
330
E4
100
AcDbEntity
  8
치수문자_일반주서
 62
     0
100
AcDbTrace
 10
21.07607883212693
 20
24.19281048419406
 30
0.0
 11
21.07607883212693
 21
25.29347715086072
 31
0.0
 12
24.37807883212693
 22
24.74314381752739
 32
0.0
 13
24.37807883212693
 23
24.74314381752739
 33
0.0
  0
SOLID
  5
EB
330
E4
100
AcDbEntity
  8
치수문자_일반주서
 62
     0
100
AcDbTrace
 10
-35.81992116787307
 20
25.29347715086072
 30
0.0
 11
-35.81992116787307
 21
24.19281048419406
 31
0.0
 12
-39.12192116787307
 22
24.74314381752739
 32
0.0
 13
-39.12192116787307
 23
24.74314381752739
 33
0.0
  0
MTEXT
  5
EC
330
E4
100
AcDbEntity
  8
치수문자_일반주서
 62
     0
100
AcDbMText
 10
-7.371921167873065
 20
29.11814381752739
 30
0.0
 40
3.5
 41
0.0
 71
     2
 72
     1
  1
\A1;63.5 [2 1/2]
  7
SLDTEXTSTYLE0
 73
     1
 44
1.0
  0
POINT
  5
ED
330
E4
100
AcDbEntity
  8
Defpoints
 62
     0
100
AcDbPoint
 10
24.37807883212693
 20
5.552628870843598
 30
0.0
  0
POINT
  5
EE
330
E4
100
AcDbEntity
  8
Defpoints
 62
     0
100
AcDbPoint
 10
-39.12192116787307
 20
3.763574928723889
 30
0.0
  0
POINT
  5
EF
330
E4
100
AcDbEntity
  8
Defpoints
 62
     0
100
AcDbPoint
 10
-39.12192116787307
 20
24.74314381752739
 30
0.0
  0
ENDBLK
  5
E6
330
E4
100
AcDbEntity
  8
0
100
AcDbBlockEnd
  0
BLOCK
  5
F8
330
F7
100
AcDbEntity
  8
0
100
AcDbBlockBegin
  2
_D_3
 70
     0
 10
0.0
 20
0.0
 30
0.0
  3
_D_3
  1
_D_3
  0
LINE
  5
FA
330
F7
100
AcDbEntity
  8
치수문자_일반주서
 62
     0
370
    -2
100
AcDbLine
 10
24.44057883212693
 20
-5.550479013395814
 30
0.0
 11
67.30161254179069
 21
-5.550479013395652
 31
0.0
  0
LINE
  5
FB
330
F7
100
AcDbEntity
  8
치수문자_일반주서
 62
     0
370
    -2
100
AcDbLine
 10
24.44057883212693
 20
5.5526288708436
 30
0.0
 11
67.30161254179065
 21
5.552628870843762
 31
0.0
  0
LINE
  5
FC
330
F7
100
AcDbEntity
  8
치수문자_일반주서
 62
     0
370
    -2
100
AcDbLine
 10
67.30161254179065
 20
5.552628870843762
 30
0.0
 11
67.30161254179053
 21
37.53162887084376
 31
0.0
  0
LINE
  5
FD
330
F7
100
AcDbEntity
  8
치수문자_일반주서
 62
     0
370
    -2
100
AcDbLine
 10
67.30161254179069
 20
-5.550479013395652
 30
0.0
 11
67.30161254179065
 21
5.552628870843762
 31
0.0
  0
LINE
  5
FE
330
F7
100
AcDbEntity
  8
치수문자_일반주서
 62
     0
370
    -2
100
AcDbLine
 10
67.3016125417907
 20
-8.852479013395651
 30
0.0
 11
67.30161254179072
 21
-12.15447901339565
 31
0.0
  0
LINE
  5
FF
330
F7
100
AcDbEntity
  8
치수문자_일반주서
 62
     0
370
    -2
100
AcDbLine
 10
67.30161254179063
 20
8.854628870843761
 30
0.0
 11
67.30161254179062
 21
12.15662887084376
 31
0.0
  0
SOLID
  5
100
330
F7
100
AcDbEntity
  8
치수문자_일반주서
 62
     0
100
AcDbTrace
 10
67.85194587512403
 20
-8.85247901339565
 30
0.0
 11
66.75127920845738
 21
-8.852479013395653
 31
0.0
 12
67.30161254179069
 22
-5.550479013395652
 32
0.0
 13
67.30161254179069
 23
-5.550479013395652
 33
0.0
  0
SOLID
  5
101
330
F7
100
AcDbEntity
  8
치수문자_일반주서
 62
     0
100
AcDbTrace
 10
66.7512792084573
 20
8.85462887084376
 30
0.0
 11
67.85194587512396
 21
8.854628870843763
 31
0.0
 12
67.30161254179065
 22
5.552628870843762
 32
0.0
 13
67.30161254179065
 23
5.552628870843762
 33
0.0
  0
MTEXT
  5
102
330
F7
100
AcDbEntity
  8
치수문자_일반주서
 62
     0
100
AcDbMText
 10
62.92661254179058
 20
24.84412887084374
 30
0.0
 40
3.5
 41
0.0
 71
     2
 72
     1
  1
\A1;%%c11.1 [7/16]
  7
SLDTEXTSTYLE0
 11
-3.839696469681420E-15
 21
1.0
 31
0.0
 73
     1
 44
1.0
  0
POINT
  5
103
330
F7
100
AcDbEntity
  8
Defpoints
 62
     0
100
AcDbPoint
 10
24.37807883212693
 20
-5.550479013395814
 30
0.0
  0
POINT
  5
104
330
F7
100
AcDbEntity
  8
Defpoints
 62
     0
100
AcDbPoint
 10
24.37807883212693
 20
5.5526288708436
 30
0.0
  0
POINT
  5
105
330
F7
100
AcDbEntity
  8
Defpoints
 62
     0
100
AcDbPoint
 10
67.30161254179065
 20
5.552628870843761
 30
0.0
  0
ENDBLK
  5
F9
330
F7
100
AcDbEntity
  8
0
100
AcDbBlockEnd
  0
BLOCK
  5
111
330
110
100
AcDbEntity
  8
0
100
AcDbBlockBegin
  2
SW_DOWELSYMBOL_0
 70
     0
 10
0.0
 20
0.0
 30
0.0
  3
SW_DOWELSYMBOL_0
  1
SW_DOWELSYMBOL_0
  0
CIRCLE
  5
113
330
110
100
AcDbEntity
  8
해칭선
 62
     0
100
AcDbCircle
 10
0.0
 20
0.0
 30
0.0
 40
3.000000000000001
  0
HATCH
  5
114
330
110
100
AcDbEntity
  8
0
  6
Continuous
 62
     0
370
     0
100
AcDbHatch
 10
0.0
 20
0.0
 30
0.0
210
0.0
220
0.0
230
1.0
  2
SOLID
 70
     1
 71
     0
 91
        1
 92
        0
 93
        3
 72
     2
 10
-0.0000000000000017
 20
0.0
 40
3.000000000000001
 50
0.0
 51
90.0
 73
     1
 72
     1
 10
-0.0000000000000017
 20
3.000000000000001
 11
-0.0000000000000017
 21
0.0
 72
     1
 10
-0.0000000000000017
 20
0.0
 11
3.0
 21
0.0
 97
        0
 75
     0
 76
     1
 98
        1
 10
0.0
 20
0.0
  0
HATCH
  5
115
330
110
100
AcDbEntity
  8
0
  6
Continuous
 62
     0
370
     0
100
AcDbHatch
 10
0.0
 20
0.0
 30
0.0
210
0.0
220
0.0
230
1.0
  2
SOLID
 70
     1
 71
     0
 91
        1
 92
        0
 93
        3
 72
     2
 10
-0.0000000000000017
 20
0.0
 40
3.000000000000001
 50
180.0
 51
270.0000000000007
 73
     1
 72
     1
 10
-0.0000000000000017
 20
-3.000000000000001
 11
-0.0000000000000017
 21
0.0
 72
     1
 10
-0.0000000000000017
 20
0.0
 11
-3.000000000000003
 21
0.0
 97
        0
 75
     0
 76
     1
 98
        1
 10
0.0
 20
0.0
  0
ENDBLK
  5
112
330
110
100
AcDbEntity
  8
0
100
AcDbBlockEnd
  0
BLOCK
  5
21E
330
21D
100
AcDbEntity
  8
0
100
AcDbBlockBegin
  2
*D7
 70
     1
 10
0.0
 20
0.0
 30
0.0
  3
*D7
  1
*D7
  0
LINE
  5
220
330
21D
100
AcDbEntity
  8
치수문자_일반주서
 62
     0
370
    -2
100
AcDbLine
 10
27.24149999999999
 20
3.631580296889929
 30
0.0
 11
27.24149999999999
 21
13.37483570571161
 31
0.0
  0
LINE
  5
221
330
21D
100
AcDbEntity
  8
치수문자_일반주서
 62
     0
370
    -2
100
AcDbLine
 10
6.604000000000002
 20
3.206713470653397
 30
0.0
 11
6.603999999999999
 21
13.37483570571161
 31
0.0
  0
LINE
  5
222
330
21D
100
AcDbEntity
  8
치수문자_일반주서
 62
     0
370
    -2
100
AcDbLine
 10
27.24149999999999
 20
13.37483570571161
 30
0.0
 11
63.15799999999999
 21
13.37483570571161
 31
0.0
  0
LINE
  5
223
330
21D
100
AcDbEntity
  8
치수문자_일반주서
 62
     0
370
    -2
100
AcDbLine
 10
27.24149999999999
 20
13.37483570571161
 30
0.0
 11
6.603999999999999
 21
13.37483570571161
 31
0.0
  0
LINE
  5
224
330
21D
100
AcDbEntity
  8
치수문자_일반주서
 62
     0
370
    -2
100
AcDbLine
 10
30.54349999999999
 20
13.37483570571161
 30
0.0
 11
33.84549999999999
 21
13.37483570571161
 31
0.0
  0
LINE
  5
225
330
21D
100
AcDbEntity
  8
치수문자_일반주서
 62
     0
370
    -2
100
AcDbLine
 10
3.302
 20
13.37483570571161
 30
0.0
 11
0.0
 21
13.37483570571161
 31
0.0
  0
SOLID
  5
226
330
21D
100
AcDbEntity
  8
치수문자_일반주서
 62
     0
100
AcDbTrace
 10
30.54349999999999
 20
13.92516903904494
 30
0.0
 11
30.54349999999999
 21
12.82450237237827
 31
0.0
 12
27.24149999999999
 22
13.37483570571161
 32
0.0
 13
27.24149999999999
 23
13.37483570571161
 33
0.0
  0
SOLID
  5
227
330
21D
100
AcDbEntity
  8
치수문자_일반주서
 62
     0
100
AcDbTrace
 10
3.302
 20
12.82450237237827
 30
0.0
 11
3.302
 21
13.92516903904494
 31
0.0
 12
6.603999999999999
 22
13.37483570571161
 32
0.0
 13
6.603999999999999
 23
13.37483570571161
 33
0.0
  0
MTEXT
  5
228
330
21D
100
AcDbEntity
  8
치수문자_일반주서
 62
     0
100
AcDbMText
 10
48.50174999999999
 20
17.7498357057116
 30
0.0
 40
3.5
 41
0.0
 71
     2
 72
     1
  1
\A1;20.64 [13/16]
  7
SLDTEXTSTYLE0
 73
     1
 44
1.0
  0
POINT
  5
229
330
21D
100
AcDbEntity
  8
Defpoints
 62
     0
100
AcDbPoint
 10
27.24149999999999
 20
3.569080296889929
 30
0.0
  0
POINT
  5
22A
330
21D
100
AcDbEntity
  8
Defpoints
 62
     0
100
AcDbPoint
 10
6.604000000000002
 20
3.144213470653397
 30
0.0
  0
POINT
  5
22B
330
21D
100
AcDbEntity
  8
Defpoints
 62
     0
100
AcDbPoint
 10
6.604000000000002
 20
13.37483570571161
 30
0.0
  0
ENDBLK
  5
21F
330
21D
100
AcDbEntity
  8
0
100
AcDbBlockEnd
  0
BLOCK
  5
230
330
22F
100
AcDbEntity
  8
0
100
AcDbBlockBegin
  2
*D8
 70
     1
 10
0.0
 20
0.0
 30
0.0
  3
*D8
  1
*D8
  0
LINE
  5
232
330
22F
100
AcDbEntity
  8
치수문자_일반주서
 62
     0
370
    -2
100
AcDbLine
 10
35.04405396190531
 20
-25.41969775947229
 30
0.0
 11
35.04405396190531
 21
-15.67644235065061
 31
0.0
  0
LINE
  5
233
330
22F
100
AcDbEntity
  8
치수문자_일반주서
 62
     0
370
    -2
100
AcDbLine
 10
14.40655396190531
 20
-25.84456458570882
 30
0.0
 11
14.40655396190532
 21
-15.67644235065061
 31
0.0
  0
LINE
  5
234
330
22F
100
AcDbEntity
  8
치수문자_일반주서
 62
     0
370
    -2
100
AcDbLine
 10
35.04405396190531
 20
-15.67644235065061
 30
0.0
 11
70.9605539619053
 21
-15.67644235065061
 31
0.0
  0
LINE
  5
235
330
22F
100
AcDbEntity
  8
치수문자_일반주서
 62
     0
370
    -2
100
AcDbLine
 10
35.04405396190531
 20
-15.67644235065061
 30
0.0
 11
14.40655396190532
 21
-15.67644235065061
 31
0.0
  0
LINE
  5
236
330
22F
100
AcDbEntity
  8
치수문자_일반주서
 62
     0
370
    -2
100
AcDbLine
 10
38.34605396190531
 20
-15.67644235065061
 30
0.0
 11
41.6480539619053
 21
-15.67644235065061
 31
0.0
  0
LINE
  5
237
330
22F
100
AcDbEntity
  8
치수문자_일반주서
 62
     0
370
    -2
100
AcDbLine
 10
11.10455396190532
 20
-15.67644235065061
 30
0.0
 11
7.802553961905318
 21
-15.67644235065061
 31
0.0
  0
SOLID
  5
238
330
22F
100
AcDbEntity
  8
치수문자_일반주서
 62
     0
100
AcDbTrace
 10
38.34605396190531
 20
-15.12610901731728
 30
0.0
 11
38.34605396190531
 21
-16.22677568398394
 31
0.0
 12
35.04405396190531
 22
-15.67644235065061
 32
0.0
 13
35.04405396190531
 23
-15.67644235065061
 33
0.0
  0
SOLID
  5
239
330
22F
100
AcDbEntity
  8
치수문자_일반주서
 62
     0
100
AcDbTrace
 10
11.10455396190532
 20
-16.22677568398394
 30
0.0
 11
11.10455396190532
 21
-15.12610901731728
 31
0.0
 12
14.40655396190532
 22
-15.67644235065061
 32
0.0
 13
14.40655396190532
 23
-15.67644235065061
 33
0.0
  0
MTEXT
  5
23A
330
22F
100
AcDbEntity
  8
치수문자_일반주서
 62
     0
100
AcDbMText
 10
56.3043039619053
 20
-11.30144235065061
 30
0.0
 40
3.5
 41
0.0
 71
     2
 72
     1
  1
\A1;20.64 [13/16]
  7
SLDTEXTSTYLE0
 73
     1
 44
1.0
  0
POINT
  5
23B
330
22F
100
AcDbEntity
  8
Defpoints
 62
     0
100
AcDbPoint
 10
35.04405396190531
 20
-25.48219775947229
 30
0.0
  0
POINT
  5
23C
330
22F
100
AcDbEntity
  8
Defpoints
 62
     0
100
AcDbPoint
 10
14.40655396190531
 20
-25.90706458570882
 30
0.0
  0
POINT
  5
23D
330
22F
100
AcDbEntity
  8
Defpoints
 62
     0
100
AcDbPoint
 10
14.40655396190531
 20
-15.67644235065061
 30
0.0
  0
ENDBLK
  5
231
330
22F
100
AcDbEntity
  8
0
100
AcDbBlockEnd
  0
ENDSEC
  0
SECTION
  2
ENTITIES
  0
SPLINE
  5
96
330
1F
100
AcDbEntity
  8
0
  6
Continuous
 62
     1
370
    15
100
AcDbSpline
210
0.0
220
0.0
230
1.0
 70
     8
 71
     3
 72
    18
 73
    14
 74
     0
 42
0.000000001
 43
0.00000001
 40
0.0
 40
0.0
 40
0.0
 40
0.0
 40
0.143559106626394
 40
0.2681469880321231
 40
0.3745935796751438
 40
0.4622372192877579
 40
0.5363103825434654
 40
0.5915877293757175
 40
0.6452364263591428
 40
0.7108114616044462
 40
0.792950732556944
 40
0.8885365581329892
 40
1.0
 40
1.0
 40
1.0
 40
1.0
 10
9.982383706731813
 20
1.424866563999416
 30
0.0
 10
9.912929479025285
 20
1.457456425730813
 30
0.0
 10
9.783199346237053
 20
1.518329424100746
 30
0.0
 10
9.583479162542623
 20
1.614655787048356
 30
0.0
 10
9.414090176652817
 20
1.697718436779286
 30
0.0
 10
9.273644569036811
 20
1.767592310002894
 30
0.0
 10
9.163014198538486
 20
1.823240851112853
 30
0.0
 10
9.07757885873952
 20
1.866420405072767
 30
0.0
 10
8.998730765391143
 20
1.906222141518763
 30
0.0
 10
8.88778749910607
 20
1.963207691958594
 30
0.0
 10
8.755481066323991
 20
2.031670896949974
 30
0.0
 10
8.600596131747018
 20
2.112233922147306
 30
0.0
 10
8.49777338417102
 20
2.166551100390542
 30
0.0
 10
8.442419518453068
 20
2.195792351587724
 30
0.0
1001
PE_URL
1000

  0
SPLINE
  5
98
330
1F
100
AcDbEntity
  8
0
  6
Continuous
 62
     1
370
    15
100
AcDbSpline
210
0.0
220
0.0
230
1.0
 70
     8
 71
     3
 72
    47
 73
    43
 74
     0
 42
0.000000001
 43
0.00000001
 40
0.0
 40
0.0
 40
0.0
 40
0.0
 40
0.0218328042659832
 40
0.0419213030724558
 40
0.0611224175123297
 40
0.0808304060188308
 40
0.1014639942203901
 40
0.1202989554423651
 40
0.1365585010782802
 40
0.1503276654375145
 40
0.1655797150766604
 40
0.1801446951147317
 40
0.1943303938437208
 40
0.2103165622859365
 40
0.2276111420687804
 40
0.2475690510009935
 40
0.2717689306688973
 40
0.2987513624214108
 40
0.3422675947598862
 40
0.3838681357078998
 40
0.4245225061845936
 40
0.4600034939803193
 40
0.492518116990087
 40
0.5198112767282486
 40
0.5515964411042037
 40
0.5874111317414327
 40
0.6250909174491864
 40
0.6595689878357496
 40
0.6901356176480969
 40
0.7177128894252572
 40
0.7434785384668344
 40
0.7681075927590385
 40
0.7881013401395104
 40
0.8086060675942564
 40
0.8296531105870208
 40
0.8521789853615604
 40
0.8765908022339877
 40
0.8970568439857021
 40
0.9187503771631508
 40
0.9425369415428916
 40
0.9694318436565488
 40
1.0
 40
1.0
 40
1.0
 40
1.0
 10
22.31308331843777
 20
3.801285708153529
 30
0.0
 10
22.26256472115496
 20
3.796688951636696
 30
0.0
 10
22.16556364874633
 20
3.787862690898733
 30
0.0
 10
21.99175544279886
 20
3.771662493377892
 30
0.0
 10
21.80412752298356
 20
3.756588755492794
 30
0.0
 10
21.60209847003836
 20
3.743279392666051
 30
0.0
 10
21.40380476426558
 20
3.732365749014273
 30
0.0
 10
21.21668217577361
 20
3.721851343201444
 30
0.0
 10
21.05176260816457
 20
3.712826263783532
 30
0.0
 10
20.89874732033649
 20
3.704814870952276
 30
0.0
 10
20.75413079097139
 20
3.697823284253168
 30
0.0
 10
20.6100994269304
 20
3.691470816525994
 30
0.0
 10
20.46856104259794
 20
3.68579985147285
 30
0.0
 10
20.31656550535363
 20
3.680201595605937
 30
0.0
 10
20.14305864617872
 20
3.674526112531987
 30
0.0
 10
19.941770299845
 20
3.668906043472276
 30
0.0
 10
19.70884674829055
 20
3.663761758964135
 30
0.0
 10
19.39855912786508
 20
3.658985117812112
 30
0.0
 10
19.03157527167314
 20
3.656703791296562
 30
0.0
 10
18.61979480707325
 20
3.658685558418015
 30
0.0
 10
18.23423795357232
 20
3.664656474220224
 30
0.0
 10
17.87849715485338
 20
3.67372473130462
 30
0.0
 10
17.56658455437006
 20
3.684431914093652
 30
0.0
 10
17.26673847068158
 20
3.697001770550873
 30
0.0
 10
16.95606763461013
 20
3.712353323543203
 30
0.0
 10
16.61123802741325
 20
3.732336913288769
 30
0.0
 10
16.25750798311599
 20
3.756127130642572
 30
0.0
 10
15.9213342766556
 20
3.781809022257536
 30
0.0
 10
15.61829757424644
 20
3.807504598977288
 30
0.0
 10
15.34324714155803
 20
3.832720848993102
 30
0.0
 10
15.08810824510475
 20
3.857703594714085
 30
0.0
 10
14.85669174928715
 20
3.881754510560423
 30
0.0
 10
14.65519460179569
 20
3.903675966635442
 30
0.0
 10
14.47401783172941
 20
3.923427302035518
 30
0.0
 10
14.26159144748015
 20
3.948379455335929
 30
0.0
 10
14.03321170236121
 20
3.977220452690161
 30
0.0
 10
13.80742229053562
 20
4.006514126086902
 30
0.0
 10
13.58469842735122
 20
4.036177230372804
 30
0.0
 10
13.36353864027253
 20
4.0659466105945
 30
0.0
 10
13.12295132746275
 20
4.100298270867193
 30
0.0
 10
12.8661695761079
 20
4.139400155076208
 30
0.0
 10
12.69720622542206
 20
4.16598126032146
 30
0.0
 10
12.60732416451621
 20
4.18012139491811
 30
0.0
1001
PE_URL
1000

  0
SPLINE
  5
99
330
1F
100
AcDbEntity
  8
0
  6
Continuous
 62
     1
370
    15
100
AcDbSpline
210
0.0
220
0.0
230
1.0
 70
     8
 71
     3
 72
    24
 73
    20
 74
     0
 42
0.000000001
 43
0.00000001
 40
0.0
 40
0.0
 40
0.0
 40
0.0
 40
0.0656331172771498
 40
0.1240802014211851
 40
0.1762454727928802
 40
0.2236698494651675
 40
0.2683724980474106
 40
0.3235968011981543
 40
0.3750222114100938
 40
0.4227352562363455
 40
0.4714399738913968
 40
0.5192923202680372
 40
0.5658488427815683
 40
0.6124444497676355
 40
0.6610774979054689
 40
0.7387307335587687
 40
0.8264574791783936
 40
0.925185249912284
 40
1.0
 40
1.0
 40
1.0
 40
1.0
 10
12.60732416451621
 20
-4.177971537470324
 30
0.0
 10
12.68921660223448
 20
-4.165089422198301
 30
0.0
 10
12.84403524545155
 20
-4.140735627589798
 30
0.0
 10
13.07891372529354
 20
-4.104779193001063
 30
0.0
 10
13.29951739860228
 20
-4.072737925423236
 30
0.0
 10
13.50581961954601
 20
-4.044623784033218
 30
0.0
 10
13.71502358670302
 20
-4.016588685389496
 30
0.0
 10
13.93057457464104
 20
-3.988316550331442
 30
0.0
 10
14.15043631726058
 20
-3.960120846049518
 30
0.0
 10
14.36126224799925
 20
-3.93427037485123
 30
0.0
 10
14.55655092203452
 20
-3.912186757054891
 30
0.0
 10
14.73390636066084
 20
-3.892927475491451
 30
0.0
 10
14.92579100115337
 20
-3.872327759644716
 30
0.0
 10
15.12374569601796
 20
-3.852067390142051
 30
0.0
 10
15.36422205831922
 20
-3.828581621982901
 30
0.0
 10
15.66233444380908
 20
-3.801318263916513
 30
0.0
 10
16.0294408030675
 20
-3.770977778434906
 30
0.0
 10
16.39299842582869
 20
-3.744141777469091
 30
0.0
 10
16.63458779847695
 20
-3.729672576199019
 30
0.0
 10
16.73873776963651
 20
-3.723434856060667
 30
0.0
1001
PE_URL
1000

  0
SPLINE
  5
9A
330
1F
100
AcDbEntity
  8
0
  6
Continuous
 62
     1
370
    15
100
AcDbSpline
210
0.0
220
0.0
230
1.0
 70
     8
 71
     3
 72
    19
 73
    15
 74
     0
 42
0.000000001
 43
0.00000001
 40
0.3768735969268785
 40
0.3768735969268785
 40
0.3768735969268785
 40
0.3768735969268785
 40
0.4310462335207705
 40
0.4885361331164952
 40
0.5354181833320028
 40
0.5952641608433683
 40
0.6595449279914953
 40
0.7337103914879316
 40
0.7915927971968888
 40
0.8502065645425781
 40
0.881283800497621
 40
0.9159030196525089
 40
0.9552334088728406
 40
1.0
 40
1.0
 40
1.0
 40
1.0
 10
5.41298144325936
 20
-4.338155045946471
 30
0.0
 10
5.493170576135219
 20
-4.338303893652553
 30
0.0
 10
5.65848657058482
 20
-4.33899123211012
 30
0.0
 10
5.893099643763073
 20
-4.341073346554607
 30
0.0
 10
6.136290713952367
 20
-4.34430583526978
 30
0.0
 10
6.38769179614365
 20
-4.348772729713986
 30
0.0
 10
6.67961928460907
 20
-4.355468774723175
 30
0.0
 10
6.972473247033324
 20
-4.36391984201755
 30
0.0
 10
7.26007649247093
 20
-4.373915521576828
 30
0.0
 10
7.480008607638082
 20
-4.381596870986087
 30
0.0
 10
7.668086560969151
 20
-4.389088684044659
 30
0.0
 10
7.820801338150375
 20
-4.396481267383428
 30
0.0
 10
7.983544582598858
 20
-4.405274644306904
 30
0.0
 10
8.089798674619221
 20
-4.411058585207556
 30
0.0
 10
8.146359962235122
 20
-4.414137498580345
 30
0.0
1001
PE_URL
1000

  0
SPLINE
  5
9B
330
1F
100
AcDbEntity
  8
0
  6
Continuous
 62
     1
370
    15
100
AcDbSpline
210
0.0
220
0.0
230
1.0
 70
     8
 71
     3
 72
    38
 73
    34
 74
     0
 42
0.000000001
 43
0.00000001
 40
0.0
 40
0.0
 40
0.0
 40
0.0
 40
0.0625
 40
0.0625
 40
0.125
 40
0.125
 40
0.1875
 40
0.1875
 40
0.25
 40
0.25
 40
0.3125
 40
0.3125
 40
0.375
 40
0.375
 40
0.4375
 40
0.4375
 40
0.5
 40
0.5
 40
0.5625
 40
0.5625
 40
0.625
 40
0.625
 40
0.6875
 40
0.6875
 40
0.75
 40
0.75
 40
0.8125
 40
0.8125
 40
0.875
 40
0.875
 40
0.9375
 40
0.9375
 40
1.0
 40
1.0
 40
1.0
 40
1.0
 10
24.37807883212693
 20
-5.27147777594585
 30
0.0
 10
23.95084216048327
 20
-5.19333807935879
 30
0.0
 10
23.51876301962727
 20
-5.099114505801658
 30
0.0
 10
22.65647979322424
 20
-4.880747317575118
 30
0.0
 10
22.22951680261385
 20
-4.756978965519647
 30
0.0
 10
21.36996517305028
 20
-4.481244564094268
 30
0.0
 10
20.93721810003057
 20
-4.329171149950152
 30
0.0
 10
20.07740054711737
 20
-4.000686912018335
 30
0.0
 10
19.65061175932972
 20
-3.824398408889246
 30
0.0
 10
18.78842154326257
 20
-3.448799830839767
 30
0.0
 10
18.35625463654214
 20
-3.249890343529547
 30
0.0
 10
17.50134498103791
 20
-2.835353476536559
 30
0.0
 10
17.06978679520608
 20
-2.618311726704207
 30
0.0
 10
16.20742278007175
 20
-2.169925485263612
 30
0.0
 10
15.78026109096214
 20
-1.93925974606909
 30
0.0
 10
14.92098747749726
 20
-1.466845123023191
 30
0.0
 10
14.4882465909931
 20
-1.224950055636498
 30
0.0
 10
13.62817522000157
 20
-0.7362716937984651
 30
0.0
 10
13.20153613115749
 20
-0.4896420953460169
 30
0.0
 10
12.33945114263504
 20
0.0067604688511541
 30
0.0
 10
11.90720262882461
 20
0.2559184626236852
 30
0.0
 10
11.05186853602703
 20
0.7494717183129547
 30
0.0
 10
10.62080702555446
 20
0.995398731384473
 30
0.0
 10
9.75837444711199
 20
1.479878478786326
 30
0.0
 10
9.330989573181569
 20
1.717695223483054
 30
0.0
 10
8.472006055477845
 20
2.182441325038019
 30
0.0
 10
8.039277541708735
 20
2.409537726657399
 30
0.0
 10
7.178964469866801
 20
2.847058892838197
 30
0.0
 10
6.752450569037416
 20
3.057356533899719
 30
0.0
 10
5.890483020296107
 20
3.459860791199946
 30
0.0
 10
5.458159062069426
 20
3.651505483254198
 30
0.0
 10
4.602412426758863
 20
4.010592424342297
 30
0.0
 10
4.171823288666537
 20
4.179056498391673
 30
0.0
 10
3.740578832123349
 20
4.334569419759118
 30
0.0
1001
PE_URL
1000

  0
SPLINE
  5
9C
330
1F
100
AcDbEntity
  8
0
  6
Continuous
 62
     1
370
    15
100
AcDbSpline
210
0.0
220
0.0
230
1.0
 70
     8
 71
     3
 72
    21
 73
    17
 74
     0
 42
0.000000001
 43
0.00000001
 40
0.0
 40
0.0
 40
0.0
 40
0.0
 40
0.0748812617031413
 40
0.1497638261900222
 40
0.2246437851173918
 40
0.2995276468917116
 40
0.3744063085555105
 40
0.4492914621205878
 40
0.5198789928896391
 40
0.5905370266925073
 40
0.6610628972240635
 40
0.7317680202500433
 40
0.8022498388147216
 40
0.8729863525436541
 40
0.9434417606793652
 40
1.0
 40
1.0
 40
1.0
 40
1.0
 10
24.37807883212693
 20
-4.382652215172008
 30
0.0
 10
24.01853598512822
 20
-4.311696186173602
 30
0.0
 10
23.29944403580652
 20
-4.169782893684226
 30
0.0
 10
22.22080688521332
 20
-3.889844739213589
 30
0.0
 10
21.14217496030286
 20
-3.565002897531699
 30
0.0
 10
20.06353300124196
 20
-3.194399256962898
 30
0.0
 10
18.98491336995742
 20
-2.783896144112373
 30
0.0
 10
17.92683032321209
 20
-2.347040042013514
 30
0.0
 10
16.88924145011377
 20
-1.890752825632409
 30
0.0
 10
15.87209269097049
 20
-1.423482902730636
 30
0.0
 10
14.85520863586718
 20
-0.938430813781974
 30
0.0
 10
13.83803863813053
 20
-0.4455860010876053
 30
0.0
 10
12.82125417677345
 20
0.055668400782188
 30
0.0
 10
11.80408141336108
 20
0.5520596481886563
 30
0.0
 10
10.85538627762192
 20
1.014831865692822
 30
0.0
 10
10.24522256171567
 20
1.300621081610607
 30
0.0
 10
9.973521164581514
 20
1.427880909139693
 30
0.0
1001
PE_URL
1000

  0
LINE
  5
9D
330
1F
100
AcDbEntity
  8
0
  6
Continuous
 62
     1
370
    15
100
AcDbLine
 10
24.37807883212693
 20
-5.271477775945851
 30
0.0
 11
24.37807883212693
 21
-4.382652215172008
 31
0.0
1001
PE_URL
1000

  0
SPLINE
  5
9E
330
1F
100
AcDbEntity
  8
0
  6
Continuous
 62
     1
370
    15
100
AcDbSpline
210
0.0
220
0.0
230
1.0
 70
     8
 71
     3
 72
    38
 73
    34
 74
     0
 42
0.000000001
 43
0.00000001
 40
0.0
 40
0.0
 40
0.0
 40
0.0
 40
0.0625
 40
0.0625
 40
0.125
 40
0.125
 40
0.1875
 40
0.1875
 40
0.25
 40
0.25
 40
0.3125
 40
0.3125
 40
0.375
 40
0.375
 40
0.4375
 40
0.4375
 40
0.5
 40
0.5
 40
0.5625
 40
0.5625
 40
0.625
 40
0.625
 40
0.6875
 40
0.6875
 40
0.75
 40
0.75
 40
0.8125
 40
0.8125
 40
0.875
 40
0.875
 40
0.9375
 40
0.9375
 40
1.0
 40
1.0
 40
1.0
 40
1.0
 10
24.37807883212693
 20
-5.550479013395812
 30
0.0
 10
23.95084216048334
 20
-5.540296975111918
 30
0.0
 10
23.51876301962741
 20
-5.513451453315972
 30
0.0
 10
22.65647979322454
 20
-5.426854237118494
 30
0.0
 10
22.22951680261423
 20
-5.367320263715024
 30
0.0
 10
21.3699651730508
 20
-5.21630736266759
 30
0.0
 10
20.93721810003116
 20
-5.124715000610421
 30
0.0
 10
20.07740054711811
 20
-4.91180816267794
 30
0.0
 10
19.65061175933054
 20
-4.790620391161885
 30
0.0
 10
18.78842154326355
 20
-4.519476964196676
 30
0.0
 10
18.35625463654319
 20
-4.369769057412748
 30
0.0
 10
17.50134498103908
 20
-4.046319262818148
 30
0.0
 10
17.06978679520736
 20
-3.871477485409536
 30
0.0
 10
16.20742278007317
 20
-3.499693505148881
 30
0.0
 10
15.78026109096361
 20
-3.303342932149914
 30
0.0
 10
14.9209874774989
 20
-2.89134510434245
 30
0.0
 10
14.48824659099482
 20
-2.675539712546828
 30
0.0
 10
13.62817522000343
 20
-2.230094828660932
 30
0.0
 10
13.20153613115943
 20
-2.000628214091079
 30
0.0
 10
12.33945114263715
 20
-1.529522502693687
 30
0.0
 10
11.90720262882678
 20
-1.288434793983578
 30
0.0
 10
11.05186853602931
 20
-0.801721377457695
 30
0.0
 10
10.62080702555686
 20
-0.5545912135874861
 30
0.0
 10
9.75837444711453
 20
-0.058410352513583
 30
0.0
 10
9.330989573184164
 20
0.1898642627021752
 30
0.0
 10
8.472006055480614
 20
0.684612642388987
 30
0.0
 10
8.039277541711582
 20
0.9312939750841734
 30
0.0
 10
7.178964469869775
 20
1.416640455038269
 30
0.0
 10
6.752450569040475
 20
1.655127128683724
 30
0.0
 10
5.890483020299328
 20
2.122426807572229
 30
0.0
 10
5.458159062072716
 20
2.350628118614413
 30
0.0
 10
4.602412426762254
 20
2.79010870966908
 30
0.0
 10
4.171823288670057
 20
3.002626372875231
 30
0.0
 10
3.740578832126942
 20
3.205613159078974
 30
0.0
1001
PE_URL
1000

  0
SPLINE
  5
9F
330
1F
100
AcDbEntity
  8
0
  6
Continuous
 62
     1
370
    15
100
AcDbSpline
210
0.0
220
0.0
230
1.0
 70
     8
 71
     3
 72
    14
 73
    10
 74
     0
 42
0.000000001
 43
0.00000001
 40
0.0
 40
0.0
 40
0.0
 40
0.0
 40
0.0038637826982919
 40
0.1700513851187947
 40
0.3359075373569101
 40
0.501983924907938
 40
0.6679539107128982
 40
0.8338994952603032
 40
1.0
 40
1.0
 40
1.0
 40
1.0
 10
10.57825999097493
 20
-0.5292845233295971
 30
0.0
 10
10.56945497608439
 20
-0.5257911143262126
 30
0.0
 10
10.18193189441858
 20
-0.3720404802456254
 30
0.0
 10
9.41601456126269
 20
-0.0615203599603124
 30
0.0
 10
8.28101463782651
 20
0.3975478906309003
 30
0.0
 10
7.146023174540916
 20
0.8509783943391204
 30
0.0
 10
6.011060057490645
 20
1.292389966650276
 30
0.0
 10
4.876051349438359
 20
1.718066675371716
 30
0.0
 10
4.119187379299571
 20
1.980481757276115
 30
0.0
 10
3.740578832126938
 20
2.11175051472244
 30
0.0
1001
PE_URL
1000

  0
SPLINE
  5
A0
330
1F
100
AcDbEntity
  8
외형선
  6
Continuous
370
    15
100
AcDbSpline
210
0.0
220
0.0
230
1.0
 70
    24
 71
     3
 72
    10
 73
     6
 74
     0
 42
0.000000001
 43
0.00000001
 40
0.0
 40
0.0
 40
0.0
 40
0.0
 40
0.5
 40
0.5
 40
1.0
 40
1.0
 40
1.0
 40
1.0
 10
3.740578832126938
 20
3.205613159078977
 30
0.0
 10
3.740578832126938
 20
3.114409429420765
 30
0.0
 10
3.740578832126938
 20
2.966138383060468
 30
0.0
 10
3.740578832126938
 20
2.585276784475964
 30
0.0
 10
3.740578832126938
 20
2.354025991304714
 30
0.0
 10
3.740578832126938
 20
2.111750514722441
 30
0.0
  0
LINE
  5
A1
330
1F
100
AcDbEntity
  8
외형선
  6
Continuous
370
    15
100
AcDbLine
 10
3.740578832126942
 20
3.205613159078974
 30
0.0
 11
3.740578832126938
 21
4.334569419747972
 31
0.0
  0
LINE
  5
A2
330
1F
100
AcDbEntity
  8
0
  6
Continuous
 62
     1
370
    15
100
AcDbLine
 10
24.37807883212693
 20
-5.550479013395814
 30
0.0
 11
24.37807883212693
 21
-5.271477775945851
 31
0.0
1001
PE_URL
1000

  0
SPLINE
  5
A3
330
1F
100
AcDbEntity
  8
0
  6
Continuous
 62
     1
370
    15
100
AcDbSpline
210
0.0
220
0.0
230
1.0
 70
     8
 71
     3
 72
     8
 73
     4
 74
     0
 42
0.000000001
 43
0.00000001
 40
0.0
 40
0.0
 40
0.0
 40
0.0
 40
1.0
 40
1.0
 40
1.0
 40
1.0
 10
20.94013589815136
 20
1.555258938326889
 30
0.0
 10
20.74272913966275
 20
1.789123998526589
 30
0.0
 10
20.56650066607077
 20
2.01423428395737
 30
0.0
 10
20.41652624088644
 20
2.228491552644689
 30
0.0
1001
PE_URL
1000

  0
LINE
  5
A4
330
1F
100
AcDbEntity
  8
0
  6
Continuous
 62
     1
370
    15
100
AcDbLine
 10
20.48673956541111
 20
2.28740752735667
 30
0.0
 11
24.37807883212693
 21
0.0010749287238958
 31
0.0
1001
PE_URL
1000

  0
LINE
  5
A5
330
1F
100
AcDbEntity
  8
0
  6
Continuous
 62
     1
370
    15
100
AcDbLine
 10
24.37807883212693
 20
0.0010749287238958
 30
0.0
 11
24.37807883212693
 21
-1.483793690153319
 31
0.0
1001
PE_URL
1000

  0
SPLINE
  5
A6
330
1F
100
AcDbEntity
  8
0
  6
Continuous
 62
     1
370
    15
100
AcDbSpline
210
0.0
220
0.0
230
1.0
 70
     8
 71
     3
 72
    12
 73
     8
 74
     0
 42
0.000000001
 43
0.00000001
 40
0.0
 40
0.0
 40
0.0
 40
0.0
 40
0.5
 40
0.5
 40
0.75
 40
0.75
 40
1.0
 40
1.0
 40
1.0
 40
1.0
 10
24.37807883212694
 20
-1.483793690153321
 30
0.0
 10
23.78296043334099
 20
-1.015930201313995
 30
0.0
 10
23.19778221263086
 20
-0.5288830196454767
 30
0.0
 10
22.33530840615032
 20
0.2312029462139579
 30
0.0
 10
22.05041042758849
 20
0.4895697630653457
 30
0.0
 10
21.48643307582445
 20
1.017532807052549
 30
0.0
 10
21.20889268990632
 20
1.285758977138612
 30
0.0
 10
20.94013589815136
 20
1.555258938326889
 30
0.0
1001
PE_URL
1000

  0
SPLINE
  5
A7
330
1F
100
AcDbEntity
  8
외형선
  6
Continuous
370
    15
100
AcDbSpline
210
0.0
220
0.0
230
1.0
 70
    24
 71
     3
 72
     9
 73
     5
 74
     0
 42
0.000000001
 43
0.00000001
 40
0.0
 40
0.0
 40
0.0
 40
0.0
 40
0.4482951753312201
 40
1.0
 40
1.0
 40
1.0
 40
1.0
 10
3.740578832126944
 20
4.359782952551971
 30
0.0
 10
3.740578832126944
 20
4.361533822042975
 30
0.0
 10
3.740578832126944
 20
4.365439439563193
 30
0.0
 10
3.740578832126944
 20
4.356972300264162
 30
0.0
 10
3.740578832126944
 20
4.352300938661742
 30
0.0
  0
SPLINE
  5
A8
330
1F
100
AcDbEntity
  8
0
  6
Continuous
 62
     1
370
    15
100
AcDbSpline
210
0.0
220
0.0
230
1.0
 70
     8
 71
     3
 72
    19
 73
    15
 74
     0
 42
0.000000001
 43
0.00000001
 40
0.0
 40
0.0
 40
0.0
 40
0.0
 40
0.0842131080017965
 40
0.1686362336147462
 40
0.2528501781919764
 40
0.3372724661650661
 40
0.421487252215072
 40
0.5043994511003429
 40
0.5871228977447642
 40
0.6700169565855377
 40
0.7527602393290562
 40
0.8373285425181798
 40
0.92176470731013
 40
1.0
 40
1.0
 40
1.0
 40
1.0
 10
20.94013589815137
 20
1.555258938326885
 30
0.0
 10
20.5810973675307
 20
1.708988938429963
 30
0.0
 10
19.86212490631776
 20
2.016832323220186
 30
0.0
 10
18.78332824819665
 20
2.446435768548934
 30
0.0
 10
17.70462775962167
 20
2.848836393168045
 30
0.0
 10
16.62577661477623
 20
3.213099298990144
 30
0.0
 10
15.55351905358856
 20
3.537036613515856
 30
0.0
 10
14.48749773369012
 20
3.813957180275854
 30
0.0
 10
13.42805635227205
 20
4.044324216671032
 30
0.0
 10
12.36847128464764
 20
4.224703728231084
 30
0.0
 10
11.30179405451997
 20
4.355807084665259
 30
0.0
 10
10.22783434737028
 20
4.43213868842859
 30
0.0
 10
9.173736879499481
 20
4.457457128258639
 30
0.0
 10
8.479871204185716
 20
4.428346486666161
 30
0.0
 10
8.146163096838775
 20
4.414346000037263
 30
0.0
1001
PE_URL
1000

  0
LINE
  5
A9
330
1F
100
AcDbEntity
  8
0
  6
Continuous
 62
     1
370
    15
100
AcDbLine
 10
24.37807883212693
 20
-4.382652215172006
 30
0.0
 11
24.37807883212694
 21
-1.483793690153322
 31
0.0
1001
PE_URL
1000

  0
SPLINE
  5
AA
330
1F
100
AcDbEntity
  8
0
  6
Continuous
 62
     1
370
    15
100
AcDbSpline
210
0.0
220
0.0
230
1.0
 70
    24
 71
     3
 72
     8
 73
     4
 74
     0
 42
0.000000001
 43
0.00000001
 40
0.0
 40
0.0
 40
0.0
 40
0.0
 40
1.0
 40
1.0
 40
1.0
 40
1.0
 10
20.99610289441871
 20
2.714814108861806
 30
0.0
 10
20.81270694453416
 20
2.560926634954277
 30
0.0
 10
20.61889046043617
 20
2.398295294631918
 30
0.0
 10
20.41652624088668
 20
2.228491552644466
 30
0.0
1001
PE_URL
1000

  0
SPLINE
  5
AB
330
1F
100
AcDbEntity
  8
0
  6
Continuous
 62
     1
370
    15
100
AcDbSpline
210
0.0
220
0.0
230
1.0
 70
     8
 71
     3
 72
     9
 73
     5
 74
     0
 42
0.000000001
 43
0.00000001
 40
0.0
 40
0.0
 40
0.0
 40
0.0
 40
0.522320566525377
 40
1.0
 40
1.0
 40
1.0
 40
1.0
 10
24.37807883212693
 20
3.890449928723891
 30
0.0
 10
24.01853568238284
 20
3.886537481416618
 30
0.0
 10
23.33017843055972
 20
3.879046971645383
 30
0.0
 10
22.64181924823232
 20
3.825128404933365
 30
0.0
 10
22.31300422399111
 20
3.799372614532604
 30
0.0
1001
PE_URL
1000

  0
SPLINE
  5
AC
330
1F
100
AcDbEntity
  8
0
  6
Continuous
 62
     1
370
    15
100
AcDbSpline
210
0.0
220
0.0
230
1.0
 70
     8
 71
     3
 72
    10
 73
     6
 74
     0
 42
0.000000001
 43
0.00000001
 40
0.0
 40
0.0
 40
0.0
 40
0.0
 40
0.5
 40
0.5
 40
1.0
 40
1.0
 40
1.0
 40
1.0
 10
24.37807883212693
 20
3.890449928723894
 30
0.0
 10
23.80652981729412
 20
3.735410161774365
 30
0.0
 10
23.23846738804482
 20
3.561411646002855
 30
0.0
 10
22.10996918426582
 20
3.171943717584695
 30
0.0
 10
21.5494749656073
 20
2.957045355444645
 30
0.0
 10
20.99610289441841
 20
2.714814108861976
 30
0.0
1001
PE_URL
1000

  0
SPLINE
  5
AD
330
1F
100
AcDbEntity
  8
0
  6
Continuous
 62
     1
370
    15
100
AcDbSpline
210
0.0
220
0.0
230
1.0
 70
     8
 71
     3
 72
    16
 73
    12
 74
     0
 42
0.000000001
 43
0.00000001
 40
0.0
 40
0.0
 40
0.0
 40
0.0
 40
0.0271226430292246
 40
0.1464991586365254
 40
0.2685086925926838
 40
0.3903275860411245
 40
0.5123391295143093
 40
0.6341560250469571
 40
0.7561695653261912
 40
0.8779844756265105
 40
1.0
 40
1.0
 40
1.0
 40
1.0
 10
12.60850857208548
 20
-4.173325410284933
 30
0.0
 10
12.52832209237562
 20
-4.187286505300199
 30
0.0
 10
12.09520604985489
 20
-4.262695405206345
 30
0.0
 10
11.3018029660203
 20
-4.350772168071058
 30
0.0
 10
10.22782518191013
 20
-4.431511250713649
 30
0.0
 10
9.146757992605826
 20
-4.452781275394365
 30
0.0
 10
8.065573111589101
 20
-4.419013987440466
 30
0.0
 10
6.984498649402579
 20
-4.32924244589208
 30
0.0
 10
5.903324205924952
 20
-4.184451893065129
 30
0.0
 10
4.822212851113378
 20
-3.989705083151844
 30
0.0
 10
4.101321212200004
 20
-3.818258047381308
 30
0.0
 10
3.740578832126938
 20
-3.732463999563579
 30
0.0
1001
PE_URL
1000

  0
SPLINE
  5
AE
330
1F
100
AcDbEntity
  8
외형선
  6
Continuous
370
    15
100
AcDbSpline
210
0.0
220
0.0
230
1.0
 70
    24
 71
     3
 72
    14
 73
    10
 74
     0
 42
0.000000001
 43
0.00000001
 40
0.0
 40
0.0
 40
0.0
 40
0.0
 40
0.25
 40
0.25
 40
0.5
 40
0.5
 40
0.75
 40
0.75
 40
1.0
 40
1.0
 40
1.0
 40
1.0
 10
3.740578832126938
 20
2.11175051472244
 30
0.0
 10
3.740578832126938
 20
1.650945470047828
 30
0.0
 10
3.740578832126938
 20
1.154141551218939
 30
0.0
 10
3.740578832126938
 20
0.1278985709206616
 30
0.0
 10
3.740578832126938
 20
-0.4011050549319051
 30
0.0
 10
3.740578832126938
 20
-1.439790469312556
 30
0.0
 10
3.740578832126938
 20
-1.94891880282627
 30
0.0
 10
3.740578832126938
 20
-2.89943049747813
 30
0.0
 10
3.740578832126938
 20
-3.340484791676415
 30
0.0
 10
3.740578832126938
 20
-3.732463999563577
 30
0.0
  0
LINE
  5
AF
330
1F
100
AcDbEntity
  8
0
  6
Continuous
 62
     1
370
    15
100
AcDbLine
 10
24.37807883212693
 20
0.0010749287238958
 30
0.0
 11
24.37807883212693
 21
3.890449928723895
 31
0.0
1001
PE_URL
1000

  0
SPLINE
  5
B0
330
1F
100
AcDbEntity
  8
외형선
  6
Continuous
370
    15
100
AcDbSpline
210
0.0
220
0.0
230
1.0
 70
    24
 71
     3
 72
    14
 73
    10
 74
     0
 42
0.000000001
 43
0.00000001
 40
0.0
 40
0.0
 40
0.0
 40
0.0
 40
0.1234678483861086
 40
0.2469356967722174
 40
0.3720173785691329
 40
0.4970990603660484
 40
0.6786603205422954
 40
0.8602215807185424
 40
1.0
 40
1.0
 40
1.0
 40
1.0
 10
3.740578832126938
 20
-3.732463999563579
 30
0.0
 10
3.74057883212694
 20
-3.781668461252019
 30
0.0
 10
3.740578832126942
 20
-3.880077384628902
 30
0.0
 10
3.740578832126945
 20
-4.00560735961202
 30
0.0
 10
3.740578832126944
 20
-4.11418406889586
 30
0.0
 10
3.740578832126944
 20
-4.217441916911912
 30
0.0
 10
3.740578832126944
 20
-4.301806434698663
 30
0.0
 10
3.740578832126944
 20
-4.355245813699451
 30
0.0
 10
3.740578832126944
 20
-4.35684540725055
 30
0.0
 10
3.740578832126944
 20
-4.357541208834851
 30
0.0
  0
SPLINE
  5
B1
330
1F
100
AcDbEntity
  8
0
  6
Continuous
 62
     1
370
    15
100
AcDbSpline
210
0.0
220
0.0
230
1.0
 70
     8
 71
     3
 72
    15
 73
    11
 74
     0
 42
0.000000001
 43
0.00000001
 40
0.0
 40
0.0
 40
0.0
 40
0.0
 40
0.0777833555581782
 40
0.2106269401009621
 40
0.3440084537413322
 40
0.476883005192855
 40
0.6078408503143158
 40
0.7384203172013298
 40
0.8692815447416353
 40
0.9999999999999999
 40
0.9999999999999999
 40
0.9999999999999999
 40
0.9999999999999999
 10
16.73851918189647
 20
3.725492109304812
 30
0.0
 10
16.93672096936773
 20
3.810735422583496
 30
0.0
 10
17.47342494309109
 20
4.041562932030909
 30
0.0
 10
18.3483996459602
 20
4.372056855330264
 30
0.0
 10
19.3658855323945
 20
4.711322226747783
 30
0.0
 10
20.37629901990967
 20
4.996835424461427
 30
0.0
 10
21.38161072389513
 20
5.224977451846465
 30
0.0
 10
22.38011814668667
 20
5.395505662398127
 30
0.0
 10
23.37923779401525
 20
5.511586367449659
 30
0.0
 10
24.04525299156268
 20
5.53895301535735
 30
0.0
 10
24.37807883212693
 20
5.552628870843598
 30
0.0
1001
PE_URL
1000

  0
LINE
  5
B2
330
1F
100
AcDbEntity
  8
0
  6
Continuous
 62
     1
370
    15
100
AcDbLine
 10
24.37807883212693
 20
3.890449928723895
 30
0.0
 11
24.37807883212693
 21
5.5526288708436
 31
0.0
1001
PE_URL
1000

  0
LINE
  5
B3
330
1F
100
AcDbEntity
  8
중심선
 62
     1
100
AcDbLine
 10
-42.12192116787307
 20
0.0010749287238892
 30
0.0
 11
27.37807883212695
 21
0.0010749287238931
 31
0.0
  0
LINE
  5
B4
330
1F
100
AcDbEntity
  8
참조1
100
AcDbLine
 10
-7.371921167873059
 20
0.0010749287238931
 30
0.0
 11
-7.371921167873054
 21
-39.9989250712761
 31
0.0
  0
LINE
  5
B5
330
1F
100
AcDbEntity
  8
참조1
100
AcDbLine
 10
-7.371921167873054
 20
-39.9989250712761
 30
0.0
 11
-22.53075298218174
 21
-39.9989250712761
 31
0.0
  0
CIRCLE
  5
B6
330
1F
100
AcDbEntity
  8
해칭선
100
AcDbCircle
 10
-0.0000000000000017
 20
0.0
 30
0.0
 40
3.000000000000001
  0
INSERT
  5
B7
330
1F
100
AcDbEntity
  8
0
  6
Continuous
 62
     7
100
AcDbBlockReference
 66
     1
  2
블럭10
 10
-21.31219409999827
 20
-52.04609937292004
 30
0.0
  0
ATTRIB
  5
B8
330
B7
100
AcDbEntity
  8
FORMAT
 62
     2
100
AcDbText
 10
-30.49348938873955
 20
-49.97073246008785
 30
0.0
 40
4.233333333333333
  1
E2030028 [ 2 FLUTE ]
 41
0.75
  7
SLDTEXTSTYLE0
 11
-30.49348938873955
 21
-52.08739912675452
 31
0.0
100
AcDbAttribute
  2
AUTOATTR0
 70
     0
 74
     1
  0
SEQEND
  5
B9
330
B7
100
AcDbEntity
  8
0
  6
Continuous
 62
     7
  0
HATCH
  5
BA
330
1F
100
AcDbEntity
  8
중심선
100
AcDbHatch
 10
0.0
 20
0.0
 30
0.0
210
0.0
220
0.0
230
1.0
  2
SOLID
 70
     1
 71
     0
 91
        1
 92
        0
 93
        4
 72
     1
 10
-15.59728479561742
 20
-35.7989250712761
 11
-19.0435600394547
 21
-35.7989250712761
 72
     1
 10
-19.0435600394547
 20
-35.7989250712761
 11
-21.17178989865875
 21
-38.3352506518487
 72
     1
 10
-21.17178989865875
 20
-38.3352506518487
 11
-17.7254815697083
 21
-38.33521122254621
 72
     1
 10
-17.7254815697083
 20
-38.33521122254621
 11
-15.59728479561742
 21
-35.7989250712761
 97
        0
 75
     0
 76
     1
 98
        1
 10
0.0
 20
0.0
  0
HATCH
  5
BB
330
1F
100
AcDbEntity
  8
중심선
100
AcDbHatch
 10
0.0
 20
0.0
 30
0.0
210
0.0
220
0.0
230
1.0
  2
SOLID
 70
     1
 71
     0
 91
        1
 92
        0
 93
        4
 72
     1
 10
-10.58452080458144
 20
-35.7989250712761
 11
-14.03079604841873
 21
-35.7989250712761
 72
     1
 10
-14.03079604841873
 20
-35.7989250712761
 11
-18.56193405677614
 21
-41.19892507127612
 72
     1
 10
-18.56193405677614
 20
-41.19892507127612
 11
-15.11565881293886
 21
-41.19892507127612
 72
     1
 10
-15.11565881293886
 20
-41.19892507127612
 11
-10.58452080458144
 21
-35.7989250712761
 97
        0
 75
     0
 76
     1
 98
        1
 10
0.0
 20
0.0
  0
HATCH
  5
BC
330
1F
100
AcDbEntity
  8
중심선
100
AcDbHatch
 10
0.0
 20
0.0
 30
0.0
210
0.0
220
0.0
230
1.0
  2
SOLID
 70
     1
 71
     0
 91
        1
 92
        0
 93
        4
 72
     1
 10
-5.571756813545548
 20
-35.79892507127608
 11
-9.01803205738269
 21
-35.7989250712761
 72
     1
 10
-9.01803205738269
 20
-35.7989250712761
 11
-16.06646895927194
 21
-44.19892507127612
 72
     1
 10
-16.06646895927194
 20
-44.19892507127612
 11
-12.62019371543466
 21
-44.19892507127612
 72
     1
 10
-12.62019371543466
 20
-44.19892507127612
 11
-5.571756813545548
 21
-35.79892507127608
 97
        0
 75
     0
 76
     1
 98
        1
 10
0.0
 20
0.0
  0
HATCH
  5
BD
330
1F
100
AcDbEntity
  8
중심선
100
AcDbHatch
 10
0.0
 20
0.0
 30
0.0
210
0.0
220
0.0
230
1.0
  2
SOLID
 70
     1
 71
     0
 91
        1
 92
        0
 93
        6
 72
     3
 10
-0.771866382533376
 20
-39.99892507132738
 11
3.960054785062283
 21
1.540882976769353E-10
 40
0.3939339440162628
 50
17.09539180608436
 51
320.0019657685081
 73
     0
 72
     1
 10
0.9111332731672195
 20
-38.58681907591441
 11
3.216435146868285
 21
-36.65249236586646
 72
     3
 10
-0.7718663825862226
 20
-39.99892507127625
 11
6.600054785286829
 21
-1.278976924368180E-13
 40
0.636358354079598
 50
39.99873849337413
 51
368.4976242363724
 73
     1
 72
     1
 10
5.653466109314387
 20
-39.03892507120613
 11
-2.0917990757503
 21
-39.0389250712061
 72
     1
 10
-2.0917990757503
 20
-39.0389250712061
 11
-2.091824120196234
 21
-40.95892507120602
 72
     1
 10
-2.091824120196234
 20
-40.95892507120602
 11
2.349555649275803
 21
-40.95892507120599
 97
        0
 75
     0
 76
     1
 98
        1
 10
0.0
 20
0.0
  0
DIMENSION
  5
BE
330
1F
100
AcDbEntity
  8
치수문자_일반주서
100
AcDbDimension
  2
_D
 10
-49.12192116787303
 20
-4.761425071276154
 30
0.0
 11
-49.12192116787314
 21
24.49257492872386
 31
0.0
 70
   160
  1
%%c<>
 71
     2
 42
9.525000000000006
 52
-270.0
  3
SLDDIMSTYLE1
100
AcDbAlignedDimension
 13
-38.12192116787305
 23
4.763574928723896
 33
0.0
 14
-38.12192116787305
 24
-4.761425071276109
 34
0.0
 50
90.0000000000002
100
AcDbRotatedDimension
1001
PE_URL
1000

1001
ACAD
1000
DSTYLE
1002
{
1070
   171
1070
     8
1070
   273
1070
     7
1002
}
  0
DIMENSION
  5
CC
330
1F
100
AcDbEntity
  8
치수문자_일반주서
100
AcDbDimension
  2
_D_1
 10
3.740578832126936
 20
14.74314381752739
 30
0.0
 11
45.63832883212693
 21
14.74314381752739
 31
0.0
 70
   160
  1
<>
 71
     2
 42
20.6375
  3
SLDDIMSTYLE1
100
AcDbAlignedDimension
 13
24.37807883212693
 23
5.552628870843598
 33
0.0
 14
3.740578832126938
 24
4.532952693665671
 34
0.0
100
AcDbRotatedDimension
1001
PE_URL
1000

1001
ACAD
1000
DSTYLE
1002
{
1070
   171
1070
     8
1070
   273
1070
     7
1002
}
  0
DIMENSION
  5
E2
330
1F
100
AcDbEntity
  8
치수문자_일반주서
100
AcDbDimension
  2
_D_2
 10
-39.12192116787307
 20
24.74314381752739
 30
0.0
 11
-7.371921167873065
 21
24.74314381752739
 31
0.0
 70
   160
  1
<>
 71
     2
 42
63.5
  3
SLDDIMSTYLE1
100
AcDbAlignedDimension
 13
24.37807883212693
 23
5.552628870843598
 33
0.0
 14
-39.12192116787307
 24
3.763574928723889
 34
0.0
 50
0.0000000000000128
100
AcDbRotatedDimension
1001
PE_URL
1000

1001
ACAD
1000
DSTYLE
1002
{
1070
   171
1070
     8
1070
   273
1070
     7
1002
}
  0
DIMENSION
  5
F6
330
1F
100
AcDbEntity
  8
치수문자_일반주서
100
AcDbDimension
  2
_D_3
 10
67.30161254179065
 20
5.552628870843762
 30
0.0
 11
67.30161254179058
 21
24.84412887084376
 31
0.0
 70
   160
  1
%%c<>
 71
     2
 42
11.10310788423941
 52
-270.0
  3
SLDDIMSTYLE1
100
AcDbAlignedDimension
 13
24.37807883212693
 23
-5.550479013395814
 33
0.0
 14
24.37807883212693
 24
5.5526288708436
 34
0.0
 50
90.0000000000002
100
AcDbRotatedDimension
1001
PE_URL
1000

1001
ACAD
1000
DSTYLE
1002
{
1070
   171
1070
     8
1070
   273
1070
     7
1002
}
  0
LINE
  5
109
330
1F
100
AcDbEntity
  8
참조1
100
AcDbLine
 10
75.44158764747253
 20
7.441074928723896
 30
0.0
 11
75.44158764747253
 21
-7.438925071276109
 31
0.0
  0
LINE
  5
10A
330
1F
100
AcDbEntity
  8
참조1
100
AcDbLine
 10
88.14158764747253
 20
5.441074928723896
 30
0.0
 11
75.44158764747253
 21
5.441074928723896
 31
0.0
  0
SOLID
  5
10B
330
1F
100
AcDbEntity
  8
참조1
100
AcDbTrace
 10
75.44158764747253
 20
5.441074928723896
 30
0.0
 11
81.79158764747253
 21
4.425074928723896
 31
0.0
 12
81.79158764747253
 22
6.457074928723896
 32
0.0
 13
81.79158764747253
 23
6.457074928723896
 33
0.0
  0
LINE
  5
10C
330
1F
100
AcDbEntity
  8
참조1
100
AcDbLine
 10
88.14158764747253
 20
-5.438925071276109
 30
0.0
 11
75.44158764747253
 21
-5.438925071276109
 31
0.0
  0
SOLID
  5
10D
330
1F
100
AcDbEntity
  8
참조1
100
AcDbTrace
 10
75.44158764747253
 20
-5.438925071276109
 30
0.0
 11
81.79158764747253
 21
-6.454925071276109
 31
0.0
 12
81.79158764747253
 22
-4.422925071276109
 32
0.0
 13
81.79158764747253
 23
-4.422925071276109
 33
0.0
  0
MTEXT
  5
10E
330
1F
100
AcDbEntity
  8
참조1
100
AcDbMText
 10
84.82593778009851
 20
11.01136670591222
 30
0.0
 40
3.5
 41
0.0
 71
     1
 72
     1
  1
A
  7
SLDTEXTSTYLE0
 73
     1
 44
1.0
  0
MTEXT
  5
10F
330
1F
100
AcDbEntity
  8
참조1
100
AcDbMText
 10
84.82593778009851
 20
0.1313667059122201
 30
0.0
 40
3.5
 41
0.0
 71
     1
 72
     1
  1
A
  7
SLDTEXTSTYLE0
 73
     1
 44
1.0
  0
INSERT
  5
116
330
1F
100
AcDbEntity
  8
해칭선
100
AcDbBlockReference
  2
SW_DOWELSYMBOL_0
 10
-0.0000000000000017
 20
0.0
 30
0.0
  0
LINE
  5
1BE
330
1F
100
AcDbEntity
  8
외형선
  6
Continuous
370
    15
100
AcDbLine
 10
2.220583680994441
 20
4.802249036713334
 30
0.0
 11
1.999999999999996
 21
4.74314381752739
 31
0.0
  0
LINE
  5
1BF
330
1F
100
AcDbEntity
  8
외형선
  6
Continuous
370
    15
100
AcDbLine
 10
1.999999999999996
 20
-4.781856182472612
 30
0.0
 11
2.220583680994441
 21
-4.840961401658557
 31
0.0
  0
LINE
  5
1C0
330
1F
100
AcDbEntity
  8
외형선
  6
Continuous
370
    15
100
AcDbLine
 10
1.999999999999996
 20
4.743143817527386
 30
0.0
 11
-14.43947116787296
 21
4.743143817527386
 31
0.0
  0
LINE
  5
1C1
330
1F
100
AcDbEntity
  8
외형선
  6
Continuous
370
    15
100
AcDbLine
 10
-38.12192116787307
 20
-4.781856182472612
 30
0.0
 11
1.999999999999996
 21
-4.781856182472609
 31
0.0
  0
LINE
  5
1C2
330
1F
100
AcDbEntity
  8
외형선
  6
Continuous
370
    15
100
AcDbLine
 10
-38.12192116787307
 20
4.743143817527383
 30
0.0
 11
-39.12192116787307
 21
3.743143817527386
 31
0.0
  0
LINE
  5
1C3
330
1F
100
AcDbEntity
  8
외형선
  6
Continuous
370
    15
100
AcDbLine
 10
-39.12192116787307
 20
-3.781856182472612
 30
0.0
 11
-38.12192116787307
 21
-4.781856182472612
 31
0.0
  0
SPLINE
  5
1C5
330
1F
100
AcDbEntity
  8
외형선
  6
Continuous
370
    15
100
AcDbSpline
210
0.0
220
0.0
230
1.0
 70
     8
 71
     3
 72
     8
 73
     4
 74
     0
 42
0.000000001
 43
0.00000001
 40
0.0
 40
0.0
 40
0.0
 40
0.0
 40
1.0
 40
1.0
 40
1.0
 40
1.0
 10
2.740578832126946
 20
4.716460459634224
 30
0.0
 10
2.568112440889823
 20
4.707913541130857
 30
0.0
 10
2.394832684289984
 20
4.694095970484899
 30
0.0
 10
2.220588764500437
 20
4.67523095558408
 30
0.0
  0
LINE
  5
1C6
330
1F
100
AcDbEntity
  8
외형선
  6
Continuous
370
    15
100
AcDbLine
 10
2.740578832126946
 20
4.716460459634241
 30
0.0
 11
2.740578832126946
 21
4.12421316438801
 31
0.0
  0
SPLINE
  5
1C7
330
1F
100
AcDbEntity
  8
외형선
  6
Continuous
370
    15
100
AcDbSpline
210
0.0
220
0.0
230
1.0
 70
     8
 71
     3
 72
     8
 73
     4
 74
     0
 42
0.000000001
 43
0.00000001
 40
0.0
 40
0.0
 40
0.0
 40
0.0
 40
1.0
 40
1.0
 40
1.0
 40
1.0
 10
2.220583680994441
 20
4.178633277701291
 30
0.0
 10
2.39528997375076
 20
4.165964353210523
 30
0.0
 10
2.568564841683415
 20
4.147926106132633
 30
0.0
 10
2.740578832126946
 20
4.12421316438801
 30
0.0
  0
SPLINE
  5
1C8
330
1F
100
AcDbEntity
  8
외형선
  6
Continuous
370
    15
100
AcDbSpline
210
0.0
220
0.0
230
1.0
 70
     8
 71
     3
 72
     8
 73
     4
 74
     0
 42
0.000000001
 43
0.00000001
 40
0.0
 40
0.0
 40
0.0
 40
0.0
 40
1.0
 40
1.0
 40
1.0
 40
1.0
 10
2.740578832126946
 20
-4.755172824579446
 30
0.0
 10
2.568112440889823
 20
-4.74662590607608
 30
0.0
 10
2.394832684289984
 20
-4.732808335430121
 30
0.0
 10
2.220588764500437
 20
-4.7139433205293
 30
0.0
  0
LINE
  5
1C9
330
1F
100
AcDbEntity
  8
외형선
  6
Continuous
370
    15
100
AcDbLine
 10
2.220583680994441
 20
4.675281099648757
 30
0.0
 11
2.220583680994441
 21
4.802249036713334
 31
0.0
  0
LINE
  5
1CA
330
1F
100
AcDbEntity
  8
외형선
  6
Continuous
370
    15
100
AcDbLine
 10
1.999999999999996
 20
4.74314381752739
 30
0.0
 11
1.999999999999996
 21
-4.781856182472612
 31
0.0
  0
LINE
  5
1CB
330
1F
100
AcDbEntity
  8
외형선
  6
Continuous
370
    15
100
AcDbLine
 10
2.220583680994441
 20
-4.840961401658557
 30
0.0
 11
2.220583680994441
 21
4.17865902071652
 31
0.0
  0
LINE
  5
1CC
330
1F
100
AcDbEntity
  8
외형선
  6
Continuous
370
    15
100
AcDbLine
 10
-38.12192116787307
 20
4.743143817527383
 30
0.0
 11
-38.12192116787307
 21
-4.781856182472612
 31
0.0
  0
LINE
  5
1CD
330
1F
100
AcDbEntity
  8
외형선
  6
Continuous
370
    15
100
AcDbLine
 10
-39.12192116787307
 20
3.743143817527386
 30
0.0
 11
-39.12192116787307
 21
-3.781856182472612
 31
0.0
  0
SPLINE
  5
1CE
330
1F
100
AcDbEntity
  8
외형선
  6
Continuous
370
    15
100
AcDbSpline
210
0.0
220
0.0
230
1.0
 70
    24
 71
     3
 72
    14
 73
    10
 74
     0
 42
0.000000001
 43
0.00000001
 40
0.0
 40
0.0
 40
0.0
 40
0.0
 40
0.25
 40
0.25
 40
0.5
 40
0.5
 40
0.75
 40
0.75
 40
1.0
 40
1.0
 40
1.0
 40
1.0
 10
3.740578832126939
 20
2.545336161289011
 30
0.0
 10
3.740578832126939
 20
2.186741055803314
 30
0.0
 10
3.740578832126946
 20
1.785491515996554
 30
0.0
 10
3.740578832126939
 20
0.9253508941412072
 30
0.0
 10
3.740578832126939
 20
0.4667658726069739
 30
0.0
 10
3.740578832126939
 20
-0.4646160151591943
 30
0.0
 10
3.740578832126946
 20
-0.9369166021819026
 30
0.0
 10
3.740578832126939
 20
-1.849317960136172
 30
0.0
 10
3.740578832126939
 20
-2.289039267529674
 30
0.0
 10
3.740578832126939
 20
-2.695129788713579
 30
0.0
  0
SPLINE
  5
1CF
330
1F
100
AcDbEntity
  8
외형선
  6
Continuous
370
    15
100
AcDbSpline
210
0.0
220
0.0
230
1.0
 70
     8
 71
     3
 72
    10
 73
     6
 74
     0
 42
0.000000001
 43
0.00000001
 40
0.0
 40
0.0
 40
0.0
 40
0.0
 40
0.5
 40
0.5
 40
1.0
 40
1.0
 40
1.0
 40
1.0
 10
3.740578832126938
 20
-3.732463999563579
 30
0.0
 10
3.486661614945969
 20
-3.645940682899057
 30
0.0
 10
3.234682274308386
 20
-3.556146421672876
 30
0.0
 10
2.729173534715531
 20
-3.370108057586398
 30
0.0
 10
2.474896763442177
 20
-3.273760397265517
 30
0.0
 10
2.220585536914643
 20
-3.174631150306984
 30
0.0
  0
SPLINE
  5
1D0
330
1F
100
AcDbEntity
  8
외형선
  6
Continuous
370
    15
100
AcDbSpline
210
0.0
220
0.0
230
1.0
 70
     8
 71
     3
 72
    10
 73
     6
 74
     0
 42
0.000000001
 43
0.00000001
 40
0.0
 40
0.0
 40
0.0
 40
0.0
 40
0.5
 40
0.5
 40
1.0
 40
1.0
 40
1.0
 40
1.0
 10
3.740578832126938
 20
2.111750514722441
 30
0.0
 10
3.486661509866745
 20
2.180864117836219
 30
0.0
 10
3.23468206636993
 20
2.246455127867289
 30
0.0
 10
2.729173115065993
 20
2.3705788212222
 30
0.0
 10
2.474896237284422
 20
2.429159607642553
 30
0.0
 10
2.220584905460984
 20
2.483892997765405
 30
0.0
  0
SPLINE
  5
1D2
330
1F
100
AcDbEntity
  8
외형선
  6
Continuous
370
    15
100
AcDbSpline
210
0.0
220
0.0
230
1.0
 70
    24
 71
     3
 72
    13
 73
     9
 74
     0
 42
0.000000001
 43
0.00000001
 40
0.0
 40
0.0
 40
0.0
 40
0.0
 40
0.1570783618121704
 40
0.316208208231654
 40
0.5470874379448776
 40
0.7846621809606552
 40
0.9929246111127845
 40
1.0
 40
1.0
 40
1.0
 40
1.0
 10
3.740578832126939
 20
-2.695129788713579
 30
0.0
 10
3.740578832126939
 20
-2.824910152773509
 30
0.0
 10
3.740578832126939
 20
-3.086165846489699
 30
0.0
 10
3.740578832126939
 20
-3.453963915565943
 30
0.0
 10
3.740578832126939
 20
-3.783325801318931
 30
0.0
 10
3.740578832126939
 20
-3.977280210535682
 30
0.0
 10
3.740578832126946
 20
-4.052619503879964
 30
0.0
 10
3.740578832126939
 20
-4.030434088191299
 30
0.0
 10
3.740578832126939
 20
-4.029705138467921
 30
0.0
  0
SPLINE
  5
1D3
330
1F
100
AcDbEntity
  8
외형선
  6
Continuous
370
    15
100
AcDbSpline
210
0.0
220
0.0
230
1.0
 70
     8
 71
     3
 72
     8
 73
     4
 74
     0
 42
0.000000001
 43
0.00000001
 40
0.0
 40
0.0
 40
0.0
 40
0.0
 40
1.0
 40
1.0
 40
1.0
 40
1.0
 10
3.740578832126942
 20
3.205613159078974
 30
0.0
 10
3.350485321248574
 20
3.406248089109967
 30
0.0
 10
3.15338492580309
 20
3.777706526680304
 30
0.0
 10
2.740578832126946
 20
4.12421316438801
 30
0.0
  0
SPLINE
  5
1D4
330
1F
100
AcDbEntity
  8
외형선
  6
Continuous
370
    15
100
AcDbSpline
210
0.0
220
0.0
230
1.0
 70
    24
 71
     3
 72
    10
 73
     6
 74
     0
 42
0.000000001
 43
0.00000001
 40
0.0
 40
0.0
 40
0.0
 40
0.0
 40
0.5
 40
0.5
 40
1.0
 40
1.0
 40
1.0
 40
1.0
 10
3.740578832126939
 20
3.778879379036301
 30
0.0
 10
3.740578832126939
 20
3.638249710298208
 30
0.0
 10
3.740578832126939
 20
3.451014517441706
 30
0.0
 10
3.740578832126939
 20
3.022581648190481
 30
0.0
 10
3.740578832126939
 20
2.782741221064388
 30
0.0
 10
3.740578832126939
 20
2.545336161289011
 30
0.0
  0
SPLINE
  5
1D5
330
1F
100
AcDbEntity
  8
외형선
  6
Continuous
370
    15
100
AcDbSpline
210
0.0
220
0.0
230
1.0
 70
     8
 71
     3
 72
     8
 73
     4
 74
     0
 42
0.000000001
 43
0.00000001
 40
0.0
 40
0.0
 40
0.0
 40
0.0
 40
1.0
 40
1.0
 40
1.0
 40
1.0
 10
3.740578832126939
 20
4.512521582469166
 30
0.0
 10
3.405980100019892
 20
4.591026068104139
 30
0.0
 10
3.074721647810744
 20
4.659014187961063
 30
0.0
 10
2.740578832126946
 20
4.716460459634245
 30
0.0
  0
LINE
  5
1D6
330
1F
100
AcDbEntity
  8
외형선
  6
Continuous
370
    15
100
AcDbLine
 10
3.740578832126939
 20
4.512521582469166
 30
0.0
 11
3.740578832126939
 21
3.778879379036304
 31
0.0
  0
SPLINE
  5
1D7
330
1F
100
AcDbEntity
  8
외형선
  6
Continuous
370
    15
100
AcDbSpline
210
0.0
220
0.0
230
1.0
 70
     8
 71
     3
 72
     8
 73
     4
 74
     0
 42
0.000000001
 43
0.00000001
 40
0.0
 40
0.0
 40
0.0
 40
0.0
 40
1.0
 40
1.0
 40
1.0
 40
1.0
 10
3.740578832126939
 20
-4.551233947414392
 30
0.0
 10
3.405980100019892
 20
-4.629738433049361
 30
0.0
 10
3.074721647810744
 20
-4.697726552906285
 30
0.0
 10
2.740578832126946
 20
-4.755172824579471
 30
0.0
  0
SPLINE
  5
1D8
330
1F
100
AcDbEntity
  8
외형선
  6
Continuous
370
    15
100
AcDbSpline
210
0.0
220
0.0
230
1.0
 70
    24
 71
     3
 72
    10
 73
     6
 74
     0
 42
0.000000001
 43
0.00000001
 40
0.0
 40
0.0
 40
0.0
 40
0.0
 40
0.3594513896827398
 40
0.8364083631556398
 40
1.0
 40
1.0
 40
1.0
 40
1.0
 10
3.740578832126939
 20
-4.031773962449169
 30
0.0
 10
3.740578832126939
 20
-4.097651409362488
 30
0.0
 10
3.740578832126939
 20
-4.250941810020752
 30
0.0
 10
3.740578832126939
 20
-4.420856136927409
 30
0.0
 10
3.740578832126939
 20
-4.524710316118689
 30
0.0
 10
3.740578832126939
 20
-4.551233947414392
 30
0.0
  0
SPLINE
  5
1D9
330
1F
100
AcDbEntity
  8
외형선
  6
Continuous
370
    15
100
AcDbSpline
210
0.0
220
0.0
230
1.0
 70
    24
 71
     3
 72
    10
 73
     6
 74
     0
 42
0.000000001
 43
0.00000001
 40
0.0
 40
0.0
 40
0.0
 40
0.0
 40
0.5
 40
0.5
 40
1.0
 40
1.0
 40
1.0
 40
1.0
 10
3.740578832126939
 20
3.778879379036304
 30
0.0
 10
3.740578832126939
 20
3.638249710298215
 30
0.0
 10
3.740578832126939
 20
3.45101451744171
 30
0.0
 10
3.740578832126939
 20
3.022581648190485
 30
0.0
 10
3.740578832126939
 20
2.782741221064388
 30
0.0
 10
3.740578832126939
 20
2.545336161289011
 30
0.0
  0
SPLINE
  5
1DA
330
1F
100
AcDbEntity
  8
외형선
  6
Continuous
370
    15
100
AcDbSpline
210
0.0
220
0.0
230
1.0
 70
    24
 71
     3
 72
    14
 73
    10
 74
     0
 42
0.000000001
 43
0.00000001
 40
0.0
 40
0.0
 40
0.0
 40
0.0
 40
0.25
 40
0.25
 40
0.5
 40
0.5
 40
0.75
 40
0.75
 40
1.0
 40
1.0
 40
1.0
 40
1.0
 10
3.740578832126939
 20
2.545336161289011
 30
0.0
 10
3.740578832126939
 20
2.186741055803314
 30
0.0
 10
3.740578832126946
 20
1.785491515996554
 30
0.0
 10
3.740578832126939
 20
0.9253508941412072
 30
0.0
 10
3.740578832126939
 20
0.4667658726069739
 30
0.0
 10
3.740578832126939
 20
-0.4646160151591943
 30
0.0
 10
3.740578832126946
 20
-0.9369166021819026
 30
0.0
 10
3.740578832126939
 20
-1.849317960136172
 30
0.0
 10
3.740578832126939
 20
-2.289039267529674
 30
0.0
 10
3.740578832126939
 20
-2.695129788713579
 30
0.0
  0
SPLINE
  5
1DB
330
1F
100
AcDbEntity
  8
외형선
  6
Continuous
370
    15
100
AcDbSpline
210
0.0
220
0.0
230
1.0
 70
    24
 71
     3
 72
    13
 73
     9
 74
     0
 42
0.000000001
 43
0.00000001
 40
0.0
 40
0.0
 40
0.0
 40
0.0
 40
0.1571719763677811
 40
0.3163966599735271
 40
0.5474134876107424
 40
0.7851298188996289
 40
0.993516367960462
 40
1.0
 40
1.0
 40
1.0
 40
1.0
 10
3.740578832126939
 20
-2.695129788713579
 30
0.0
 10
3.740578832126939
 20
-2.824910329447757
 30
0.0
 10
3.740578832126939
 20
-3.086166378819858
 30
0.0
 10
3.740578832126939
 20
-3.453961347097401
 30
0.0
 10
3.740578832126939
 20
-3.78334057164664
 30
0.0
 10
3.740578832126939
 20
-3.977226936850105
 30
0.0
 10
3.740578832126939
 20
-4.052622543143553
 30
0.0
 10
3.740578832126939
 20
-4.030549991079713
 30
0.0
 10
3.740578832126939
 20
-4.029883959594923
 30
0.0
  0
SPLINE
  5
1DC
330
1F
100
AcDbEntity
  8
외형선
  6
Continuous
370
    15
100
AcDbSpline
210
0.0
220
0.0
230
1.0
 70
    24
 71
     3
 72
    10
 73
     6
 74
     0
 42
0.000000001
 43
0.00000001
 40
0.0
 40
0.0
 40
0.0
 40
0.0
 40
0.3594513896922377
 40
0.8364083631777426
 40
1.0
 40
1.0
 40
1.0
 40
1.0
 10
3.740578832126939
 20
-4.031773962449172
 30
0.0
 10
3.740578832126939
 20
-4.097651409362488
 30
0.0
 10
3.740578832126939
 20
-4.250941810020763
 30
0.0
 10
3.740578832126939
 20
-4.420856136922875
 30
0.0
 10
3.740578832126946
 20
-4.524710316110152
 30
0.0
 10
3.740578832126946
 20
-4.551233947401641
 30
0.0
  0
LINE
  5
1DD
330
1F
100
AcDbEntity
  8
외형선
  6
Continuous
370
    15
100
AcDbLine
 10
-22.84687116787319
 20
3.473143817527394
 30
0.0
 11
-15.70947116787306
 21
3.473143817527394
 31
0.0
1001
PE_URL
1000

  0
LINE
  5
1DE
330
1F
100
AcDbEntity
  8
외형선
  6
Continuous
370
    15
100
AcDbLine
 10
-22.84687116787319
 20
3.473143817527394
 30
0.0
 11
-24.11687116787317
 21
4.743143817527375
 31
0.0
1001
PE_URL
1000

  0
LINE
  5
1DF
330
1F
100
AcDbEntity
  8
외형선
  6
Continuous
370
    15
100
AcDbLine
 10
-15.70947116787306
 20
3.473143817527394
 30
0.0
 11
-14.43947116787297
 21
4.743143817527375
 31
0.0
1001
PE_URL
1000

  0
LINE
  5
1E0
330
1F
100
AcDbEntity
  8
외형선
  6
Continuous
370
    15
100
AcDbLine
 10
-24.11687116787319
 20
4.743143817527386
 30
0.0
 11
-38.12192116787307
 21
4.743143817527386
 31
0.0
  0
SPLINE
  5
1E1
330
1F
100
AcDbEntity
  8
0
  6
Continuous
 62
     1
370
    15
100
AcDbSpline
210
0.0
220
0.0
230
1.0
 70
  1064
 71
     3
 72
    11
 73
     7
 74
     5
 42
0.000000001
 43
0.0000000001
 44
0.0
 40
0.0
 40
0.0
 40
0.0
 40
0.0
 40
0.7527281120538699
 40
1.933765356292843
 40
3.30684865297889
 40
4.409700504097269
 40
4.409700504097269
 40
4.409700504097269
 40
4.409700504097269
 10
8.146163096838775
 20
4.414346000037263
 30
0.0
 10
7.895597742319442
 20
4.399922623926088
 30
0.0
 10
7.25189307087488
 20
4.362868839700508
 30
0.0
 10
6.148953718974042
 20
4.386629214547605
 30
0.0
 10
4.931047502287765
 20
4.434665725054776
 30
0.0
 10
4.107437931866733
 20
4.488529241909163
 30
0.0
 10
3.740578832126939
 20
4.512521582469166
 30
0.0
 11
8.146163096838775
 21
4.414346000037263
 31
0.0
 11
7.394274956916416
 21
4.378795532807166
 31
0.0
 11
6.213277574942696
 21
4.388498936890635
 31
0.0
 11
4.841348156171791
 21
4.444778680574762
 31
0.0
 11
3.740578832126939
 21
4.512521582469166
 31
0.0
1001
PE_URL
1000

  0
LINE
  5
1E2
330
1F
100
AcDbEntity
  8
외형선
  6
Continuous
370
    15
100
AcDbLine
 10
3.740578832126938
 20
4.334569419747972
 30
0.0
 11
2.740578832126946
 21
4.716460459634224
 31
0.0
1001
PE_URL
1000

  0
SPLINE
  5
23E
330
1F
100
AcDbEntity
  8
0
  6
Continuous
 62
     1
370
    15
100
AcDbSpline
210
0.0
220
0.0
230
1.0
 70
  1064
 71
     3
 72
     9
 73
     5
 74
     3
 42
0.000000001
 43
0.0000000001
 44
0.0
 40
0.0
 40
0.0
 40
0.0
 40
0.0
 40
0.6543532208822781
 40
1.687408197584021
 40
1.687408197584021
 40
1.687408197584021
 40
1.687408197584021
 10
3.740578832126939
 20
-4.551233947414392
 30
0.0
 10
3.954697997395086
 20
-4.508689752956094
 30
0.0
 10
4.506856102838752
 20
-4.39897924768534
 30
0.0
 10
5.068893972682656
 20
-4.361252121806262
 30
0.0
 10
5.412981443259368
 20
-4.338155045946471
 30
0.0
 11
3.740578832126939
 21
-4.551233947414392
 31
0.0
 11
4.38442202671536
 21
-4.434426077554576
 31
0.0
 11
5.412981443259368
 21
-4.338155045946471
 31
0.0
1001
PE_URL
1000

  0
ENDSEC
  0
SECTION
  2
OBJECTS
  0
DICTIONARY
  5
C
330
0
100
AcDbDictionary
281
     1
  3
ACAD_DETAILVIEWSTYLE
350
1BC
  3
ACAD_GROUP
350
D
  3
ACAD_IMAGE_VARS
350
26B
  3
ACAD_LAYOUT
350
1A
  3
ACAD_MLINESTYLE
350
17
  3
ACAD_PLOTSETTINGS
350
19
  3
ACAD_PLOTSTYLENAME
350
E
  3
ACAD_SCALELIST
350
47
  3
ACAD_SECTIONVIEWSTYLE
350
1BD
  3
AcDbVariableDictionary
350
1B7
  3
APPDATA
350
138
  3
DWGPROPS
350
26C
  0
DICTIONARY
  5
18C
330
2
100
AcDbDictionary
280
     1
281
     1
  3
ACAD_LAYERSTATES
360
18D
  0
DICTIONARY
  5
1BC
102
{ACAD_REACTORS
330
C
102
}
330
C
100
AcDbDictionary
281
     1
  0
DICTIONARY
  5
D
102
{ACAD_REACTORS
330
C
102
}
330
C
100
AcDbDictionary
281
     1
  0
RASTERVARIABLES
  5
26B
102
{ACAD_REACTORS
330
C
102
}
330
C
100
AcDbRasterVariables
 90
        0
 70
     1
 71
     1
 72
     1
  0
DICTIONARY
  5
1A
102
{ACAD_REACTORS
330
C
102
}
330
C
100
AcDbDictionary
281
     1
  3
Layout1
350
1E
  3
Layout2
350
26
  3
Model
350
22
  0
DICTIONARY
  5
17
102
{ACAD_REACTORS
330
C
102
}
330
C
100
AcDbDictionary
281
     1
  3
Standard
350
18
  0
DICTIONARY
  5
19
102
{ACAD_REACTORS
330
C
102
}
330
C
100
AcDbDictionary
281
     1
  0
ACDBDICTIONARYWDFLT
  5
E
102
{ACAD_REACTORS
330
C
102
}
330
C
100
AcDbDictionary
281
     1
  3
Normal
350
F
100
AcDbDictionaryWithDefault
340
F
  0
DICTIONARY
  5
47
102
{ACAD_REACTORS
330
C
102
}
330
C
100
AcDbDictionary
281
     1
  3
A0
350
48
  3
A1
350
49
  3
A2
350
4A
  3
A3
350
4B
  3
A4
350
4C
  3
A5
350
4D
  3
A6
350
4E
  3
A7
350
4F
  3
A8
350
50
  3
A9
350
51
  3
B0
350
52
  3
B1
350
53
  3
B2
350
54
  3
B3
350
55
  3
B4
350
56
  3
B5
350
57
  3
B6
350
58
  3
B7
350
59
  3
B8
350
5A
  3
B9
350
5B
  3
C0
350
5C
  3
C1
350
5D
  3
C2
350
5E
  3
C3
350
5F
  3
C4
350
60
  3
C5
350
61
  3
C6
350
62
  3
C7
350
63
  3
C8
350
64
  3
C9
350
65
  3
D0
350
66
  3
D1
350
67
  3
D2
350
68
  0
DICTIONARY
  5
1BD
102
{ACAD_REACTORS
330
C
102
}
330
C
100
AcDbDictionary
281
     1
  0
DICTIONARY
  5
1B7
102
{ACAD_REACTORS
330
C
102
}
330
C
100
AcDbDictionary
281
     1
  0
DICTIONARY
  5
138
102
{ACAD_REACTORS
330
C
102
}
330
C
100
AcDbDictionary
281
     1
  0
XRECORD
  5
26C
102
{ACAD_REACTORS
330
C
102
}
330
C
100
AcDbXrecord
280
     1
  1
DWGPROPS COOKIE
  2

  3

  4

  6

  7

  8
12016016
  9

300
=
301
=
302
=
303
=
304
=
305
=
306
=
307
=
308
=
309
=
 40
0.0
 41
2458311.184283322
 42
2458323.075947697
  1

 90
        0
  0
DICTIONARY
  5
18D
102
{ACAD_REACTORS
330
18C
102
}
330
18C
100
AcDbDictionary
281
     1
  0
LAYOUT
  5
1E
102
{ACAD_REACTORS
330
1A
102
}
330
1A
100
AcDbPlotSettings
  1

  2
none_device
  4

  6

 40
0.0
 41
0.0
 42
0.0
 43
0.0
 44
0.0
 45
0.0
 46
0.0
 47
0.0
 48
0.0
 49
0.0
140
0.0
141
0.0
142
1.0
143
1.0
 70
   688
 72
     1
 73
     0
 74
     5
  7

 75
    16
147
1.0
148
0.0
149
0.0
100
AcDbLayout
  1
Layout1
 70
     1
 71
     1
 10
0.0
 20
0.0
 11
420.0
 21
297.0
 12
0.0
 22
0.0
 32
0.0
 14
1.000000000000000E+20
 24
1.000000000000000E+20
 34
1.000000000000000E+20
 15
-1.000000000000000E+20
 25
-1.000000000000000E+20
 35
-1.000000000000000E+20
146
0.0
 13
0.0
 23
0.0
 33
0.0
 16
1.0
 26
0.0
 36
0.0
 17
0.0
 27
1.0
 37
0.0
 76
     0
330
1B
  0
LAYOUT
  5
26
102
{ACAD_REACTORS
330
1A
102
}
330
1A
100
AcDbPlotSettings
  1

  2
none_device
  4

  6

 40
0.0
 41
0.0
 42
0.0
 43
0.0
 44
0.0
 45
0.0
 46
0.0
 47
0.0
 48
0.0
 49
0.0
140
0.0
141
0.0
142
1.0
143
1.0
 70
   688
 72
     1
 73
     0
 74
     5
  7

 75
    16
147
1.0
148
0.0
149
0.0
100
AcDbLayout
  1
Layout2
 70
     1
 71
     2
 10
0.0
 20
0.0
 11
0.0
 21
0.0
 12
0.0
 22
0.0
 32
0.0
 14
0.0
 24
0.0
 34
0.0
 15
0.0
 25
0.0
 35
0.0
146
0.0
 13
0.0
 23
0.0
 33
0.0
 16
1.0
 26
0.0
 36
0.0
 17
0.0
 27
1.0
 37
0.0
 76
     0
330
23
  0
LAYOUT
  5
22
102
{ACAD_REACTORS
330
1A
102
}
330
1A
100
AcDbPlotSettings
  1

  2
none_device
  4
ANSI_A_(11.00_x_8.50_Inches)
  6

 40
6.35
 41
19.05
 42
6.35000508
 43
19.05000254
 44
279.4
 45
215.9
 46
102.7296375289642
 47
99.62994852068644
 48
0.0
 49
0.0
140
0.0
141
0.0
142
0.0754527591236048
143
1.0
 70
  1696
 72
     0
 73
     0
 74
     0
  7

 75
     0
147
0.0235690232323232
148
0.0
149
0.0
100
AcDbLayout
  1
Model
 70
     1
 71
     0
 10
0.0
 20
0.0
 11
420.0
 21
297.0
 12
0.0
 22
0.0
 32
0.0
 14
-53.49692116787318
 24
-49.97073246008785
 34
0.0
 15
88.14158764747253
 25
37.61757492872385
 35
0.0
146
0.0
 13
0.0
 23
0.0
 33
0.0
 16
1.0
 26
0.0
 36
0.0
 17
0.0
 27
1.0
 37
0.0
 76
     0
330
1F
331
29
  0
MLINESTYLE
  5
18
102
{ACAD_REACTORS
330
17
102
}
330
17
100
AcDbMlineStyle
  2
Standard
 70
     0
  3

 62
   256
 51
90.0
 52
90.0
 71
     2
 49
0.5
 62
   256
  6
BYLAYER
 49
-0.5
 62
   256
  6
BYLAYER
  0
ACDBPLACEHOLDER
  5
F
102
{ACAD_REACTORS
330
E
102
}
330
E
  0
SCALE
  5
48
102
{ACAD_REACTORS
330
47
102
}
330
47
100
AcDbScale
 70
     0
300
1:1
140
1.0
141
1.0
290
     1
  0
SCALE
  5
49
102
{ACAD_REACTORS
330
47
102
}
330
47
100
AcDbScale
 70
     0
300
1:2
140
1.0
141
2.0
290
     0
  0
SCALE
  5
4A
102
{ACAD_REACTORS
330
47
102
}
330
47
100
AcDbScale
 70
     0
300
1:4
140
1.0
141
4.0
290
     0
  0
SCALE
  5
4B
102
{ACAD_REACTORS
330
47
102
}
330
47
100
AcDbScale
 70
     0
300
1:5
140
1.0
141
5.0
290
     0
  0
SCALE
  5
4C
102
{ACAD_REACTORS
330
47
102
}
330
47
100
AcDbScale
 70
     0
300
1:8
140
1.0
141
8.0
290
     0
  0
SCALE
  5
4D
102
{ACAD_REACTORS
330
47
102
}
330
47
100
AcDbScale
 70
     0
300
1:10
140
1.0
141
10.0
290
     0
  0
SCALE
  5
4E
102
{ACAD_REACTORS
330
47
102
}
330
47
100
AcDbScale
 70
     0
300
1:16
140
1.0
141
16.0
290
     0
  0
SCALE
  5
4F
102
{ACAD_REACTORS
330
47
102
}
330
47
100
AcDbScale
 70
     0
300
1:20
140
1.0
141
20.0
290
     0
  0
SCALE
  5
50
102
{ACAD_REACTORS
330
47
102
}
330
47
100
AcDbScale
 70
     0
300
1:30
140
1.0
141
30.0
290
     0
  0
SCALE
  5
51
102
{ACAD_REACTORS
330
47
102
}
330
47
100
AcDbScale
 70
     0
300
1:40
140
1.0
141
40.0
290
     0
  0
SCALE
  5
52
102
{ACAD_REACTORS
330
47
102
}
330
47
100
AcDbScale
 70
     0
300
1:50
140
1.0
141
50.0
290
     0
  0
SCALE
  5
53
102
{ACAD_REACTORS
330
47
102
}
330
47
100
AcDbScale
 70
     0
300
1:100
140
1.0
141
100.0
290
     0
  0
SCALE
  5
54
102
{ACAD_REACTORS
330
47
102
}
330
47
100
AcDbScale
 70
     0
300
2:1
140
2.0
141
1.0
290
     0
  0
SCALE
  5
55
102
{ACAD_REACTORS
330
47
102
}
330
47
100
AcDbScale
 70
     0
300
4:1
140
4.0
141
1.0
290
     0
  0
SCALE
  5
56
102
{ACAD_REACTORS
330
47
102
}
330
47
100
AcDbScale
 70
     0
300
8:1
140
8.0
141
1.0
290
     0
  0
SCALE
  5
57
102
{ACAD_REACTORS
330
47
102
}
330
47
100
AcDbScale
 70
     0
300
10:1
140
10.0
141
1.0
290
     0
  0
SCALE
  5
58
102
{ACAD_REACTORS
330
47
102
}
330
47
100
AcDbScale
 70
     0
300
100:1
140
100.0
141
1.0
290
     0
  0
SCALE
  5
59
102
{ACAD_REACTORS
330
47
102
}
330
47
100
AcDbScale
 70
     0
300
1/128" = 1'-0"
140
0.0078125
141
12.0
290
     0
  0
SCALE
  5
5A
102
{ACAD_REACTORS
330
47
102
}
330
47
100
AcDbScale
 70
     0
300
1/64" = 1'-0"
140
0.015625
141
12.0
290
     0
  0
SCALE
  5
5B
102
{ACAD_REACTORS
330
47
102
}
330
47
100
AcDbScale
 70
     0
300
1/32" = 1'-0"
140
0.03125
141
12.0
290
     0
  0
SCALE
  5
5C
102
{ACAD_REACTORS
330
47
102
}
330
47
100
AcDbScale
 70
     0
300
1/16" = 1'-0"
140
0.0625
141
12.0
290
     0
  0
SCALE
  5
5D
102
{ACAD_REACTORS
330
47
102
}
330
47
100
AcDbScale
 70
     0
300
3/32" = 1'-0"
140
0.09375
141
12.0
290
     0
  0
SCALE
  5
5E
102
{ACAD_REACTORS
330
47
102
}
330
47
100
AcDbScale
 70
     0
300
1/8" = 1'-0"
140
0.125
141
12.0
290
     0
  0
SCALE
  5
5F
102
{ACAD_REACTORS
330
47
102
}
330
47
100
AcDbScale
 70
     0
300
3/16" = 1'-0"
140
0.1875
141
12.0
290
     0
  0
SCALE
  5
60
102
{ACAD_REACTORS
330
47
102
}
330
47
100
AcDbScale
 70
     0
300
1/4" = 1'-0"
140
0.25
141
12.0
290
     0
  0
SCALE
  5
61
102
{ACAD_REACTORS
330
47
102
}
330
47
100
AcDbScale
 70
     0
300
3/8" = 1'-0"
140
0.375
141
12.0
290
     0
  0
SCALE
  5
62
102
{ACAD_REACTORS
330
47
102
}
330
47
100
AcDbScale
 70
     0
300
1/2" = 1'-0"
140
0.5
141
12.0
290
     0
  0
SCALE
  5
63
102
{ACAD_REACTORS
330
47
102
}
330
47
100
AcDbScale
 70
     0
300
3/4" = 1'-0"
140
0.75
141
12.0
290
     0
  0
SCALE
  5
64
102
{ACAD_REACTORS
330
47
102
}
330
47
100
AcDbScale
 70
     0
300
1" = 1'-0"
140
1.0
141
12.0
290
     0
  0
SCALE
  5
65
102
{ACAD_REACTORS
330
47
102
}
330
47
100
AcDbScale
 70
     0
300
1-1/2" = 1'-0"
140
1.5
141
12.0
290
     0
  0
SCALE
  5
66
102
{ACAD_REACTORS
330
47
102
}
330
47
100
AcDbScale
 70
     0
300
3" = 1'-0"
140
3.0
141
12.0
290
     0
  0
SCALE
  5
67
102
{ACAD_REACTORS
330
47
102
}
330
47
100
AcDbScale
 70
     0
300
6" = 1'-0"
140
6.0
141
12.0
290
     0
  0
SCALE
  5
68
102
{ACAD_REACTORS
330
47
102
}
330
47
100
AcDbScale
 70
     0
300
1'-0" = 1'-0"
140
12.0
141
12.0
290
     0
  0
ENDSEC
  0
EOF
