  0
SECTION
  2
HEADER
  9
$ACADVER
  1
AC1015
  9
$ACADMAINTVER
 70
     6
  9
$DWGCODEPAGE
  3
ANSI_949
  9
$INSBASE
 10
0.0
 20
0.0
 30
0.0
  9
$EXTMIN
 10
-58.17500000000011
 20
-49.97180738881175
 30
0.0
  9
$EXTMAX
 10
87.67227809435464
 20
40.72499999999999
 30
0.0
  9
$LIMMIN
 10
0.0
 20
0.0
  9
$LIMMAX
 10
420.0
 20
297.0
  9
$ORTHOMODE
 70
     1
  9
$REGENMODE
 70
     1
  9
$FILLMODE
 70
     1
  9
$QTEXTMODE
 70
     0
  9
$MIRRTEXT
 70
     1
  9
$LTSCALE
 40
1.0
  9
$ATTMODE
 70
     1
  9
$TEXTSIZE
 40
3.5
  9
$TRACEWID
 40
1.0
  9
$TEXTSTYLE
  7
Standard
  9
$CLAYER
  8
0
  9
$CELTYPE
  6
ByLayer
  9
$CECOLOR
 62
   256
  9
$CELTSCALE
 40
1.0
  9
$DISPSILH
 70
     0
  9
$DIMSCALE
 40
1.0
  9
$DIMASZ
 40
3.302
  9
$DIMEXO
 40
1.0
  9
$DIMDLI
 40
3.75
  9
$DIMRND
 40
0.0
  9
$DIMDLE
 40
0.0
  9
$DIMEXE
 40
1.0
  9
$DIMTP
 40
0.0
  9
$DIMTM
 40
0.0
  9
$DIMTXT
 40
3.5
  9
$DIMCEN
 40
2.5
  9
$DIMTSZ
 40
0.0
  9
$DIMTOL
 70
     0
  9
$DIMLIM
 70
     0
  9
$DIMTIH
 70
     1
  9
$DIMTOH
 70
     1
  9
$DIMSE1
 70
     0
  9
$DIMSE2
 70
     0
  9
$DIMTAD
 70
     1
  9
$DIMZIN
 70
     0
  9
$DIMBLK
  1

  9
$DIMASO
 70
     1
  9
$DIMSHO
 70
     1
  9
$DIMPOST
  1

  9
$DIMAPOST
  1

  9
$DIMALT
 70
     0
  9
$DIMALTD
 70
     3
  9
$DIMALTF
 40
0.0393700787401575
  9
$DIMLFAC
 40
1.0
  9
$DIMTOFL
 70
     1
  9
$DIMTVP
 40
0.0
  9
$DIMTIX
 70
     0
  9
$DIMSOXD
 70
     0
  9
$DIMSAH
 70
     0
  9
$DIMBLK1
  1

  9
$DIMBLK2
  1

  9
$DIMSTYLE
  2
ISO-25
  9
$DIMCLRD
 70
     0
  9
$DIMCLRE
 70
     0
  9
$DIMCLRT
 70
     0
  9
$DIMTFAC
 40
1.0
  9
$DIMGAP
 40
1.524
  9
$DIMJUST
 70
     0
  9
$DIMSD1
 70
     0
  9
$DIMSD2
 70
     0
  9
$DIMTOLJ
 70
     0
  9
$DIMTZIN
 70
     0
  9
$DIMALTZ
 70
     0
  9
$DIMALTTZ
 70
     0
  9
$DIMUPT
 70
     0
  9
$DIMDEC
 70
     2
  9
$DIMTDEC
 70
     2
  9
$DIMALTU
 70
     2
  9
$DIMALTTD
 70
     3
  9
$DIMTXSTY
  7
Standard
  9
$DIMAUNIT
 70
     0
  9
$DIMADEC
 70
     2
  9
$DIMALTRND
 40
0.0
  9
$DIMAZIN
 70
     0
  9
$DIMDSEP
 70
    44
  9
$DIMATFIT
 70
     3
  9
$DIMFRAC
 70
     0
  9
$DIMLDRBLK
  1

  9
$DIMLUNIT
 70
     2
  9
$DIMLWD
 70
    -2
  9
$DIMLWE
 70
    -2
  9
$DIMTMOVE
 70
     0
  9
$LUNITS
 70
     2
  9
$LUPREC
 70
     2
  9
$SKETCHINC
 40
1.0
  9
$FILLETRAD
 40
10.0
  9
$AUNITS
 70
     0
  9
$AUPREC
 70
     2
  9
$MENU
  1
.
  9
$ELEVATION
 40
0.0
  9
$PELEVATION
 40
0.0
  9
$THICKNESS
 40
0.0
  9
$LIMCHECK
 70
     0
  9
$CHAMFERA
 40
0.0
  9
$CHAMFERB
 40
0.0
  9
$CHAMFERC
 40
0.0
  9
$CHAMFERD
 40
0.0
  9
$SKPOLY
 70
     0
  9
$TDCREATE
 40
2458311.458601794
  9
$TDUCREATE
 40
2458311.083601794
  9
$TDUPDATE
 40
2458323.452400463
  9
$TDUUPDATE
 40
2458323.077400463
  9
$TDINDWG
 40
0.0014503819
  9
$TDUSRTIMER
 40
2458323.077359225
  9
$USRTIMER
 70
     1
  9
$ANGBASE
 50
0.0
  9
$ANGDIR
 70
     0
  9
$PDMODE
 70
     0
  9
$PDSIZE
 40
-1.0
  9
$PLINEWID
 40
0.0
  9
$SPLFRAME
 70
     0
  9
$SPLINETYPE
 70
     6
  9
$SPLINESEGS
 70
     8
  9
$HANDSEED
  5
239
  9
$SURFTAB1
 70
     6
  9
$SURFTAB2
 70
     6
  9
$SURFTYPE
 70
     6
  9
$SURFU
 70
     6
  9
$SURFV
 70
     6
  9
$UCSBASE
  2

  9
$UCSNAME
  2

  9
$UCSORG
 10
0.0
 20
0.0
 30
0.0
  9
$UCSXDIR
 10
1.0
 20
0.0
 30
0.0
  9
$UCSYDIR
 10
0.0
 20
1.0
 30
0.0
  9
$UCSORTHOREF
  2

  9
$UCSORTHOVIEW
 70
     0
  9
$UCSORGTOP
 10
0.0
 20
0.0
 30
0.0
  9
$UCSORGBOTTOM
 10
0.0
 20
0.0
 30
0.0
  9
$UCSORGLEFT
 10
0.0
 20
0.0
 30
0.0
  9
$UCSORGRIGHT
 10
0.0
 20
0.0
 30
0.0
  9
$UCSORGFRONT
 10
0.0
 20
0.0
 30
0.0
  9
$UCSORGBACK
 10
0.0
 20
0.0
 30
0.0
  9
$PUCSBASE
  2

  9
$PUCSNAME
  2

  9
$PUCSORG
 10
0.0
 20
0.0
 30
0.0
  9
$PUCSXDIR
 10
1.0
 20
0.0
 30
0.0
  9
$PUCSYDIR
 10
0.0
 20
1.0
 30
0.0
  9
$PUCSORTHOREF
  2

  9
$PUCSORTHOVIEW
 70
     0
  9
$PUCSORGTOP
 10
0.0
 20
0.0
 30
0.0
  9
$PUCSORGBOTTOM
 10
0.0
 20
0.0
 30
0.0
  9
$PUCSORGLEFT
 10
0.0
 20
0.0
 30
0.0
  9
$PUCSORGRIGHT
 10
0.0
 20
0.0
 30
0.0
  9
$PUCSORGFRONT
 10
0.0
 20
0.0
 30
0.0
  9
$PUCSORGBACK
 10
0.0
 20
0.0
 30
0.0
  9
$USERI1
 70
     0
  9
$USERI2
 70
     0
  9
$USERI3
 70
     0
  9
$USERI4
 70
     0
  9
$USERI5
 70
     0
  9
$USERR1
 40
0.0
  9
$USERR2
 40
0.0
  9
$USERR3
 40
0.0
  9
$USERR4
 40
0.0
  9
$USERR5
 40
0.0
  9
$WORLDVIEW
 70
     1
  9
$SHADEDGE
 70
     3
  9
$SHADEDIF
 70
    70
  9
$TILEMODE
 70
     1
  9
$MAXACTVP
 70
    64
  9
$PINSBASE
 10
0.0
 20
0.0
 30
0.0
  9
$PLIMCHECK
 70
     0
  9
$PEXTMIN
 10
1.000000000000000E+20
 20
1.000000000000000E+20
 30
1.000000000000000E+20
  9
$PEXTMAX
 10
-1.000000000000000E+20
 20
-1.000000000000000E+20
 30
-1.000000000000000E+20
  9
$PLIMMIN
 10
0.0
 20
0.0
  9
$PLIMMAX
 10
0.0
 20
0.0
  9
$UNITMODE
 70
     0
  9
$VISRETAIN
 70
     1
  9
$PLINEGEN
 70
     0
  9
$PSLTSCALE
 70
     1
  9
$TREEDEPTH
 70
  3020
  9
$CMLSTYLE
  2
Standard
  9
$CMLJUST
 70
     0
  9
$CMLSCALE
 40
20.0
  9
$PROXYGRAPHICS
 70
     1
  9
$MEASUREMENT
 70
     1
  9
$CELWEIGHT
370
    -1
  9
$ENDCAPS
280
     0
  9
$JOINSTYLE
280
     0
  9
$LWDISPLAY
290
     1
  9
$INSUNITS
 70
     4
  9
$HYPERLINKBASE
  1

  9
$STYLESHEET
  1

  9
$XEDIT
290
     1
  9
$CEPSNTYPE
380
     0
  9
$PSTYLEMODE
290
     1
  9
$FINGERPRINTGUID
  2
{ED6737DD-22DB-4457-9115-B6DD212F00B6}
  9
$VERSIONGUID
  2
{FAEB1C32-E019-11D5-929B-00C0DF256EC4}
  9
$EXTNAMES
290
     1
  9
$PSVPSCALE
 40
0.0
  9
$OLESTARTUP
290
     0
  0
ENDSEC
  0
SECTION
  2
CLASSES
  0
CLASS
  1
ACDBDICTIONARYWDFLT
  2
AcDbDictionaryWithDefault
  3
ObjectDBX Classes
 90
        0
280
     0
281
     0
  0
CLASS
  1
VISUALSTYLE
  2
AcDbVisualStyle
  3
ObjectDBX Classes
 90
     4095
280
     0
281
     0
  0
CLASS
  1
MATERIAL
  2
AcDbMaterial
  3
ObjectDBX Classes
 90
     1153
280
     0
281
     0
  0
CLASS
  1
SCALE
  2
AcDbScale
  3
ObjectDBX Classes
 90
     1153
280
     0
281
     0
  0
CLASS
  1
SUN
  2
AcDbSun
  3
SCENEOE
 90
     1153
280
     0
281
     0
  0
CLASS
  1
ACDBPLACEHOLDER
  2
AcDbPlaceHolder
  3
ObjectDBX Classes
 90
        0
280
     0
281
     0
  0
CLASS
  1
LAYOUT
  2
AcDbLayout
  3
ObjectDBX Classes
 90
        0
280
     0
281
     0
  0
CLASS
  1
TABLESTYLE
  2
AcDbTableStyle
  3
ObjectDBX Classes
 90
     4095
280
     0
281
     0
  0
CLASS
  1
MLEADERSTYLE
  2
AcDbMLeaderStyle
  3
ACDB_MLEADERSTYLE_CLASS
 90
     4095
280
     0
281
     0
  0
CLASS
  1
DICTIONARYVAR
  2
AcDbDictionaryVar
  3
ObjectDBX Classes
 90
        0
280
     0
281
     0
  0
CLASS
  1
RASTERVARIABLES
  2
AcDbRasterVariables
  3
ISM
 90
        0
280
     0
281
     0
  0
ENDSEC
  0
SECTION
  2
TABLES
  0
TABLE
  2
VPORT
  5
8
330
0
100
AcDbSymbolTable
 70
     1
  0
VPORT
  5
29
330
8
100
AcDbSymbolTableRecord
100
AcDbViewportTableRecord
  2
*Active
 70
     0
 10
0.0
 20
0.0
 11
1.0
 21
1.0
 12
14.74863904717726
 22
-4.623403694405873
 13
0.0
 23
0.0
 14
10.0
 24
10.0
 15
10.0
 25
10.0
 16
0.0
 26
0.0
 36
1.0
 17
0.0
 27
0.0
 37
0.0
 40
92.51074353658798
 41
1.782762691853601
 42
50.0
 43
0.0
 44
0.0
 50
0.0
 51
0.0
 71
    16
 72
  2000
 73
     1
 74
     3
 75
     0
 76
     0
 77
     0
 78
     0
281
     0
 65
     1
110
0.0
120
0.0
130
0.0
111
1.0
121
0.0
131
0.0
112
0.0
122
1.0
132
0.0
 79
     0
146
0.0
  0
ENDTAB
  0
TABLE
  2
LTYPE
  5
5
330
0
100
AcDbSymbolTable
 70
     6
  0
LTYPE
  5
14
330
5
100
AcDbSymbolTableRecord
100
AcDbLinetypeTableRecord
  2
ByBlock
 70
     0
  3

 72
    65
 73
     0
 40
0.0
  0
LTYPE
  5
15
330
5
100
AcDbSymbolTableRecord
100
AcDbLinetypeTableRecord
  2
ByLayer
 70
     0
  3

 72
    65
 73
     0
 40
0.0
  0
LTYPE
  5
16
330
5
100
AcDbSymbolTableRecord
100
AcDbLinetypeTableRecord
  2
Continuous
 70
     0
  3
Solid line
 72
    65
 73
     0
 40
0.0
  0
LTYPE
  5
6A
330
5
100
AcDbSymbolTableRecord
100
AcDbLinetypeTableRecord
  2
HIDDEN
 70
     0
  3
Hidden __ __ __ __ __ __ __ __ __ __ __ __ __ __
 72
    65
 73
     2
 40
1.905
 49
1.27
 74
     0
 49
-0.635
 74
     0
  0
LTYPE
  5
6B
330
5
100
AcDbSymbolTableRecord
100
AcDbLinetypeTableRecord
  2
PHANTOM
 70
     0
  3
Phantom ______  __  __  ______  __  __  ______
 72
    65
 73
     6
 40
12.7
 49
6.35
 74
     0
 49
-1.27
 74
     0
 49
1.27
 74
     0
 49
-1.27
 74
     0
 49
1.27
 74
     0
 49
-1.27
 74
     0
  0
LTYPE
  5
6C
330
5
100
AcDbSymbolTableRecord
100
AcDbLinetypeTableRecord
  2
CENTER
 70
     0
  3
Center ____ _ ____ _ ____ _ ____ _ ____ _ ____
 72
    65
 73
     4
 40
10.16
 49
6.35
 74
     0
 49
-1.27
 74
     0
 49
1.27
 74
     0
 49
-1.27
 74
     0
  0
LTYPE
  5
6D
330
5
100
AcDbSymbolTableRecord
100
AcDbLinetypeTableRecord
  2
CENTERX2
 70
     0
  3
Center (2x) ________  __  ________  __  _____
 72
    65
 73
     4
 40
20.32
 49
12.7
 74
     0
 49
-2.54
 74
     0
 49
2.54
 74
     0
 49
-2.54
 74
     0
  0
LTYPE
  5
6E
330
5
100
AcDbSymbolTableRecord
100
AcDbLinetypeTableRecord
  2
DOT2
 70
     0
  3
Dot (.5x) ........................................
 72
    65
 73
     2
 40
0.635
 49
0.0
 74
     0
 49
-0.635
 74
     0
  0
ENDTAB
  0
TABLE
  2
LAYER
  5
2
102
{ACAD_XDICTIONARY
360
18B
102
}
330
0
100
AcDbSymbolTable
 70
    18
  0
LAYER
  5
10
330
2
100
AcDbSymbolTableRecord
100
AcDbLayerTableRecord
  2
0
 70
     0
 62
     7
  6
Continuous
370
    -3
390
F
  0
LAYER
  5
6F
330
2
100
AcDbSymbolTableRecord
100
AcDbLayerTableRecord
  2
FORMAT
 70
     0
 62
     2
  6
Continuous
370
    -3
390
F
  0
LAYER
  5
70
330
2
100
AcDbSymbolTableRecord
100
AcDbLayerTableRecord
  2
외형선
 70
     0
 62
     4
  6
Continuous
370
    30
390
F
  0
LAYER
  5
71
330
2
100
AcDbSymbolTableRecord
100
AcDbLayerTableRecord
  2
숨은선
 70
     0
 62
     2
  6
HIDDEN
370
    15
390
F
  0
LAYER
  5
72
330
2
100
AcDbSymbolTableRecord
100
AcDbLayerTableRecord
  2
중심선
 70
     0
 62
     1
  6
CENTERX2
370
    -3
390
F
  0
LAYER
  5
73
330
2
100
AcDbSymbolTableRecord
100
AcDbLayerTableRecord
  2
파단선
 70
     0
 62
     4
  6
Continuous
370
    -3
390
F
  0
LAYER
  5
74
330
2
100
AcDbSymbolTableRecord
100
AcDbLayerTableRecord
  2
해칭선
 70
     0
 62
   100
  6
Continuous
370
    -3
390
F
  0
LAYER
  5
75
330
2
100
AcDbSymbolTableRecord
100
AcDbLayerTableRecord
  2
가는실선
 70
     0
 62
     4
  6
Continuous
370
    -3
390
F
  0
LAYER
  5
76
330
2
100
AcDbSymbolTableRecord
100
AcDbLayerTableRecord
  2
치수_보조선
 70
     0
 62
     4
  6
Continuous
370
    -3
390
F
  0
LAYER
  5
77
330
2
100
AcDbSymbolTableRecord
100
AcDbLayerTableRecord
  2
치수문자_일반주서
 70
     0
 62
     7
  6
Continuous
370
    15
390
F
  0
LAYER
  5
78
330
2
100
AcDbSymbolTableRecord
100
AcDbLayerTableRecord
  2
개별주서
 70
     0
 62
   100
  6
Continuous
370
    30
390
F
  0
LAYER
  5
79
330
2
100
AcDbSymbolTableRecord
100
AcDbLayerTableRecord
  2
중간선
 70
     0
 62
     2
  6
Continuous
370
    15
390
F
  0
LAYER
  5
7A
330
2
100
AcDbSymbolTableRecord
100
AcDbLayerTableRecord
  2
윤곽선
 70
     0
 62
     3
  6
Continuous
370
    40
390
F
  0
LAYER
  5
7B
330
2
100
AcDbSymbolTableRecord
100
AcDbLayerTableRecord
  2
중심마크
 70
     0
 62
   100
  6
Continuous
370
    30
390
F
  0
LAYER
  5
7C
330
2
100
AcDbSymbolTableRecord
100
AcDbLayerTableRecord
  2
가상선
 70
     0
 62
     4
  6
PHANTOM
370
    -3
390
F
  0
LAYER
  5
7D
330
2
100
AcDbSymbolTableRecord
100
AcDbLayerTableRecord
  2
특수지정선
 70
     0
 62
     5
  6
CENTERX2
370
    60
390
F
  0
LAYER
  5
7E
330
2
100
AcDbSymbolTableRecord
100
AcDbLayerTableRecord
  2
참조1
 70
     0
 62
    -4
  6
Continuous
370
    -3
390
F
  0
LAYER
  5
154
330
2
100
AcDbSymbolTableRecord
100
AcDbLayerTableRecord
  2
Defpoints
 70
     0
 62
     7
  6
Continuous
290
     0
370
    -3
390
F
  0
ENDTAB
  0
TABLE
  2
STYLE
  5
3
330
0
100
AcDbSymbolTable
 70
     2
  0
STYLE
  5
11
330
3
100
AcDbSymbolTableRecord
100
AcDbTextStyleTableRecord
  2
Standard
 70
     0
 40
0.0
 41
1.0
 50
0.0
 71
     0
 42
3.5
  3
txt
  4

  0
STYLE
  5
94
330
3
100
AcDbSymbolTableRecord
100
AcDbTextStyleTableRecord
  2
SLDTEXTSTYLE0
 70
     0
 40
0.0
 41
0.75
 50
0.0
 71
     0
 42
3.5
  3
TXT
  4

  0
ENDTAB
  0
TABLE
  2
VIEW
  5
6
330
0
100
AcDbSymbolTable
 70
     0
  0
ENDTAB
  0
TABLE
  2
UCS
  5
7
330
0
100
AcDbSymbolTable
 70
     0
  0
ENDTAB
  0
TABLE
  2
APPID
  5
9
330
0
100
AcDbSymbolTable
 70
     4
  0
APPID
  5
12
330
9
100
AcDbSymbolTableRecord
100
AcDbRegAppTableRecord
  2
ACAD
 70
     0
  0
APPID
  5
15B
330
9
100
AcDbSymbolTableRecord
100
AcDbRegAppTableRecord
  2
PE_URL
 70
     0
  0
APPID
  5
1BC
330
9
100
AcDbSymbolTableRecord
100
AcDbRegAppTableRecord
  2
ACAD_DSTYLE_DIMFLIPARROW_SYMBOL
 70
     0
  0
APPID
  5
1BD
330
9
100
AcDbSymbolTableRecord
100
AcDbRegAppTableRecord
  2
ACAD_DSTYLE_DIMFLIPARROW_WHICH_SYMBOL
 70
     0
  0
ENDTAB
  0
TABLE
  2
DIMSTYLE
  5
A
330
0
100
AcDbSymbolTable
 70
     4
100
AcDbDimStyleTable
  0
DIMSTYLE
105
27
330
A
100
AcDbSymbolTableRecord
100
AcDbDimStyleTableRecord
  2
ISO-25
 70
     0
 41
2.5
 42
0.625
 43
3.75
 44
1.25
 73
     0
 74
     0
 77
     1
 78
     8
140
2.5
141
2.5
143
0.03937007874016
147
0.625
171
     3
172
     1
178
     0
271
     2
272
     2
274
     3
278
    44
283
     0
284
     8
340
11
  0
DIMSTYLE
105
D3
330
A
100
AcDbSymbolTableRecord
100
AcDbDimStyleTableRecord
  2
SLDDIMSTYLE0
 70
     0
 41
3.302
 44
0.0
 45
0.000000001
 73
     0
 74
     0
 77
     1
 78
     4
 79
     1
140
3.5
143
0.0393700787401575
147
0.875
148
0.000000001
170
     1
172
     1
173
     1
178
     0
271
     2
272
     2
276
     2
284
    12
289
     0
340
94
  0
DIMSTYLE
105
E8
102
{ACAD_REACTORS
330
E7
330
FC
330
10F
330
D2
102
}
330
A
100
AcDbSymbolTableRecord
100
AcDbDimStyleTableRecord
  2
SLDDIMSTYLE1
 70
     0
 41
3.302
 44
0.0
 45
0.000000001
 73
     0
 74
     0
 77
     1
 78
     4
 79
     1
140
3.5
143
0.0393700787401575
147
0.875
148
0.000000001
170
     1
173
     1
178
     0
271
     2
272
     2
276
     2
284
    12
340
94
  0
DIMSTYLE
105
110
330
A
100
AcDbSymbolTableRecord
100
AcDbDimStyleTableRecord
  2
SLDDIMSTYLE2
 70
     0
 41
3.302
 44
0.0
 45
0.000000001
 73
     0
 74
     0
 77
     1
 78
    12
 79
     3
140
3.5
143
0.0393700787401575
147
0.875
148
0.000000001
170
     1
173
     1
178
     0
271
     2
272
     2
276
     2
284
    12
340
94
  0
ENDTAB
  0
TABLE
  2
BLOCK_RECORD
  5
1
330
0
100
AcDbSymbolTable
 70
     9
  0
BLOCK_RECORD
  5
1F
330
1
100
AcDbSymbolTableRecord
100
AcDbBlockTableRecord
  2
*Model_Space
340
22
  0
BLOCK_RECORD
  5
1B
330
1
100
AcDbSymbolTableRecord
100
AcDbBlockTableRecord
  2
*Paper_Space
340
1E
  0
BLOCK_RECORD
  5
23
330
1
100
AcDbSymbolTableRecord
100
AcDbBlockTableRecord
  2
*Paper_Space0
340
26
  0
BLOCK_RECORD
  5
7F
330
1
100
AcDbSymbolTableRecord
100
AcDbBlockTableRecord
  2
블럭10
340
0
102
{BLKREFS
331
CB
102
}
  0
BLOCK_RECORD
  5
D4
330
1
100
AcDbSymbolTableRecord
100
AcDbBlockTableRecord
  2
_D
340
0
  0
BLOCK_RECORD
  5
E9
330
1
100
AcDbSymbolTableRecord
100
AcDbBlockTableRecord
  2
_D_1
340
0
  0
BLOCK_RECORD
  5
FD
330
1
100
AcDbSymbolTableRecord
100
AcDbBlockTableRecord
  2
_D_2
340
0
  0
BLOCK_RECORD
  5
111
330
1
100
AcDbSymbolTableRecord
100
AcDbBlockTableRecord
  2
_D_3
340
0
  0
BLOCK_RECORD
  5
12A
330
1
100
AcDbSymbolTableRecord
100
AcDbBlockTableRecord
  2
SW_DOWELSYMBOL_0
340
0
102
{BLKREFS
331
130
102
}
  0
BLOCK_RECORD
  5
18F
330
1
100
AcDbSymbolTableRecord
100
AcDbBlockTableRecord
  2
*D7
340
0
  0
BLOCK_RECORD
  5
19F
330
1
100
AcDbSymbolTableRecord
100
AcDbBlockTableRecord
  2
*D8
340
0
  0
ENDTAB
  0
ENDSEC
  0
SECTION
  2
BLOCKS
  0
BLOCK
  5
20
330
1F
100
AcDbEntity
  8
0
100
AcDbBlockBegin
  2
*Model_Space
 70
     0
 10
0.0
 20
0.0
 30
0.0
  3
*Model_Space
  1
*Model_Space
  0
ENDBLK
  5
21
330
1F
100
AcDbEntity
  8
0
100
AcDbBlockEnd
  0
BLOCK
  5
1C
330
1B
100
AcDbEntity
 67
     1
  8
0
100
AcDbBlockBegin
  2
*Paper_Space
 70
     0
 10
0.0
 20
0.0
 30
0.0
  3
*Paper_Space
  1
*Paper_Space
  0
ENDBLK
  5
1D
330
1B
100
AcDbEntity
 67
     1
  8
0
100
AcDbBlockEnd
  0
BLOCK
  5
24
330
23
100
AcDbEntity
  8
0
100
AcDbBlockBegin
  2
*Paper_Space0
 70
     0
 10
0.0
 20
0.0
 30
0.0
  3
*Paper_Space0
  1
*Paper_Space0
  0
ENDBLK
  5
25
330
23
100
AcDbEntity
  8
0
100
AcDbBlockEnd
  0
BLOCK
  5
80
330
7F
100
AcDbEntity
  8
0
100
AcDbBlockBegin
  2
블럭10
 70
     2
 10
0.0
 20
0.0
 30
0.0
  3
블럭10
  1
블럭10
  0
ELLIPSE
  5
82
330
7F
100
AcDbEntity
  8
중심선
100
AcDbEllipse
 10
20.54032771741204
 20
12.0471743016438
 30
0.0
 11
6.600054785286829
 21
-1.261213355974178E-13
 31
0.0
210
0.0
220
0.0
230
1.0
 40
0.636358354079598
 41
0.9219305317359503
 42
6.513795318482858
  0
ELLIPSE
  5
83
330
7F
100
AcDbEntity
  8
중심선
100
AcDbEllipse
 10
20.54032771746488
 20
12.04717430159265
 30
0.0
 11
3.960054785062283
 21
1.540847449632565E-10
 31
0.0
210
0.0
220
0.0
230
1.0
 40
0.3939339440162632
 41
1.131841032648279
 42
5.62031148352944
  0
LINE
  5
84
330
7F
100
AcDbEntity
  8
중심선
100
AcDbLine
 10
2.268634060543552
 20
16.24717430164393
 30
0.0
 11
5.714909304380834
 21
16.24717430164393
 31
0.0
  0
LINE
  5
85
330
7F
100
AcDbEntity
  8
중심선
100
AcDbLine
 10
5.245725140726316
 20
7.84717430164391
 30
0.0
 11
8.692000384563599
 21
7.84717430164391
 31
0.0
  0
LINE
  5
86
330
7F
100
AcDbEntity
  8
중심선
100
AcDbLine
 10
15.74043728645272
 20
16.24717430164393
 30
0.0
 11
8.692000384563599
 21
7.84717430164391
 31
0.0
  0
LINE
  5
87
330
7F
100
AcDbEntity
  8
중심선
100
AcDbLine
 10
0.1404042013395286
 20
13.71084872107135
 30
0.0
 11
3.58671253028996
 21
13.71088815037384
 31
0.0
  0
LINE
  5
88
330
7F
100
AcDbEntity
  8
중심선
100
AcDbLine
 10
2.750260043222114
 20
10.84717430164391
 30
0.0
 11
6.196535287059397
 21
10.84717430164391
 31
0.0
  0
LINE
  5
89
330
7F
100
AcDbEntity
  8
중심선
100
AcDbLine
 10
12.29416204261559
 20
16.24717430164393
 30
0.0
 11
5.245725140726316
 21
7.84717430164391
 31
0.0
  0
LINE
  5
8A
330
7F
100
AcDbEntity
  8
중심선
100
AcDbLine
 10
10.72767329541681
 20
16.24717430164393
 30
0.0
 11
6.196535287059397
 21
10.84717430164391
 31
0.0
  0
LINE
  5
8B
330
7F
100
AcDbEntity
  8
중심선
100
AcDbLine
 10
7.28139805157953
 20
16.24717430164393
 30
0.0
 11
2.750260043222114
 21
10.84717430164391
 31
0.0
  0
LINE
  5
8C
330
7F
100
AcDbEntity
  8
중심선
100
AcDbLine
 10
5.714909304380834
 20
16.24717430164393
 30
0.0
 11
3.58671253028996
 21
13.71088815037384
 31
0.0
  0
LINE
  5
8D
330
7F
100
AcDbEntity
  8
중심선
100
AcDbLine
 10
2.268634060543552
 20
16.24717430164393
 30
0.0
 11
0.1404042013395286
 21
13.71084872107135
 31
0.0
  0
LINE
  5
8E
330
7F
100
AcDbEntity
  8
중심선
100
AcDbLine
 10
7.28139805157953
 20
16.24717430164393
 30
0.0
 11
10.72767329541681
 21
16.24717430164393
 31
0.0
  0
LINE
  5
8F
330
7F
100
AcDbEntity
  8
중심선
100
AcDbLine
 10
12.29416204261559
 20
16.24717430164393
 30
0.0
 11
15.74043728645272
 21
16.24717430164393
 31
0.0
  0
LINE
  5
90
330
7F
100
AcDbEntity
  8
중심선
100
AcDbLine
 10
19.22036997980202
 20
11.08717430171403
 30
0.0
 11
23.66174974927406
 21
11.08717430171406
 31
0.0
  0
LINE
  5
91
330
7F
100
AcDbEntity
  8
중심선
100
AcDbLine
 10
19.22039502424796
 20
13.00717430171391
 30
0.0
 11
19.22036997980202
 21
11.08717430171403
 31
0.0
  0
LINE
  5
92
330
7F
100
AcDbEntity
  8
중심선
100
AcDbLine
 10
19.22039502424796
 20
13.00717430171391
 30
0.0
 11
26.96566020931264
 21
13.00717430171391
 31
0.0
  0
LINE
  5
93
330
7F
100
AcDbEntity
  8
중심선
100
AcDbLine
 10
22.22332737316547
 20
13.45928029700563
 30
0.0
 11
24.52862924686651
 21
15.39360700705356
 31
0.0
  0
ATTDEF
  5
95
330
7F
100
AcDbEntity
  8
FORMAT
 62
     2
100
AcDbText
 10
4.408487351596664
 20
2.075366912832191
 30
0.0
 40
4.233333333333333
  1
E1030032
 41
0.75
  7
SLDTEXTSTYLE0
 11
4.408487351596664
 21
-0.0412997538344756
 31
0.0
100
AcDbAttributeDefinition
  3

  2
AUTOATTR0
 70
     0
 74
     1
  0
ENDBLK
  5
81
330
7F
100
AcDbEntity
  8
0
100
AcDbBlockEnd
  0
BLOCK
  5
D5
330
D4
100
AcDbEntity
  8
0
100
AcDbBlockBegin
  2
_D
 70
     0
 10
0.0
 20
0.0
 30
0.0
  3
_D
  1
_D
  0
LINE
  5
D7
330
D4
100
AcDbEntity
  8
치수문자_일반주서
 62
     0
370
    -2
100
AcDbLine
 10
-37.8625
 20
6.349999999999997
 30
0.0
 11
-53.8
 21
6.349999999999937
 31
0.0
  0
LINE
  5
D8
330
D4
100
AcDbEntity
  8
치수문자_일반주서
 62
     0
370
    -2
100
AcDbLine
 10
-37.8625
 20
-6.349999999999993
 30
0.0
 11
-53.79999999999996
 21
-6.350000000000055
 31
0.0
  0
LINE
  5
D9
330
D4
100
AcDbEntity
  8
치수문자_일반주서
 62
     0
370
    -2
100
AcDbLine
 10
-53.8
 20
6.349999999999937
 30
0.0
 11
-53.8000000000001
 21
36.33949999999994
 31
0.0
  0
LINE
  5
DA
330
D4
100
AcDbEntity
  8
치수문자_일반주서
 62
     0
370
    -2
100
AcDbLine
 10
-53.8
 20
6.349999999999937
 30
0.0
 11
-53.79999999999996
 21
-6.350000000000055
 31
0.0
  0
LINE
  5
DB
330
D4
100
AcDbEntity
  8
치수문자_일반주서
 62
     0
370
    -2
100
AcDbLine
 10
-53.80000000000002
 20
9.651999999999937
 30
0.0
 11
-53.80000000000003
 21
12.95399999999994
 31
0.0
  0
LINE
  5
DC
330
D4
100
AcDbEntity
  8
치수문자_일반주서
 62
     0
370
    -2
100
AcDbLine
 10
-53.79999999999995
 20
-9.652000000000054
 30
0.0
 11
-53.79999999999993
 21
-12.95400000000005
 31
0.0
  0
SOLID
  5
DD
330
D4
100
AcDbEntity
  8
치수문자_일반주서
 62
     0
100
AcDbTrace
 10
-54.35033333333335
 20
9.651999999999935
 30
0.0
 11
-53.24966666666668
 21
9.651999999999939
 31
0.0
 12
-53.8
 22
6.349999999999937
 32
0.0
 13
-53.8
 23
6.349999999999937
 33
0.0
  0
SOLID
  5
DE
330
D4
100
AcDbEntity
  8
치수문자_일반주서
 62
     0
100
AcDbTrace
 10
-53.24966666666661
 20
-9.652000000000053
 30
0.0
 11
-54.35033333333328
 21
-9.652000000000056
 31
0.0
 12
-53.79999999999996
 22
-6.350000000000055
 32
0.0
 13
-53.79999999999996
 23
-6.350000000000055
 33
0.0
  0
MTEXT
  5
DF
330
D4
100
AcDbEntity
  8
치수문자_일반주서
 62
     0
100
AcDbMText
 10
-58.17500000000006
 20
22.99574999999993
 30
0.0
 40
3.5
 41
0.0
 71
     2
 72
     1
  1
\A1;%%c12.70 [1/2]
  7
SLDTEXTSTYLE0
 11
-3.356894814614650E-15
 21
1.0
 31
0.0
 73
     1
 44
1.0
  0
POINT
  5
1AF
330
D4
100
AcDbEntity
  8
Defpoints
 62
     0
100
AcDbPoint
 10
-37.8
 20
6.349999999999997
 30
0.0
  0
POINT
  5
1B0
330
D4
100
AcDbEntity
  8
Defpoints
 62
     0
100
AcDbPoint
 10
-37.8
 20
-6.349999999999993
 30
0.0
  0
POINT
  5
1B1
330
D4
100
AcDbEntity
  8
Defpoints
 62
     0
100
AcDbPoint
 10
-53.79999999999996
 20
-6.350000000000052
 30
0.0
  0
ENDBLK
  5
D6
330
D4
100
AcDbEntity
  8
0
100
AcDbBlockEnd
  0
BLOCK
  5
EA
330
E9
100
AcDbEntity
  8
0
100
AcDbBlockBegin
  2
_D_1
 70
     0
 10
0.0
 20
0.0
 30
0.0
  3
_D_1
  1
_D_1
  0
LINE
  5
EC
330
E9
100
AcDbEntity
  8
치수문자_일반주서
 62
     0
370
    -2
100
AcDbLine
 10
37.40000000000001
 20
6.407133076708242
 30
0.0
 11
37.40000000000001
 21
21.35
 31
0.0
  0
LINE
  5
ED
330
E9
100
AcDbEntity
  8
치수문자_일반주서
 62
     0
370
    -2
100
AcDbLine
 10
12.00000000000001
 20
5.600586587290352
 30
0.0
 11
12.00000000000001
 21
21.35
 31
0.0
  0
LINE
  5
EE
330
E9
100
AcDbEntity
  8
치수문자_일반주서
 62
     0
370
    -2
100
AcDbLine
 10
37.40000000000001
 20
21.35
 30
0.0
 11
60.38950000000001
 21
21.35
 31
0.0
  0
LINE
  5
EF
330
E9
100
AcDbEntity
  8
치수문자_일반주서
 62
     0
370
    -2
100
AcDbLine
 10
34.09800000000001
 20
21.35
 30
0.0
 11
15.30200000000001
 21
21.35
 31
0.0
  0
SOLID
  5
F0
330
E9
100
AcDbEntity
  8
치수문자_일반주서
 62
     0
100
AcDbTrace
 10
34.09800000000001
 20
20.79966666666666
 30
0.0
 11
34.09800000000001
 21
21.90033333333333
 31
0.0
 12
37.40000000000001
 22
21.35
 32
0.0
 13
37.40000000000001
 23
21.35
 33
0.0
  0
SOLID
  5
F1
330
E9
100
AcDbEntity
  8
치수문자_일반주서
 62
     0
100
AcDbTrace
 10
15.30200000000001
 20
21.90033333333333
 30
0.0
 11
15.30200000000001
 21
20.79966666666666
 31
0.0
 12
12.00000000000001
 22
21.35
 32
0.0
 13
12.00000000000001
 23
21.35
 33
0.0
  0
MTEXT
  5
F2
330
E9
100
AcDbEntity
  8
치수문자_일반주서
 62
     0
100
AcDbMText
 10
50.54575000000001
 20
25.725
 30
0.0
 40
3.5
 41
0.0
 71
     2
 72
     1
  1
\A1;25.40 [1]
  7
SLDTEXTSTYLE0
 73
     1
 44
1.0
  0
POINT
  5
F3
330
E9
100
AcDbEntity
  8
Defpoints
 62
     0
100
AcDbPoint
 10
37.40000000000001
 20
6.344633076708242
 30
0.0
  0
POINT
  5
F4
330
E9
100
AcDbEntity
  8
Defpoints
 62
     0
100
AcDbPoint
 10
12.00000000000001
 20
5.538086587290352
 30
0.0
  0
POINT
  5
F5
330
E9
100
AcDbEntity
  8
Defpoints
 62
     0
100
AcDbPoint
 10
12.00000000000001
 20
21.35
 30
0.0
  0
ENDBLK
  5
EB
330
E9
100
AcDbEntity
  8
0
100
AcDbBlockEnd
  0
BLOCK
  5
FE
330
FD
100
AcDbEntity
  8
0
100
AcDbBlockBegin
  2
_D_2
 70
     0
 10
0.0
 20
0.0
 30
0.0
  3
_D_2
  1
_D_2
  0
LINE
  5
100
330
FD
100
AcDbEntity
  8
치수문자_일반주서
 62
     0
370
    -2
100
AcDbLine
 10
37.40000000000001
 20
6.407133076708242
 30
0.0
 11
37.40000000000002
 21
36.34999999999999
 31
0.0
  0
LINE
  5
101
330
FD
100
AcDbEntity
  8
치수문자_일반주서
 62
     0
370
    -2
100
AcDbLine
 10
-38.8
 20
5.412499999999996
 30
0.0
 11
-38.79999999999999
 21
36.34999999999999
 31
0.0
  0
LINE
  5
102
330
FD
100
AcDbEntity
  8
치수문자_일반주서
 62
     0
370
    -2
100
AcDbLine
 10
34.09800000000002
 20
36.34999999999999
 30
0.0
 11
-35.49799999999999
 21
36.34999999999999
 31
0.0
  0
SOLID
  5
103
330
FD
100
AcDbEntity
  8
치수문자_일반주서
 62
     0
100
AcDbTrace
 10
34.09800000000002
 20
35.79966666666666
 30
0.0
 11
34.09800000000002
 21
36.90033333333333
 31
0.0
 12
37.40000000000002
 22
36.34999999999999
 32
0.0
 13
37.40000000000002
 23
36.34999999999999
 33
0.0
  0
SOLID
  5
104
330
FD
100
AcDbEntity
  8
치수문자_일반주서
 62
     0
100
AcDbTrace
 10
-35.49799999999999
 20
36.90033333333333
 30
0.0
 11
-35.49799999999999
 21
35.79966666666666
 31
0.0
 12
-38.79999999999999
 22
36.34999999999999
 32
0.0
 13
-38.79999999999999
 23
36.34999999999999
 33
0.0
  0
MTEXT
  5
105
330
FD
100
AcDbEntity
  8
치수문자_일반주서
 62
     0
100
AcDbMText
 10
-0.700000000000002
 20
40.72499999999999
 30
0.0
 40
3.5
 41
0.0
 71
     2
 72
     1
  1
\A1;76.20 [3]
  7
SLDTEXTSTYLE0
 73
     1
 44
1.0
  0
POINT
  5
106
330
FD
100
AcDbEntity
  8
Defpoints
 62
     0
100
AcDbPoint
 10
37.40000000000001
 20
6.344633076708242
 30
0.0
  0
POINT
  5
107
330
FD
100
AcDbEntity
  8
Defpoints
 62
     0
100
AcDbPoint
 10
-38.8
 20
5.349999999999996
 30
0.0
  0
POINT
  5
108
330
FD
100
AcDbEntity
  8
Defpoints
 62
     0
100
AcDbPoint
 10
-38.8
 20
36.34999999999999
 30
0.0
  0
ENDBLK
  5
FF
330
FD
100
AcDbEntity
  8
0
100
AcDbBlockEnd
  0
BLOCK
  5
112
330
111
100
AcDbEntity
  8
0
100
AcDbBlockBegin
  2
_D_3
 70
     0
 10
0.0
 20
0.0
 30
0.0
  3
_D_3
  1
_D_3
  0
LINE
  5
114
330
111
100
AcDbEntity
  8
치수문자_일반주서
 62
     0
370
    -2
100
AcDbLine
 10
37.46250000000001
 20
-6.344633076708236
 30
0.0
 11
68.28576315141807
 21
-6.344633076708124
 31
0.0
  0
LINE
  5
115
330
111
100
AcDbEntity
  8
치수문자_일반주서
 62
     0
370
    -2
100
AcDbLine
 10
37.46250000000001
 20
6.344633076708242
 30
0.0
 11
68.28576315141802
 21
6.344633076708355
 31
0.0
  0
LINE
  5
116
330
111
100
AcDbEntity
  8
치수문자_일반주서
 62
     0
370
    -2
100
AcDbLine
 10
68.28576315141802
 20
6.344633076708355
 30
0.0
 11
68.28576315141792
 21
36.77163307670838
 31
0.0
  0
LINE
  5
117
330
111
100
AcDbEntity
  8
치수문자_일반주서
 62
     0
370
    -2
100
AcDbLine
 10
68.28576315141807
 20
-6.344633076708124
 30
0.0
 11
68.28576315141802
 21
6.344633076708355
 31
0.0
  0
LINE
  5
118
330
111
100
AcDbEntity
  8
치수문자_일반주서
 62
     0
370
    -2
100
AcDbLine
 10
68.28576315141808
 20
-9.646633076708124
 30
0.0
 11
68.2857631514181
 21
-12.94863307670812
 31
0.0
  0
LINE
  5
119
330
111
100
AcDbEntity
  8
치수문자_일반주서
 62
     0
370
    -2
100
AcDbLine
 10
68.28576315141801
 20
9.646633076708355
 30
0.0
 11
68.285763151418
 21
12.94863307670835
 31
0.0
  0
SOLID
  5
11A
330
111
100
AcDbEntity
  8
치수문자_일반주서
 62
     0
100
AcDbTrace
 10
68.83609648475141
 20
-9.646633076708122
 30
0.0
 11
67.73542981808475
 21
-9.646633076708126
 31
0.0
 12
68.28576315141807
 22
-6.344633076708124
 32
0.0
 13
68.28576315141807
 23
-6.344633076708124
 33
0.0
  0
SOLID
  5
11B
330
111
100
AcDbEntity
  8
치수문자_일반주서
 62
     0
100
AcDbTrace
 10
67.73542981808468
 20
9.646633076708353
 30
0.0
 11
68.83609648475134
 21
9.646633076708357
 31
0.0
 12
68.28576315141802
 22
6.344633076708355
 32
0.0
 13
68.28576315141802
 23
6.344633076708355
 33
0.0
  0
MTEXT
  5
11C
330
111
100
AcDbEntity
  8
치수문자_일반주서
 62
     0
100
AcDbMText
 10
63.91076315141797
 20
23.20913307670837
 30
0.0
 40
3.5
 41
0.0
 71
     2
 72
     1
  1
\A1;%%c12.69 [1/2]
  7
SLDTEXTSTYLE0
 11
-3.359734410971241E-15
 21
1.0
 31
0.0
 73
     1
 44
1.0
  0
POINT
  5
11D
330
111
100
AcDbEntity
  8
Defpoints
 62
     0
100
AcDbPoint
 10
37.40000000000001
 20
-6.344633076708236
 30
0.0
  0
POINT
  5
1B2
330
111
100
AcDbEntity
  8
Defpoints
 62
     0
100
AcDbPoint
 10
37.40000000000001
 20
6.344633076708242
 30
0.0
  0
POINT
  5
1B3
330
111
100
AcDbEntity
  8
Defpoints
 62
     0
100
AcDbPoint
 10
68.28576315141802
 20
6.344633076708357
 30
0.0
  0
ENDBLK
  5
113
330
111
100
AcDbEntity
  8
0
100
AcDbBlockEnd
  0
BLOCK
  5
12B
330
12A
100
AcDbEntity
  8
0
100
AcDbBlockBegin
  2
SW_DOWELSYMBOL_0
 70
     0
 10
0.0
 20
0.0
 30
0.0
  3
SW_DOWELSYMBOL_0
  1
SW_DOWELSYMBOL_0
  0
CIRCLE
  5
12D
330
12A
100
AcDbEntity
  8
해칭선
 62
     0
100
AcDbCircle
 10
0.0
 20
0.0
 30
0.0
 40
2.999999999999994
  0
HATCH
  5
12E
330
12A
100
AcDbEntity
  8
0
  6
Continuous
 62
     0
370
     0
100
AcDbHatch
 10
0.0
 20
0.0
 30
0.0
210
0.0
220
0.0
230
1.0
  2
SOLID
 70
     1
 71
     0
 91
        1
 92
        0
 93
        3
 72
     2
 10
0.0
 20
0.0
 40
2.999999999999994
 50
0.0
 51
90.0
 73
     1
 72
     1
 10
0.0
 20
2.999999999999994
 11
0.0
 21
0.0
 72
     1
 10
0.0
 20
0.0
 11
2.999999999999994
 21
0.0
 97
        0
 75
     0
 76
     1
 98
        1
 10
0.0
 20
0.0
  0
HATCH
  5
12F
330
12A
100
AcDbEntity
  8
0
  6
Continuous
 62
     0
370
     0
100
AcDbHatch
 10
0.0
 20
0.0
 30
0.0
210
0.0
220
0.0
230
1.0
  2
SOLID
 70
     1
 71
     0
 91
        1
 92
        0
 93
        3
 72
     2
 10
0.0
 20
0.0
 40
2.999999999999994
 50
180.0
 51
270.0000000000007
 73
     1
 72
     1
 10
0.0
 20
-2.999999999999994
 11
0.0
 21
0.0
 72
     1
 10
0.0
 20
0.0
 11
-2.999999999999994
 21
0.0
 97
        0
 75
     0
 76
     1
 98
        1
 10
0.0
 20
0.0
  0
ENDBLK
  5
12C
330
12A
100
AcDbEntity
  8
0
100
AcDbBlockEnd
  0
BLOCK
  5
190
330
18F
100
AcDbEntity
  8
0
100
AcDbBlockBegin
  2
*D7
 70
     1
 10
0.0
 20
0.0
 30
0.0
  3
*D7
  1
*D7
  0
LINE
  5
192
330
18F
100
AcDbEntity
  8
치수문자_일반주서
 62
     0
370
    -2
100
AcDbLine
 10
27.2415
 20
4.345577502114839
 30
0.0
 11
27.2415
 21
13.29172858387919
 31
0.0
  0
LINE
  5
193
330
18F
100
AcDbEntity
  8
치수문자_일반주서
 62
     0
370
    -2
100
AcDbLine
 10
6.604000000000002
 20
2.929361757642647
 30
0.0
 11
6.603999999999999
 21
13.29172858387919
 31
0.0
  0
LINE
  5
194
330
18F
100
AcDbEntity
  8
치수문자_일반주서
 62
     0
370
    -2
100
AcDbLine
 10
27.2415
 20
13.29172858387919
 30
0.0
 11
63.158
 21
13.29172858387919
 31
0.0
  0
LINE
  5
195
330
18F
100
AcDbEntity
  8
치수문자_일반주서
 62
     0
370
    -2
100
AcDbLine
 10
23.9395
 20
13.29172858387919
 30
0.0
 11
9.905999999999999
 21
13.29172858387919
 31
0.0
  0
SOLID
  5
196
330
18F
100
AcDbEntity
  8
치수문자_일반주서
 62
     0
100
AcDbTrace
 10
23.9395
 20
12.74139525054585
 30
0.0
 11
23.9395
 21
13.84206191721252
 31
0.0
 12
27.2415
 22
13.29172858387919
 32
0.0
 13
27.2415
 23
13.29172858387919
 33
0.0
  0
SOLID
  5
197
330
18F
100
AcDbEntity
  8
치수문자_일반주서
 62
     0
100
AcDbTrace
 10
9.905999999999999
 20
13.84206191721252
 30
0.0
 11
9.905999999999999
 21
12.74139525054585
 31
0.0
 12
6.603999999999999
 22
13.29172858387919
 32
0.0
 13
6.603999999999999
 23
13.29172858387919
 33
0.0
  0
MTEXT
  5
198
330
18F
100
AcDbEntity
  8
치수문자_일반주서
 62
     0
100
AcDbMText
 10
48.50175
 20
17.66672858387918
 30
0.0
 40
3.5
 41
0.0
 71
     2
 72
     1
  1
\A1;20.64 [13/16]
  7
SLDTEXTSTYLE0
 73
     1
 44
1.0
  0
POINT
  5
199
330
18F
100
AcDbEntity
  8
Defpoints
 62
     0
100
AcDbPoint
 10
27.2415
 20
4.283077502114839
 30
0.0
  0
POINT
  5
19A
330
18F
100
AcDbEntity
  8
Defpoints
 62
     0
100
AcDbPoint
 10
6.604000000000002
 20
2.866861757642647
 30
0.0
  0
POINT
  5
19B
330
18F
100
AcDbEntity
  8
Defpoints
 62
     0
100
AcDbPoint
 10
6.604000000000002
 20
13.29172858387919
 30
0.0
  0
ENDBLK
  5
191
330
18F
100
AcDbEntity
  8
0
100
AcDbBlockEnd
  0
BLOCK
  5
1A0
330
19F
100
AcDbEntity
  8
0
100
AcDbBlockBegin
  2
*D8
 70
     1
 10
0.0
 20
0.0
 30
0.0
  3
*D8
  1
*D8
  0
LINE
  5
1A2
330
19F
100
AcDbEntity
  8
치수문자_일반주서
 62
     0
370
    -2
100
AcDbLine
 10
88.82413202123507
 20
-23.013456734094
 30
0.0
 11
88.82413202123507
 21
-14.06730565232966
 31
0.0
  0
LINE
  5
1A3
330
19F
100
AcDbEntity
  8
치수문자_일반주서
 62
     0
370
    -2
100
AcDbLine
 10
68.18663202123507
 20
-24.4296724785662
 30
0.0
 11
68.18663202123507
 21
-14.06730565232966
 31
0.0
  0
LINE
  5
1A4
330
19F
100
AcDbEntity
  8
치수문자_일반주서
 62
     0
370
    -2
100
AcDbLine
 10
88.82413202123507
 20
-14.06730565232966
 30
0.0
 11
124.7406320212351
 21
-14.06730565232966
 31
0.0
  0
LINE
  5
1A5
330
19F
100
AcDbEntity
  8
치수문자_일반주서
 62
     0
370
    -2
100
AcDbLine
 10
85.52213202123508
 20
-14.06730565232966
 30
0.0
 11
71.48863202123508
 21
-14.06730565232966
 31
0.0
  0
SOLID
  5
1A6
330
19F
100
AcDbEntity
  8
치수문자_일반주서
 62
     0
100
AcDbTrace
 10
85.52213202123508
 20
-14.61763898566299
 30
0.0
 11
85.52213202123508
 21
-13.51697231899632
 31
0.0
 12
88.82413202123507
 22
-14.06730565232966
 32
0.0
 13
88.82413202123507
 23
-14.06730565232966
 33
0.0
  0
SOLID
  5
1A7
330
19F
100
AcDbEntity
  8
치수문자_일반주서
 62
     0
100
AcDbTrace
 10
71.48863202123508
 20
-13.51697231899632
 30
0.0
 11
71.48863202123508
 21
-14.61763898566299
 31
0.0
 12
68.18663202123507
 22
-14.06730565232966
 32
0.0
 13
68.18663202123507
 23
-14.06730565232966
 33
0.0
  0
MTEXT
  5
1A8
330
19F
100
AcDbEntity
  8
치수문자_일반주서
 62
     0
100
AcDbMText
 10
110.0843820212351
 20
-9.692305652329656
 30
0.0
 40
3.5
 41
0.0
 71
     2
 72
     1
  1
\A1;20.64 [13/16]
  7
SLDTEXTSTYLE0
 73
     1
 44
1.0
  0
POINT
  5
1A9
330
19F
100
AcDbEntity
  8
Defpoints
 62
     0
100
AcDbPoint
 10
88.82413202123507
 20
-23.075956734094
 30
0.0
  0
POINT
  5
1AA
330
19F
100
AcDbEntity
  8
Defpoints
 62
     0
100
AcDbPoint
 10
68.18663202123507
 20
-24.4921724785662
 30
0.0
  0
POINT
  5
1AB
330
19F
100
AcDbEntity
  8
Defpoints
 62
     0
100
AcDbPoint
 10
68.18663202123507
 20
-14.06730565232966
 30
0.0
  0
ENDBLK
  5
1A1
330
19F
100
AcDbEntity
  8
0
100
AcDbBlockEnd
  0
ENDSEC
  0
SECTION
  2
ENTITIES
  0
LINE
  5
96
330
1F
100
AcDbEntity
  8
외형선
  6
Continuous
370
    15
100
AcDbLine
 10
9.96991898955621
 20
6.350000000000002
 30
0.0
 11
-9.066124999999975
 21
6.350000000000001
 31
0.0
  0
LINE
  5
97
330
1F
100
AcDbEntity
  8
외형선
  6
Continuous
370
    15
100
AcDbLine
 10
-37.79999999999999
 20
-6.35
 30
0.0
 11
9.96991898955621
 21
-6.349999999999997
 31
0.0
  0
LINE
  5
98
330
1F
100
AcDbEntity
  8
외형선
  6
Continuous
370
    15
100
AcDbLine
 10
-37.79999999999999
 20
6.349999999999996
 30
0.0
 11
-38.8
 21
5.349999999999996
 31
0.0
  0
LINE
  5
99
330
1F
100
AcDbEntity
  8
외형선
  6
Continuous
370
    15
100
AcDbLine
 10
-38.8
 20
-5.349999999999998
 30
0.0
 11
-37.79999999999999
 21
-6.349999999999997
 31
0.0
  0
SPLINE
  5
9A
330
1F
100
AcDbEntity
  8
외형선
  6
Continuous
370
    15
100
AcDbSpline
210
0.0
220
0.0
230
1.0
 70
     8
 71
     3
 72
     9
 73
     5
 74
     0
 42
0.000000001
 43
0.00000001
 40
0.0
 40
0.0
 40
0.0
 40
0.0
 40
0.5179580090336288
 40
1.0
 40
1.0
 40
1.0
 40
1.0
 10
9.969888033363109
 20
-5.218810017529911
 30
0.0
 10
10.32203759929135
 20
-5.188837958936818
 30
0.0
 10
11.00191812973293
 20
-5.130972151148629
 30
0.0
 10
11.67536859628569
 20
-5.088164943512989
 30
0.0
 10
12.00000000000001
 20
-5.067530071916593
 30
0.0
  0
LINE
  5
9B
330
1F
100
AcDbEntity
  8
0
  6
Continuous
 62
     1
370
    15
100
AcDbLine
 10
17.42106409437473
 20
1.796313545466784
 30
0.0
 11
17.36767260804885
 21
1.825666152078045
 31
0.0
1001
PE_URL
1000

  0
SPLINE
  5
9C
330
1F
100
AcDbEntity
  8
0
  6
Continuous
 62
     1
370
    15
100
AcDbSpline
210
0.0
220
0.0
230
1.0
 70
     8
 71
     3
 72
     9
 73
     5
 74
     0
 42
0.000000001
 43
0.00000001
 40
0.0
 40
0.0
 40
0.0
 40
0.0
 40
0.4624067518754975
 40
1.0
 40
1.0
 40
1.0
 40
1.0
 10
20.94938472027376
 20
1.627139974534553
 30
0.0
 10
20.67796435613583
 20
1.756243348085255
 30
0.0
 10
20.09099117065128
 20
2.0354420687507
 30
0.0
 10
19.50280902211465
 20
2.342954197064536
 30
0.0
 10
19.18660627039401
 20
2.508270640962448
 30
0.0
1001
PE_URL
1000

  0
SPLINE
  5
9D
330
1F
100
AcDbEntity
  8
0
  6
Continuous
 62
     1
370
    15
100
AcDbSpline
210
0.0
220
0.0
230
1.0
 70
     8
 71
     3
 72
    20
 73
    16
 74
     0
 42
0.000000001
 43
0.00000001
 40
0.0
 40
0.0
 40
0.0
 40
0.0
 40
0.1281650274998667
 40
0.2331530502983623
 40
0.3203459404141445
 40
0.3935372779536128
 40
0.4684182120588478
 40
0.5568835825030348
 40
0.6297490020360269
 40
0.6908405877946239
 40
0.7573904304452888
 40
0.835307093494684
 40
0.9257899417733563
 40
0.9757568223381687
 40
1.0
 40
1.0
 40
1.0
 40
1.0
 10
18.8499326448671
 20
5.045957381516751
 30
0.0
 10
18.63673855886342
 20
5.034980568945544
 30
0.0
 10
18.24890380840952
 20
5.015011959852608
 30
0.0
 10
17.69000307420453
 20
4.994136949592977
 30
0.0
 10
17.22521378428392
 20
4.980233371236746
 30
0.0
 10
16.81908047591644
 20
4.970713645591545
 30
0.0
 10
16.41603681221704
 20
4.963879870151531
 30
0.0
 10
16.00854638969749
 20
4.959815011270125
 30
0.0
 10
15.62597584462949
 20
4.95868602256082
 30
0.0
 10
15.28085733591558
 20
4.959651249517097
 30
0.0
 10
14.92703086637644
 20
4.962592931130372
 30
0.0
 10
14.52267576855016
 20
4.968463253402295
 30
0.0
 10
14.14699882190905
 20
4.976737456846781
 30
0.0
 10
13.86356308497047
 20
4.984539004285328
 30
0.0
 10
13.7358340581196
 20
4.988607744983281
 30
0.0
 10
13.69410713370376
 20
4.989936934124991
 30
0.0
1001
PE_URL
1000

  0
SPLINE
  5
9E
330
1F
100
AcDbEntity
  8
0
  6
Continuous
 62
     1
370
    15
100
AcDbSpline
210
0.0
220
0.0
230
1.0
 70
     8
 71
     3
 72
    29
 73
    25
 74
     0
 42
0.000000001
 43
0.00000001
 40
0.0
 40
0.0
 40
0.0
 40
0.0
 40
0.0609782346244782
 40
0.1098749767920015
 40
0.1467594093243207
 40
0.1774224568845258
 40
0.2044095025357908
 40
0.2306274250799623
 40
0.2631115117131069
 40
0.2994631173101099
 40
0.3527496249845275
 40
0.4031959061388276
 40
0.4497065709700391
 40
0.4955876197392383
 40
0.5531559618588113
 40
0.6051435372699353
 40
0.6536014506780643
 40
0.7064906054721489
 40
0.7661113749772599
 40
0.8011093274318244
 40
0.835536638409337
 40
0.8757843430874347
 40
0.9293989050910157
 40
1.0
 40
1.0
 40
1.0
 40
1.0
 10
35.04058755444905
 20
4.343097581521196
 30
0.0
 10
34.81877010660476
 20
4.32486856754308
 30
0.0
 10
34.4190834465359
 20
4.292022216707885
 30
0.0
 10
33.87919146075063
 20
4.257062767510337
 30
0.0
 10
33.44118130176468
 20
4.233333110035534
 30
0.0
 10
33.08550801801754
 20
4.217044403082436
 30
0.0
 10
32.77373840368622
 20
4.205007895323428
 30
0.0
 10
32.459553542062
 20
4.195047152516587
 30
0.0
 10
32.10784230847743
 20
4.186532495953736
 30
0.0
 10
31.65575783686383
 20
4.179604808529686
 30
0.0
 10
31.13759079259921
 20
4.17761272003627
 30
0.0
 10
30.5818706877408
 20
4.182886642995856
 30
0.0
 10
30.05342227008278
 20
4.194545239454166
 30
0.0
 10
29.49855333450131
 20
4.213289596770672
 30
0.0
 10
28.92357391204658
 20
4.24022550608203
 30
0.0
 10
28.33873817104463
 20
4.275737593522037
 30
0.0
 10
27.77165166263735
 20
4.317431028349934
 30
0.0
 10
27.1768181021461
 20
4.368268555393243
 30
0.0
 10
26.62869110902963
 20
4.422563127178757
 30
0.0
 10
26.15844716090846
 20
4.47427474619486
 30
0.0
 10
25.75052798099552
 20
4.52267117020084
 30
0.0
 10
25.26452808248873
 20
4.584225892382156
 30
0.0
 10
24.65338319384775
 20
4.667426383824197
 30
0.0
 10
24.20278652136515
 20
4.736687718413688
 30
0.0
 10
23.94667856178635
 20
4.776054141120912
 30
0.0
1001
PE_URL
1000

  0
SPLINE
  5
9F
330
1F
100
AcDbEntity
  8
0
  6
Continuous
 62
     1
370
    15
100
AcDbSpline
210
0.0
220
0.0
230
1.0
 70
     8
 71
     3
 72
    19
 73
    15
 74
     0
 42
0.000000001
 43
0.00000001
 40
0.0
 40
0.0
 40
0.0
 40
0.0
 40
0.1048307825010221
 40
0.1860497404878171
 40
0.2845909407631655
 40
0.3769745864403858
 40
0.4836150093218513
 40
0.5818201639676652
 40
0.6624528402705351
 40
0.7297452915181776
 40
0.8140002858487094
 40
0.9069524384055114
 40
0.9850429475935306
 40
1.0
 40
1.0
 40
1.0
 40
1.0
 10
23.94667856178635
 20
-4.776054141120909
 30
0.0
 10
24.09217564302467
 20
-4.752855884812384
 30
0.0
 10
24.35039840508277
 20
-4.711684489703043
 30
0.0
 10
24.80776119522193
 20
-4.644733827708052
 30
0.0
 10
25.25055083662843
 20
-4.586801467844504
 30
0.0
 10
25.7302568537675
 20
-4.524864631820439
 30
0.0
 10
26.19913216656764
 20
-4.46939893165224
 30
0.0
 10
26.65231291797672
 20
-4.420419576339182
 30
0.0
 10
27.03987547020063
 20
-4.382105646225812
 30
0.0
 10
27.40258648416686
 20
-4.348865605852591
 30
0.0
 10
27.79151792266483
 20
-4.316238876894973
 30
0.0
 10
28.19964785946972
 20
-4.28600480462976
 30
0.0
 10
28.49602866205103
 20
-4.26611342846719
 30
0.0
 10
28.64285840914954
 20
-4.257717881479183
 30
0.0
 10
28.66646074954995
 20
-4.256368328260068
 30
0.0
1001
PE_URL
1000

  0
SPLINE
  5
A0
330
1F
100
AcDbEntity
  8
0
  6
Continuous
 62
     1
370
    15
100
AcDbSpline
210
0.0
220
0.0
230
1.0
 70
     8
 71
     3
 72
    27
 73
    23
 74
     0
 42
0.000000001
 43
0.00000001
 40
0.0
 40
0.0
 40
0.0
 40
0.0
 40
0.0796991224701655
 40
0.1393755635873172
 40
0.1787455741440347
 40
0.2063205404423649
 40
0.2401897449571546
 40
0.2798349820236719
 40
0.3168410738824782
 40
0.3751677963603509
 40
0.436007708232443
 40
0.5054894976998436
 40
0.5503846546311563
 40
0.5835831710209477
 40
0.6198946374352435
 40
0.6773721559309633
 40
0.7356273732289037
 40
0.7728015208192587
 40
0.8065651037440456
 40
0.8547666787111823
 40
0.9193367114472021
 40
1.0
 40
1.0
 40
1.0
 40
1.0
 10
11.99999999999996
 20
-5.067530071916596
 30
0.0
 10
12.18251377533134
 20
-5.057096757515605
 30
0.0
 10
12.50168868605615
 20
-5.038851273379113
 30
0.0
 10
12.91100685743653
 20
-5.019655549818059
 30
0.0
 10
13.20096569309339
 20
-5.007505317956992
 30
0.0
 10
13.43188780915476
 20
-4.99871865561677
 30
0.0
 10
13.66340136719612
 20
-4.990709140255547
 30
0.0
 10
13.91644215269337
 20
-4.982959462071692
 30
0.0
 10
14.22311562189265
 20
-4.975071047683093
 30
0.0
 10
14.54615468112094
 20
-4.967164097982104
 30
0.0
 10
14.97865000419636
 20
-4.960076721778951
 30
0.0
 10
15.38809465946698
 20
-4.958794619743518
 30
0.0
 10
15.73159210962183
 20
-4.958915985890016
 30
0.0
 10
15.99696106874583
 20
-4.960069992409407
 30
0.0
 10
16.28677981263247
 20
-4.962483536232392
 30
0.0
 10
16.63508675467291
 20
-4.967265249776768
 30
0.0
 10
16.98522419617131
 20
-4.974417551250083
 30
0.0
 10
17.28183433774229
 20
-4.982075221948049
 30
0.0
 10
17.55579380105778
 20
-4.990236092752269
 30
0.0
 10
17.89115722623201
 20
-5.001828510063943
 30
0.0
 10
18.3335423800389
 20
-5.019660754459314
 30
0.0
 10
18.6655397185328
 20
-5.036567367130136
 30
0.0
 10
18.8499326448671
 20
-5.045957381516747
 30
0.0
1001
PE_URL
1000

  0
SPLINE
  5
A1
330
1F
100
AcDbEntity
  8
외형선
  6
Continuous
370
    15
100
AcDbSpline
210
0.0
220
0.0
230
1.0
 70
     8
 71
     3
 72
     8
 73
     4
 74
     0
 42
0.000000001
 43
0.00000001
 40
0.0
 40
0.0
 40
0.0
 40
0.0
 40
1.0
 40
1.0
 40
1.0
 40
1.0
 10
12.00000000000001
 20
5.538086587305232
 30
0.0
 10
11.32679848290987
 20
5.728836816636822
 30
0.0
 10
10.64432116473926
 20
5.88887107399344
 30
0.0
 10
9.96983425466521
 20
6.01407842009561
 30
0.0
  0
LINE
  5
A2
330
1F
100
AcDbEntity
  8
외형선
  6
Continuous
370
    15
100
AcDbLine
 10
12.0
 20
5.538086587305229
 30
0.0
 11
12.0
 21
4.464653049026656
 31
0.0
  0
SPLINE
  5
A3
330
1F
100
AcDbEntity
  8
외형선
  6
Continuous
370
    15
100
AcDbSpline
210
0.0
220
0.0
230
1.0
 70
     8
 71
     3
 72
     8
 73
     4
 74
     0
 42
0.000000001
 43
0.00000001
 40
0.0
 40
0.0
 40
0.0
 40
0.0
 40
1.0
 40
1.0
 40
1.0
 40
1.0
 10
9.96991898955621
 20
5.217286373225149
 30
0.0
 10
10.64437832255209
 20
4.994910459616837
 30
0.0
 10
11.32682667403202
 20
4.741881616628885
 30
0.0
 10
11.99999999999979
 20
4.46465304902648
 30
0.0
  0
SPLINE
  5
A4
330
1F
100
AcDbEntity
  8
외형선
  6
Continuous
370
    15
100
AcDbSpline
210
0.0
220
0.0
230
1.0
 70
     8
 71
     3
 72
     8
 73
     4
 74
     0
 42
0.000000001
 43
0.00000001
 40
0.0
 40
0.0
 40
0.0
 40
0.0
 40
1.0
 40
1.0
 40
1.0
 40
1.0
 10
12.00000000000001
 20
-5.538086587305227
 30
0.0
 10
11.32679848290987
 20
-5.728836816636818
 30
0.0
 10
10.64432116473926
 20
-5.888871073993435
 30
0.0
 10
9.96983425466521
 20
-6.014078420095605
 30
0.0
  0
LINE
  5
A5
330
1F
100
AcDbEntity
  8
외형선
  6
Continuous
370
    15
100
AcDbLine
 10
9.96991898955621
 20
6.01416575664395
 30
0.0
 11
9.96991898955621
 21
6.350000000000002
 31
0.0
  0
LINE
  5
A6
330
1F
100
AcDbEntity
  8
외형선
  6
Continuous
370
    15
100
AcDbLine
 10
-37.79999999999999
 20
6.349999999999996
 30
0.0
 11
-37.79999999999999
 21
-6.349999999999989
 31
0.0
  0
LINE
  5
A7
330
1F
100
AcDbEntity
  8
외형선
  6
Continuous
370
    15
100
AcDbLine
 10
9.96991898955621
 20
-6.349999999999997
 30
0.0
 11
9.96991898955621
 21
5.217285107646903
 31
0.0
  0
LINE
  5
A8
330
1F
100
AcDbEntity
  8
외형선
  6
Continuous
370
    15
100
AcDbLine
 10
-38.8
 20
5.349999999999996
 30
0.0
 11
-38.8
 21
-5.350000000000003
 31
0.0
  0
SPLINE
  5
A9
330
1F
100
AcDbEntity
  8
외형선
  6
Continuous
370
    15
100
AcDbSpline
210
0.0
220
0.0
230
1.0
 70
    24
 71
     3
 72
    14
 73
    10
 74
     0
 42
0.000000001
 43
0.00000001
 40
0.0
 40
0.0
 40
0.0
 40
0.0
 40
0.2499999999999999
 40
0.2499999999999999
 40
0.4999999999999999
 40
0.4999999999999999
 40
0.7499999999999999
 40
0.7499999999999999
 40
1.0
 40
1.0
 40
1.0
 40
1.0
 10
12.0
 20
2.992688830855069
 30
0.0
 10
12.0
 20
2.505676465482916
 30
0.0
 10
12.0
 20
1.968520911501921
 30
0.0
 10
12.0
 20
0.8330753216585451
 30
0.0
 10
12.0
 20
0.235218390500645
 30
0.0
 10
12.0
 20
-0.9642415580462667
 30
0.0
 10
12.0
 20
-1.565205453027406
 30
0.0
 10
12.0
 20
-2.712489578917415
 30
0.0
 10
12.0
 20
-3.258360077259146
 30
0.0
 10
12.0
 20
-3.756131498717471
 30
0.0
  0
SPLINE
  5
AA
330
1F
100
AcDbEntity
  8
외형선
  6
Continuous
370
    15
100
AcDbSpline
210
0.0
220
0.0
230
1.0
 70
     8
 71
     3
 72
     8
 73
     4
 74
     0
 42
0.000000001
 43
0.00000001
 40
0.0
 40
0.0
 40
0.0
 40
0.0
 40
1.0
 40
1.0
 40
1.0
 40
1.0
 10
12.00000000000001
 20
-3.756131498717474
 30
0.0
 10
11.32681637497424
 20
-3.546142666635071
 30
0.0
 10
10.64435744110174
 20
-3.3137813937924
 30
0.0
 10
9.969888033363109
 20
-3.064889614138335
 30
0.0
  0
SPLINE
  5
AB
330
1F
100
AcDbEntity
  8
외형선
  6
Continuous
370
    15
100
AcDbSpline
210
0.0
220
0.0
230
1.0
 70
     8
 71
     3
 72
     8
 73
     4
 74
     0
 42
0.000000001
 43
0.00000001
 40
0.0
 40
0.0
 40
0.0
 40
0.0
 40
1.0
 40
1.0
 40
1.0
 40
1.0
 10
12.0
 20
2.992688830855069
 30
0.0
 10
11.3268198785123
 20
3.194474012083022
 30
0.0
 10
10.64436454456323
 20
3.380110058145768
 30
0.0
 10
9.969898564053269
 20
3.544865485375187
 30
0.0
  0
SPLINE
  5
AC
330
1F
100
AcDbEntity
  8
외형선
  6
Continuous
370
    15
100
AcDbSpline
210
0.0
220
0.0
230
1.0
 70
    24
 71
     3
 72
    10
 73
     6
 74
     0
 42
0.000000001
 43
0.00000001
 40
0.0
 40
0.0
 40
0.0
 40
0.0
 40
0.5
 40
0.5
 40
1.0
 40
1.0
 40
1.0
 40
1.0
 10
12.0
 20
4.464653049026395
 30
0.0
 10
12.0
 20
4.310707723689771
 30
0.0
 10
12.0
 20
4.094634871367698
 30
0.0
 10
12.0
 20
3.583003836283774
 30
0.0
 10
12.0
 20
3.28912160263586
 30
0.0
 10
12.0
 20
2.992688830855069
 30
0.0
  0
SPLINE
  5
AD
330
1F
100
AcDbEntity
  8
외형선
  6
Continuous
370
    15
100
AcDbSpline
210
0.0
220
0.0
230
1.0
 70
    24
 71
     3
 72
    12
 73
     8
 74
     0
 42
0.000000001
 43
0.00000001
 40
0.0
 40
0.0
 40
0.0
 40
0.0
 40
0.1813025155515216
 40
0.3649689338549434
 40
0.6316714970557004
 40
0.9061084526569942
 40
1.0
 40
1.0
 40
1.0
 40
1.0
 10
12.00000000000001
 20
-3.756131498717473
 30
0.0
 10
12.00000000000001
 20
-3.902463849745135
 30
0.0
 10
12.00000000000001
 20
-4.197036498009775
 30
0.0
 10
12.00000000000001
 20
-4.595340297291024
 30
0.0
 10
12.00000000000001
 20
-4.91308896049537
 30
0.0
 10
12.00000000000001
 20
-5.07201898117914
 30
0.0
 10
12.00000000000001
 20
-5.053543967675002
 30
0.0
 10
12.00000000000001
 20
-5.048834455402072
 30
0.0
  0
SPLINE
  5
AE
330
1F
100
AcDbEntity
  8
외형선
  6
Continuous
370
    15
100
AcDbSpline
210
0.0
220
0.0
230
1.0
 70
    24
 71
     3
 72
    10
 73
     6
 74
     0
 42
0.000000001
 43
0.00000001
 40
0.0
 40
0.0
 40
0.0
 40
0.0
 40
0.12846606693943
 40
0.7764936588857835
 40
1.0
 40
1.0
 40
1.0
 40
1.0
 10
12.00000000000001
 20
-5.102336767672071
 30
0.0
 10
12.00000000000001
 20
-5.122580348431223
 30
0.0
 10
12.00000000000001
 20
-5.244939602256856
 30
0.0
 10
12.0
 20
-5.387870867762838
 30
0.0
 10
12.0
 20
-5.50742637629972
 30
0.0
 10
12.00000000000001
 20
-5.538086587290349
 30
0.0
  0
SPLINE
  5
AF
330
1F
100
AcDbEntity
  8
0
  6
Continuous
 62
     1
370
    15
100
AcDbSpline
210
0.0
220
0.0
230
1.0
 70
     8
 71
     3
 72
    46
 73
    42
 74
     0
 42
0.000000001
 43
0.00000001
 40
0.0
 40
0.0
 40
0.0
 40
0.0
 40
0.0625000000000002
 40
0.0625000000000002
 40
0.1250000000000002
 40
0.1250000000000002
 40
0.1875000000000003
 40
0.1875000000000003
 40
0.2500000000000003
 40
0.2500000000000003
 40
0.3125000000000004
 40
0.3125000000000004
 40
0.3437500000000004
 40
0.3437500000000004
 40
0.3750000000000004
 40
0.3750000000000004
 40
0.4375000000000003
 40
0.4375000000000003
 40
0.4687500000000001
 40
0.4687500000000001
 40
0.5
 40
0.5
 40
0.5312499999999998
 40
0.5312499999999998
 40
0.5624999999999997
 40
0.5624999999999997
 40
0.6249999999999997
 40
0.6249999999999997
 40
0.6562499999999997
 40
0.6562499999999997
 40
0.6874999999999998
 40
0.6874999999999998
 40
0.7499999999999998
 40
0.7499999999999998
 40
0.8124999999999998
 40
0.8124999999999998
 40
0.8749999999999999
 40
0.8749999999999999
 40
0.9375
 40
0.9375
 40
1.0
 40
1.0
 40
1.0
 40
1.0
 10
11.99999999999973
 20
4.464653049025798
 30
0.0
 10
12.52672504416301
 20
4.247735319399879
 30
0.0
 10
13.05796262565487
 20
4.014682337888053
 30
0.0
 10
14.11829303643542
 20
3.522585700552168
 30
0.0
 10
14.64363063229037
 20
3.264212416747882
 30
0.0
 10
15.70411402112662
 20
2.725028152128205
 30
0.0
 10
16.23484100343599
 20
2.444910978201861
 30
0.0
 10
17.28874679353692
 20
1.871044871323257
 30
0.0
 10
17.82121095990087
 20
1.575605287773698
 30
0.0
 10
18.8806160880334
 20
0.9768370137003121
 30
0.0
 10
19.40627602998133
 20
0.6737876833984039
 30
0.0
 10
20.20204433537252
 20
0.2158970721233107
 30
0.0
 10
20.4675436685829
 20
0.0628996160891425
 30
0.0
 10
20.99695545039269
 20
-0.2426340664196653
 30
0.0
 10
21.25987472276393
 20
-0.3949791364440109
 30
0.0
 10
22.05180097774198
 20
-0.8512014198788113
 30
0.0
 10
22.58445851055981
 20
-1.154341155132644
 30
0.0
 10
23.37808068859527
 20
-1.600455611857814
 30
0.0
 10
23.64078694418775
 20
-1.747559624106983
 30
0.0
 10
24.16917803608332
 20
-2.039038423037067
 30
0.0
 10
24.43444851950109
 20
-2.183331253705861
 30
0.0
 10
24.96507195190446
 20
-2.467882085309885
 30
0.0
 10
25.23042309971411
 20
-2.608139118209641
 30
0.0
 10
25.75913475685213
 20
-2.883537207963959
 30
0.0
 10
26.02178061545386
 20
-3.018563283268861
 30
0.0
 10
26.8149686966164
 20
-3.416336467692504
 30
0.0
 10
27.34765817508974
 20
-3.671171005326199
 30
0.0
 10
28.14011190912462
 20
-4.031973491173742
 30
0.0
 10
28.4028500055436
 20
-4.148642748725688
 30
0.0
 10
28.93200362892968
 20
-4.375123821467014
 30
0.0
 10
29.19745387042816
 20
-4.484784469970339
 30
0.0
 10
29.99331677467486
 20
-4.801711044558926
 30
0.0
 10
30.51925150982562
 20
-4.996437849626128
 30
0.0
 10
31.57820292894587
 20
-5.350798060661885
 30
0.0
 10
32.11076289984771
 20
-5.510253335497864
 30
0.0
 10
33.16549580483542
 20
-5.788904949475864
 30
0.0
 10
33.69531744171187
 20
-5.908824232292164
 30
0.0
 10
34.75605296790275
 20
-6.106844375509066
 30
0.0
 10
35.28145434411103
 20
-6.18470039191733
 30
0.0
 10
36.3414565858693
 20
-6.297449922029895
 30
0.0
 10
36.87372572742331
 20
-6.33209756242549
 30
0.0
 10
37.40000000000001
 20
-6.344633076706769
 30
0.0
1001
PE_URL
1000

  0
SPLINE
  5
B0
330
1F
100
AcDbEntity
  8
0
  6
Continuous
 62
     1
370
    15
100
AcDbSpline
210
0.0
220
0.0
230
1.0
 70
     8
 71
     3
 72
    13
 73
     9
 74
     0
 42
0.000000001
 43
0.00000001
 40
0.0
 40
0.0
 40
0.0
 40
0.0
 40
0.0228734479886289
 40
0.2604912942259759
 40
0.4981087693963793
 40
0.6654434236415374
 40
0.8326100059052541
 40
1.0
 40
1.0
 40
1.0
 40
1.0
 10
21.61907455583737
 20
-0.6011042011910634
 30
0.0
 10
21.54572854350425
 20
-0.5722668462674928
 30
0.0
 10
20.7104369998566
 20
-0.2438563718244127
 30
0.0
 10
19.11322197107715
 20
0.4127967438690701
 30
0.0
 10
17.05267800242068
 20
1.23170823615894
 30
0.0
 10
15.21833645353575
 20
1.923199785327806
 30
0.0
 10
13.60946104025943
 20
2.493498833607954
 30
0.0
 10
12.53672579888633
 20
2.826218103470868
 30
0.0
 10
12.00000000000001
 20
2.992688830855068
 30
0.0
1001
PE_URL
1000

  0
SPLINE
  5
B1
330
1F
100
AcDbEntity
  8
외형선
  6
Continuous
370
    15
100
AcDbSpline
210
0.0
220
0.0
230
1.0
 70
    24
 71
     3
 72
    10
 73
     6
 74
     0
 42
0.000000001
 43
0.00000001
 40
0.0
 40
0.0
 40
0.0
 40
0.0
 40
0.5000000000000002
 40
0.5000000000000002
 40
1.0
 40
1.0
 40
1.0
 40
1.0
 10
12.00000000000001
 20
4.464653049026392
 30
0.0
 10
12.00000000000001
 20
4.31070772368977
 30
0.0
 10
12.00000000000001
 20
4.094634871367695
 30
0.0
 10
12.00000000000001
 20
3.583003836283771
 30
0.0
 10
12.00000000000001
 20
3.289121602635857
 30
0.0
 10
12.00000000000001
 20
2.992688830855067
 30
0.0
  0
SPLINE
  5
B2
330
1F
100
AcDbEntity
  8
0
  6
Continuous
 62
     1
370
    15
100
AcDbSpline
210
0.0
220
0.0
230
1.0
 70
     8
 71
     3
 72
    46
 73
    42
 74
     0
 42
0.000000001
 43
0.00000001
 40
0.0
 40
0.0
 40
0.0
 40
0.0
 40
0.0625
 40
0.0625
 40
0.1250000000000001
 40
0.1250000000000001
 40
0.1875000000000001
 40
0.1875000000000001
 40
0.2500000000000002
 40
0.2500000000000002
 40
0.3125000000000002
 40
0.3125000000000002
 40
0.3437500000000004
 40
0.3437500000000004
 40
0.3750000000000006
 40
0.3750000000000006
 40
0.4375000000000006
 40
0.4375000000000006
 40
0.4687500000000007
 40
0.4687500000000007
 40
0.5000000000000007
 40
0.5000000000000007
 40
0.5312500000000007
 40
0.5312500000000007
 40
0.5625000000000007
 40
0.5625000000000007
 40
0.6250000000000007
 40
0.6250000000000007
 40
0.6562500000000006
 40
0.6562500000000006
 40
0.6875000000000004
 40
0.6875000000000004
 40
0.7500000000000003
 40
0.7500000000000003
 40
0.8125000000000003
 40
0.8125000000000003
 40
0.8750000000000002
 40
0.8750000000000002
 40
0.9375000000000002
 40
0.9375000000000002
 40
1.0
 40
1.0
 40
1.0
 40
1.0
 10
37.40000000000001
 20
-6.025774519622561
 30
0.0
 10
36.87372572742322
 20
-5.929573616110911
 30
0.0
 10
36.34145658586912
 20
-5.812053215775032
 30
0.0
 10
35.28145434411069
 20
-5.537740733374992
 30
0.0
 10
34.75605296790234
 20
-5.381300246554261
 30
0.0
 10
33.69531744171129
 20
-5.031198672749319
 30
0.0
 10
33.16549580483478
 20
-4.838060822548667
 30
0.0
 10
32.11076289984688
 20
-4.420275726186777
 30
0.0
 10
31.57820292894498
 20
-4.194580171097227
 30
0.0
 10
30.51925150982456
 20
-3.716483098540837
 30
0.0
 10
29.9933167746737
 20
-3.464249492084568
 30
0.0
 10
29.19745387042689
 20
-3.068072989997654
 30
0.0
 10
28.93200362892837
 20
-2.933200939574383
 30
0.0
 10
28.40285000554221
 20
-2.658897810447497
 30
0.0
 10
28.1401119091232
 20
-2.519642419492135
 30
0.0
 10
27.34765817508817
 20
-2.094948173753144
 30
0.0
 10
26.81496869661476
 20
-1.802749197944181
 30
0.0
 10
26.0217806154521
 20
-1.357653750289133
 30
0.0
 10
25.75913475685034
 20
-1.208312258648274
 30
0.0
 10
25.23042309971223
 20
-0.9071497011257252
 30
0.0
 10
24.96507195190253
 20
-0.7554607481160814
 30
0.0
 10
24.43444851949908
 20
-0.4510466426938166
 30
0.0
 10
24.16917803608128
 20
-0.2983225241680615
 30
0.0
 10
23.64078694418564
 20
0.006965033048147
 30
0.0
 10
23.37808068859311
 20
0.1594484698243363
 30
0.0
 10
22.5844585105575
 20
0.6171460771169748
 30
0.0
 10
22.0518009777396
 20
0.9218696343603185
 30
0.0
 10
21.25987472276145
 20
1.371242881123167
 30
0.0
 10
20.99695545039017
 20
1.519778135504638
 30
0.0
 10
20.46754366858027
 20
1.81462262943459
 30
0.0
 10
20.20204433536986
 20
1.960742436635099
 30
0.0
 10
19.40627602997855
 20
2.393472084953294
 30
0.0
 10
18.88061608803055
 20
2.673771011333728
 30
0.0
 10
17.82121095989783
 20
3.215322660362487
 30
0.0
 10
17.2887467935338
 20
3.476278009401231
 30
0.0
 10
16.23484100343275
 20
3.970554147754005
 30
0.0
 10
15.70411402112325
 20
4.205342004246708
 30
0.0
 10
14.64363063228685
 20
4.643917003861762
 30
0.0
 10
14.11829303643183
 20
4.847180261326911
 30
0.0
 10
13.05796262565109
 20
5.219919992573509
 30
0.0
 10
12.52672504415921
 20
5.388840157495814
 30
0.0
 10
11.99999999999582
 20
5.538086587306418
 30
0.0
1001
PE_URL
1000

  0
SPLINE
  5
B3
330
1F
100
AcDbEntity
  8
0
  6
Continuous
 62
     1
370
    15
100
AcDbSpline
210
0.0
220
0.0
230
1.0
 70
     8
 71
     3
 72
    17
 73
    13
 74
     0
 42
0.000000001
 43
0.00000001
 40
0.0
 40
0.0
 40
0.0
 40
0.0
 40
0.1040660877167152
 40
0.2080041093880551
 40
0.3119482046090372
 40
0.4160303008914807
 40
0.5200793329551611
 40
0.6240123779804541
 40
0.727963642981197
 40
0.8320585690402125
 40
0.9360916300675832
 40
1.0
 40
1.0
 40
1.0
 40
1.0
 10
37.40000000000001
 20
-5.00997387873817
 30
0.0
 10
36.8281380810084
 20
-4.893897757177958
 30
0.0
 10
35.68511798903961
 20
-4.661888359918051
 30
0.0
 10
33.9713776183156
 20
-4.167935544230974
 30
0.0
 10
32.2575455435331
 20
-3.581504151165728
 30
0.0
 10
30.54255767370066
 20
-2.906533237875923
 30
0.0
 10
28.82779066716861
 20
-2.161499862890134
 30
0.0
 10
27.11413278502695
 20
-1.363594109023985
 30
0.0
 10
25.40020629583993
 20
-0.5321113867940912
 30
0.0
 10
23.68513738218272
 20
0.3096911113525783
 30
0.0
 10
22.19037168571526
 20
1.042839444446679
 30
0.0
 10
21.26774737965283
 20
1.473588904127032
 30
0.0
 10
20.9166522679612
 20
1.637506143965438
 30
0.0
1001
PE_URL
1000

  0
LINE
  5
B4
330
1F
100
AcDbEntity
  8
0
  6
Continuous
 62
     1
370
    15
100
AcDbLine
 10
37.40000000000001
 20
-6.025774519622563
 30
0.0
 11
37.40000000000001
 21
-5.00997387873817
 31
0.0
1001
PE_URL
1000

  0
LINE
  5
B5
330
1F
100
AcDbEntity
  8
0
  6
Continuous
 62
     1
370
    15
100
AcDbLine
 10
37.40000000000001
 20
-6.344633076708236
 30
0.0
 11
37.40000000000001
 21
-6.025774519622563
 31
0.0
1001
PE_URL
1000

  0
SPLINE
  5
B6
330
1F
100
AcDbEntity
  8
0
  6
Continuous
 62
     1
370
    15
100
AcDbSpline
210
0.0
220
0.0
230
1.0
 70
     8
 71
     3
 72
     8
 73
     4
 74
     0
 42
0.000000001
 43
0.00000001
 40
0.0
 40
0.0
 40
0.0
 40
0.0
 40
1.0
 40
1.0
 40
1.0
 40
1.0
 10
33.47110935627956
 20
1.776017074452408
 30
0.0
 10
33.2459566183125
 20
2.04271934542606
 30
0.0
 10
33.04437534697912
 20
2.300050926275849
 30
0.0
 10
32.8724705694509
 20
2.545584801376882
 30
0.0
1001
PE_URL
1000

  0
LINE
  5
B7
330
1F
100
AcDbEntity
  8
0
  6
Continuous
 62
     1
370
    15
100
AcDbLine
 10
32.95275512375335
 20
2.612951541294605
 30
0.0
 11
37.40000000000001
 21
0.0000000000000052
 31
0.0
1001
PE_URL
1000

  0
LINE
  5
B8
330
1F
100
AcDbEntity
  8
0
  6
Continuous
 62
     1
370
    15
100
AcDbLine
 10
37.40000000000001
 20
0.0000000000000052
 30
0.0
 11
37.40000000000001
 21
-1.69699270728824
 31
0.0
1001
PE_URL
1000

  0
SPLINE
  5
B9
330
1F
100
AcDbEntity
  8
0
  6
Continuous
 62
     1
370
    15
100
AcDbSpline
210
0.0
220
0.0
230
1.0
 70
     8
 71
     3
 72
    12
 73
     8
 74
     0
 42
0.000000001
 43
0.00000001
 40
0.0
 40
0.0
 40
0.0
 40
0.0
 40
0.5
 40
0.5
 40
0.75
 40
0.75
 40
1.0
 40
1.0
 40
1.0
 40
1.0
 10
37.40000000000001
 20
-1.696992707288239
 30
0.0
 10
36.71989727265295
 20
-1.162318204574247
 30
0.0
 10
36.0511544579366
 20
-0.605723497593762
 30
0.0
 10
35.06552321729134
 20
0.26290390368223
 30
0.0
 10
34.73994021316177
 20
0.5581594504446644
 30
0.0
 10
34.09542402705683
 20
1.161502109201983
 30
0.0
 10
33.77824347731784
 20
1.468032404441038
 30
0.0
 10
33.47110935627955
 20
1.776017074452414
 30
0.0
1001
PE_URL
1000

  0
SPLINE
  5
BA
330
1F
100
AcDbEntity
  8
0
  6
Continuous
 62
     1
370
    15
100
AcDbSpline
210
0.0
220
0.0
230
1.0
 70
     8
 71
     3
 72
    16
 73
    12
 74
     0
 42
0.000000001
 43
0.00000001
 40
0.0
 40
0.0
 40
0.0
 40
0.0
 40
0.1000560031633727
 40
0.2003027150830502
 40
0.3175931675487537
 40
0.4347510467855484
 40
0.5519297576122579
 40
0.6692726788542971
 40
0.7865448719829814
 40
0.9036983166057165
 40
1.0
 40
1.0
 40
1.0
 40
1.0
 10
33.471109356275
 20
1.776017074454376
 30
0.0
 10
32.98355148473281
 20
1.984228266711956
 30
0.0
 10
32.00750644653002
 20
2.401047505951157
 30
0.0
 10
30.4593275932564
 20
3.006945649641001
 30
0.0
 10
28.82781793356287
 20
3.584722420066905
 30
0.0
 10
27.11415256304967
 20
4.104621326967903
 30
0.0
 10
25.40020941915313
 20
4.524913228271201
 30
0.0
 10
23.68517270233784
 20
4.835997376991832
 30
0.0
 10
21.97051570547873
 20
5.026591020403163
 30
0.0
 10
20.35873447972856
 20
5.103586479039373
 30
0.0
 10
19.31836090403094
 20
5.057625836115813
 30
0.0
 10
18.84898953015313
 20
5.036890390101745
 30
0.0
1001
PE_URL
1000

  0
SPLINE
  5
BB
330
1F
100
AcDbEntity
  8
0
  6
Continuous
 62
     1
370
    15
100
AcDbSpline
210
0.0
220
0.0
230
1.0
 70
    24
 71
     3
 72
    10
 73
     6
 74
     0
 42
0.000000001
 43
0.00000001
 40
0.0
 40
0.0
 40
0.0
 40
0.0
 40
0.5
 40
0.5
 40
1.0
 40
1.0
 40
1.0
 40
1.0
 10
37.40000000000001
 20
-5.009973878738168
 30
0.0
 10
37.40000000000001
 20
-4.62592032017416
 30
0.0
 10
37.4
 20
-4.140653922806072
 30
0.0
 10
37.40000000000001
 20
-3.012456250606813
 30
0.0
 10
37.40000000000001
 20
-2.370502263375814
 30
0.0
 10
37.40000000000001
 20
-1.696992707288443
 30
0.0
1001
PE_URL
1000

  0
SPLINE
  5
BC
330
1F
100
AcDbEntity
  8
0
  6
Continuous
 62
     1
370
    15
100
AcDbSpline
210
0.0
220
0.0
230
1.0
 70
    24
 71
     3
 72
     8
 73
     4
 74
     0
 42
0.000000001
 43
0.00000001
 40
0.0
 40
0.0
 40
0.0
 40
0.0
 40
1.0
 40
1.0
 40
1.0
 40
1.0
 10
33.53479688430332
 20
3.101342567901445
 30
0.0
 10
33.3252008107637
 20
2.925470579898148
 30
0.0
 10
33.10370784598384
 20
2.739615914843406
 30
0.0
 10
32.87247056944509
 20
2.545584801385301
 30
0.0
1001
PE_URL
1000

  0
SPLINE
  5
BD
330
1F
100
AcDbEntity
  8
0
  6
Continuous
 62
     1
370
    15
100
AcDbSpline
210
0.0
220
0.0
230
1.0
 70
     8
 71
     3
 72
     9
 73
     5
 74
     0
 42
0.000000001
 43
0.00000001
 40
0.0
 40
0.0
 40
0.0
 40
0.0
 40
0.9684382077806771
 40
1.0
 40
1.0
 40
1.0
 40
1.0
 10
37.40000000000001
 20
4.445000000000004
 30
0.0
 10
36.63804499476559
 20
4.443329309275323
 30
0.0
 10
35.85125756825486
 20
4.44160417006535
 30
0.0
 10
35.06447035458347
 20
4.343236662230668
 30
0.0
 10
35.03963794002475
 20
4.340132007387258
 30
0.0
1001
PE_URL
1000

  0
SPLINE
  5
BE
330
1F
100
AcDbEntity
  8
0
  6
Continuous
 62
     1
370
    15
100
AcDbSpline
210
0.0
220
0.0
230
1.0
 70
     8
 71
     3
 72
    10
 73
     6
 74
     0
 42
0.000000001
 43
0.00000001
 40
0.0
 40
0.0
 40
0.0
 40
0.0
 40
0.5
 40
0.5
 40
1.0
 40
1.0
 40
1.0
 40
1.0
 10
37.40000000000001
 20
4.445000000000006
 30
0.0
 10
36.74677884300199
 20
4.267837056609053
 30
0.0
 10
36.09755500543645
 20
4.068937872914625
 30
0.0
 10
34.80780659456462
 20
3.623835480516939
 30
0.0
 10
34.16724863861666
 20
3.378145942251233
 30
0.0
 10
33.53479688431497
 20
3.101342567906871
 30
0.0
1001
PE_URL
1000

  0
SPLINE
  5
BF
330
1F
100
AcDbEntity
  8
0
  6
Continuous
 62
     1
370
    15
100
AcDbSpline
210
0.0
220
0.0
230
1.0
 70
     8
 71
     3
 72
    15
 73
    11
 74
     0
 42
0.000000001
 43
0.00000001
 40
0.0
 40
0.0
 40
0.0
 40
0.0
 40
0.022118453149617
 40
0.1656250890246233
 40
0.3089864116915338
 40
0.4523902174195771
 40
0.5959969010920053
 40
0.7306940624419223
 40
0.8652594556431356
 40
1.0
 40
1.0
 40
1.0
 40
1.0
 10
23.9492033341692
 20
-4.76829592583653
 30
0.0
 10
23.86109215429935
 20
-4.784538027657515
 30
0.0
 10
23.20130722669634
 20
-4.90616043686718
 30
0.0
 10
21.97052174625448
 20
-5.022043782246547
 30
0.0
 10
20.25691647069377
 20
-5.102075464336639
 30
0.0
 10
18.54288402637213
 20
-5.04737243101085
 30
0.0
 10
16.86278334139812
 20
-4.877373091921349
 30
0.0
 10
15.21831044645468
 20
-4.598667159335708
 30
0.0
 10
13.60949273743838
 20
-4.23313902450584
 30
0.0
 10
12.53673014687088
 20
-3.915202933722756
 30
0.0
 10
12.00000000000001
 20
-3.756131498717475
 30
0.0
1001
PE_URL
1000

  0
SPLINE
  5
C0
330
1F
100
AcDbEntity
  8
외형선
  6
Continuous
370
    15
100
AcDbSpline
210
0.0
220
0.0
230
1.0
 70
    24
 71
     3
 72
    14
 73
    10
 74
     0
 42
0.000000001
 43
0.00000001
 40
0.0
 40
0.0
 40
0.0
 40
0.0
 40
0.25
 40
0.25
 40
0.5
 40
0.5
 40
0.75
 40
0.75
 40
1.0
 40
1.0
 40
1.0
 40
1.0
 10
12.0
 20
2.99268883085507
 30
0.0
 10
12.0
 20
2.505676465482918
 30
0.0
 10
12.0
 20
1.968520911501924
 30
0.0
 10
12.0
 20
0.8330753216585466
 30
0.0
 10
12.0
 20
0.2352183905006463
 30
0.0
 10
12.0
 20
-0.9642415580462653
 30
0.0
 10
12.0
 20
-1.565205453027405
 30
0.0
 10
12.0
 20
-2.712489578917413
 30
0.0
 10
12.0
 20
-3.258360077259145
 30
0.0
 10
12.0
 20
-3.75613149871747
 30
0.0
  0
LINE
  5
C1
330
1F
100
AcDbEntity
  8
0
  6
Continuous
 62
     1
370
    15
100
AcDbLine
 10
37.40000000000001
 20
0.0000000000000052
 30
0.0
 11
37.40000000000001
 21
4.445000000000005
 31
0.0
1001
PE_URL
1000

  0
SPLINE
  5
C2
330
1F
100
AcDbEntity
  8
외형선
  6
Continuous
370
    15
100
AcDbSpline
210
0.0
220
0.0
230
1.0
 70
    24
 71
     3
 72
    12
 73
     8
 74
     0
 42
0.000000001
 43
0.00000001
 40
0.0
 40
0.0
 40
0.0
 40
0.0
 40
0.1814510693155813
 40
0.365267978293042
 40
0.6321890694581092
 40
0.906850890349482
 40
1.0
 40
1.0
 40
1.0
 40
1.0
 10
12.00000000000001
 20
-3.756131498717473
 30
0.0
 10
12.00000000000001
 20
-3.90246337116538
 30
0.0
 10
12.00000000000001
 20
-4.197035056030574
 30
0.0
 10
12.00000000000001
 20
-4.595347257570974
 30
0.0
 10
12.00000000000001
 20
-4.913048896955498
 30
0.0
 10
12.00000000000001
 20
-5.071923756608513
 30
0.0
 10
12.00000000000001
 20
-5.053548528238181
 30
0.0
 10
12.00000000000001
 20
-5.048894952120149
 30
0.0
  0
SPLINE
  5
C3
330
1F
100
AcDbEntity
  8
0
  6
Continuous
 62
     1
370
    15
100
AcDbSpline
210
0.0
220
0.0
230
1.0
 70
    24
 71
     3
 72
    10
 73
     6
 74
     0
 42
0.000000001
 43
0.00000001
 40
0.0
 40
0.0
 40
0.0
 40
0.0
 40
0.5
 40
0.5
 40
1.0
 40
1.0
 40
1.0
 40
1.0
 10
37.40000000000001
 20
4.445000000000002
 30
0.0
 10
37.40000000000001
 20
4.714444830726444
 30
0.0
 10
37.40000000000001
 20
5.027564677306194
 30
0.0
 10
37.40000000000001
 20
5.684489272101435
 30
0.0
 10
37.40000000000001
 20
6.026616317339354
 30
0.0
 10
37.40000000000001
 20
6.344633076708242
 30
0.0
1001
PE_URL
1000

  0
SPLINE
  5
C4
330
1F
100
AcDbEntity
  8
0
  6
Continuous
 62
     1
370
    15
100
AcDbSpline
210
0.0
220
0.0
230
1.0
 70
     8
 71
     3
 72
    14
 73
    10
 74
     0
 42
0.000000001
 43
0.00000001
 40
0.0
 40
0.0
 40
0.0
 40
0.0
 40
0.0209851406740048
 40
0.1260240843840468
 40
0.2314272480755089
 40
0.421089423267747
 40
0.6112910014241931
 40
0.8053563646938116
 40
1.0
 40
1.0
 40
1.0
 40
1.0
 10
28.66798682775691
 20
4.257014407540401
 30
0.0
 10
28.72906266199483
 20
4.284883175161678
 30
0.0
 10
29.09584724578173
 20
4.452246166763339
 30
0.0
 10
29.7699600391047
 20
4.71281895109342
 30
0.0
 10
30.93338461105662
 20
5.148651299606651
 30
0.0
 10
32.34691969975679
 20
5.591476264014643
 30
0.0
 10
34.01694165940258
 20
5.989453128863081
 30
0.0
 10
35.70172863230784
 20
6.26061058359381
 30
0.0
 10
36.83334838390219
 20
6.31659781543162
 30
0.0
 10
37.39999999999967
 20
6.344633076708226
 30
0.0
1001
PE_URL
1000

  0
LINE
  5
C5
330
1F
100
AcDbEntity
  8
0
  6
Continuous
 62
     1
370
    15
100
AcDbLine
 10
13.69399895693402
 20
-4.989971936078307
 30
0.0
 11
11.99999999999582
 21
-5.538086587306414
 31
0.0
1001
PE_URL
1000

  0
SPLINE
  5
C6
330
1F
100
AcDbEntity
  8
외형선
  6
Continuous
370
    15
100
AcDbSpline
210
0.0
220
0.0
230
1.0
 70
    24
 71
     3
 72
    11
 73
     7
 74
     0
 42
0.000000001
 43
0.00000001
 40
0.0
 40
0.0
 40
0.0
 40
0.0
 40
0.1304332605396754
 40
0.4535392619829384
 40
0.7770223177559418
 40
1.0
 40
1.0
 40
1.0
 40
1.0
 10
12.00000000000001
 20
-5.102336767672072
 30
0.0
 10
12.00000000000001
 20
-5.122568908600154
 30
0.0
 10
12.00000000000001
 20
-5.19291960156674
 30
0.0
 10
12.00000000000001
 20
-5.307709317163531
 30
0.0
 10
12.00000000000001
 20
-5.43258661369213
 30
0.0
 10
12.00000000000001
 20
-5.507513458927774
 30
0.0
 10
12.00000000000001
 20
-5.538086587290347
 30
0.0
  0
LINE
  5
C7
330
1F
100
AcDbEntity
  8
중심선
 62
     1
100
AcDbLine
 10
-45.80000000000001
 20
-0.000000000000005
 30
0.0
 11
44.40000000000001
 21
0.0000000000000083
 31
0.0
  0
LINE
  5
C8
330
1F
100
AcDbEntity
  8
참조1
100
AcDbLine
 10
-0.700000000000002
 20
-0.0000000000000028
 30
0.0
 11
-0.6999999999999931
 21
-40.00000000000001
 31
0.0
  0
LINE
  5
C9
330
1F
100
AcDbEntity
  8
참조1
100
AcDbLine
 10
-0.6999999999999931
 20
-40.00000000000001
 30
0.0
 11
-23.00006253529963
 21
-39.99999999999999
 31
0.0
  0
CIRCLE
  5
CA
330
1F
100
AcDbEntity
  8
해칭선
100
AcDbCircle
 10
0.0
 20
0.0
 30
0.0
 40
2.999999999999993
  0
INSERT
  5
CB
330
1F
100
AcDbEntity
  8
0
  6
Continuous
 62
     7
100
AcDbBlockReference
 66
     1
  2
블럭10
 10
-14.6402729321252
 20
-52.04717430164393
 30
0.0
  0
ATTRIB
  5
CC
330
CB
100
AcDbEntity
  8
FORMAT
 62
     2
100
AcDbText
 10
-23.82156822086648
 20
-49.97180738881174
 30
0.0
 40
4.233333333333333
  1
E2030032 [ 2 FLUTE ]
 41
0.75
  7
SLDTEXTSTYLE0
 11
-23.82156822086648
 21
-52.08847405547841
 31
0.0
100
AcDbAttribute
  2
AUTOATTR0
 70
     0
 74
     1
  0
SEQEND
  5
CD
330
CB
100
AcDbEntity
  8
0
  6
Continuous
 62
     7
  0
HATCH
  5
CE
330
1F
100
AcDbEntity
  8
중심선
100
AcDbHatch
 10
0.0
 20
0.0
 30
0.0
210
0.0
220
0.0
230
1.0
  2
SOLID
 70
     1
 71
     0
 91
        1
 92
        0
 93
        4
 72
     1
 10
-8.925363627744355
 20
-35.8
 11
-12.37163887158164
 21
-35.8
 72
     1
 10
-12.37163887158164
 20
-35.8
 11
-14.49986873078566
 21
-38.3363255805726
 72
     1
 10
-14.49986873078566
 20
-38.3363255805726
 11
-11.05356040183523
 21
-38.3362861512701
 72
     1
 10
-11.05356040183523
 20
-38.3362861512701
 11
-8.925363627744355
 21
-35.8
 97
        0
 75
     0
 76
     1
 98
        1
 10
-2.84926131403116
 20
-0.001074928723892
  0
HATCH
  5
CF
330
1F
100
AcDbEntity
  8
중심선
100
AcDbHatch
 10
0.0
 20
0.0
 30
0.0
210
0.0
220
0.0
230
1.0
  2
SOLID
 70
     1
 71
     0
 91
        1
 92
        0
 93
        4
 72
     1
 10
-3.912599636708403
 20
-35.8
 11
-7.358874880545686
 21
-35.8
 72
     1
 10
-7.358874880545686
 20
-35.8
 11
-11.89001288890307
 21
-41.20000000000002
 72
     1
 10
-11.89001288890307
 20
-41.20000000000002
 11
-8.443737645065791
 21
-41.20000000000002
 72
     1
 10
-8.443737645065791
 20
-41.20000000000002
 11
-3.912599636708403
 21
-35.8
 97
        0
 75
     0
 76
     1
 98
        1
 10
-2.84926131403116
 20
-0.001074928723892
  0
HATCH
  5
D0
330
1F
100
AcDbEntity
  8
중심선
100
AcDbHatch
 10
0.0
 20
0.0
 30
0.0
210
0.0
220
0.0
230
1.0
  2
SOLID
 70
     1
 71
     0
 91
        1
 92
        0
 93
        4
 72
     1
 10
1.100164354327493
 20
-35.8
 11
-2.346110889509623
 21
-35.80000000000003
 72
     1
 10
-2.346110889509623
 20
-35.80000000000003
 11
-9.394547791398873
 21
-44.20000000000002
 72
     1
 10
-9.394547791398873
 20
-44.20000000000002
 11
-5.94827254756159
 21
-44.20000000000002
 72
     1
 10
-5.94827254756159
 20
-44.20000000000002
 11
1.100164354327493
 21
-35.8
 97
        0
 75
     0
 76
     1
 98
        1
 10
-2.84926131403116
 20
-0.001074928723892
  0
HATCH
  5
D1
330
1F
100
AcDbEntity
  8
중심선
100
AcDbHatch
 10
0.0
 20
0.0
 30
0.0
210
0.0
220
0.0
230
1.0
  2
SOLID
 70
     1
 71
     0
 91
        1
 92
        0
 93
        6
 72
     3
 10
5.900054785339691
 20
-40.00000000005127
 11
3.960054785062283
 21
1.540882976769353E-10
 40
0.3939339440162628
 50
17.09539180608436
 51
320.0019657685073
 73
     0
 72
     1
 10
7.583054441040289
 20
-38.58789400463827
 11
9.88835631474135
 21
-36.65356729459035
 72
     3
 10
5.900054785286844
 20
-40.00000000000014
 11
6.600054785286829
 21
-1.278976924368180E-13
 40
0.636358354079598
 50
39.99873849337411
 51
368.4976242363724
 73
     1
 72
     1
 10
12.32538727718745
 20
-39.03999999993002
 11
4.580122092122795
 21
-39.03999999993002
 72
     1
 10
4.580122092122796
 20
-39.03999999993002
 11
4.580097047676834
 21
-40.95999999992991
 72
     1
 10
4.580097047676833
 20
-40.95999999992991
 11
9.02147681714887
 21
-40.95999999992988
 97
        0
 75
     0
 76
     1
 98
        1
 10
-2.84926131403116
 20
-0.001074928723892
  0
DIMENSION
  5
D2
330
1F
100
AcDbEntity
  8
치수문자_일반주서
100
AcDbDimension
  2
_D
 10
-53.79999999999996
 20
-6.350000000000055
 30
0.0
 11
-53.80000000000006
 21
22.99574999999994
 31
0.0
 70
   160
  1
%%c<>
 71
     2
 42
12.69999999999999
 52
-270.0
  3
SLDDIMSTYLE1
100
AcDbAlignedDimension
 13
-37.8
 23
6.349999999999997
 33
0.0
 14
-37.8
 24
-6.349999999999993
 34
0.0
 50
90.0000000000002
100
AcDbRotatedDimension
1001
PE_URL
1000

1001
ACAD
1000
DSTYLE
1002
{
1070
   171
1070
     8
1070
   273
1070
     7
1002
}
1001
ACAD_DSTYLE_DIMFLIPARROW_SYMBOL
1070
   385
1070
     0
1001
ACAD_DSTYLE_DIMFLIPARROW_WHICH_SYMBOL
1070
   386
1070
     3
  0
DIMENSION
  5
E7
330
1F
100
AcDbEntity
  8
치수문자_일반주서
100
AcDbDimension
  2
_D_1
 10
12.00000000000001
 20
21.35
 30
0.0
 11
50.54575000000001
 21
21.35
 31
0.0
 70
   160
  1
<>
 71
     2
 42
25.40000000000001
  3
SLDDIMSTYLE1
100
AcDbAlignedDimension
 13
37.40000000000001
 23
6.344633076708242
 33
0.0
 14
12.00000000000001
 24
5.538086587290352
 34
0.0
100
AcDbRotatedDimension
1001
PE_URL
1000

1001
ACAD
1000
DSTYLE
1002
{
1070
   171
1070
     8
1070
   273
1070
     7
1002
}
  0
DIMENSION
  5
FC
330
1F
100
AcDbEntity
  8
치수문자_일반주서
100
AcDbDimension
  2
_D_2
 10
-38.79999999999999
 20
36.34999999999999
 30
0.0
 11
-0.700000000000002
 21
36.34999999999999
 31
0.0
 70
   160
  1
<>
 71
     2
 42
76.20000000000002
  3
SLDDIMSTYLE1
100
AcDbAlignedDimension
 13
37.40000000000001
 23
6.344633076708242
 33
0.0
 14
-38.8
 24
5.349999999999996
 34
0.0
 50
0.0000000000000053
100
AcDbRotatedDimension
1001
PE_URL
1000

1001
ACAD
1000
DSTYLE
1002
{
1070
   171
1070
     8
1070
   273
1070
     7
1002
}
  0
DIMENSION
  5
10F
330
1F
100
AcDbEntity
  8
치수문자_일반주서
100
AcDbDimension
  2
_D_3
 10
68.28576315141802
 20
6.344633076708355
 30
0.0
 11
68.28576315141797
 21
23.20913307670838
 31
0.0
 70
   160
  1
%%c<>
 71
     2
 42
12.68926615341648
 52
-270.0
  3
SLDDIMSTYLE1
100
AcDbAlignedDimension
 13
37.40000000000001
 23
-6.344633076708236
 33
0.0
 14
37.40000000000001
 24
6.344633076708242
 34
0.0
 50
90.0000000000002
100
AcDbRotatedDimension
1001
PE_URL
1000

1001
ACAD
1000
DSTYLE
1002
{
1070
   171
1070
     8
1070
   273
1070
     7
1002
}
1001
ACAD_DSTYLE_DIMFLIPARROW_SYMBOL
1070
   385
1070
     0
1001
ACAD_DSTYLE_DIMFLIPARROW_WHICH_SYMBOL
1070
   386
1070
     3
  0
LINE
  5
123
330
1F
100
AcDbEntity
  8
참조1
100
AcDbLine
 10
74.97227809435464
 20
7.440000000000005
 30
0.0
 11
74.97227809435464
 21
-7.44
 31
0.0
  0
LINE
  5
124
330
1F
100
AcDbEntity
  8
참조1
100
AcDbLine
 10
87.67227809435464
 20
5.440000000000005
 30
0.0
 11
74.97227809435464
 21
5.440000000000005
 31
0.0
  0
SOLID
  5
125
330
1F
100
AcDbEntity
  8
참조1
100
AcDbTrace
 10
74.97227809435464
 20
5.440000000000005
 30
0.0
 11
81.32227809435463
 21
4.424000000000005
 31
0.0
 12
81.32227809435463
 22
6.456000000000005
 32
0.0
 13
81.32227809435463
 23
6.456000000000005
 33
0.0
  0
LINE
  5
126
330
1F
100
AcDbEntity
  8
참조1
100
AcDbLine
 10
87.67227809435464
 20
-5.44
 30
0.0
 11
74.97227809435464
 21
-5.44
 31
0.0
  0
SOLID
  5
127
330
1F
100
AcDbEntity
  8
참조1
100
AcDbTrace
 10
74.97227809435464
 20
-5.44
 30
0.0
 11
81.32227809435463
 21
-6.456
 31
0.0
 12
81.32227809435463
 22
-4.424
 32
0.0
 13
81.32227809435463
 23
-4.424
 33
0.0
  0
MTEXT
  5
128
330
1F
100
AcDbEntity
  8
참조1
100
AcDbMText
 10
84.35662822698063
 20
11.01029177718833
 30
0.0
 40
3.5
 41
0.0
 71
     1
 72
     1
  1
A
  7
SLDTEXTSTYLE0
 73
     1
 44
1.0
  0
MTEXT
  5
129
330
1F
100
AcDbEntity
  8
참조1
100
AcDbMText
 10
84.35662822698063
 20
0.1302917771883272
 30
0.0
 40
3.5
 41
0.0
 71
     1
 72
     1
  1
A
  7
SLDTEXTSTYLE0
 73
     1
 44
1.0
  0
INSERT
  5
130
330
1F
100
AcDbEntity
  8
해칭선
100
AcDbBlockReference
  2
SW_DOWELSYMBOL_0
 10
0.0
 20
0.0
 30
0.0
  0
LINE
  5
1AC
330
1F
100
AcDbEntity
  8
외형선
  6
Continuous
370
    15
100
AcDbLine
 10
-53.8
 20
5.349999999999996
 30
0.0
 11
-53.8
 21
-5.350000000000003
 31
0.0
  0
LINE
  5
210
330
1F
100
AcDbEntity
  8
외형선
  6
Continuous
370
    15
100
AcDbLine
 10
-21.76612499999997
 20
4.82599999999999
 30
0.0
 11
-10.5901250000001
 21
4.82599999999999
 31
0.0
1001
PE_URL
1000

  0
LINE
  5
211
330
1F
100
AcDbEntity
  8
외형선
  6
Continuous
370
    15
100
AcDbLine
 10
-21.76612499999997
 20
4.82599999999999
 30
0.0
 11
-23.29012499999997
 21
6.349999999999991
 31
0.0
1001
PE_URL
1000

  0
LINE
  5
212
330
1F
100
AcDbEntity
  8
외형선
  6
Continuous
370
    15
100
AcDbLine
 10
-10.59012499999999
 20
4.82599999999999
 30
0.0
 11
-9.066124999999985
 21
6.349999999999991
 31
0.0
1001
PE_URL
1000

  0
LINE
  5
213
330
1F
100
AcDbEntity
  8
외형선
  6
Continuous
370
    15
100
AcDbLine
 10
-23.29012499999999
 20
6.350000000000001
 30
0.0
 11
-37.8
 21
6.35
 31
0.0
  0
ENDSEC
  0
SECTION
  2
OBJECTS
  0
DICTIONARY
  5
C
330
0
100
AcDbDictionary
281
     1
  3
ACAD_DETAILVIEWSTYLE
350
1B9
  3
ACAD_GROUP
350
D
  3
ACAD_IMAGE_VARS
350
237
  3
ACAD_LAYOUT
350
1A
  3
ACAD_MLINESTYLE
350
17
  3
ACAD_PLOTSETTINGS
350
19
  3
ACAD_PLOTSTYLENAME
350
E
  3
ACAD_SCALELIST
350
47
  3
ACAD_SECTIONVIEWSTYLE
350
1BA
  3
AcDbVariableDictionary
350
1B4
  3
APPDATA
350
152
  3
DWGPROPS
350
238
  0
DICTIONARY
  5
18B
330
2
100
AcDbDictionary
280
     1
281
     1
  3
ACAD_LAYERSTATES
360
18C
  0
DICTIONARY
  5
1B9
102
{ACAD_REACTORS
330
C
102
}
330
C
100
AcDbDictionary
281
     1
  0
DICTIONARY
  5
D
102
{ACAD_REACTORS
330
C
102
}
330
C
100
AcDbDictionary
281
     1
  0
RASTERVARIABLES
  5
237
102
{ACAD_REACTORS
330
C
102
}
330
C
100
AcDbRasterVariables
 90
        0
 70
     1
 71
     1
 72
     1
  0
DICTIONARY
  5
1A
102
{ACAD_REACTORS
330
C
102
}
330
C
100
AcDbDictionary
281
     1
  3
Layout1
350
1E
  3
Layout2
350
26
  3
Model
350
22
  0
DICTIONARY
  5
17
102
{ACAD_REACTORS
330
C
102
}
330
C
100
AcDbDictionary
281
     1
  3
Standard
350
18
  0
DICTIONARY
  5
19
102
{ACAD_REACTORS
330
C
102
}
330
C
100
AcDbDictionary
281
     1
  0
ACDBDICTIONARYWDFLT
  5
E
102
{ACAD_REACTORS
330
C
102
}
330
C
100
AcDbDictionary
281
     1
  3
Normal
350
F
100
AcDbDictionaryWithDefault
340
F
  0
DICTIONARY
  5
47
102
{ACAD_REACTORS
330
C
102
}
330
C
100
AcDbDictionary
281
     1
  3
A0
350
48
  3
A1
350
49
  3
A2
350
4A
  3
A3
350
4B
  3
A4
350
4C
  3
A5
350
4D
  3
A6
350
4E
  3
A7
350
4F
  3
A8
350
50
  3
A9
350
51
  3
B0
350
52
  3
B1
350
53
  3
B2
350
54
  3
B3
350
55
  3
B4
350
56
  3
B5
350
57
  3
B6
350
58
  3
B7
350
59
  3
B8
350
5A
  3
B9
350
5B
  3
C0
350
5C
  3
C1
350
5D
  3
C2
350
5E
  3
C3
350
5F
  3
C4
350
60
  3
C5
350
61
  3
C6
350
62
  3
C7
350
63
  3
C8
350
64
  3
C9
350
65
  3
D0
350
66
  3
D1
350
67
  3
D2
350
68
  0
DICTIONARY
  5
1BA
102
{ACAD_REACTORS
330
C
102
}
330
C
100
AcDbDictionary
281
     1
  0
DICTIONARY
  5
1B4
102
{ACAD_REACTORS
330
C
102
}
330
C
100
AcDbDictionary
281
     1
  0
DICTIONARY
  5
152
102
{ACAD_REACTORS
330
C
102
}
330
C
100
AcDbDictionary
281
     1
  0
XRECORD
  5
238
102
{ACAD_REACTORS
330
C
102
}
330
C
100
AcDbXrecord
280
     1
  1
DWGPROPS COOKIE
  2

  3

  4

  6

  7

  8
12016016
  9

300
=
301
=
302
=
303
=
304
=
305
=
306
=
307
=
308
=
309
=
 40
0.0
 41
2458311.083601794
 42
2458323.077400463
  1

 90
        0
  0
DICTIONARY
  5
18C
102
{ACAD_REACTORS
330
18B
102
}
330
18B
100
AcDbDictionary
281
     1
  0
LAYOUT
  5
1E
102
{ACAD_REACTORS
330
1A
102
}
330
1A
100
AcDbPlotSettings
  1

  2
none_device
  4

  6

 40
0.0
 41
0.0
 42
0.0
 43
0.0
 44
0.0
 45
0.0
 46
0.0
 47
0.0
 48
0.0
 49
0.0
140
0.0
141
0.0
142
1.0
143
1.0
 70
   688
 72
     1
 73
     0
 74
     5
  7

 75
    16
147
1.0
148
0.0
149
0.0
100
AcDbLayout
  1
Layout1
 70
     1
 71
     1
 10
0.0
 20
0.0
 11
420.0
 21
297.0
 12
0.0
 22
0.0
 32
0.0
 14
1.000000000000000E+20
 24
1.000000000000000E+20
 34
1.000000000000000E+20
 15
-1.000000000000000E+20
 25
-1.000000000000000E+20
 35
-1.000000000000000E+20
146
0.0
 13
0.0
 23
0.0
 33
0.0
 16
1.0
 26
0.0
 36
0.0
 17
0.0
 27
1.0
 37
0.0
 76
     0
330
1B
  0
LAYOUT
  5
26
102
{ACAD_REACTORS
330
1A
102
}
330
1A
100
AcDbPlotSettings
  1

  2
none_device
  4

  6

 40
0.0
 41
0.0
 42
0.0
 43
0.0
 44
0.0
 45
0.0
 46
0.0
 47
0.0
 48
0.0
 49
0.0
140
0.0
141
0.0
142
1.0
143
1.0
 70
   688
 72
     1
 73
     0
 74
     5
  7

 75
    16
147
1.0
148
0.0
149
0.0
100
AcDbLayout
  1
Layout2
 70
     1
 71
     2
 10
0.0
 20
0.0
 11
0.0
 21
0.0
 12
0.0
 22
0.0
 32
0.0
 14
0.0
 24
0.0
 34
0.0
 15
0.0
 25
0.0
 35
0.0
146
0.0
 13
0.0
 23
0.0
 33
0.0
 16
1.0
 26
0.0
 36
0.0
 17
0.0
 27
1.0
 37
0.0
 76
     0
330
23
  0
LAYOUT
  5
22
102
{ACAD_REACTORS
330
1A
102
}
330
1A
100
AcDbPlotSettings
  1

  2
none_device
  4
ANSI_A_(11.00_x_8.50_Inches)
  6

 40
6.35
 41
19.05
 42
6.35000508
 43
19.05000254
 44
279.4
 45
215.9
 46
105.0757541933179
 47
73.71844477230658
 48
0.0
 49
0.0
140
0.0
141
0.0
142
0.0711785962167616
143
1.0
 70
  1696
 72
     0
 73
     0
 74
     0
  7

 75
     0
147
0.0235690232323232
148
0.0
149
0.0
100
AcDbLayout
  1
Model
 70
     1
 71
     0
 10
0.0
 20
0.0
 11
420.0
 21
297.0
 12
0.0
 22
0.0
 32
0.0
 14
-58.17500000000011
 24
-49.97180738881175
 34
0.0
 15
87.67227809435464
 25
40.72499999999999
 35
0.0
146
0.0
 13
0.0
 23
0.0
 33
0.0
 16
1.0
 26
0.0
 36
0.0
 17
0.0
 27
1.0
 37
0.0
 76
     0
330
1F
331
29
  0
MLINESTYLE
  5
18
102
{ACAD_REACTORS
330
17
102
}
330
17
100
AcDbMlineStyle
  2
Standard
 70
     0
  3

 62
   256
 51
90.0
 52
90.0
 71
     2
 49
0.5
 62
   256
  6
BYLAYER
 49
-0.5
 62
   256
  6
BYLAYER
  0
ACDBPLACEHOLDER
  5
F
102
{ACAD_REACTORS
330
E
102
}
330
E
  0
SCALE
  5
48
102
{ACAD_REACTORS
330
47
102
}
330
47
100
AcDbScale
 70
     0
300
1:1
140
1.0
141
1.0
290
     1
  0
SCALE
  5
49
102
{ACAD_REACTORS
330
47
102
}
330
47
100
AcDbScale
 70
     0
300
1:2
140
1.0
141
2.0
290
     0
  0
SCALE
  5
4A
102
{ACAD_REACTORS
330
47
102
}
330
47
100
AcDbScale
 70
     0
300
1:4
140
1.0
141
4.0
290
     0
  0
SCALE
  5
4B
102
{ACAD_REACTORS
330
47
102
}
330
47
100
AcDbScale
 70
     0
300
1:5
140
1.0
141
5.0
290
     0
  0
SCALE
  5
4C
102
{ACAD_REACTORS
330
47
102
}
330
47
100
AcDbScale
 70
     0
300
1:8
140
1.0
141
8.0
290
     0
  0
SCALE
  5
4D
102
{ACAD_REACTORS
330
47
102
}
330
47
100
AcDbScale
 70
     0
300
1:10
140
1.0
141
10.0
290
     0
  0
SCALE
  5
4E
102
{ACAD_REACTORS
330
47
102
}
330
47
100
AcDbScale
 70
     0
300
1:16
140
1.0
141
16.0
290
     0
  0
SCALE
  5
4F
102
{ACAD_REACTORS
330
47
102
}
330
47
100
AcDbScale
 70
     0
300
1:20
140
1.0
141
20.0
290
     0
  0
SCALE
  5
50
102
{ACAD_REACTORS
330
47
102
}
330
47
100
AcDbScale
 70
     0
300
1:30
140
1.0
141
30.0
290
     0
  0
SCALE
  5
51
102
{ACAD_REACTORS
330
47
102
}
330
47
100
AcDbScale
 70
     0
300
1:40
140
1.0
141
40.0
290
     0
  0
SCALE
  5
52
102
{ACAD_REACTORS
330
47
102
}
330
47
100
AcDbScale
 70
     0
300
1:50
140
1.0
141
50.0
290
     0
  0
SCALE
  5
53
102
{ACAD_REACTORS
330
47
102
}
330
47
100
AcDbScale
 70
     0
300
1:100
140
1.0
141
100.0
290
     0
  0
SCALE
  5
54
102
{ACAD_REACTORS
330
47
102
}
330
47
100
AcDbScale
 70
     0
300
2:1
140
2.0
141
1.0
290
     0
  0
SCALE
  5
55
102
{ACAD_REACTORS
330
47
102
}
330
47
100
AcDbScale
 70
     0
300
4:1
140
4.0
141
1.0
290
     0
  0
SCALE
  5
56
102
{ACAD_REACTORS
330
47
102
}
330
47
100
AcDbScale
 70
     0
300
8:1
140
8.0
141
1.0
290
     0
  0
SCALE
  5
57
102
{ACAD_REACTORS
330
47
102
}
330
47
100
AcDbScale
 70
     0
300
10:1
140
10.0
141
1.0
290
     0
  0
SCALE
  5
58
102
{ACAD_REACTORS
330
47
102
}
330
47
100
AcDbScale
 70
     0
300
100:1
140
100.0
141
1.0
290
     0
  0
SCALE
  5
59
102
{ACAD_REACTORS
330
47
102
}
330
47
100
AcDbScale
 70
     0
300
1/128" = 1'-0"
140
0.0078125
141
12.0
290
     0
  0
SCALE
  5
5A
102
{ACAD_REACTORS
330
47
102
}
330
47
100
AcDbScale
 70
     0
300
1/64" = 1'-0"
140
0.015625
141
12.0
290
     0
  0
SCALE
  5
5B
102
{ACAD_REACTORS
330
47
102
}
330
47
100
AcDbScale
 70
     0
300
1/32" = 1'-0"
140
0.03125
141
12.0
290
     0
  0
SCALE
  5
5C
102
{ACAD_REACTORS
330
47
102
}
330
47
100
AcDbScale
 70
     0
300
1/16" = 1'-0"
140
0.0625
141
12.0
290
     0
  0
SCALE
  5
5D
102
{ACAD_REACTORS
330
47
102
}
330
47
100
AcDbScale
 70
     0
300
3/32" = 1'-0"
140
0.09375
141
12.0
290
     0
  0
SCALE
  5
5E
102
{ACAD_REACTORS
330
47
102
}
330
47
100
AcDbScale
 70
     0
300
1/8" = 1'-0"
140
0.125
141
12.0
290
     0
  0
SCALE
  5
5F
102
{ACAD_REACTORS
330
47
102
}
330
47
100
AcDbScale
 70
     0
300
3/16" = 1'-0"
140
0.1875
141
12.0
290
     0
  0
SCALE
  5
60
102
{ACAD_REACTORS
330
47
102
}
330
47
100
AcDbScale
 70
     0
300
1/4" = 1'-0"
140
0.25
141
12.0
290
     0
  0
SCALE
  5
61
102
{ACAD_REACTORS
330
47
102
}
330
47
100
AcDbScale
 70
     0
300
3/8" = 1'-0"
140
0.375
141
12.0
290
     0
  0
SCALE
  5
62
102
{ACAD_REACTORS
330
47
102
}
330
47
100
AcDbScale
 70
     0
300
1/2" = 1'-0"
140
0.5
141
12.0
290
     0
  0
SCALE
  5
63
102
{ACAD_REACTORS
330
47
102
}
330
47
100
AcDbScale
 70
     0
300
3/4" = 1'-0"
140
0.75
141
12.0
290
     0
  0
SCALE
  5
64
102
{ACAD_REACTORS
330
47
102
}
330
47
100
AcDbScale
 70
     0
300
1" = 1'-0"
140
1.0
141
12.0
290
     0
  0
SCALE
  5
65
102
{ACAD_REACTORS
330
47
102
}
330
47
100
AcDbScale
 70
     0
300
1-1/2" = 1'-0"
140
1.5
141
12.0
290
     0
  0
SCALE
  5
66
102
{ACAD_REACTORS
330
47
102
}
330
47
100
AcDbScale
 70
     0
300
3" = 1'-0"
140
3.0
141
12.0
290
     0
  0
SCALE
  5
67
102
{ACAD_REACTORS
330
47
102
}
330
47
100
AcDbScale
 70
     0
300
6" = 1'-0"
140
6.0
141
12.0
290
     0
  0
SCALE
  5
68
102
{ACAD_REACTORS
330
47
102
}
330
47
100
AcDbScale
 70
     0
300
1'-0" = 1'-0"
140
12.0
141
12.0
290
     0
  0
ENDSEC
  0
EOF
