  0
SECTION
  2
HEADER
  9
$ACADVER
  1
AC1015
  9
$ACADMAINTVER
 70
     6
  9
$DWGCODEPAGE
  3
ANSI_949
  9
$INSBASE
 10
0.0
 20
0.0
 30
0.0
  9
$EXTMIN
 10
-68.17500000000011
 20
-49.97180738881174
 30
0.0
  9
$EXTMAX
 10
86.4010088153456
 20
43.49171221129693
 30
0.0
  9
$LIMMIN
 10
0.0
 20
0.0
  9
$LIMMAX
 10
420.0
 20
297.0
  9
$ORTHOMODE
 70
     1
  9
$REGENMODE
 70
     1
  9
$FILLMODE
 70
     1
  9
$QTEXTMODE
 70
     0
  9
$MIRRTEXT
 70
     1
  9
$LTSCALE
 40
1.0
  9
$ATTMODE
 70
     1
  9
$TEXTSIZE
 40
3.5
  9
$TRACEWID
 40
1.0
  9
$TEXTSTYLE
  7
Standard
  9
$CLAYER
  8
0
  9
$CELTYPE
  6
ByLayer
  9
$CECOLOR
 62
   256
  9
$CELTSCALE
 40
1.0
  9
$DISPSILH
 70
     0
  9
$DIMSCALE
 40
1.0
  9
$DIMASZ
 40
3.302
  9
$DIMEXO
 40
1.0
  9
$DIMDLI
 40
3.75
  9
$DIMRND
 40
0.0
  9
$DIMDLE
 40
0.0
  9
$DIMEXE
 40
1.0
  9
$DIMTP
 40
0.0
  9
$DIMTM
 40
0.0
  9
$DIMTXT
 40
3.5
  9
$DIMCEN
 40
2.5
  9
$DIMTSZ
 40
0.0
  9
$DIMTOL
 70
     0
  9
$DIMLIM
 70
     0
  9
$DIMTIH
 70
     1
  9
$DIMTOH
 70
     1
  9
$DIMSE1
 70
     0
  9
$DIMSE2
 70
     0
  9
$DIMTAD
 70
     1
  9
$DIMZIN
 70
     0
  9
$DIMBLK
  1

  9
$DIMASO
 70
     1
  9
$DIMSHO
 70
     1
  9
$DIMPOST
  1

  9
$DIMAPOST
  1

  9
$DIMALT
 70
     0
  9
$DIMALTD
 70
     3
  9
$DIMALTF
 40
0.0393700787401575
  9
$DIMLFAC
 40
1.0
  9
$DIMTOFL
 70
     1
  9
$DIMTVP
 40
0.0
  9
$DIMTIX
 70
     0
  9
$DIMSOXD
 70
     0
  9
$DIMSAH
 70
     0
  9
$DIMBLK1
  1

  9
$DIMBLK2
  1

  9
$DIMSTYLE
  2
ISO-25
  9
$DIMCLRD
 70
     0
  9
$DIMCLRE
 70
     0
  9
$DIMCLRT
 70
     0
  9
$DIMTFAC
 40
1.0
  9
$DIMGAP
 40
1.524
  9
$DIMJUST
 70
     0
  9
$DIMSD1
 70
     0
  9
$DIMSD2
 70
     0
  9
$DIMTOLJ
 70
     0
  9
$DIMTZIN
 70
     0
  9
$DIMALTZ
 70
     0
  9
$DIMALTTZ
 70
     0
  9
$DIMUPT
 70
     0
  9
$DIMDEC
 70
     2
  9
$DIMTDEC
 70
     2
  9
$DIMALTU
 70
     2
  9
$DIMALTTD
 70
     3
  9
$DIMTXSTY
  7
Standard
  9
$DIMAUNIT
 70
     0
  9
$DIMADEC
 70
     2
  9
$DIMALTRND
 40
0.0
  9
$DIMAZIN
 70
     0
  9
$DIMDSEP
 70
    44
  9
$DIMATFIT
 70
     3
  9
$DIMFRAC
 70
     0
  9
$DIMLDRBLK
  1

  9
$DIMLUNIT
 70
     2
  9
$DIMLWD
 70
    -2
  9
$DIMLWE
 70
    -2
  9
$DIMTMOVE
 70
     0
  9
$LUNITS
 70
     2
  9
$LUPREC
 70
     2
  9
$SKETCHINC
 40
1.0
  9
$FILLETRAD
 40
10.0
  9
$AUNITS
 70
     0
  9
$AUPREC
 70
     2
  9
$MENU
  1
.
  9
$ELEVATION
 40
0.0
  9
$PELEVATION
 40
0.0
  9
$THICKNESS
 40
0.0
  9
$LIMCHECK
 70
     0
  9
$CHAMFERA
 40
0.0
  9
$CHAMFERB
 40
0.0
  9
$CHAMFERC
 40
0.0
  9
$CHAMFERD
 40
0.0
  9
$SKPOLY
 70
     0
  9
$TDCREATE
 40
2458311.560553866
  9
$TDUCREATE
 40
2458311.185553866
  9
$TDUPDATE
 40
2458323.452177859
  9
$TDUUPDATE
 40
2458323.077177859
  9
$TDINDWG
 40
0.0033504282
  9
$TDUSRTIMER
 40
2458323.077127558
  9
$USRTIMER
 70
     1
  9
$ANGBASE
 50
0.0
  9
$ANGDIR
 70
     0
  9
$PDMODE
 70
     0
  9
$PDSIZE
 40
-1.0
  9
$PLINEWID
 40
0.0
  9
$SPLFRAME
 70
     0
  9
$SPLINETYPE
 70
     6
  9
$SPLINESEGS
 70
     8
  9
$HANDSEED
  5
2C6
  9
$SURFTAB1
 70
     6
  9
$SURFTAB2
 70
     6
  9
$SURFTYPE
 70
     6
  9
$SURFU
 70
     6
  9
$SURFV
 70
     6
  9
$UCSBASE
  2

  9
$UCSNAME
  2

  9
$UCSORG
 10
0.0
 20
0.0
 30
0.0
  9
$UCSXDIR
 10
1.0
 20
0.0
 30
0.0
  9
$UCSYDIR
 10
0.0
 20
1.0
 30
0.0
  9
$UCSORTHOREF
  2

  9
$UCSORTHOVIEW
 70
     0
  9
$UCSORGTOP
 10
0.0
 20
0.0
 30
0.0
  9
$UCSORGBOTTOM
 10
0.0
 20
0.0
 30
0.0
  9
$UCSORGLEFT
 10
0.0
 20
0.0
 30
0.0
  9
$UCSORGRIGHT
 10
0.0
 20
0.0
 30
0.0
  9
$UCSORGFRONT
 10
0.0
 20
0.0
 30
0.0
  9
$UCSORGBACK
 10
0.0
 20
0.0
 30
0.0
  9
$PUCSBASE
  2

  9
$PUCSNAME
  2

  9
$PUCSORG
 10
0.0
 20
0.0
 30
0.0
  9
$PUCSXDIR
 10
1.0
 20
0.0
 30
0.0
  9
$PUCSYDIR
 10
0.0
 20
1.0
 30
0.0
  9
$PUCSORTHOREF
  2

  9
$PUCSORTHOVIEW
 70
     0
  9
$PUCSORGTOP
 10
0.0
 20
0.0
 30
0.0
  9
$PUCSORGBOTTOM
 10
0.0
 20
0.0
 30
0.0
  9
$PUCSORGLEFT
 10
0.0
 20
0.0
 30
0.0
  9
$PUCSORGRIGHT
 10
0.0
 20
0.0
 30
0.0
  9
$PUCSORGFRONT
 10
0.0
 20
0.0
 30
0.0
  9
$PUCSORGBACK
 10
0.0
 20
0.0
 30
0.0
  9
$USERI1
 70
     0
  9
$USERI2
 70
     0
  9
$USERI3
 70
     0
  9
$USERI4
 70
     0
  9
$USERI5
 70
     0
  9
$USERR1
 40
0.0
  9
$USERR2
 40
0.0
  9
$USERR3
 40
0.0
  9
$USERR4
 40
0.0
  9
$USERR5
 40
0.0
  9
$WORLDVIEW
 70
     1
  9
$SHADEDGE
 70
     3
  9
$SHADEDIF
 70
    70
  9
$TILEMODE
 70
     1
  9
$MAXACTVP
 70
    64
  9
$PINSBASE
 10
0.0
 20
0.0
 30
0.0
  9
$PLIMCHECK
 70
     0
  9
$PEXTMIN
 10
1.000000000000000E+20
 20
1.000000000000000E+20
 30
1.000000000000000E+20
  9
$PEXTMAX
 10
-1.000000000000000E+20
 20
-1.000000000000000E+20
 30
-1.000000000000000E+20
  9
$PLIMMIN
 10
0.0
 20
0.0
  9
$PLIMMAX
 10
0.0
 20
0.0
  9
$UNITMODE
 70
     0
  9
$VISRETAIN
 70
     1
  9
$PLINEGEN
 70
     0
  9
$PSLTSCALE
 70
     1
  9
$TREEDEPTH
 70
  3020
  9
$CMLSTYLE
  2
Standard
  9
$CMLJUST
 70
     0
  9
$CMLSCALE
 40
20.0
  9
$PROXYGRAPHICS
 70
     1
  9
$MEASUREMENT
 70
     1
  9
$CELWEIGHT
370
    -1
  9
$ENDCAPS
280
     0
  9
$JOINSTYLE
280
     0
  9
$LWDISPLAY
290
     1
  9
$INSUNITS
 70
     4
  9
$HYPERLINKBASE
  1

  9
$STYLESHEET
  1

  9
$XEDIT
290
     1
  9
$CEPSNTYPE
380
     0
  9
$PSTYLEMODE
290
     1
  9
$FINGERPRINTGUID
  2
{4156D210-A812-47FE-AB74-21D032CE7776}
  9
$VERSIONGUID
  2
{FAEB1C32-E019-11D5-929B-00C0DF256EC4}
  9
$EXTNAMES
290
     1
  9
$PSVPSCALE
 40
0.0
  9
$OLESTARTUP
290
     0
  0
ENDSEC
  0
SECTION
  2
CLASSES
  0
CLASS
  1
ACDBDICTIONARYWDFLT
  2
AcDbDictionaryWithDefault
  3
ObjectDBX Classes
 90
        0
280
     0
281
     0
  0
CLASS
  1
VISUALSTYLE
  2
AcDbVisualStyle
  3
ObjectDBX Classes
 90
     4095
280
     0
281
     0
  0
CLASS
  1
MATERIAL
  2
AcDbMaterial
  3
ObjectDBX Classes
 90
     1153
280
     0
281
     0
  0
CLASS
  1
SCALE
  2
AcDbScale
  3
ObjectDBX Classes
 90
     1153
280
     0
281
     0
  0
CLASS
  1
SUN
  2
AcDbSun
  3
SCENEOE
 90
     1153
280
     0
281
     0
  0
CLASS
  1
ACDBPLACEHOLDER
  2
AcDbPlaceHolder
  3
ObjectDBX Classes
 90
        0
280
     0
281
     0
  0
CLASS
  1
LAYOUT
  2
AcDbLayout
  3
ObjectDBX Classes
 90
        0
280
     0
281
     0
  0
CLASS
  1
TABLESTYLE
  2
AcDbTableStyle
  3
ObjectDBX Classes
 90
     4095
280
     0
281
     0
  0
CLASS
  1
MLEADERSTYLE
  2
AcDbMLeaderStyle
  3
ACDB_MLEADERSTYLE_CLASS
 90
     4095
280
     0
281
     0
  0
CLASS
  1
DICTIONARYVAR
  2
AcDbDictionaryVar
  3
ObjectDBX Classes
 90
        0
280
     0
281
     0
  0
CLASS
  1
RASTERVARIABLES
  2
AcDbRasterVariables
  3
ISM
 90
        0
280
     0
281
     0
  0
ENDSEC
  0
SECTION
  2
TABLES
  0
TABLE
  2
VPORT
  5
8
330
0
100
AcDbSymbolTable
 70
     1
  0
VPORT
  5
29
330
8
100
AcDbSymbolTableRecord
100
AcDbViewportTableRecord
  2
*Active
 70
     0
 10
0.0
 20
0.0
 11
1.0
 21
1.0
 12
9.113004407672747
 22
-3.240047588757406
 13
0.0
 23
0.0
 14
10.0
 24
10.0
 15
10.0
 25
10.0
 16
0.0
 26
0.0
 36
1.0
 17
0.0
 27
0.0
 37
0.0
 40
95.33278999211085
 41
1.782762691853601
 42
50.0
 43
0.0
 44
0.0
 50
0.0
 51
0.0
 71
    16
 72
  2000
 73
     1
 74
     3
 75
     0
 76
     0
 77
     0
 78
     0
281
     0
 65
     1
110
0.0
120
0.0
130
0.0
111
1.0
121
0.0
131
0.0
112
0.0
122
1.0
132
0.0
 79
     0
146
0.0
  0
ENDTAB
  0
TABLE
  2
LTYPE
  5
5
330
0
100
AcDbSymbolTable
 70
     6
  0
LTYPE
  5
14
330
5
100
AcDbSymbolTableRecord
100
AcDbLinetypeTableRecord
  2
ByBlock
 70
     0
  3

 72
    65
 73
     0
 40
0.0
  0
LTYPE
  5
15
330
5
100
AcDbSymbolTableRecord
100
AcDbLinetypeTableRecord
  2
ByLayer
 70
     0
  3

 72
    65
 73
     0
 40
0.0
  0
LTYPE
  5
16
330
5
100
AcDbSymbolTableRecord
100
AcDbLinetypeTableRecord
  2
Continuous
 70
     0
  3
Solid line
 72
    65
 73
     0
 40
0.0
  0
LTYPE
  5
6A
330
5
100
AcDbSymbolTableRecord
100
AcDbLinetypeTableRecord
  2
HIDDEN
 70
     0
  3
Hidden __ __ __ __ __ __ __ __ __ __ __ __ __ __
 72
    65
 73
     2
 40
1.905
 49
1.27
 74
     0
 49
-0.635
 74
     0
  0
LTYPE
  5
6B
330
5
100
AcDbSymbolTableRecord
100
AcDbLinetypeTableRecord
  2
PHANTOM
 70
     0
  3
Phantom ______  __  __  ______  __  __  ______
 72
    65
 73
     6
 40
12.7
 49
6.35
 74
     0
 49
-1.27
 74
     0
 49
1.27
 74
     0
 49
-1.27
 74
     0
 49
1.27
 74
     0
 49
-1.27
 74
     0
  0
LTYPE
  5
6C
330
5
100
AcDbSymbolTableRecord
100
AcDbLinetypeTableRecord
  2
CENTER
 70
     0
  3
Center ____ _ ____ _ ____ _ ____ _ ____ _ ____
 72
    65
 73
     4
 40
10.16
 49
6.35
 74
     0
 49
-1.27
 74
     0
 49
1.27
 74
     0
 49
-1.27
 74
     0
  0
LTYPE
  5
6D
330
5
100
AcDbSymbolTableRecord
100
AcDbLinetypeTableRecord
  2
CENTERX2
 70
     0
  3
Center (2x) ________  __  ________  __  _____
 72
    65
 73
     4
 40
20.32
 49
12.7
 74
     0
 49
-2.54
 74
     0
 49
2.54
 74
     0
 49
-2.54
 74
     0
  0
LTYPE
  5
6E
330
5
100
AcDbSymbolTableRecord
100
AcDbLinetypeTableRecord
  2
DOT2
 70
     0
  3
Dot (.5x) ........................................
 72
    65
 73
     2
 40
0.635
 49
0.0
 74
     0
 49
-0.635
 74
     0
  0
ENDTAB
  0
TABLE
  2
LAYER
  5
2
102
{ACAD_XDICTIONARY
360
175
102
}
330
0
100
AcDbSymbolTable
 70
    18
  0
LAYER
  5
10
330
2
100
AcDbSymbolTableRecord
100
AcDbLayerTableRecord
  2
0
 70
     0
 62
     7
  6
Continuous
370
    -3
390
F
  0
LAYER
  5
6F
330
2
100
AcDbSymbolTableRecord
100
AcDbLayerTableRecord
  2
FORMAT
 70
     0
 62
     2
  6
Continuous
370
    -3
390
F
  0
LAYER
  5
70
330
2
100
AcDbSymbolTableRecord
100
AcDbLayerTableRecord
  2
외형선
 70
     0
 62
     4
  6
Continuous
370
    30
390
F
  0
LAYER
  5
71
330
2
100
AcDbSymbolTableRecord
100
AcDbLayerTableRecord
  2
숨은선
 70
     0
 62
     2
  6
HIDDEN
370
    15
390
F
  0
LAYER
  5
72
330
2
100
AcDbSymbolTableRecord
100
AcDbLayerTableRecord
  2
중심선
 70
     0
 62
     1
  6
CENTERX2
370
    -3
390
F
  0
LAYER
  5
73
330
2
100
AcDbSymbolTableRecord
100
AcDbLayerTableRecord
  2
파단선
 70
     0
 62
     4
  6
Continuous
370
    -3
390
F
  0
LAYER
  5
74
330
2
100
AcDbSymbolTableRecord
100
AcDbLayerTableRecord
  2
해칭선
 70
     0
 62
   100
  6
Continuous
370
    -3
390
F
  0
LAYER
  5
75
330
2
100
AcDbSymbolTableRecord
100
AcDbLayerTableRecord
  2
가는실선
 70
     0
 62
     4
  6
Continuous
370
    -3
390
F
  0
LAYER
  5
76
330
2
100
AcDbSymbolTableRecord
100
AcDbLayerTableRecord
  2
치수_보조선
 70
     0
 62
     4
  6
Continuous
370
    -3
390
F
  0
LAYER
  5
77
330
2
100
AcDbSymbolTableRecord
100
AcDbLayerTableRecord
  2
치수문자_일반주서
 70
     0
 62
     7
  6
Continuous
370
    15
390
F
  0
LAYER
  5
78
330
2
100
AcDbSymbolTableRecord
100
AcDbLayerTableRecord
  2
개별주서
 70
     0
 62
   100
  6
Continuous
370
    30
390
F
  0
LAYER
  5
79
330
2
100
AcDbSymbolTableRecord
100
AcDbLayerTableRecord
  2
중간선
 70
     0
 62
     2
  6
Continuous
370
    15
390
F
  0
LAYER
  5
7A
330
2
100
AcDbSymbolTableRecord
100
AcDbLayerTableRecord
  2
윤곽선
 70
     0
 62
     3
  6
Continuous
370
    40
390
F
  0
LAYER
  5
7B
330
2
100
AcDbSymbolTableRecord
100
AcDbLayerTableRecord
  2
중심마크
 70
     0
 62
   100
  6
Continuous
370
    30
390
F
  0
LAYER
  5
7C
330
2
100
AcDbSymbolTableRecord
100
AcDbLayerTableRecord
  2
가상선
 70
     0
 62
     4
  6
PHANTOM
370
    -3
390
F
  0
LAYER
  5
7D
330
2
100
AcDbSymbolTableRecord
100
AcDbLayerTableRecord
  2
특수지정선
 70
     0
 62
     5
  6
CENTERX2
370
    60
390
F
  0
LAYER
  5
7E
330
2
100
AcDbSymbolTableRecord
100
AcDbLayerTableRecord
  2
참조1
 70
     0
 62
    -4
  6
Continuous
370
    -3
390
F
  0
LAYER
  5
13E
330
2
100
AcDbSymbolTableRecord
100
AcDbLayerTableRecord
  2
Defpoints
 70
     0
 62
     7
  6
Continuous
290
     0
370
    -3
390
F
  0
ENDTAB
  0
TABLE
  2
STYLE
  5
3
330
0
100
AcDbSymbolTable
 70
     2
  0
STYLE
  5
11
330
3
100
AcDbSymbolTableRecord
100
AcDbTextStyleTableRecord
  2
Standard
 70
     0
 40
0.0
 41
1.0
 50
0.0
 71
     0
 42
3.5
  3
txt
  4

  0
STYLE
  5
94
330
3
100
AcDbSymbolTableRecord
100
AcDbTextStyleTableRecord
  2
SLDTEXTSTYLE0
 70
     0
 40
0.0
 41
0.75
 50
0.0
 71
     0
 42
3.5
  3
TXT
  4

  0
ENDTAB
  0
TABLE
  2
VIEW
  5
6
330
0
100
AcDbSymbolTable
 70
     0
  0
ENDTAB
  0
TABLE
  2
UCS
  5
7
330
0
100
AcDbSymbolTable
 70
     0
  0
ENDTAB
  0
TABLE
  2
APPID
  5
9
330
0
100
AcDbSymbolTable
 70
     2
  0
APPID
  5
12
330
9
100
AcDbSymbolTableRecord
100
AcDbRegAppTableRecord
  2
ACAD
 70
     0
  0
APPID
  5
145
330
9
100
AcDbSymbolTableRecord
100
AcDbRegAppTableRecord
  2
PE_URL
 70
     0
  0
ENDTAB
  0
TABLE
  2
DIMSTYLE
  5
A
330
0
100
AcDbSymbolTable
 70
     5
100
AcDbDimStyleTable
  0
DIMSTYLE
105
27
330
A
100
AcDbSymbolTableRecord
100
AcDbDimStyleTableRecord
  2
ISO-25
 70
     0
 41
2.5
 42
0.625
 43
3.75
 44
1.25
 73
     0
 74
     0
 77
     1
 78
     8
140
2.5
141
2.5
143
0.03937007874016
147
0.625
171
     3
172
     1
178
     0
271
     2
272
     2
274
     3
278
    44
283
     0
284
     8
340
11
  0
DIMSTYLE
105
C2
330
A
100
AcDbSymbolTableRecord
100
AcDbDimStyleTableRecord
  2
SLDDIMSTYLE0
 70
     0
 41
3.302
 44
0.0
 45
0.000000001
 73
     0
 74
     0
 77
     1
 78
     4
 79
     1
140
3.5
147
0.875
172
     1
173
     1
178
     0
271
     2
272
     2
276
     2
284
    12
289
     0
340
94
  0
DIMSTYLE
105
D0
102
{ACAD_REACTORS
330
CF
330
E5
330
F9
330
C1
102
}
330
A
100
AcDbSymbolTableRecord
100
AcDbDimStyleTableRecord
  2
SLDDIMSTYLE1
 70
     0
 41
3.302
 44
0.0
 45
0.000000001
 73
     0
 74
     0
 77
     1
 78
     4
 79
     1
140
3.5
143
0.0393700787401575
147
0.875
148
0.000000001
170
     1
172
     1
173
     1
178
     0
271
     2
272
     2
276
     2
284
    12
289
     0
340
94
  0
DIMSTYLE
105
E6
330
A
100
AcDbSymbolTableRecord
100
AcDbDimStyleTableRecord
  2
SLDDIMSTYLE2
 70
     0
 41
3.302
 44
0.0
 45
0.000000001
 73
     0
 74
     0
 77
     1
 78
     4
 79
     1
140
3.5
143
0.0393700787401575
147
0.875
148
0.000000001
170
     1
173
     1
178
     0
271
     2
272
     2
276
     2
284
    12
340
94
  0
DIMSTYLE
105
FA
330
A
100
AcDbSymbolTableRecord
100
AcDbDimStyleTableRecord
  2
SLDDIMSTYLE3
 70
     0
 41
3.302
 44
0.0
 45
0.000000001
 73
     0
 74
     0
 77
     1
 78
    12
 79
     3
140
3.5
143
0.0393700787401575
147
0.875
148
0.000000001
170
     1
173
     1
178
     0
271
     2
272
     2
276
     2
284
    12
340
94
  0
ENDTAB
  0
TABLE
  2
BLOCK_RECORD
  5
1
330
0
100
AcDbSymbolTable
 70
     9
  0
BLOCK_RECORD
  5
1F
330
1
100
AcDbSymbolTableRecord
100
AcDbBlockTableRecord
  2
*Model_Space
340
22
  0
BLOCK_RECORD
  5
1B
330
1
100
AcDbSymbolTableRecord
100
AcDbBlockTableRecord
  2
*Paper_Space
340
1E
  0
BLOCK_RECORD
  5
23
330
1
100
AcDbSymbolTableRecord
100
AcDbBlockTableRecord
  2
*Paper_Space0
340
26
  0
BLOCK_RECORD
  5
7F
330
1
100
AcDbSymbolTableRecord
100
AcDbBlockTableRecord
  2
블럭10
340
0
102
{BLKREFS
331
BA
102
}
  0
BLOCK_RECORD
  5
C3
330
1
100
AcDbSymbolTableRecord
100
AcDbBlockTableRecord
  2
_D
340
0
  0
BLOCK_RECORD
  5
D1
330
1
100
AcDbSymbolTableRecord
100
AcDbBlockTableRecord
  2
_D_1
340
0
  0
BLOCK_RECORD
  5
E7
330
1
100
AcDbSymbolTableRecord
100
AcDbBlockTableRecord
  2
_D_2
340
0
  0
BLOCK_RECORD
  5
FB
330
1
100
AcDbSymbolTableRecord
100
AcDbBlockTableRecord
  2
_D_3
340
0
  0
BLOCK_RECORD
  5
114
330
1
100
AcDbSymbolTableRecord
100
AcDbBlockTableRecord
  2
SW_DOWELSYMBOL_0
340
0
102
{BLKREFS
331
11A
102
}
  0
BLOCK_RECORD
  5
179
330
1
100
AcDbSymbolTableRecord
100
AcDbBlockTableRecord
  2
*D7
340
0
  0
BLOCK_RECORD
  5
18B
330
1
100
AcDbSymbolTableRecord
100
AcDbBlockTableRecord
  2
*D8
340
0
  0
ENDTAB
  0
ENDSEC
  0
SECTION
  2
BLOCKS
  0
BLOCK
  5
20
330
1F
100
AcDbEntity
  8
0
100
AcDbBlockBegin
  2
*Model_Space
 70
     0
 10
0.0
 20
0.0
 30
0.0
  3
*Model_Space
  1
*Model_Space
  0
ENDBLK
  5
21
330
1F
100
AcDbEntity
  8
0
100
AcDbBlockEnd
  0
BLOCK
  5
1C
330
1B
100
AcDbEntity
 67
     1
  8
0
100
AcDbBlockBegin
  2
*Paper_Space
 70
     0
 10
0.0
 20
0.0
 30
0.0
  3
*Paper_Space
  1
*Paper_Space
  0
ENDBLK
  5
1D
330
1B
100
AcDbEntity
 67
     1
  8
0
100
AcDbBlockEnd
  0
BLOCK
  5
24
330
23
100
AcDbEntity
  8
0
100
AcDbBlockBegin
  2
*Paper_Space0
 70
     0
 10
0.0
 20
0.0
 30
0.0
  3
*Paper_Space0
  1
*Paper_Space0
  0
ENDBLK
  5
25
330
23
100
AcDbEntity
  8
0
100
AcDbBlockEnd
  0
BLOCK
  5
80
330
7F
100
AcDbEntity
  8
0
100
AcDbBlockBegin
  2
블럭10
 70
     2
 10
0.0
 20
0.0
 30
0.0
  3
블럭10
  1
블럭10
  0
ELLIPSE
  5
82
330
7F
100
AcDbEntity
  8
중심선
100
AcDbEllipse
 10
20.54032771741204
 20
12.0471743016438
 30
0.0
 11
6.600054785286829
 21
-1.261213355974178E-13
 31
0.0
210
0.0
220
0.0
230
1.0
 40
0.636358354079598
 41
0.9219305317359503
 42
6.513795318482858
  0
ELLIPSE
  5
83
330
7F
100
AcDbEntity
  8
중심선
100
AcDbEllipse
 10
20.54032771746488
 20
12.04717430159265
 30
0.0
 11
3.960054785062283
 21
1.540847449632565E-10
 31
0.0
210
0.0
220
0.0
230
1.0
 40
0.3939339440162632
 41
1.131841032648279
 42
5.62031148352944
  0
LINE
  5
84
330
7F
100
AcDbEntity
  8
중심선
100
AcDbLine
 10
2.268634060543552
 20
16.24717430164393
 30
0.0
 11
5.714909304380834
 21
16.24717430164393
 31
0.0
  0
LINE
  5
85
330
7F
100
AcDbEntity
  8
중심선
100
AcDbLine
 10
5.245725140726316
 20
7.84717430164391
 30
0.0
 11
8.692000384563599
 21
7.84717430164391
 31
0.0
  0
LINE
  5
86
330
7F
100
AcDbEntity
  8
중심선
100
AcDbLine
 10
15.74043728645272
 20
16.24717430164393
 30
0.0
 11
8.692000384563599
 21
7.84717430164391
 31
0.0
  0
LINE
  5
87
330
7F
100
AcDbEntity
  8
중심선
100
AcDbLine
 10
0.1404042013395286
 20
13.71084872107135
 30
0.0
 11
3.58671253028996
 21
13.71088815037384
 31
0.0
  0
LINE
  5
88
330
7F
100
AcDbEntity
  8
중심선
100
AcDbLine
 10
2.750260043222114
 20
10.84717430164391
 30
0.0
 11
6.196535287059397
 21
10.84717430164391
 31
0.0
  0
LINE
  5
89
330
7F
100
AcDbEntity
  8
중심선
100
AcDbLine
 10
12.29416204261559
 20
16.24717430164393
 30
0.0
 11
5.245725140726316
 21
7.84717430164391
 31
0.0
  0
LINE
  5
8A
330
7F
100
AcDbEntity
  8
중심선
100
AcDbLine
 10
10.72767329541681
 20
16.24717430164393
 30
0.0
 11
6.196535287059397
 21
10.84717430164391
 31
0.0
  0
LINE
  5
8B
330
7F
100
AcDbEntity
  8
중심선
100
AcDbLine
 10
7.28139805157953
 20
16.24717430164393
 30
0.0
 11
2.750260043222114
 21
10.84717430164391
 31
0.0
  0
LINE
  5
8C
330
7F
100
AcDbEntity
  8
중심선
100
AcDbLine
 10
5.714909304380834
 20
16.24717430164393
 30
0.0
 11
3.58671253028996
 21
13.71088815037384
 31
0.0
  0
LINE
  5
8D
330
7F
100
AcDbEntity
  8
중심선
100
AcDbLine
 10
2.268634060543552
 20
16.24717430164393
 30
0.0
 11
0.1404042013395286
 21
13.71084872107135
 31
0.0
  0
LINE
  5
8E
330
7F
100
AcDbEntity
  8
중심선
100
AcDbLine
 10
7.28139805157953
 20
16.24717430164393
 30
0.0
 11
10.72767329541681
 21
16.24717430164393
 31
0.0
  0
LINE
  5
8F
330
7F
100
AcDbEntity
  8
중심선
100
AcDbLine
 10
12.29416204261559
 20
16.24717430164393
 30
0.0
 11
15.74043728645272
 21
16.24717430164393
 31
0.0
  0
LINE
  5
90
330
7F
100
AcDbEntity
  8
중심선
100
AcDbLine
 10
19.22036997980202
 20
11.08717430171403
 30
0.0
 11
23.66174974927406
 21
11.08717430171406
 31
0.0
  0
LINE
  5
91
330
7F
100
AcDbEntity
  8
중심선
100
AcDbLine
 10
19.22039502424796
 20
13.00717430171391
 30
0.0
 11
19.22036997980202
 21
11.08717430171403
 31
0.0
  0
LINE
  5
92
330
7F
100
AcDbEntity
  8
중심선
100
AcDbLine
 10
19.22039502424796
 20
13.00717430171391
 30
0.0
 11
26.96566020931264
 21
13.00717430171391
 31
0.0
  0
LINE
  5
93
330
7F
100
AcDbEntity
  8
중심선
100
AcDbLine
 10
22.22332737316547
 20
13.45928029700563
 30
0.0
 11
24.52862924686651
 21
15.39360700705356
 31
0.0
  0
ATTDEF
  5
95
330
7F
100
AcDbEntity
  8
FORMAT
 62
     2
100
AcDbText
 10
4.408487351596664
 20
2.075366912832191
 30
0.0
 40
4.233333333333333
  1
E1030036
 41
0.75
  7
SLDTEXTSTYLE0
 11
4.408487351596664
 21
-0.0412997538344756
 31
0.0
100
AcDbAttributeDefinition
  3

  2
AUTOATTR0
 70
     0
 74
     1
  0
ENDBLK
  5
81
330
7F
100
AcDbEntity
  8
0
100
AcDbBlockEnd
  0
BLOCK
  5
C4
330
C3
100
AcDbEntity
  8
0
100
AcDbBlockBegin
  2
_D
 70
     0
 10
0.0
 20
0.0
 30
0.0
  3
_D
  1
_D
  0
LINE
  5
C6
330
C3
100
AcDbEntity
  8
치수문자_일반주서
 62
     0
370
    -2
100
AcDbLine
 10
-47.86250000000001
 20
6.349999999999991
 30
0.0
 11
-63.8
 21
6.34999999999993
 31
0.0
  0
LINE
  5
C7
330
C3
100
AcDbEntity
  8
치수문자_일반주서
 62
     0
370
    -2
100
AcDbLine
 10
-47.86250000000001
 20
-6.349999999999998
 30
0.0
 11
-63.79999999999995
 21
-6.350000000000058
 31
0.0
  0
LINE
  5
C8
330
C3
100
AcDbEntity
  8
치수문자_일반주서
 62
     0
370
    -2
100
AcDbLine
 10
-63.8
 20
6.34999999999993
 30
0.0
 11
-63.8000000000001
 21
39.64149999999994
 31
0.0
  0
LINE
  5
C9
330
C3
100
AcDbEntity
  8
치수문자_일반주서
 62
     0
370
    -2
100
AcDbLine
 10
-63.8
 20
6.34999999999993
 30
0.0
 11
-63.79999999999995
 21
-6.350000000000058
 31
0.0
  0
LINE
  5
CA
330
C3
100
AcDbEntity
  8
치수문자_일반주서
 62
     0
370
    -2
100
AcDbLine
 10
-63.80000000000001
 20
9.65199999999993
 30
0.0
 11
-63.80000000000003
 21
12.95399999999993
 31
0.0
  0
LINE
  5
CB
330
C3
100
AcDbEntity
  8
치수문자_일반주서
 62
     0
370
    -2
100
AcDbLine
 10
-63.79999999999994
 20
-9.652000000000058
 30
0.0
 11
-63.79999999999993
 21
-12.95400000000006
 31
0.0
  0
SOLID
  5
CC
330
C3
100
AcDbEntity
  8
치수문자_일반주서
 62
     0
100
AcDbTrace
 10
-64.35033333333334
 20
9.651999999999928
 30
0.0
 11
-63.24966666666668
 21
9.651999999999932
 31
0.0
 12
-63.8
 22
6.34999999999993
 32
0.0
 13
-63.8
 23
6.34999999999993
 33
0.0
  0
SOLID
  5
CD
330
C3
100
AcDbEntity
  8
치수문자_일반주서
 62
     0
100
AcDbTrace
 10
-63.24966666666661
 20
-9.652000000000056
 30
0.0
 11
-64.35033333333327
 21
-9.65200000000006
 31
0.0
 12
-63.79999999999995
 22
-6.350000000000058
 32
0.0
 13
-63.79999999999995
 23
-6.350000000000058
 33
0.0
  0
MTEXT
  5
CE
330
C3
100
AcDbEntity
  8
치수문자_일반주서
 62
     0
100
AcDbMText
 10
-68.17500000000007
 20
26.29774999999992
 30
0.0
 40
3.5
 41
0.0
 71
     2
 72
     1
  1
\A1;%%c12.70 [1/2]
  7
SLDTEXTSTYLE0
 11
-3.356894814614650E-15
 21
1.0
 31
0.0
 73
     1
 44
1.0
  0
POINT
  5
22B
330
C3
100
AcDbEntity
  8
Defpoints
 62
     0
100
AcDbPoint
 10
-47.80000000000001
 20
6.349999999999991
 30
0.0
  0
POINT
  5
22C
330
C3
100
AcDbEntity
  8
Defpoints
 62
     0
100
AcDbPoint
 10
-47.80000000000001
 20
-6.349999999999998
 30
0.0
  0
POINT
  5
22D
330
C3
100
AcDbEntity
  8
Defpoints
 62
     0
100
AcDbPoint
 10
-63.79999999999996
 20
-6.350000000000057
 30
0.0
  0
ENDBLK
  5
C5
330
C3
100
AcDbEntity
  8
0
100
AcDbBlockEnd
  0
BLOCK
  5
D2
330
D1
100
AcDbEntity
  8
0
100
AcDbBlockBegin
  2
_D_1
 70
     0
 10
0.0
 20
0.0
 30
0.0
  3
_D_1
  1
_D_1
  0
LINE
  5
D4
330
D1
100
AcDbEntity
  8
치수문자_일반주서
 62
     0
370
    -2
100
AcDbLine
 10
30.57499999999999
 20
7.200212211296762
 30
0.0
 11
30.57499999999999
 21
21.35
 31
0.0
  0
LINE
  5
D5
330
D1
100
AcDbEntity
  8
치수문자_일반주서
 62
     0
370
    -2
100
AcDbLine
 10
1.999999999999996
 20
5.535349324069388
 30
0.0
 11
2.0
 21
21.35
 31
0.0
  0
LINE
  5
D6
330
D1
100
AcDbEntity
  8
치수문자_일반주서
 62
     0
370
    -2
100
AcDbLine
 10
30.57499999999999
 20
21.35
 30
0.0
 11
66.92899999999999
 21
21.35
 31
0.0
  0
LINE
  5
D7
330
D1
100
AcDbEntity
  8
치수문자_일반주서
 62
     0
370
    -2
100
AcDbLine
 10
30.57499999999999
 20
21.35
 30
0.0
 11
2.0
 21
21.35
 31
0.0
  0
LINE
  5
D8
330
D1
100
AcDbEntity
  8
치수문자_일반주서
 62
     0
370
    -2
100
AcDbLine
 10
33.87699999999999
 20
21.35
 30
0.0
 11
37.17899999999999
 21
21.35
 31
0.0
  0
LINE
  5
D9
330
D1
100
AcDbEntity
  8
치수문자_일반주서
 62
     0
370
    -2
100
AcDbLine
 10
-1.302
 20
21.35
 30
0.0
 11
-4.604
 21
21.35
 31
0.0
  0
SOLID
  5
DA
330
D1
100
AcDbEntity
  8
치수문자_일반주서
 62
     0
100
AcDbTrace
 10
33.87699999999999
 20
21.90033333333334
 30
0.0
 11
33.87699999999999
 21
20.79966666666667
 31
0.0
 12
30.57499999999999
 22
21.35
 32
0.0
 13
30.57499999999999
 23
21.35
 33
0.0
  0
SOLID
  5
DB
330
D1
100
AcDbEntity
  8
치수문자_일반주서
 62
     0
100
AcDbTrace
 10
-1.302
 20
20.79966666666667
 30
0.0
 11
-1.302
 21
21.90033333333334
 31
0.0
 12
2.0
 22
21.35
 32
0.0
 13
2.0
 23
21.35
 33
0.0
  0
MTEXT
  5
DC
330
D1
100
AcDbEntity
  8
치수문자_일반주서
 62
     0
100
AcDbMText
 10
52.05399999999999
 20
25.725
 30
0.0
 40
3.5
 41
0.0
 71
     2
 72
     1
  1
\A1;28.58 [1 1/8]
  7
SLDTEXTSTYLE0
 73
     1
 44
1.0
  0
POINT
  5
22E
330
D1
100
AcDbEntity
  8
Defpoints
 62
     0
100
AcDbPoint
 10
30.57499999999999
 20
7.137712211296762
 30
0.0
  0
POINT
  5
22F
330
D1
100
AcDbEntity
  8
Defpoints
 62
     0
100
AcDbPoint
 10
1.999999999999996
 20
5.472849324069388
 30
0.0
  0
POINT
  5
230
330
D1
100
AcDbEntity
  8
Defpoints
 62
     0
100
AcDbPoint
 10
1.999999999999996
 20
21.35
 30
0.0
  0
ENDBLK
  5
D3
330
D1
100
AcDbEntity
  8
0
100
AcDbBlockEnd
  0
BLOCK
  5
E8
330
E7
100
AcDbEntity
  8
0
100
AcDbBlockBegin
  2
_D_2
 70
     0
 10
0.0
 20
0.0
 30
0.0
  3
_D_2
  1
_D_2
  0
LINE
  5
EA
330
E7
100
AcDbEntity
  8
치수문자_일반주서
 62
     0
370
    -2
100
AcDbLine
 10
30.57499999999999
 20
7.200212211296762
 30
0.0
 11
30.57499999999999
 21
36.34999999999999
 31
0.0
  0
LINE
  5
EB
330
E7
100
AcDbEntity
  8
치수문자_일반주서
 62
     0
370
    -2
100
AcDbLine
 10
-48.80000000000001
 20
5.412499999999991
 30
0.0
 11
-48.80000000000001
 21
36.34999999999999
 31
0.0
  0
LINE
  5
EC
330
E7
100
AcDbEntity
  8
치수문자_일반주서
 62
     0
370
    -2
100
AcDbLine
 10
27.27299999999999
 20
36.34999999999999
 30
0.0
 11
-45.49800000000001
 21
36.34999999999999
 31
0.0
  0
SOLID
  5
ED
330
E7
100
AcDbEntity
  8
치수문자_일반주서
 62
     0
100
AcDbTrace
 10
27.27299999999999
 20
35.79966666666665
 30
0.0
 11
27.27299999999999
 21
36.90033333333332
 31
0.0
 12
30.57499999999999
 22
36.34999999999999
 32
0.0
 13
30.57499999999999
 23
36.34999999999999
 33
0.0
  0
SOLID
  5
EE
330
E7
100
AcDbEntity
  8
치수문자_일반주서
 62
     0
100
AcDbTrace
 10
-45.49800000000001
 20
36.90033333333332
 30
0.0
 11
-45.49800000000001
 21
35.79966666666665
 31
0.0
 12
-48.80000000000001
 22
36.34999999999999
 32
0.0
 13
-48.80000000000001
 23
36.34999999999999
 33
0.0
  0
MTEXT
  5
EF
330
E7
100
AcDbEntity
  8
치수문자_일반주서
 62
     0
100
AcDbMText
 10
-9.112500000000011
 20
40.72499999999999
 30
0.0
 40
3.5
 41
0.0
 71
     2
 72
     1
  1
\A1;79.38 [3 1/8]
  7
SLDTEXTSTYLE0
 73
     1
 44
1.0
  0
POINT
  5
F0
330
E7
100
AcDbEntity
  8
Defpoints
 62
     0
100
AcDbPoint
 10
30.57499999999999
 20
7.137712211296762
 30
0.0
  0
POINT
  5
F1
330
E7
100
AcDbEntity
  8
Defpoints
 62
     0
100
AcDbPoint
 10
-48.80000000000001
 20
5.349999999999991
 30
0.0
  0
POINT
  5
F2
330
E7
100
AcDbEntity
  8
Defpoints
 62
     0
100
AcDbPoint
 10
-48.80000000000001
 20
36.34999999999999
 30
0.0
  0
ENDBLK
  5
E9
330
E7
100
AcDbEntity
  8
0
100
AcDbBlockEnd
  0
BLOCK
  5
FC
330
FB
100
AcDbEntity
  8
0
100
AcDbBlockBegin
  2
_D_3
 70
     0
 10
0.0
 20
0.0
 30
0.0
  3
_D_3
  1
_D_3
  0
LINE
  5
FE
330
FB
100
AcDbEntity
  8
치수문자_일반주서
 62
     0
370
    -2
100
AcDbLine
 10
30.6375
 20
-7.137712211296771
 30
0.0
 11
74.8487363030009
 21
-7.137712211296606
 31
0.0
  0
LINE
  5
FF
330
FB
100
AcDbEntity
  8
치수문자_일반주서
 62
     0
370
    -2
100
AcDbLine
 10
30.6375
 20
7.137712211296762
 30
0.0
 11
74.84873630300085
 21
7.137712211296925
 31
0.0
  0
LINE
  5
100
330
FB
100
AcDbEntity
  8
치수문자_일반주서
 62
     0
370
    -2
100
AcDbLine
 10
74.84873630300085
 20
7.137712211296925
 30
0.0
 11
74.8487363030007
 21
43.49171221129693
 31
0.0
  0
LINE
  5
101
330
FB
100
AcDbEntity
  8
치수문자_일반주서
 62
     0
370
    -2
100
AcDbLine
 10
74.8487363030009
 20
-7.137712211296606
 30
0.0
 11
74.84873630300085
 21
7.137712211296925
 31
0.0
  0
LINE
  5
102
330
FB
100
AcDbEntity
  8
치수문자_일반주서
 62
     0
370
    -2
100
AcDbLine
 10
74.84873630300092
 20
-10.43971221129661
 30
0.0
 11
74.84873630300093
 21
-13.7417122112966
 31
0.0
  0
LINE
  5
103
330
FB
100
AcDbEntity
  8
치수문자_일반주서
 62
     0
370
    -2
100
AcDbLine
 10
74.84873630300083
 20
10.43971221129692
 30
0.0
 11
74.84873630300082
 21
13.74171221129692
 31
0.0
  0
SOLID
  5
104
330
FB
100
AcDbEntity
  8
치수문자_일반주서
 62
     0
100
AcDbTrace
 10
75.39906963633425
 20
-10.4397122112966
 30
0.0
 11
74.29840296966759
 21
-10.43971221129661
 31
0.0
 12
74.8487363030009
 22
-7.137712211296606
 32
0.0
 13
74.8487363030009
 23
-7.137712211296606
 33
0.0
  0
SOLID
  5
105
330
FB
100
AcDbEntity
  8
치수문자_일반주서
 62
     0
100
AcDbTrace
 10
74.2984029696675
 20
10.43971221129692
 30
0.0
 11
75.39906963633416
 21
10.43971221129693
 31
0.0
 12
74.84873630300085
 22
7.137712211296925
 32
0.0
 13
74.84873630300085
 23
7.137712211296925
 33
0.0
  0
MTEXT
  5
106
330
FB
100
AcDbEntity
  8
치수문자_일반주서
 62
     0
100
AcDbMText
 10
70.47373630300076
 20
28.61671221129691
 30
0.0
 40
3.5
 41
0.0
 71
     2
 72
     1
  1
\A1;%%c14.28 [9/16]
  7
SLDTEXTSTYLE0
 11
-3.981907450039990E-15
 21
1.0
 31
0.0
 73
     1
 44
1.0
  0
POINT
  5
107
330
FB
100
AcDbEntity
  8
Defpoints
 62
     0
100
AcDbPoint
 10
30.575
 20
-7.137712211296771
 30
0.0
  0
POINT
  5
108
330
FB
100
AcDbEntity
  8
Defpoints
 62
     0
100
AcDbPoint
 10
30.575
 20
7.137712211296762
 30
0.0
  0
POINT
  5
109
330
FB
100
AcDbEntity
  8
Defpoints
 62
     0
100
AcDbPoint
 10
74.84873630300085
 20
7.137712211296927
 30
0.0
  0
ENDBLK
  5
FD
330
FB
100
AcDbEntity
  8
0
100
AcDbBlockEnd
  0
BLOCK
  5
115
330
114
100
AcDbEntity
  8
0
100
AcDbBlockBegin
  2
SW_DOWELSYMBOL_0
 70
     0
 10
0.0
 20
0.0
 30
0.0
  3
SW_DOWELSYMBOL_0
  1
SW_DOWELSYMBOL_0
  0
CIRCLE
  5
117
330
114
100
AcDbEntity
  8
해칭선
 62
     0
100
AcDbCircle
 10
0.0
 20
0.0
 30
0.0
 40
3.000000000000001
  0
HATCH
  5
118
330
114
100
AcDbEntity
  8
0
  6
Continuous
 62
     0
370
     0
100
AcDbHatch
 10
0.0
 20
0.0
 30
0.0
210
0.0
220
0.0
230
1.0
  2
SOLID
 70
     1
 71
     0
 91
        1
 92
        0
 93
        3
 72
     2
 10
0.0
 20
0.0
 40
3.000000000000001
 50
0.0
 51
90.0
 73
     1
 72
     1
 10
0.0
 20
3.000000000000001
 11
0.0
 21
0.0
 72
     1
 10
0.0
 20
0.0
 11
3.000000000000001
 21
0.0
 97
        0
 75
     0
 76
     1
 98
        1
 10
0.0
 20
0.0
  0
HATCH
  5
119
330
114
100
AcDbEntity
  8
0
  6
Continuous
 62
     0
370
     0
100
AcDbHatch
 10
0.0
 20
0.0
 30
0.0
210
0.0
220
0.0
230
1.0
  2
SOLID
 70
     1
 71
     0
 91
        1
 92
        0
 93
        3
 72
     2
 10
0.0
 20
0.0
 40
3.000000000000001
 50
180.0
 51
270.0000000000007
 73
     1
 72
     1
 10
0.0
 20
-3.000000000000001
 11
0.0
 21
0.0
 72
     1
 10
0.0
 20
0.0
 11
-3.000000000000001
 21
0.0
 97
        0
 75
     0
 76
     1
 98
        1
 10
0.0
 20
0.0
  0
ENDBLK
  5
116
330
114
100
AcDbEntity
  8
0
100
AcDbBlockEnd
  0
BLOCK
  5
17A
330
179
100
AcDbEntity
  8
0
100
AcDbBlockBegin
  2
*D7
 70
     1
 10
0.0
 20
0.0
 30
0.0
  3
*D7
  1
*D7
  0
LINE
  5
17C
330
179
100
AcDbEntity
  8
치수문자_일반주서
 62
     0
370
    -2
100
AcDbLine
 10
27.2415
 20
4.345577502114839
 30
0.0
 11
27.2415
 21
13.29172858387919
 31
0.0
  0
LINE
  5
17D
330
179
100
AcDbEntity
  8
치수문자_일반주서
 62
     0
370
    -2
100
AcDbLine
 10
6.604000000000002
 20
2.929361757642647
 30
0.0
 11
6.603999999999999
 21
13.29172858387919
 31
0.0
  0
LINE
  5
17E
330
179
100
AcDbEntity
  8
치수문자_일반주서
 62
     0
370
    -2
100
AcDbLine
 10
27.2415
 20
13.29172858387919
 30
0.0
 11
63.158
 21
13.29172858387919
 31
0.0
  0
LINE
  5
17F
330
179
100
AcDbEntity
  8
치수문자_일반주서
 62
     0
370
    -2
100
AcDbLine
 10
27.2415
 20
13.29172858387919
 30
0.0
 11
6.603999999999999
 21
13.29172858387919
 31
0.0
  0
LINE
  5
180
330
179
100
AcDbEntity
  8
치수문자_일반주서
 62
     0
370
    -2
100
AcDbLine
 10
30.5435
 20
13.29172858387919
 30
0.0
 11
33.8455
 21
13.29172858387919
 31
0.0
  0
LINE
  5
181
330
179
100
AcDbEntity
  8
치수문자_일반주서
 62
     0
370
    -2
100
AcDbLine
 10
3.302
 20
13.29172858387919
 30
0.0
 11
0.0
 21
13.29172858387919
 31
0.0
  0
SOLID
  5
182
330
179
100
AcDbEntity
  8
치수문자_일반주서
 62
     0
100
AcDbTrace
 10
30.5435
 20
13.84206191721252
 30
0.0
 11
30.5435
 21
12.74139525054585
 31
0.0
 12
27.2415
 22
13.29172858387919
 32
0.0
 13
27.2415
 23
13.29172858387919
 33
0.0
  0
SOLID
  5
183
330
179
100
AcDbEntity
  8
치수문자_일반주서
 62
     0
100
AcDbTrace
 10
3.302
 20
12.74139525054585
 30
0.0
 11
3.302
 21
13.84206191721252
 31
0.0
 12
6.603999999999999
 22
13.29172858387919
 32
0.0
 13
6.603999999999999
 23
13.29172858387919
 33
0.0
  0
MTEXT
  5
184
330
179
100
AcDbEntity
  8
치수문자_일반주서
 62
     0
100
AcDbMText
 10
48.50175
 20
17.66672858387918
 30
0.0
 40
3.5
 41
0.0
 71
     2
 72
     1
  1
\A1;20.64 [13/16]
  7
SLDTEXTSTYLE0
 73
     1
 44
1.0
  0
POINT
  5
185
330
179
100
AcDbEntity
  8
Defpoints
 62
     0
100
AcDbPoint
 10
27.2415
 20
4.283077502114839
 30
0.0
  0
POINT
  5
186
330
179
100
AcDbEntity
  8
Defpoints
 62
     0
100
AcDbPoint
 10
6.604000000000002
 20
2.866861757642647
 30
0.0
  0
POINT
  5
187
330
179
100
AcDbEntity
  8
Defpoints
 62
     0
100
AcDbPoint
 10
6.604000000000002
 20
13.29172858387919
 30
0.0
  0
ENDBLK
  5
17B
330
179
100
AcDbEntity
  8
0
100
AcDbBlockEnd
  0
BLOCK
  5
18C
330
18B
100
AcDbEntity
  8
0
100
AcDbBlockBegin
  2
*D8
 70
     1
 10
0.0
 20
0.0
 30
0.0
  3
*D8
  1
*D8
  0
LINE
  5
18E
330
18B
100
AcDbEntity
  8
치수문자_일반주서
 62
     0
370
    -2
100
AcDbLine
 10
60.57319589466461
 20
-27.9120928960542
 30
0.0
 11
60.57319589466461
 21
-18.96594181428986
 31
0.0
  0
LINE
  5
18F
330
18B
100
AcDbEntity
  8
치수문자_일반주서
 62
     0
370
    -2
100
AcDbLine
 10
39.9356958946646
 20
-29.32830864052639
 30
0.0
 11
39.9356958946646
 21
-18.96594181428986
 31
0.0
  0
LINE
  5
190
330
18B
100
AcDbEntity
  8
치수문자_일반주서
 62
     0
370
    -2
100
AcDbLine
 10
60.57319589466461
 20
-18.96594181428986
 30
0.0
 11
96.4896958946646
 21
-18.96594181428986
 31
0.0
  0
LINE
  5
191
330
18B
100
AcDbEntity
  8
치수문자_일반주서
 62
     0
370
    -2
100
AcDbLine
 10
60.57319589466461
 20
-18.96594181428986
 30
0.0
 11
39.9356958946646
 21
-18.96594181428986
 31
0.0
  0
LINE
  5
192
330
18B
100
AcDbEntity
  8
치수문자_일반주서
 62
     0
370
    -2
100
AcDbLine
 10
63.87519589466461
 20
-18.96594181428986
 30
0.0
 11
67.1771958946646
 21
-18.96594181428986
 31
0.0
  0
LINE
  5
193
330
18B
100
AcDbEntity
  8
치수문자_일반주서
 62
     0
370
    -2
100
AcDbLine
 10
36.6336958946646
 20
-18.96594181428986
 30
0.0
 11
33.33169589466461
 21
-18.96594181428986
 31
0.0
  0
SOLID
  5
194
330
18B
100
AcDbEntity
  8
치수문자_일반주서
 62
     0
100
AcDbTrace
 10
63.87519589466461
 20
-18.41560848095652
 30
0.0
 11
63.87519589466461
 21
-19.51627514762319
 31
0.0
 12
60.57319589466461
 22
-18.96594181428986
 32
0.0
 13
60.57319589466461
 23
-18.96594181428986
 33
0.0
  0
SOLID
  5
195
330
18B
100
AcDbEntity
  8
치수문자_일반주서
 62
     0
100
AcDbTrace
 10
36.6336958946646
 20
-19.51627514762319
 30
0.0
 11
36.6336958946646
 21
-18.41560848095652
 31
0.0
 12
39.9356958946646
 22
-18.96594181428986
 32
0.0
 13
39.9356958946646
 23
-18.96594181428986
 33
0.0
  0
MTEXT
  5
196
330
18B
100
AcDbEntity
  8
치수문자_일반주서
 62
     0
100
AcDbMText
 10
81.8334458946646
 20
-14.59094181428986
 30
0.0
 40
3.5
 41
0.0
 71
     2
 72
     1
  1
\A1;20.64 [13/16]
  7
SLDTEXTSTYLE0
 73
     1
 44
1.0
  0
POINT
  5
197
330
18B
100
AcDbEntity
  8
Defpoints
 62
     0
100
AcDbPoint
 10
60.57319589466461
 20
-27.9745928960542
 30
0.0
  0
POINT
  5
198
330
18B
100
AcDbEntity
  8
Defpoints
 62
     0
100
AcDbPoint
 10
39.9356958946646
 20
-29.39080864052639
 30
0.0
  0
POINT
  5
199
330
18B
100
AcDbEntity
  8
Defpoints
 62
     0
100
AcDbPoint
 10
39.9356958946646
 20
-18.96594181428986
 30
0.0
  0
ENDBLK
  5
18D
330
18B
100
AcDbEntity
  8
0
100
AcDbBlockEnd
  0
ENDSEC
  0
SECTION
  2
ENTITIES
  0
SPLINE
  5
96
330
1F
100
AcDbEntity
  8
0
  6
Continuous
 62
     1
370
    15
100
AcDbSpline
210
0.0
220
0.0
230
1.0
 70
     8
 71
     3
 72
    18
 73
    14
 74
     0
 42
0.000000001
 43
0.00000001
 40
0.0
 40
0.0
 40
0.0
 40
0.0
 40
0.1394501191803806
 40
0.248427067041727
 40
0.3316016785048134
 40
0.4055212888118572
 40
0.4718694056600687
 40
0.5304345715104027
 40
0.592604385720579
 40
0.6683756930794515
 40
0.7637113278493882
 40
0.8743946047246922
 40
1.0
 40
1.0
 40
1.0
 40
1.0
 10
12.06668274337042
 20
1.830585375542955
 30
0.0
 10
11.9767609393633
 20
1.872838777239593
 30
0.0
 10
11.81656738654394
 20
1.948112206317511
 30
0.0
 10
11.5982261750187
 20
2.053142443925419
 30
0.0
 10
11.41799848421547
 20
2.141035565466837
 30
0.0
 10
11.26836955756913
 20
2.214845225096557
 30
0.0
 10
11.13685370721937
 20
2.280393454370018
 30
0.0
 10
11.01342049910722
 20
2.342395433719903
 30
0.0
 10
10.88471691128932
 20
2.407452635776537
 30
0.0
 10
10.72755158372099
 20
2.48750991371776
 30
0.0
 10
10.53484389943762
 20
2.586528338888531
 30
0.0
 10
10.31464610711669
 20
2.700974228692497
 30
0.0
 10
10.16528985956287
 20
2.779847834155799
 30
0.0
 10
10.08589565780073
 20
2.821775152553408
 30
0.0
1001
PE_URL
1000

  0
LINE
  5
97
330
1F
100
AcDbEntity
  8
0
  6
Continuous
 62
     1
370
    15
100
AcDbLine
 10
8.065222356251939
 20
2.040016178281378
 30
0.0
 11
8.040203176531948
 21
2.053827495100197
 31
0.0
1001
PE_URL
1000

  0
SPLINE
  5
98
330
1F
100
AcDbEntity
  8
0
  6
Continuous
 62
     1
370
    15
100
AcDbSpline
210
0.0
220
0.0
230
1.0
 70
     8
 71
     3
 72
    26
 73
    22
 74
     0
 42
0.000000001
 43
0.00000001
 40
0.0
 40
0.0
 40
0.0
 40
0.0
 40
0.0482691012894999
 40
0.0899168953992034
 40
0.124323044703183
 40
0.1595783884169628
 40
0.1945661155381141
 40
0.2293418063908576
 40
0.2640678353921875
 40
0.3292785481332985
 40
0.3873614791612917
 40
0.4544915004494145
 40
0.5224438507563023
 40
0.5817624862680684
 40
0.6421827222785287
 40
0.7097730871727526
 40
0.7853738157746409
 40
0.8730063050657025
 40
0.9219265139178985
 40
0.9745959641650307
 40
1.0
 40
1.0
 40
1.0
 40
1.0
 10
9.705395981767518
 20
5.676701395838709
 30
0.0
 10
9.636627601754439
 20
5.672681260089485
 30
0.0
 10
9.508524134583519
 20
5.665192450146963
 30
0.0
 10
9.28110875733883
 20
5.651828715088786
 30
0.0
 10
9.056735062728709
 20
5.642164077894435
 30
0.0
 10
8.851525151109678
 20
5.635211029876219
 30
0.0
 10
8.642926942632998
 20
5.627586648906922
 30
0.0
 10
8.434850628963709
 20
5.620293557709887
 30
0.0
 10
8.166682594014858
 20
5.611382510415226
 30
0.0
 10
7.853152160585559
 20
5.602198866839151
 30
0.0
 10
7.481288740640778
 20
5.593411422460258
 30
0.0
 10
7.106717434789308
 20
5.586552338478286
 30
0.0
 10
6.725044882899569
 20
5.58176803310646
 30
0.0
 10
6.357377526408323
 20
5.57921183094124
 30
0.0
 10
5.990377339155266
 20
5.578587364193258
 30
0.0
 10
5.591503423232036
 20
5.580148506791375
 30
0.0
 10
5.139153527143177
 20
5.584749126447795
 30
0.0
 10
4.723439085869508
 20
5.591895808025928
 30
0.0
 10
4.352696922779051
 20
5.600554339661903
 30
0.0
 10
4.103897331771455
 20
5.60726277901367
 30
0.0
 10
3.95095677131029
 20
5.61226851908212
 30
0.0
 10
3.901192021796096
 20
5.613897317877472
 30
0.0
1001
PE_URL
1000

  0
SPLINE
  5
99
330
1F
100
AcDbEntity
  8
0
  6
Continuous
 62
     1
370
    15
100
AcDbSpline
210
0.0
220
0.0
230
1.0
 70
     8
 71
     3
 72
    46
 73
    42
 74
     0
 42
0.000000001
 43
0.00000001
 40
0.0
 40
0.0
 40
0.0
 40
0.0
 40
0.0322649041460034
 40
0.0596720790252605
 40
0.0821574350682241
 40
0.0997035632068773
 40
0.1123481567886185
 40
0.1213398341504446
 40
0.1304104309528936
 40
0.1480992297526443
 40
0.1674524863858302
 40
0.1901054006636665
 40
0.2186350740871233
 40
0.249370871938359
 40
0.2802042715269147
 40
0.3092761477344895
 40
0.3360761286159943
 40
0.363012361179141
 40
0.386529305404909
 40
0.4072106906364659
 40
0.4259746934806473
 40
0.4439772741049806
 40
0.4638044945924131
 40
0.4863921822595672
 40
0.514017184239764
 40
0.5609158436141515
 40
0.6028676399864223
 40
0.6447118142531352
 40
0.6853203686622621
 40
0.7219120829037278
 40
0.7555317039048706
 40
0.7873269728352597
 40
0.8195911768766972
 40
0.8572388924462756
 40
0.8772289053117526
 40
0.8971236821912957
 40
0.9170805840901004
 40
0.9333889204009874
 40
0.9523017498117695
 40
0.9744020497869857
 40
1.0
 40
1.0
 40
1.0
 40
1.0
 10
27.92099865176131
 20
4.885986236767129
 30
0.0
 10
27.78867447334889
 20
4.874871561703932
 30
0.0
 10
27.54394853846162
 20
4.854315611321748
 30
0.0
 10
27.20540198393261
 20
4.829006952082576
 30
0.0
 10
26.92572637016097
 20
4.809696974420875
 30
0.0
 10
26.70525037443556
 20
4.795649400485139
 30
0.0
 10
26.5387129928219
 20
4.785743038509441
 30
0.0
 10
26.4063241417302
 20
4.778261959993543
 30
0.0
 10
26.25323812213418
 20
4.769843230100857
 30
0.0
 10
26.05763506176453
 20
4.759743477644228
 30
0.0
 10
25.81174632408785
 20
4.748266443859912
 30
0.0
 10
25.51932170443709
 20
4.736096455412284
 30
0.0
 10
25.17776583156621
 20
4.724152727454408
 30
0.0
 10
24.80209194248569
 20
4.71388698893095
 30
0.0
 10
24.42585414988606
 20
4.706562383075688
 30
0.0
 10
24.06454810083905
 20
4.702289824072848
 30
0.0
 10
23.71761320532633
 20
4.700700275160107
 30
0.0
 10
23.39319263154408
 20
4.701477728032341
 30
0.0
 10
23.09564805248104
 20
4.704147533412637
 30
0.0
 10
22.83281565957871
 20
4.708002892430155
 30
0.0
 10
22.5928222053258
 20
4.712738301140007
 30
0.0
 10
22.35637775165255
 20
4.718517416607154
 30
0.0
 10
22.1040283683305
 20
4.725905370215516
 30
0.0
 10
21.81152948321029
 20
4.73605373949356
 30
0.0
 10
21.40603477945586
 20
4.75271879835064
 30
0.0
 10
20.91957734032549
 20
4.777381051474688
 30
0.0
 10
20.374548797328
 20
4.811171329045733
 30
0.0
 10
19.85052186277636
 20
4.848992958514334
 30
0.0
 10
19.34894047295622
 20
4.890295938370889
 30
0.0
 10
18.89339017766856
 20
4.932199468951838
 30
0.0
 10
18.46872550076989
 20
4.974795356022618
 30
0.0
 10
18.06268097298952
 20
5.01876085894289
 30
0.0
 10
17.64506491221562
 20
5.066760800778658
 30
0.0
 10
17.26441373040517
 20
5.113687915928537
 30
0.0
 10
16.93414544317142
 20
5.156439723670477
 30
0.0
 10
16.6777902685045
 20
5.190586839206606
 30
0.0
 10
16.43957448428828
 20
5.22222849338519
 30
0.0
 10
16.20255466549919
 20
5.255223177737168
 30
0.0
 10
15.96761164428672
 20
5.290364130894226
 30
0.0
 10
15.7088389344583
 20
5.330821247903309
 30
0.0
 10
15.53495839106829
 20
5.358307568101779
 30
0.0
 10
15.44164290307566
 20
5.373058496137981
 30
0.0
1001
PE_URL
1000

  0
SPLINE
  5
9A
330
1F
100
AcDbEntity
  8
0
  6
Continuous
 62
     1
370
    15
100
AcDbSpline
210
0.0
220
0.0
230
1.0
 70
     8
 71
     3
 72
    27
 73
    23
 74
     0
 42
0.000000001
 43
0.00000001
 40
0.0
 40
0.0
 40
0.0
 40
0.0
 40
0.0429774332467197
 40
0.0808397982307068
 40
0.1161938316979158
 40
0.1530982209037328
 40
0.1905027124123577
 40
0.2248397718427755
 40
0.2561123184486445
 40
0.2852096379824845
 40
0.3460229418193425
 40
0.4135534676019028
 40
0.4664907664006274
 40
0.5234039884172816
 40
0.5868557164874774
 40
0.6577362980132172
 40
0.7230437601783011
 40
0.7919579477280049
 40
0.8497571580932691
 40
0.9028681393382513
 40
0.9542566666821263
 40
1.0
 40
1.0
 40
1.0
 40
1.0
 10
15.44164290307566
 20
-5.37305849613799
 30
0.0
 10
15.48913271437427
 20
-5.365239965151066
 30
0.0
 10
15.57846021658582
 20
-5.350533445480261
 30
0.0
 10
15.75137959820174
 20
-5.320922389401282
 30
0.0
 10
15.9448368421057
 20
-5.290547029409913
 30
0.0
 10
16.14966377403391
 20
-5.261878621376244
 30
0.0
 10
16.34723080652449
 20
-5.235311390499005
 30
0.0
 10
16.53664072170679
 20
-5.20963829388181
 30
0.0
 10
16.71084880990869
 20
-5.186247958340816
 30
0.0
 10
16.93436680110932
 20
-5.156481540554147
 30
0.0
 10
17.22442989459912
 20
-5.118740509810138
 30
0.0
 10
17.54879426213499
 20
-5.078666815644517
 30
0.0
 10
17.86743084163897
 20
-5.041097776468723
 30
0.0
 10
18.17922256079252
 20
-5.006002634074452
 30
0.0
 10
18.52362910132066
 20
-4.96921034835648
 30
0.0
 10
18.88357747869238
 20
-4.933309417059894
 30
0.0
 10
19.25328470203437
 20
-4.899108501247404
 30
0.0
 10
19.59922854407081
 20
-4.869556742145544
 30
0.0
 10
19.92306042649393
 20
-4.844038798790889
 30
0.0
 10
20.21550707719876
 20
-4.822746655267563
 30
0.0
 10
20.48606882788277
 20
-4.804389361010251
 30
0.0
 10
20.66005432646444
 20
-4.793827531784961
 30
0.0
 10
20.74199115542948
 20
-4.788853537964524
 30
0.0
1001
PE_URL
1000

  0
SPLINE
  5
9B
330
1F
100
AcDbEntity
  8
0
  6
Continuous
 62
     1
370
    15
100
AcDbSpline
210
0.0
220
0.0
230
1.0
 70
     8
 71
     3
 72
    38
 73
    34
 74
     0
 42
0.000000001
 43
0.00000001
 40
0.0
 40
0.0
 40
0.0
 40
0.0
 40
0.0473309076459092
 40
0.0877818850291477
 40
0.1213025340790086
 40
0.1500969925305436
 40
0.1705481527035554
 40
0.1871303739689147
 40
0.2031803108604487
 40
0.2186970970166634
 40
0.2337093849940931
 40
0.2716301286341675
 40
0.3141624809226957
 40
0.3400178286916992
 40
0.3663097061978057
 40
0.3931284584155852
 40
0.4210511203228099
 40
0.4511068745261057
 40
0.4827895596852977
 40
0.5180831788801527
 40
0.5489722726388525
 40
0.5861032638654232
 40
0.6329300389498748
 40
0.6806151273238882
 40
0.7256810846404597
 40
0.7654483859407829
 40
0.801071054648156
 40
0.8334576799645215
 40
0.863304716759
 40
0.8882774376042876
 40
0.9234279111052136
 40
0.9584365923128481
 40
1.0
 40
1.0
 40
1.0
 40
1.0
 10
2.0
 20
-5.700913347634831
 30
0.0
 10
2.122263798815244
 20
-5.693828526706964
 30
0.0
 10
2.349019364356444
 20
-5.680688720878711
 30
0.0
 10
2.662310097758594
 20
-5.664497332372042
 30
0.0
 10
2.927700680331293
 20
-5.651774562724547
 30
0.0
 10
3.141424460893829
 20
-5.642283679772826
 30
0.0
 10
3.311426267481242
 20
-5.635194860820192
 30
0.0
 10
3.448529149399715
 20
-5.629760544906887
 30
0.0
 10
3.572877480844763
 20
-5.625057444910833
 30
0.0
 10
3.693157800388178
 20
-5.620720034311267
 30
0.0
 10
3.869948973270606
 20
-5.61464601340802
 30
0.0
 10
4.116084114063586
 20
-5.606924902593574
 30
0.0
 10
4.391996999266148
 20
-5.599580576402607
 30
0.0
 10
4.628383488506715
 20
-5.594174474837883
 30
0.0
 10
4.812401731670292
 20
-5.590046314406402
 30
0.0
 10
5.003356345124383
 20
-5.585690783731696
 30
0.0
 10
5.223365149765534
 20
-5.582382436351326
 30
0.0
 10
5.459504438419552
 20
-5.580544625493413
 30
0.0
 10
5.713005637921283
 20
-5.579590555231521
 30
0.0
 10
5.971100684086977
 20
-5.578799686295818
 30
0.0
 10
6.23948787966372
 20
-5.578938876032314
 30
0.0
 10
6.535461213894697
 20
-5.580264045845404
 30
0.0
 10
6.875755404456479
 20
-5.583429709381136
 30
0.0
 10
7.236132838544458
 20
-5.588738432377387
 30
0.0
 10
7.578192280393829
 20
-5.59558471333126
 30
0.0
 10
7.889146588153279
 20
-5.60332293581453
 30
0.0
 10
8.167004350856919
 20
-5.611406951061166
 30
0.0
 10
8.42363493554233
 20
-5.619957808350009
 30
0.0
 10
8.652361417758959
 20
-5.627976712773524
 30
0.0
 10
8.888598225241429
 20
-5.637120805454163
 30
0.0
 10
9.13128019348501
 20
-5.647859653578312
 30
0.0
 10
9.412241174493719
 20
-5.66133516293708
 30
0.0
 10
9.602255832339889
 20
-5.671295120661609
 30
0.0
 10
9.705395981767518
 20
-5.676701395838718
 30
0.0
1001
PE_URL
1000

  0
SPLINE
  5
9C
330
1F
100
AcDbEntity
  8
0
  6
Continuous
 62
     1
370
    15
100
AcDbSpline
210
0.0
220
0.0
230
1.0
 70
     8
 71
     3
 72
    46
 73
    42
 74
     0
 42
0.000000001
 43
0.00000001
 40
0.0
 40
0.0
 40
0.0
 40
0.0
 40
0.0625
 40
0.0625
 40
0.1250000000000001
 40
0.1250000000000001
 40
0.1562500000000001
 40
0.1562500000000001
 40
0.1875000000000001
 40
0.1875000000000001
 40
0.2500000000000001
 40
0.2500000000000001
 40
0.3125
 40
0.3125
 40
0.375
 40
0.375
 40
0.4062500000000001
 40
0.4062500000000001
 40
0.4375000000000003
 40
0.4375000000000003
 40
0.5000000000000002
 40
0.5000000000000002
 40
0.5312500000000002
 40
0.5312500000000002
 40
0.5625000000000002
 40
0.5625000000000002
 40
0.6250000000000001
 40
0.6250000000000001
 40
0.6875000000000001
 40
0.6875000000000001
 40
0.75
 40
0.75
 40
0.78125
 40
0.78125
 40
0.8125
 40
0.8125
 40
0.875
 40
0.875
 40
0.9375000000000001
 40
0.9375000000000001
 40
1.0
 40
1.0
 40
1.0
 40
1.0
 10
30.57499999999999
 20
-6.778996334575389
 30
0.0
 10
29.98257716559613
 20
-6.670751885732574
 30
0.0
 10
29.38383078454217
 20
-6.538540887974056
 30
0.0
 10
28.19228709946082
 20
-6.230038464580852
 30
0.0
 10
27.60014910947917
 20
-6.053951836342367
 30
0.0
 10
26.70508318038932
 20
-5.758554947388454
 30
0.0
 10
26.40663388986494
 20
-5.654980650688145
 30
0.0
 10
25.81187502645275
 20
-5.438455675280322
 30
0.0
 10
25.51613612671186
 20
-5.325590956537392
 30
0.0
 10
24.62329639717634
 20
-4.972725496711549
 30
0.0
 10
24.02433563203626
 20
-4.718820696543007
 30
0.0
 10
22.83756366504365
 20
-4.181686136542231
 30
0.0
 10
22.24095341153318
 20
-3.89716834919975
 30
0.0
 10
21.04856401525486
 20
-3.303157919990446
 30
0.0
 10
20.45688794251147
 20
-2.994412587823655
 30
0.0
 10
19.56200673203201
 20
-2.516051742305251
 30
0.0
 10
19.26342909280767
 20
-2.354219106404604
 30
0.0
 10
18.66803701904897
 20
-2.027068131175596
 30
0.0
 10
18.37223646509561
 20
-1.861942128154476
 30
0.0
 10
17.4803979593913
 20
-1.36133412898767
 30
0.0
 10
16.8813474975768
 20
-1.020850984140598
 30
0.0
 10
15.99000509850392
 20
-0.5079534467284946
 30
0.0
 10
15.69403932419064
 20
-0.3366198086792453
 30
0.0
 10
15.09840835503481
 20
0.0070449947852883
 30
0.0
 10
14.79979393100876
 20
0.1791741423614188
 30
0.0
 10
13.9050517869478
 20
0.6944348035843457
 30
0.0
 10
13.3134587206244
 20
1.035782969302644
 30
0.0
 10
12.12077618687923
 20
1.710740991920209
 30
0.0
 10
11.52498345060618
 20
2.043326539497065
 30
0.0
 10
10.33744374595857
 20
2.691316156217404
 30
0.0
 10
9.738428337439078
 20
3.00801084453815
 30
0.0
 10
8.84600467827743
 20
3.464688211163328
 30
0.0
 10
8.550292786402188
 20
3.613745905007479
 30
0.0
 10
7.955241529669749
 20
3.90594403371451
 30
0.0
 10
7.6567284242785
 20
4.048937690622207
 30
0.0
 10
6.761720679296198
 20
4.466899553960342
 30
0.0
 10
6.169831651557075
 20
4.730254247927773
 30
0.0
 10
4.977887314897073
 20
5.223557685706247
 30
0.0
 10
4.380122783555276
 20
5.453085412730211
 30
0.0
 10
3.19440363967734
 20
5.871613442762131
 30
0.0
 10
2.595548009973493
 20
6.061870973201126
 30
0.0
 10
2.000000000003896
 20
6.23007197811126
 30
0.0
1001
PE_URL
1000

  0
SPLINE
  5
9D
330
1F
100
AcDbEntity
  8
0
  6
Continuous
 62
     1
370
    15
100
AcDbSpline
210
0.0
220
0.0
230
1.0
 70
     8
 71
     3
 72
    22
 73
    18
 74
     0
 42
0.000000001
 43
0.00000001
 40
0.0
 40
0.0
 40
0.0
 40
0.0
 40
0.0711475537068963
 40
0.1422364668657828
 40
0.2134406471134268
 40
0.2844926090262897
 40
0.3557276949163061
 40
0.4267644413743565
 40
0.4980046674746777
 40
0.5690479534192139
 40
0.6402675468884936
 40
0.7113391190297408
 40
0.7825123367629864
 40
0.853633906216995
 40
0.924743610881513
 40
0.9959282859921711
 40
1.0
 40
1.0
 40
1.0
 40
1.0
 10
30.57499999999999
 20
-5.636220613580447
 30
0.0
 10
30.13565359289549
 20
-5.549886287123341
 30
0.0
 10
29.25732289252932
 20
-5.377288791851965
 30
0.0
 10
27.93976249964227
 20
-5.039716900901563
 30
0.0
 10
26.62189557289115
 20
-4.650882700711239
 30
0.0
 10
25.30434339858595
 20
-4.20619298562651
 30
0.0
 10
23.98636682232755
 20
-3.71669850689728
 30
0.0
 10
22.66881920174043
 20
-3.181996205126907
 30
0.0
 10
21.35082427923048
 20
-2.614557238533833
 30
0.0
 10
20.03327466729236
 20
-2.014133214985412
 30
0.0
 10
18.71535323976029
 20
-1.394049661845662
 30
0.0
 10
17.39779591979133
 20
-0.7554707764578346
 30
0.0
 10
16.08003591216482
 20
-0.1104111469271216
 30
0.0
 10
14.76242688127521
 20
0.5374758802319634
 30
0.0
 10
13.44486213928577
 20
1.176972478596585
 30
0.0
 10
12.54079640479885
 20
1.612081387390217
 30
0.0
 10
12.07619007553335
 20
1.825783642325362
 30
0.0
 10
12.05105275335838
 20
1.837345909331744
 30
0.0
1001
PE_URL
1000

  0
LINE
  5
9E
330
1F
100
AcDbEntity
  8
0
  6
Continuous
 62
     1
370
    15
100
AcDbLine
 10
30.57499999999999
 20
-6.778996334575391
 30
0.0
 11
30.57499999999999
 21
-5.636220613580447
 31
0.0
1001
PE_URL
1000

  0
SPLINE
  5
9F
330
1F
100
AcDbEntity
  8
0
  6
Continuous
 62
     1
370
    15
100
AcDbSpline
210
0.0
220
0.0
230
1.0
 70
     8
 71
     3
 72
    46
 73
    42
 74
     0
 42
0.000000001
 43
0.00000001
 40
0.0
 40
0.0
 40
0.0
 40
0.0
 40
0.0624999999999999
 40
0.0624999999999999
 40
0.1249999999999999
 40
0.1249999999999999
 40
0.1562499999999999
 40
0.1562499999999999
 40
0.1874999999999998
 40
0.1874999999999998
 40
0.2499999999999995
 40
0.2499999999999995
 40
0.3124999999999991
 40
0.3124999999999991
 40
0.3749999999999988
 40
0.3749999999999988
 40
0.4062499999999987
 40
0.4062499999999987
 40
0.4374999999999986
 40
0.4374999999999986
 40
0.4999999999999988
 40
0.4999999999999988
 40
0.5312499999999989
 40
0.5312499999999989
 40
0.562499999999999
 40
0.562499999999999
 40
0.6249999999999991
 40
0.6249999999999991
 40
0.6874999999999993
 40
0.6874999999999993
 40
0.7499999999999994
 40
0.7499999999999994
 40
0.7812499999999996
 40
0.7812499999999996
 40
0.8124999999999996
 40
0.8124999999999996
 40
0.8749999999999998
 40
0.8749999999999998
 40
0.9374999999999999
 40
0.9374999999999999
 40
1.0
 40
1.0
 40
1.0
 40
1.0
 10
30.57499999999999
 20
-7.137712211296771
 30
0.0
 10
29.98257716559627
 20
-7.12360735588684
 30
0.0
 10
29.38383078454237
 20
-7.084621342131983
 30
0.0
 10
28.19228709946122
 20
-6.957822898906612
 30
0.0
 10
27.60014910947967
 20
-6.870194142422399
 30
0.0
 10
26.70508318038996
 20
-6.703114777287746
 30
0.0
 10
26.40663388986564
 20
-6.641532385305679
 30
0.0
 10
25.81187502645355
 20
-6.50710769204427
 30
0.0
 10
25.51613612671272
 20
-6.434328248978456
 30
0.0
 10
24.62329639717734
 20
-6.198982902018447
 30
0.0
 10
24.02433563203735
 20
-6.019580960454812
 30
0.0
 10
22.83756366504493
 20
-5.621474983310206
 30
0.0
 10
22.24095341153458
 20
-5.401834801442664
 30
0.0
 10
21.04856401525646
 20
-4.926648917930931
 30
0.0
 10
20.45688794251318
 20
-4.671739611325055
 30
0.0
 10
19.56200673203385
 20
-4.265348121634485
 30
0.0
 10
19.26342909280957
 20
-4.126011165935477
 30
0.0
 10
18.66803701905096
 20
-3.840693779865905
 30
0.0
 10
18.37223646509765
 20
-3.694887191040961
 30
0.0
 10
17.48039795939352
 20
-3.247520434776286
 30
0.0
 10
16.8813474975791
 20
-2.936166389525363
 30
0.0
 10
15.99000509850635
 20
-2.456741047154139
 30
0.0
 10
15.69403932419313
 20
-2.294873656383625
 30
0.0
 10
15.09840835503741
 20
-1.96676544114317
 30
0.0
 10
14.7997939310114
 20
-1.800712162234728
 30
0.0
 10
13.90505178695058
 20
-1.29849319263474
 30
0.0
 10
13.31345872062729
 20
-0.9589300465234972
 30
0.0
 10
12.12077618688233
 20
-0.2737088375250892
 30
0.0
 10
11.52498345060933
 20
0.0709382341254985
 30
0.0
 10
10.33744374596197
 20
0.7565815628666855
 30
0.0
 10
9.738428337442588
 20
1.09896463325687
 30
0.0
 10
8.84600467828105
 20
1.603887513519734
 30
0.0
 10
8.550292786405858
 20
1.770620155656425
 30
0.0
 10
7.95524152967354
 20
2.101404753688503
 30
0.0
 10
7.656728424282338
 20
2.26529767806227
 30
0.0
 10
6.761720679300188
 20
2.750543359277574
 30
0.0
 10
6.169831651561147
 20
3.064748609465924
 30
0.0
 10
4.977887314901373
 20
3.671174585916843
 30
0.0
 10
4.380122783559601
 20
3.962933067654962
 30
0.0
 10
3.194403639681925
 20
4.515451944614615
 30
0.0
 10
2.595548009978184
 20
4.777882977385948
 30
0.0
 10
2.000000000008669
 20
5.022334373442888
 30
0.0
1001
PE_URL
1000

  0
SPLINE
  5
A0
330
1F
100
AcDbEntity
  8
0
  6
Continuous
 62
     1
370
    15
100
AcDbSpline
210
0.0
220
0.0
230
1.0
 70
     8
 71
     3
 72
    14
 73
    10
 74
     0
 42
0.000000001
 43
0.00000001
 40
0.0
 40
0.0
 40
0.0
 40
0.0
 40
0.1293564302168769
 40
0.2743957798858579
 40
0.4193956270046095
 40
0.564684870611049
 40
0.7096812817867826
 40
0.8547254539143582
 40
1.0
 40
1.0
 40
1.0
 40
1.0
 10
12.83072723161847
 20
-0.6809272602352365
 30
0.0
 10
12.36365320742667
 20
-0.4934580708426748
 30
0.0
 10
11.37287802201332
 20
-0.0957912958574898
 30
0.0
 10
9.858893046679299
 20
0.5178828593762561
 30
0.0
 10
8.287537043125159
 20
1.145831036129768
 30
0.0
 10
6.715637554984809
 20
1.754143940815622
 30
0.0
 10
5.144286424322361
 20
2.334808018032729
 30
0.0
 10
3.57281687363764
 20
2.881295277340461
 30
0.0
 10
2.524549565203513
 20
3.204668603957356
 30
0.0
 10
1.999999999999996
 20
3.366483569005428
 30
0.0
1001
PE_URL
1000

  0
SPLINE
  5
A1
330
1F
100
AcDbEntity
  8
외형선
  6
Continuous
370
    15
100
AcDbSpline
210
0.0
220
0.0
230
1.0
 70
    24
 71
     3
 72
    10
 73
     6
 74
     0
 42
0.000000001
 43
0.00000001
 40
0.0
 40
0.0
 40
0.0
 40
0.0
 40
0.5
 40
0.5
 40
1.0
 40
1.0
 40
1.0
 40
1.0
 10
1.999999999999998
 20
5.022334373446446
 30
0.0
 10
1.999999999999998
 20
4.849171584610408
 30
0.0
 10
1.999999999999998
 20
4.606113203809509
 30
0.0
 10
1.999999999999998
 20
4.030565752963565
 30
0.0
 10
1.999999999999996
 20
3.699962059803911
 30
0.0
 10
1.999999999999996
 20
3.36648356900543
 30
0.0
  0
LINE
  5
A2
330
1F
100
AcDbEntity
  8
외형선
  6
Continuous
370
    15
100
AcDbLine
 10
1.999999999999998
 20
5.022334373446446
 30
0.0
 11
1.999999999999995
 21
6.230071978095383
 31
0.0
  0
LINE
  5
A3
330
1F
100
AcDbEntity
  8
0
  6
Continuous
 62
     1
370
    15
100
AcDbLine
 10
30.575
 20
-7.137712211296771
 30
0.0
 11
30.57499999999999
 21
-6.778996334575393
 31
0.0
1001
PE_URL
1000

  0
SPLINE
  5
A4
330
1F
100
AcDbEntity
  8
0
  6
Continuous
 62
     1
370
    15
100
AcDbSpline
210
0.0
220
0.0
230
1.0
 70
     8
 71
     3
 72
     8
 73
     4
 74
     0
 42
0.000000001
 43
0.00000001
 40
0.0
 40
0.0
 40
0.0
 40
0.0
 40
1.0
 40
1.0
 40
1.0
 40
1.0
 10
26.15494722123349
 20
1.998071704796511
 30
0.0
 10
25.94158074499963
 20
2.250785469220241
 30
0.0
 10
25.74691400926386
 20
2.496189156926604
 30
0.0
 10
25.57500000000897
 20
2.732698380235392
 30
0.0
1001
PE_URL
1000

  0
LINE
  5
A5
330
1F
100
AcDbEntity
  8
0
  6
Continuous
 62
     1
370
    15
100
AcDbLine
 10
25.575
 20
2.937719435296586
 30
0.0
 11
30.57499999999999
 21
-0.0000000000000007
 31
0.0
1001
PE_URL
1000

  0
LINE
  5
A6
330
1F
100
AcDbEntity
  8
0
  6
Continuous
 62
     1
370
    15
100
AcDbLine
 10
30.57499999999999
 20
-0.0000000000000007
 30
0.0
 11
30.57499999999999
 21
-1.909116795699277
 31
0.0
1001
PE_URL
1000

  0
SPLINE
  5
A7
330
1F
100
AcDbEntity
  8
0
  6
Continuous
 62
     1
370
    15
100
AcDbSpline
210
0.0
220
0.0
230
1.0
 70
     8
 71
     3
 72
    12
 73
     8
 74
     0
 42
0.000000001
 43
0.00000001
 40
0.0
 40
0.0
 40
0.0
 40
0.0
 40
0.5
 40
0.5
 40
0.75
 40
0.75
 40
1.0
 40
1.0
 40
1.0
 40
1.0
 10
30.575
 20
-1.909116795699278
 30
0.0
 10
29.80987137535715
 20
-1.307598644175228
 30
0.0
 10
29.0575247839696
 20
-0.6814219771372256
 30
0.0
 10
27.9486816627713
 20
0.2958025426214767
 30
0.0
 10
27.58239414976733
 20
0.6279620771736323
 30
0.0
 10
26.85730620664086
 20
1.306724885055626
 30
0.0
 10
26.5004697015586
 20
1.651581341364636
 30
0.0
 10
26.15494722123348
 20
1.998071704796523
 30
0.0
1001
PE_URL
1000

  0
SPLINE
  5
A8
330
1F
100
AcDbEntity
  8
0
  6
Continuous
 62
     1
370
    15
100
AcDbSpline
210
0.0
220
0.0
230
1.0
 70
     8
 71
     3
 72
    18
 73
    14
 74
     0
 42
0.000000001
 43
0.00000001
 40
0.0
 40
0.0
 40
0.0
 40
0.0
 40
0.0920208462881876
 40
0.1841032668825445
 40
0.2762861527933921
 40
0.3682827139261684
 40
0.4604639531775757
 40
0.5509007265805385
 40
0.6412816522696708
 40
0.73185352873024
 40
0.822213321277469
 40
0.9145396925372156
 40
0.9999999999999999
 40
0.9999999999999999
 40
0.9999999999999999
 40
0.9999999999999999
 10
26.15494722123348
 20
1.998071704796521
 30
0.0
 10
25.65043166532096
 20
2.213655543529754
 30
0.0
 10
24.64106296482379
 20
2.644967475540999
 30
0.0
 10
23.12622890512226
 20
3.244453976484655
 30
0.0
 10
21.61096539118496
 20
3.796556191273711
 30
0.0
 10
20.09615645987236
 20
4.292985015401195
 30
0.0
 10
18.58994287703421
 20
4.721088611339338
 30
0.0
 10
17.09309038586176
 20
5.078167545227135
 30
0.0
 10
15.60536721067595
 20
5.359771218365946
 30
0.0
 10
14.11708550822165
 20
5.563774237275084
 30
0.0
 10
12.61925627623471
 20
5.68700637425062
 30
0.0
 10
11.14874016861725
 20
5.732736997849578
 30
0.0
 10
10.17383385142698
 20
5.692891272318983
 30
0.0
 10
9.705205975518899
 20
5.673737824043833
 30
0.0
1001
PE_URL
1000

  0
SPLINE
  5
A9
330
1F
100
AcDbEntity
  8
0
  6
Continuous
 62
     1
370
    15
100
AcDbSpline
210
0.0
220
0.0
230
1.0
 70
    24
 71
     3
 72
    10
 73
     6
 74
     0
 42
0.000000001
 43
0.00000001
 40
0.0
 40
0.0
 40
0.0
 40
0.0
 40
0.5
 40
0.5
 40
1.0
 40
1.0
 40
1.0
 40
1.0
 10
30.57499999999999
 20
-5.636220613580447
 30
0.0
 10
30.575
 20
-5.204160360195937
 30
0.0
 10
30.575
 20
-4.658235663156839
 30
0.0
 10
30.575
 20
-3.389013281932676
 30
0.0
 10
30.57499999999999
 20
-2.666815046297799
 30
0.0
 10
30.57499999999999
 20
-1.909116795699508
 30
0.0
1001
PE_URL
1000

  0
SPLINE
  5
AA
330
1F
100
AcDbEntity
  8
0
  6
Continuous
 62
     1
370
    15
100
AcDbSpline
210
0.0
220
0.0
230
1.0
 70
     8
 71
     3
 72
     9
 73
     5
 74
     0
 42
0.000000001
 43
0.00000001
 40
0.0
 40
0.0
 40
0.0
 40
0.0
 40
0.5625775393180775
 40
1.0
 40
1.0
 40
1.0
 40
1.0
 10
30.57499999999999
 20
5.000624999999994
 30
0.0
 10
30.07694595418641
 20
4.995276708728083
 30
0.0
 10
29.19163857697175
 20
4.985769945840973
 30
0.0
 10
28.30653069123034
 20
4.911974245658611
 30
0.0
 10
27.91936462188036
 20
4.879694348897093
 30
0.0
1001
PE_URL
1000

  0
SPLINE
  5
AB
330
1F
100
AcDbEntity
  8
0
  6
Continuous
 62
     1
370
    15
100
AcDbSpline
210
0.0
220
0.0
230
1.0
 70
     8
 71
     3
 72
    10
 73
     6
 74
     0
 42
0.000000001
 43
0.00000001
 40
0.0
 40
0.0
 40
0.0
 40
0.0
 40
0.5
 40
0.5
 40
1.0
 40
1.0
 40
1.0
 40
1.0
 10
30.57499999999999
 20
5.000624999999998
 30
0.0
 10
29.8401226756543
 20
4.801344615786126
 30
0.0
 10
29.10975016547589
 20
4.577544975173037
 30
0.0
 10
27.65876542536679
 20
4.0768214572894
 30
0.0
 10
26.938171351232
 20
3.800330358944729
 30
0.0
 10
26.22664218450269
 20
3.489006772086226
 30
0.0
1001
PE_URL
1000

  0
SPLINE
  5
AC
330
1F
100
AcDbEntity
  8
0
  6
Continuous
 62
     1
370
    15
100
AcDbSpline
210
0.0
220
0.0
230
1.0
 70
    24
 71
     3
 72
     8
 73
     4
 74
     0
 42
0.000000001
 43
0.00000001
 40
0.0
 40
0.0
 40
0.0
 40
0.0
 40
1.0
 40
1.0
 40
1.0
 40
1.0
 10
26.22664218450295
 20
3.4890067720861
 30
0.0
 10
26.01957716609318
 20
3.315258591508731
 30
0.0
 10
25.80183816416393
 20
3.132553875297242
 30
0.0
 10
25.57499999999999
 20
2.942214055410351
 30
0.0
1001
PE_URL
1000

  0
SPLINE
  5
AD
330
1F
100
AcDbEntity
  8
0
  6
Continuous
 62
     1
370
    15
100
AcDbSpline
210
0.0
220
0.0
230
1.0
 70
    24
 71
     3
 72
     8
 73
     4
 74
     0
 42
0.000000001
 43
0.00000001
 40
0.0
 40
0.0
 40
0.0
 40
0.0
 40
1.0
 40
1.0
 40
1.0
 40
1.0
 10
25.57500000000001
 20
2.732698380232833
 30
0.0
 10
25.57500000000001
 20
2.803890664907046
 30
0.0
 10
25.575
 20
2.873770859915593
 30
0.0
 10
25.575
 20
2.942214055410363
 30
0.0
1001
PE_URL
1000

  0
SPLINE
  5
AE
330
1F
100
AcDbEntity
  8
0
  6
Continuous
 62
     1
370
    15
100
AcDbSpline
210
0.0
220
0.0
230
1.0
 70
     8
 71
     3
 72
    16
 73
    12
 74
     0
 42
0.000000001
 43
0.00000001
 40
0.0
 40
0.0
 40
0.0
 40
0.0
 40
0.098622417079049
 40
0.2092032181394446
 40
0.3221906852982029
 40
0.4352024881685187
 40
0.5480375504077883
 40
0.6611229340847276
 40
0.774022048194293
 40
0.8869064328699606
 40
1.0
 40
1.0
 40
1.0
 40
1.0
 10
15.44199249423033
 20
-5.369119120115403
 30
0.0
 10
14.99999184429102
 20
-5.434226373358094
 30
0.0
 10
14.06239610160187
 20
-5.57233540886949
 30
0.0
 10
12.61923766471209
 20
-5.686966533397163
 30
0.0
 10
11.11101485998872
 20
-5.729646621153107
 30
0.0
 10
9.592590771291588
 20
-5.684687402886127
 30
0.0
 10
8.074488960954419
 20
-5.554310188452654
 30
0.0
 10
6.555840820881718
 20
-5.341197471876212
 30
0.0
 10
5.037735890723757
 20
-5.046094120065085
 30
0.0
 10
3.519581814887319
 20
-4.679482493625514
 30
0.0
 10
2.506839762097838
 20
-4.377221511006127
 30
0.0
 10
2.0
 20
-4.225951121769
 30
0.0
1001
PE_URL
1000

  0
SPLINE
  5
AF
330
1F
100
AcDbEntity
  8
외형선
  6
Continuous
370
    15
100
AcDbSpline
210
0.0
220
0.0
230
1.0
 70
    24
 71
     3
 72
    14
 73
    10
 74
     0
 42
0.000000001
 43
0.00000001
 40
0.0
 40
0.0
 40
0.0
 40
0.0
 40
0.25
 40
0.25
 40
0.5
 40
0.5
 40
0.75
 40
0.75
 40
1.0
 40
1.0
 40
1.0
 40
1.0
 10
2.0
 20
3.366483569005427
 30
0.0
 10
2.0
 20
2.818569705538206
 30
0.0
 10
2.0
 20
2.214249245718012
 30
0.0
 10
2.0
 20
0.9368444510906432
 30
0.0
 10
2.0
 20
0.2642473970796969
 30
0.0
 10
2.0
 20
-1.085147145791309
 30
0.0
 10
2.0
 20
-1.761225620823141
 30
0.0
 10
2.0
 20
-3.051895754409715
 30
0.0
 10
2.0
 20
-3.665981500283895
 30
0.0
 10
2.0
 20
-4.225951121768999
 30
0.0
  0
LINE
  5
B0
330
1F
100
AcDbEntity
  8
0
  6
Continuous
 62
     1
370
    15
100
AcDbLine
 10
30.57499999999999
 20
-0.0000000000000007
 30
0.0
 11
30.57499999999999
 21
5.000624999999999
 31
0.0
1001
PE_URL
1000

  0
SPLINE
  5
B1
330
1F
100
AcDbEntity
  8
외형선
  6
Continuous
370
    15
100
AcDbSpline
210
0.0
220
0.0
230
1.0
 70
    24
 71
     3
 72
    15
 73
    11
 74
     0
 42
0.000000001
 43
0.00000001
 40
0.0
 40
0.0
 40
0.0
 40
0.0
 40
0.1215783636977281
 40
0.2433317959080221
 40
0.3649101596057501
 40
0.4984067892622983
 40
0.6319034189188463
 40
0.769278414499808
 40
0.9066534100807697
 40
0.9999999999999999
 40
0.9999999999999999
 40
0.9999999999999999
 40
0.9999999999999999
 10
2.0
 20
-4.225951121769
 30
0.0
 10
2.0
 20
-4.33804781122336
 30
0.0
 10
1.999999999999998
 20
-4.562402605371512
 30
0.0
 10
1.999999999999995
 20
-4.850605569063891
 30
0.0
 10
1.999999999999991
 20
-5.109684761913938
 30
0.0
 10
1.999999999999996
 20
-5.329128120885668
 30
0.0
 10
2.000000000000004
 20
-5.50624656759082
 30
0.0
 10
1.999999999999996
 20
-5.628299252759085
 30
0.0
 10
1.999999999999993
 20
-5.693425397161773
 30
0.0
 10
1.999999999999993
 20
-5.695987234341437
 30
0.0
 10
1.999999999999993
 20
-5.697023716316593
 30
0.0
  0
SPLINE
  5
B2
330
1F
100
AcDbEntity
  8
0
  6
Continuous
 62
     1
370
    15
100
AcDbSpline
210
0.0
220
0.0
230
1.0
 70
     8
 71
     3
 72
    15
 73
    11
 74
     0
 42
0.000000001
 43
0.00000001
 40
0.0
 40
0.0
 40
0.0
 40
0.0
 40
0.0077299954693157
 40
0.150962292960973
 40
0.2940600927468619
 40
0.4374518101378065
 40
0.5779369252927135
 40
0.7187671780923781
 40
0.8593070247591542
 40
1.0
 40
1.0
 40
1.0
 40
1.0
 10
20.74289876878603
 20
4.789259223548253
 30
0.0
 10
20.76823504735975
 20
4.800609375539958
 30
0.0
 10
21.26303775762887
 20
5.022271209227322
 30
0.0
 10
22.22691740922087
 20
5.39762318453319
 30
0.0
 10
23.63465222252262
 20
5.902210156539295
 30
0.0
 10
25.03493298799483
 20
6.319492756810028
 30
0.0
 10
26.42588422872654
 20
6.658150117504842
 30
0.0
 10
27.8093615414098
 20
6.908076859381847
 30
0.0
 10
29.191988392364
 20
7.079210551447396
 30
0.0
 10
30.11382881969772
 20
7.118204580721999
 30
0.0
 10
30.57499999999999
 20
7.137712211296762
 30
0.0
1001
PE_URL
1000

  0
SPLINE
  5
B3
330
1F
100
AcDbEntity
  8
0
  6
Continuous
 62
     1
370
    15
100
AcDbSpline
210
0.0
220
0.0
230
1.0
 70
    24
 71
     3
 72
    10
 73
     6
 74
     0
 42
0.000000001
 43
0.00000001
 40
0.0
 40
0.0
 40
0.0
 40
0.0
 40
0.5
 40
0.5
 40
1.0
 40
1.0
 40
1.0
 40
1.0
 10
30.57499999999999
 20
5.000624999999998
 30
0.0
 10
30.575
 20
5.303750434567243
 30
0.0
 10
30.57499999999999
 20
5.656010261969461
 30
0.0
 10
30.575
 20
6.395050431114106
 30
0.0
 10
30.575
 20
6.779943357006765
 30
0.0
 10
30.575
 20
7.137712211296764
 30
0.0
1001
PE_URL
1000

  0
SPLINE
  5
B4
330
1F
100
AcDbEntity
  8
0
  6
Continuous
 62
     1
370
    15
100
AcDbSpline
210
0.0
220
0.0
230
1.0
 70
     8
 71
     3
 72
     9
 73
     5
 74
     0
 42
0.000000001
 43
0.00000001
 40
0.0
 40
0.0
 40
0.0
 40
0.0
 40
0.2715172224197536
 40
1.0
 40
1.0
 40
1.0
 40
1.0
 10
3.90124766102138
 20
-5.613877136743275
 30
0.0
 10
3.729245988156917
 20
-5.677502821967206
 30
0.0
 10
3.09576251579524
 20
-5.911836705677786
 30
0.0
 10
2.461817804280479
 20
-6.09594919818349
 30
0.0
 10
2.000000000003899
 20
-6.230071978111269
 30
0.0
1001
PE_URL
1000

  0
SPLINE
  5
B5
330
1F
100
AcDbEntity
  8
외형선
  6
Continuous
370
    15
100
AcDbSpline
210
0.0
220
0.0
230
1.0
 70
    24
 71
     3
 72
    11
 73
     7
 74
     0
 42
0.000000001
 43
0.00000001
 40
0.0
 40
0.0
 40
0.0
 40
0.0
 40
0.1605611477121782
 40
0.4721101436753487
 40
0.7840222220455074
 40
1.0
 40
1.0
 40
1.0
 40
1.0
 10
2.000000000000002
 20
-5.720929935379809
 30
0.0
 10
2.000000000000002
 20
-5.749990067509883
 30
0.0
 10
2.000000000000002
 20
-5.835437782294214
 30
0.0
 10
2.000000000000002
 20
-5.970644808858905
 30
0.0
 10
2.000000000000004
 20
-6.111153204017247
 30
0.0
 10
1.999999999999998
 20
-6.195544581823663
 30
0.0
 10
1.999999999999995
 20
-6.230071978095392
 30
0.0
  0
LINE
  5
B6
330
1F
100
AcDbEntity
  8
중심선
 62
     1
100
AcDbLine
 10
-55.8
 20
-0.0000000000000077
 30
0.0
 11
37.575
 21
0.0000000000000032
 31
0.0
  0
LINE
  5
B7
330
1F
100
AcDbEntity
  8
참조1
100
AcDbLine
 10
-9.1125
 20
-0.0000000000000082
 30
0.0
 11
-9.112499999999995
 21
-40.00000000000001
 31
0.0
  0
LINE
  5
B8
330
1F
100
AcDbEntity
  8
참조1
100
AcDbLine
 10
-9.112499999999995
 20
-40.00000000000001
 30
0.0
 11
-24.27133181430868
 21
-40.0
 31
0.0
  0
CIRCLE
  5
B9
330
1F
100
AcDbEntity
  8
해칭선
100
AcDbCircle
 10
0.0
 20
0.0
 30
0.0
 40
3.000000000000001
  0
INSERT
  5
BA
330
1F
100
AcDbEntity
  8
0
  6
Continuous
 62
     7
100
AcDbBlockReference
 66
     1
  2
블럭10
 10
-23.0527729321252
 20
-52.04717430164393
 30
0.0
  0
ATTRIB
  5
BB
330
BA
100
AcDbEntity
  8
FORMAT
 62
     2
100
AcDbText
 10
-32.23406822086649
 20
-49.97180738881174
 30
0.0
 40
4.233333333333333
  1
E2030036 [ 2 FLUTE ]
 41
0.75
  7
SLDTEXTSTYLE0
 11
-32.23406822086649
 21
-52.08847405547841
 31
0.0
100
AcDbAttribute
  2
AUTOATTR0
 70
     0
 74
     1
  0
SEQEND
  5
BC
330
BA
100
AcDbEntity
  8
0
  6
Continuous
 62
     7
  0
HATCH
  5
BD
330
1F
100
AcDbEntity
  8
중심선
100
AcDbHatch
 10
0.0
 20
0.0
 30
0.0
210
0.0
220
0.0
230
1.0
  2
SOLID
 70
     1
 71
     0
 91
        1
 92
        0
 93
        4
 72
     1
 10
-17.33786362774436
 20
-35.8
 11
-20.78413887158164
 21
-35.8
 72
     1
 10
-20.78413887158164
 20
-35.8
 11
-22.91236873078569
 21
-38.3363255805726
 72
     1
 10
-22.91236873078569
 20
-38.33632558057261
 11
-19.46606040183524
 21
-38.33628615127012
 72
     1
 10
-19.46606040183524
 20
-38.33628615127012
 11
-17.33786362774436
 21
-35.8
 97
        0
 75
     0
 76
     1
 98
        1
 10
-1.740578832126942
 20
-0.0010749287238974
  0
HATCH
  5
BE
330
1F
100
AcDbEntity
  8
중심선
100
AcDbHatch
 10
0.0
 20
0.0
 30
0.0
210
0.0
220
0.0
230
1.0
  2
SOLID
 70
     1
 71
     0
 91
        1
 92
        0
 93
        4
 72
     1
 10
-12.32509963670838
 20
-35.8
 11
-15.77137488054566
 21
-35.8
 72
     1
 10
-15.77137488054566
 20
-35.8
 11
-20.30251288890308
 21
-41.20000000000002
 72
     1
 10
-20.30251288890308
 20
-41.20000000000002
 11
-16.8562376450658
 21
-41.20000000000002
 72
     1
 10
-16.8562376450658
 20
-41.20000000000002
 11
-12.32509963670839
 21
-35.8
 97
        0
 75
     0
 76
     1
 98
        1
 10
-1.740578832126942
 20
-0.0010749287238974
  0
HATCH
  5
BF
330
1F
100
AcDbEntity
  8
중심선
100
AcDbHatch
 10
0.0
 20
0.0
 30
0.0
210
0.0
220
0.0
230
1.0
  2
SOLID
 70
     1
 71
     0
 91
        1
 92
        0
 93
        4
 72
     1
 10
-7.312335645672491
 20
-35.79999999999998
 11
-10.75861088950963
 21
-35.8
 72
     1
 10
-10.75861088950963
 20
-35.8
 11
-17.80704779139888
 21
-44.20000000000002
 72
     1
 10
-17.80704779139888
 20
-44.20000000000002
 11
-14.3607725475616
 21
-44.20000000000002
 72
     1
 10
-14.3607725475616
 20
-44.20000000000002
 11
-7.312335645672491
 21
-35.79999999999998
 97
        0
 75
     0
 76
     1
 98
        1
 10
-1.740578832126942
 20
-0.0010749287238974
  0
HATCH
  5
C0
330
1F
100
AcDbEntity
  8
중심선
100
AcDbHatch
 10
0.0
 20
0.0
 30
0.0
210
0.0
220
0.0
230
1.0
  2
SOLID
 70
     1
 71
     0
 91
        1
 92
        0
 93
        6
 72
     3
 10
-2.512445214660318
 20
-40.00000000005127
 11
3.960054785062284
 21
1.540882976769353E-10
 40
0.3939339440162627
 50
17.09539180608439
 51
320.0019657685078
 73
     0
 72
     1
 10
-0.8294455589597232
 20
-38.5878940046383
 11
1.475856314741343
 21
-36.65356729459035
 72
     3
 10
-2.512445214713165
 20
-40.00000000000016
 11
6.60005478528683
 21
-1.278976924368180E-13
 40
0.636358354079598
 50
39.99873849337417
 51
368.4976242363724
 73
     1
 72
     1
 10
3.912887277187444
 20
-39.03999999993002
 11
-3.832377907877243
 21
-39.03999999993
 72
     1
 10
-3.832377907877243
 20
-39.03999999993
 11
-3.832402952323177
 21
-40.95999999992992
 72
     1
 10
-3.832402952323177
 20
-40.95999999992992
 11
0.6089768171488608
 21
-40.95999999992988
 97
        0
 75
     0
 76
     1
 98
        1
 10
-1.740578832126942
 20
-0.0010749287238974
  0
DIMENSION
  5
C1
330
1F
100
AcDbEntity
  8
치수문자_일반주서
100
AcDbDimension
  2
_D
 10
-63.79999999999995
 20
-6.350000000000058
 30
0.0
 11
-63.80000000000006
 21
26.29774999999993
 31
0.0
 70
   160
  1
%%c<>
 71
     2
 42
12.69999999999999
 52
-270.0
  3
SLDDIMSTYLE1
100
AcDbAlignedDimension
 13
-47.80000000000001
 23
6.349999999999991
 33
0.0
 14
-47.80000000000001
 24
-6.349999999999998
 34
0.0
 50
90.0000000000002
100
AcDbRotatedDimension
1001
PE_URL
1000

1001
ACAD
1000
DSTYLE
1002
{
1070
   171
1070
     8
1070
   273
1070
     7
1002
}
  0
DIMENSION
  5
CF
330
1F
100
AcDbEntity
  8
치수문자_일반주서
100
AcDbDimension
  2
_D_1
 10
2.0
 20
21.35
 30
0.0
 11
52.05399999999999
 21
21.35
 31
0.0
 70
   160
  1
<>
 71
     2
 42
28.57499999999999
  3
SLDDIMSTYLE1
100
AcDbAlignedDimension
 13
30.57499999999999
 23
7.137712211296762
 33
0.0
 14
1.999999999999996
 24
5.472849324069388
 34
0.0
100
AcDbRotatedDimension
1001
PE_URL
1000

1001
ACAD
1000
DSTYLE
1002
{
1070
   171
1070
     8
1070
   273
1070
     7
1002
}
  0
DIMENSION
  5
E5
330
1F
100
AcDbEntity
  8
치수문자_일반주서
100
AcDbDimension
  2
_D_2
 10
-48.80000000000001
 20
36.34999999999999
 30
0.0
 11
-9.112500000000011
 21
36.34999999999999
 31
0.0
 70
   160
  1
<>
 71
     2
 42
79.375
  3
SLDDIMSTYLE1
100
AcDbAlignedDimension
 13
30.57499999999999
 23
7.137712211296762
 33
0.0
 14
-48.80000000000001
 24
5.349999999999991
 34
0.0
 50
0.000000000000008
100
AcDbRotatedDimension
1001
PE_URL
1000

1001
ACAD
1000
DSTYLE
1002
{
1070
   171
1070
     8
1070
   273
1070
     7
1002
}
  0
DIMENSION
  5
F9
330
1F
100
AcDbEntity
  8
치수문자_일반주서
100
AcDbDimension
  2
_D_3
 10
74.84873630300085
 20
7.137712211296925
 30
0.0
 11
74.84873630300076
 21
28.61671221129693
 31
0.0
 70
   160
  1
%%c<>
 71
     2
 42
14.27542442259353
 52
-270.0
  3
SLDDIMSTYLE1
100
AcDbAlignedDimension
 13
30.575
 23
-7.137712211296771
 33
0.0
 14
30.575
 24
7.137712211296762
 34
0.0
 50
90.0000000000002
100
AcDbRotatedDimension
1001
PE_URL
1000

1001
ACAD
1000
DSTYLE
1002
{
1070
   171
1070
     8
1070
   273
1070
     7
1002
}
  0
LINE
  5
10D
330
1F
100
AcDbEntity
  8
참조1
100
AcDbLine
 10
73.70100881534559
 20
7.439999999999998
 30
0.0
 11
73.70100881534559
 21
-7.440000000000005
 31
0.0
  0
LINE
  5
10E
330
1F
100
AcDbEntity
  8
참조1
100
AcDbLine
 10
86.40100881534559
 20
5.439999999999998
 30
0.0
 11
73.70100881534559
 21
5.439999999999998
 31
0.0
  0
SOLID
  5
10F
330
1F
100
AcDbEntity
  8
참조1
100
AcDbTrace
 10
73.70100881534559
 20
5.439999999999998
 30
0.0
 11
80.05100881534558
 21
4.423999999999998
 31
0.0
 12
80.05100881534558
 22
6.455999999999998
 32
0.0
 13
80.05100881534558
 23
6.455999999999998
 33
0.0
  0
LINE
  5
110
330
1F
100
AcDbEntity
  8
참조1
100
AcDbLine
 10
86.40100881534559
 20
-5.440000000000005
 30
0.0
 11
73.70100881534559
 21
-5.440000000000005
 31
0.0
  0
SOLID
  5
111
330
1F
100
AcDbEntity
  8
참조1
100
AcDbTrace
 10
73.70100881534559
 20
-5.440000000000005
 30
0.0
 11
80.05100881534558
 21
-6.456000000000007
 31
0.0
 12
80.05100881534558
 22
-4.424000000000005
 32
0.0
 13
80.05100881534558
 23
-4.424000000000005
 33
0.0
  0
MTEXT
  5
112
330
1F
100
AcDbEntity
  8
참조1
100
AcDbMText
 10
83.08535894797157
 20
11.01029177718833
 30
0.0
 40
3.5
 41
0.0
 71
     1
 72
     1
  1
A
  7
SLDTEXTSTYLE0
 73
     1
 44
1.0
  0
MTEXT
  5
113
330
1F
100
AcDbEntity
  8
참조1
100
AcDbMText
 10
83.08535894797157
 20
0.1302917771883227
 30
0.0
 40
3.5
 41
0.0
 71
     1
 72
     1
  1
A
  7
SLDTEXTSTYLE0
 73
     1
 44
1.0
  0
INSERT
  5
11A
330
1F
100
AcDbEntity
  8
해칭선
100
AcDbBlockReference
  2
SW_DOWELSYMBOL_0
 10
0.0
 20
0.0
 30
0.0
  0
LINE
  5
20D
330
1F
100
AcDbEntity
  8
외형선
  6
Continuous
370
    15
100
AcDbLine
 10
1.560112701074035
 20
6.35
 30
0.0
 11
-19.06612499999997
 21
6.35
 31
0.0
  0
LINE
  5
20E
330
1F
100
AcDbEntity
  8
외형선
  6
Continuous
370
    15
100
AcDbLine
 10
-47.8
 20
-6.350000000000003
 30
0.0
 11
1.560112701138567
 21
-6.35
 31
0.0
  0
LINE
  5
20F
330
1F
100
AcDbEntity
  8
외형선
  6
Continuous
370
    15
100
AcDbLine
 10
-47.8
 20
6.349999999999993
 30
0.0
 11
-48.8
 21
5.349999999999993
 31
0.0
  0
LINE
  5
210
330
1F
100
AcDbEntity
  8
외형선
  6
Continuous
370
    15
100
AcDbLine
 10
-48.8
 20
-5.350000000000003
 30
0.0
 11
-47.8
 21
-6.35
 31
0.0
  0
SPLINE
  5
212
330
1F
100
AcDbEntity
  8
외형선
  6
Continuous
370
    15
100
AcDbSpline
210
0.0
220
0.0
230
1.0
 70
     8
 71
     3
 72
     8
 73
     4
 74
     0
 42
0.000000001
 43
0.00000001
 40
0.0
 40
0.0
 40
0.0
 40
0.0
 40
0.2172459919086023
 40
0.2172459919086023
 40
0.2172459919086023
 40
0.2172459919086023
 10
1.999999999999995
 20
6.230071978095383
 30
0.0
 10
1.853749668665372
 20
6.271511700873319
 30
0.0
 10
1.707061558283319
 20
6.311501758136071
 30
0.0
 10
1.560112701074036
 20
6.349999999999998
 30
0.0
  0
LINE
  5
213
330
1F
100
AcDbEntity
  8
외형선
  6
Continuous
370
    15
100
AcDbLine
 10
2.0
 20
5.538086587305225
 30
0.0
 11
2.0
 21
4.464653049026653
 31
0.0
  0
SPLINE
  5
215
330
1F
100
AcDbEntity
  8
외형선
  6
Continuous
370
    15
100
AcDbSpline
210
0.0
220
0.0
230
1.0
 70
     8
 71
     3
 72
     8
 73
     4
 74
     0
 42
0.000000001
 43
0.00000001
 40
0.0
 40
0.0
 40
0.0
 40
0.0
 40
0.2172459918787147
 40
0.2172459918787147
 40
0.2172459918787147
 40
0.2172459918787147
 10
2.000000000003899
 20
-6.230071978111269
 30
0.0
 10
1.853749668689396
 20
-6.271511700883503
 30
0.0
 10
1.707061558327585
 20
-6.311501758140952
 30
0.0
 10
1.560112701138592
 20
-6.349999999999996
 30
0.0
  0
LINE
  5
217
330
1F
100
AcDbEntity
  8
외형선
  6
Continuous
370
    15
100
AcDbLine
 10
-47.8
 20
6.349999999999993
 30
0.0
 11
-47.8
 21
-6.349999999999993
 31
0.0
  0
LINE
  5
219
330
1F
100
AcDbEntity
  8
외형선
  6
Continuous
370
    15
100
AcDbLine
 10
-48.8
 20
5.349999999999993
 30
0.0
 11
-48.8
 21
-5.350000000000009
 31
0.0
  0
SPLINE
  5
21A
330
1F
100
AcDbEntity
  8
외형선
  6
Continuous
370
    15
100
AcDbSpline
210
0.0
220
0.0
230
1.0
 70
    24
 71
     3
 72
    14
 73
    10
 74
     0
 42
0.000000001
 43
0.00000001
 40
0.0
 40
0.0
 40
0.0
 40
0.0
 40
0.2499999999999999
 40
0.2499999999999999
 40
0.4999999999999999
 40
0.4999999999999999
 40
0.7499999999999999
 40
0.7499999999999999
 40
1.0
 40
1.0
 40
1.0
 40
1.0
 10
2.0
 20
2.992688830855063
 30
0.0
 10
2.0
 20
2.505676465482911
 30
0.0
 10
2.0
 20
1.968520911501917
 30
0.0
 10
2.0
 20
0.833075321658542
 30
0.0
 10
2.0
 20
0.2352183905006391
 30
0.0
 10
2.0
 20
-0.9642415580462704
 30
0.0
 10
2.0
 20
-1.565205453027413
 30
0.0
 10
2.0
 20
-2.712489578917419
 30
0.0
 10
2.0
 20
-3.258360077259151
 30
0.0
 10
2.0
 20
-3.756131498717476
 30
0.0
  0
SPLINE
  5
21D
330
1F
100
AcDbEntity
  8
외형선
  6
Continuous
370
    15
100
AcDbSpline
210
0.0
220
0.0
230
1.0
 70
    24
 71
     3
 72
    10
 73
     6
 74
     0
 42
0.000000001
 43
0.00000001
 40
0.0
 40
0.0
 40
0.0
 40
0.0
 40
0.5
 40
0.5
 40
1.0
 40
1.0
 40
1.0
 40
1.0
 10
2.0
 20
4.464653049026388
 30
0.0
 10
2.0
 20
4.310707723689768
 30
0.0
 10
2.0
 20
4.094634871367694
 30
0.0
 10
2.0
 20
3.583003836283771
 30
0.0
 10
2.0
 20
3.289121602635857
 30
0.0
 10
2.0
 20
2.992688830855063
 30
0.0
  0
SPLINE
  5
21E
330
1F
100
AcDbEntity
  8
외형선
  6
Continuous
370
    15
100
AcDbSpline
210
0.0
220
0.0
230
1.0
 70
    24
 71
     3
 72
    12
 73
     8
 74
     0
 42
0.000000001
 43
0.00000001
 40
0.0
 40
0.0
 40
0.0
 40
0.0
 40
0.1813025155515216
 40
0.3649689338549434
 40
0.6316714970557004
 40
0.9061084526569942
 40
1.0
 40
1.0
 40
1.0
 40
1.0
 10
2.000000000000014
 20
-3.756131498717479
 30
0.0
 10
2.000000000000014
 20
-3.902463849745139
 30
0.0
 10
2.000000000000014
 20
-4.197036498009778
 30
0.0
 10
2.000000000000014
 20
-4.595340297291028
 30
0.0
 10
2.000000000000014
 20
-4.913088960495374
 30
0.0
 10
2.000000000000014
 20
-5.072018981179143
 30
0.0
 10
2.000000000000014
 20
-5.053543967675006
 30
0.0
 10
2.000000000000014
 20
-5.048834455402075
 30
0.0
  0
SPLINE
  5
21F
330
1F
100
AcDbEntity
  8
외형선
  6
Continuous
370
    15
100
AcDbSpline
210
0.0
220
0.0
230
1.0
 70
    24
 71
     3
 72
    10
 73
     6
 74
     0
 42
0.000000001
 43
0.00000001
 40
0.0
 40
0.0
 40
0.0
 40
0.0
 40
0.12846606693943
 40
0.7764936588857835
 40
1.0
 40
1.0
 40
1.0
 40
1.0
 10
2.000000000000014
 20
-5.102336767672073
 30
0.0
 10
2.000000000000014
 20
-5.122580348431226
 30
0.0
 10
2.000000000000014
 20
-5.244939602256858
 30
0.0
 10
2.0
 20
-5.387870867762841
 30
0.0
 10
2.0
 20
-5.507426376299724
 30
0.0
 10
2.000000000000014
 20
-5.538086587290353
 30
0.0
  0
SPLINE
  5
220
330
1F
100
AcDbEntity
  8
외형선
  6
Continuous
370
    15
100
AcDbSpline
210
0.0
220
0.0
230
1.0
 70
    24
 71
     3
 72
    10
 73
     6
 74
     0
 42
0.000000001
 43
0.00000001
 40
0.0
 40
0.0
 40
0.0
 40
0.0
 40
0.5000000000000002
 40
0.5000000000000002
 40
1.0
 40
1.0
 40
1.0
 40
1.0
 10
2.000000000000014
 20
4.464653049026385
 30
0.0
 10
2.000000000000014
 20
4.310707723689765
 30
0.0
 10
2.000000000000014
 20
4.094634871367694
 30
0.0
 10
2.000000000000014
 20
3.583003836283767
 30
0.0
 10
2.000000000000014
 20
3.289121602635854
 30
0.0
 10
2.000000000000014
 20
2.992688830855063
 30
0.0
  0
SPLINE
  5
221
330
1F
100
AcDbEntity
  8
외형선
  6
Continuous
370
    15
100
AcDbSpline
210
0.0
220
0.0
230
1.0
 70
    24
 71
     3
 72
    14
 73
    10
 74
     0
 42
0.000000001
 43
0.00000001
 40
0.0
 40
0.0
 40
0.0
 40
0.0
 40
0.25
 40
0.25
 40
0.5
 40
0.5
 40
0.75
 40
0.75
 40
1.0
 40
1.0
 40
1.0
 40
1.0
 10
2.0
 20
2.992688830855063
 30
0.0
 10
2.0
 20
2.505676465482911
 30
0.0
 10
2.0
 20
1.968520911501921
 30
0.0
 10
2.0
 20
0.833075321658542
 30
0.0
 10
2.0
 20
0.2352183905006427
 30
0.0
 10
2.0
 20
-0.9642415580462704
 30
0.0
 10
2.0
 20
-1.565205453027409
 30
0.0
 10
2.0
 20
-2.712489578917415
 30
0.0
 10
2.0
 20
-3.258360077259151
 30
0.0
 10
2.0
 20
-3.756131498717476
 30
0.0
  0
SPLINE
  5
222
330
1F
100
AcDbEntity
  8
외형선
  6
Continuous
370
    15
100
AcDbSpline
210
0.0
220
0.0
230
1.0
 70
    24
 71
     3
 72
    12
 73
     8
 74
     0
 42
0.000000001
 43
0.00000001
 40
0.0
 40
0.0
 40
0.0
 40
0.0
 40
0.1814510693155813
 40
0.365267978293042
 40
0.6321890694581092
 40
0.906850890349482
 40
1.0
 40
1.0
 40
1.0
 40
1.0
 10
2.000000000000014
 20
-3.756131498717479
 30
0.0
 10
2.000000000000014
 20
-3.902463371165385
 30
0.0
 10
2.000000000000014
 20
-4.197035056030577
 30
0.0
 10
2.000000000000014
 20
-4.595347257570976
 30
0.0
 10
2.000000000000014
 20
-4.913048896955504
 30
0.0
 10
2.000000000000014
 20
-5.071923756608514
 30
0.0
 10
2.000000000000014
 20
-5.053548528238183
 30
0.0
 10
2.000000000000014
 20
-5.048894952120152
 30
0.0
  0
SPLINE
  5
223
330
1F
100
AcDbEntity
  8
외형선
  6
Continuous
370
    15
100
AcDbSpline
210
0.0
220
0.0
230
1.0
 70
    24
 71
     3
 72
    11
 73
     7
 74
     0
 42
0.000000001
 43
0.00000001
 40
0.0
 40
0.0
 40
0.0
 40
0.0
 40
0.1304332605396754
 40
0.4535392619829384
 40
0.7770223177559418
 40
1.0
 40
1.0
 40
1.0
 40
1.0
 10
2.000000000000014
 20
-5.102336767672076
 30
0.0
 10
2.000000000000014
 20
-5.122568908600156
 30
0.0
 10
2.000000000000014
 20
-5.192919601566745
 30
0.0
 10
2.000000000000014
 20
-5.307709317163534
 30
0.0
 10
2.000000000000014
 20
-5.432586613692132
 30
0.0
 10
2.000000000000014
 20
-5.507513458927777
 30
0.0
 10
2.000000000000014
 20
-5.53808658729035
 30
0.0
  0
LINE
  5
224
330
1F
100
AcDbEntity
  8
외형선
  6
Continuous
370
    15
100
AcDbLine
 10
-31.76612499999997
 20
4.825999999999985
 30
0.0
 11
-20.5901250000001
 21
4.825999999999985
 31
0.0
1001
PE_URL
1000

  0
LINE
  5
225
330
1F
100
AcDbEntity
  8
외형선
  6
Continuous
370
    15
100
AcDbLine
 10
-31.76612499999997
 20
4.825999999999985
 30
0.0
 11
-33.29012499999997
 21
6.349999999999985
 31
0.0
1001
PE_URL
1000

  0
LINE
  5
226
330
1F
100
AcDbEntity
  8
외형선
  6
Continuous
370
    15
100
AcDbLine
 10
-20.59012499999998
 20
4.825999999999985
 30
0.0
 11
-19.06612499999998
 21
6.349999999999985
 31
0.0
1001
PE_URL
1000

  0
LINE
  5
227
330
1F
100
AcDbEntity
  8
외형선
  6
Continuous
370
    15
100
AcDbLine
 10
-33.29012499999998
 20
6.35
 30
0.0
 11
-47.8
 21
6.349999999999996
 31
0.0
  0
ENDSEC
  0
SECTION
  2
OBJECTS
  0
DICTIONARY
  5
C
330
0
100
AcDbDictionary
281
     1
  3
ACAD_DETAILVIEWSTYLE
350
19F
  3
ACAD_GROUP
350
D
  3
ACAD_IMAGE_VARS
350
2C4
  3
ACAD_LAYOUT
350
1A
  3
ACAD_MLINESTYLE
350
17
  3
ACAD_PLOTSETTINGS
350
19
  3
ACAD_PLOTSTYLENAME
350
E
  3
ACAD_SCALELIST
350
47
  3
ACAD_SECTIONVIEWSTYLE
350
1A0
  3
AcDbVariableDictionary
350
19A
  3
APPDATA
350
13C
  3
DWGPROPS
350
2C5
  0
DICTIONARY
  5
175
330
2
100
AcDbDictionary
280
     1
281
     1
  3
ACAD_LAYERSTATES
360
176
  0
DICTIONARY
  5
19F
102
{ACAD_REACTORS
330
C
102
}
330
C
100
AcDbDictionary
281
     1
  0
DICTIONARY
  5
D
102
{ACAD_REACTORS
330
C
102
}
330
C
100
AcDbDictionary
281
     1
  0
RASTERVARIABLES
  5
2C4
102
{ACAD_REACTORS
330
C
102
}
330
C
100
AcDbRasterVariables
 90
        0
 70
     1
 71
     1
 72
     1
  0
DICTIONARY
  5
1A
102
{ACAD_REACTORS
330
C
102
}
330
C
100
AcDbDictionary
281
     1
  3
Layout1
350
1E
  3
Layout2
350
26
  3
Model
350
22
  0
DICTIONARY
  5
17
102
{ACAD_REACTORS
330
C
102
}
330
C
100
AcDbDictionary
281
     1
  3
Standard
350
18
  0
DICTIONARY
  5
19
102
{ACAD_REACTORS
330
C
102
}
330
C
100
AcDbDictionary
281
     1
  0
ACDBDICTIONARYWDFLT
  5
E
102
{ACAD_REACTORS
330
C
102
}
330
C
100
AcDbDictionary
281
     1
  3
Normal
350
F
100
AcDbDictionaryWithDefault
340
F
  0
DICTIONARY
  5
47
102
{ACAD_REACTORS
330
C
102
}
330
C
100
AcDbDictionary
281
     1
  3
A0
350
48
  3
A1
350
49
  3
A2
350
4A
  3
A3
350
4B
  3
A4
350
4C
  3
A5
350
4D
  3
A6
350
4E
  3
A7
350
4F
  3
A8
350
50
  3
A9
350
51
  3
B0
350
52
  3
B1
350
53
  3
B2
350
54
  3
B3
350
55
  3
B4
350
56
  3
B5
350
57
  3
B6
350
58
  3
B7
350
59
  3
B8
350
5A
  3
B9
350
5B
  3
C0
350
5C
  3
C1
350
5D
  3
C2
350
5E
  3
C3
350
5F
  3
C4
350
60
  3
C5
350
61
  3
C6
350
62
  3
C7
350
63
  3
C8
350
64
  3
C9
350
65
  3
D0
350
66
  3
D1
350
67
  3
D2
350
68
  0
DICTIONARY
  5
1A0
102
{ACAD_REACTORS
330
C
102
}
330
C
100
AcDbDictionary
281
     1
  0
DICTIONARY
  5
19A
102
{ACAD_REACTORS
330
C
102
}
330
C
100
AcDbDictionary
281
     1
  0
DICTIONARY
  5
13C
102
{ACAD_REACTORS
330
C
102
}
330
C
100
AcDbDictionary
281
     1
  0
XRECORD
  5
2C5
102
{ACAD_REACTORS
330
C
102
}
330
C
100
AcDbXrecord
280
     1
  1
DWGPROPS COOKIE
  2

  3

  4

  6

  7

  8
12016016
  9

300
=
301
=
302
=
303
=
304
=
305
=
306
=
307
=
308
=
309
=
 40
0.0
 41
2458311.185553866
 42
2458323.077177859
  1

 90
        0
  0
DICTIONARY
  5
176
102
{ACAD_REACTORS
330
175
102
}
330
175
100
AcDbDictionary
281
     1
  0
LAYOUT
  5
1E
102
{ACAD_REACTORS
330
1A
102
}
330
1A
100
AcDbPlotSettings
  1

  2
none_device
  4

  6

 40
0.0
 41
0.0
 42
0.0
 43
0.0
 44
0.0
 45
0.0
 46
0.0
 47
0.0
 48
0.0
 49
0.0
140
0.0
141
0.0
142
1.0
143
1.0
 70
   688
 72
     1
 73
     0
 74
     5
  7

 75
    16
147
1.0
148
0.0
149
0.0
100
AcDbLayout
  1
Layout1
 70
     1
 71
     1
 10
0.0
 20
0.0
 11
420.0
 21
297.0
 12
0.0
 22
0.0
 32
0.0
 14
1.000000000000000E+20
 24
1.000000000000000E+20
 34
1.000000000000000E+20
 15
-1.000000000000000E+20
 25
-1.000000000000000E+20
 35
-1.000000000000000E+20
146
0.0
 13
0.0
 23
0.0
 33
0.0
 16
1.0
 26
0.0
 36
0.0
 17
0.0
 27
1.0
 37
0.0
 76
     0
330
1B
  0
LAYOUT
  5
26
102
{ACAD_REACTORS
330
1A
102
}
330
1A
100
AcDbPlotSettings
  1

  2
none_device
  4

  6

 40
0.0
 41
0.0
 42
0.0
 43
0.0
 44
0.0
 45
0.0
 46
0.0
 47
0.0
 48
0.0
 49
0.0
140
0.0
141
0.0
142
1.0
143
1.0
 70
   688
 72
     1
 73
     0
 74
     5
  7

 75
    16
147
1.0
148
0.0
149
0.0
100
AcDbLayout
  1
Layout2
 70
     1
 71
     2
 10
0.0
 20
0.0
 11
0.0
 21
0.0
 12
0.0
 22
0.0
 32
0.0
 14
0.0
 24
0.0
 34
0.0
 15
0.0
 25
0.0
 35
0.0
146
0.0
 13
0.0
 23
0.0
 33
0.0
 16
1.0
 26
0.0
 36
0.0
 17
0.0
 27
1.0
 37
0.0
 76
     0
330
23
  0
LAYOUT
  5
22
102
{ACAD_REACTORS
330
1A
102
}
330
1A
100
AcDbPlotSettings
  1

  2
none_device
  4
ANSI_A_(11.00_x_8.50_Inches)
  6

 40
6.35
 41
19.05
 42
6.35000508
 43
19.05000254
 44
279.4
 45
215.9
 46
111.5354592427306
 47
97.62990263130112
 48
0.0
 49
0.0
140
0.0
141
0.0
142
0.0715194751484015
143
1.0
 70
  1696
 72
     0
 73
     0
 74
     0
  7

 75
     0
147
0.0235690232323232
148
0.0
149
0.0
100
AcDbLayout
  1
Model
 70
     1
 71
     0
 10
0.0
 20
0.0
 11
420.0
 21
297.0
 12
0.0
 22
0.0
 32
0.0
 14
-68.17500000000011
 24
-49.97180738881174
 34
0.0
 15
86.4010088153456
 25
43.49171221129693
 35
0.0
146
0.0
 13
0.0
 23
0.0
 33
0.0
 16
1.0
 26
0.0
 36
0.0
 17
0.0
 27
1.0
 37
0.0
 76
     0
330
1F
331
29
  0
MLINESTYLE
  5
18
102
{ACAD_REACTORS
330
17
102
}
330
17
100
AcDbMlineStyle
  2
Standard
 70
     0
  3

 62
   256
 51
90.0
 52
90.0
 71
     2
 49
0.5
 62
   256
  6
BYLAYER
 49
-0.5
 62
   256
  6
BYLAYER
  0
ACDBPLACEHOLDER
  5
F
102
{ACAD_REACTORS
330
E
102
}
330
E
  0
SCALE
  5
48
102
{ACAD_REACTORS
330
47
102
}
330
47
100
AcDbScale
 70
     0
300
1:1
140
1.0
141
1.0
290
     1
  0
SCALE
  5
49
102
{ACAD_REACTORS
330
47
102
}
330
47
100
AcDbScale
 70
     0
300
1:2
140
1.0
141
2.0
290
     0
  0
SCALE
  5
4A
102
{ACAD_REACTORS
330
47
102
}
330
47
100
AcDbScale
 70
     0
300
1:4
140
1.0
141
4.0
290
     0
  0
SCALE
  5
4B
102
{ACAD_REACTORS
330
47
102
}
330
47
100
AcDbScale
 70
     0
300
1:5
140
1.0
141
5.0
290
     0
  0
SCALE
  5
4C
102
{ACAD_REACTORS
330
47
102
}
330
47
100
AcDbScale
 70
     0
300
1:8
140
1.0
141
8.0
290
     0
  0
SCALE
  5
4D
102
{ACAD_REACTORS
330
47
102
}
330
47
100
AcDbScale
 70
     0
300
1:10
140
1.0
141
10.0
290
     0
  0
SCALE
  5
4E
102
{ACAD_REACTORS
330
47
102
}
330
47
100
AcDbScale
 70
     0
300
1:16
140
1.0
141
16.0
290
     0
  0
SCALE
  5
4F
102
{ACAD_REACTORS
330
47
102
}
330
47
100
AcDbScale
 70
     0
300
1:20
140
1.0
141
20.0
290
     0
  0
SCALE
  5
50
102
{ACAD_REACTORS
330
47
102
}
330
47
100
AcDbScale
 70
     0
300
1:30
140
1.0
141
30.0
290
     0
  0
SCALE
  5
51
102
{ACAD_REACTORS
330
47
102
}
330
47
100
AcDbScale
 70
     0
300
1:40
140
1.0
141
40.0
290
     0
  0
SCALE
  5
52
102
{ACAD_REACTORS
330
47
102
}
330
47
100
AcDbScale
 70
     0
300
1:50
140
1.0
141
50.0
290
     0
  0
SCALE
  5
53
102
{ACAD_REACTORS
330
47
102
}
330
47
100
AcDbScale
 70
     0
300
1:100
140
1.0
141
100.0
290
     0
  0
SCALE
  5
54
102
{ACAD_REACTORS
330
47
102
}
330
47
100
AcDbScale
 70
     0
300
2:1
140
2.0
141
1.0
290
     0
  0
SCALE
  5
55
102
{ACAD_REACTORS
330
47
102
}
330
47
100
AcDbScale
 70
     0
300
4:1
140
4.0
141
1.0
290
     0
  0
SCALE
  5
56
102
{ACAD_REACTORS
330
47
102
}
330
47
100
AcDbScale
 70
     0
300
8:1
140
8.0
141
1.0
290
     0
  0
SCALE
  5
57
102
{ACAD_REACTORS
330
47
102
}
330
47
100
AcDbScale
 70
     0
300
10:1
140
10.0
141
1.0
290
     0
  0
SCALE
  5
58
102
{ACAD_REACTORS
330
47
102
}
330
47
100
AcDbScale
 70
     0
300
100:1
140
100.0
141
1.0
290
     0
  0
SCALE
  5
59
102
{ACAD_REACTORS
330
47
102
}
330
47
100
AcDbScale
 70
     0
300
1/128" = 1'-0"
140
0.0078125
141
12.0
290
     0
  0
SCALE
  5
5A
102
{ACAD_REACTORS
330
47
102
}
330
47
100
AcDbScale
 70
     0
300
1/64" = 1'-0"
140
0.015625
141
12.0
290
     0
  0
SCALE
  5
5B
102
{ACAD_REACTORS
330
47
102
}
330
47
100
AcDbScale
 70
     0
300
1/32" = 1'-0"
140
0.03125
141
12.0
290
     0
  0
SCALE
  5
5C
102
{ACAD_REACTORS
330
47
102
}
330
47
100
AcDbScale
 70
     0
300
1/16" = 1'-0"
140
0.0625
141
12.0
290
     0
  0
SCALE
  5
5D
102
{ACAD_REACTORS
330
47
102
}
330
47
100
AcDbScale
 70
     0
300
3/32" = 1'-0"
140
0.09375
141
12.0
290
     0
  0
SCALE
  5
5E
102
{ACAD_REACTORS
330
47
102
}
330
47
100
AcDbScale
 70
     0
300
1/8" = 1'-0"
140
0.125
141
12.0
290
     0
  0
SCALE
  5
5F
102
{ACAD_REACTORS
330
47
102
}
330
47
100
AcDbScale
 70
     0
300
3/16" = 1'-0"
140
0.1875
141
12.0
290
     0
  0
SCALE
  5
60
102
{ACAD_REACTORS
330
47
102
}
330
47
100
AcDbScale
 70
     0
300
1/4" = 1'-0"
140
0.25
141
12.0
290
     0
  0
SCALE
  5
61
102
{ACAD_REACTORS
330
47
102
}
330
47
100
AcDbScale
 70
     0
300
3/8" = 1'-0"
140
0.375
141
12.0
290
     0
  0
SCALE
  5
62
102
{ACAD_REACTORS
330
47
102
}
330
47
100
AcDbScale
 70
     0
300
1/2" = 1'-0"
140
0.5
141
12.0
290
     0
  0
SCALE
  5
63
102
{ACAD_REACTORS
330
47
102
}
330
47
100
AcDbScale
 70
     0
300
3/4" = 1'-0"
140
0.75
141
12.0
290
     0
  0
SCALE
  5
64
102
{ACAD_REACTORS
330
47
102
}
330
47
100
AcDbScale
 70
     0
300
1" = 1'-0"
140
1.0
141
12.0
290
     0
  0
SCALE
  5
65
102
{ACAD_REACTORS
330
47
102
}
330
47
100
AcDbScale
 70
     0
300
1-1/2" = 1'-0"
140
1.5
141
12.0
290
     0
  0
SCALE
  5
66
102
{ACAD_REACTORS
330
47
102
}
330
47
100
AcDbScale
 70
     0
300
3" = 1'-0"
140
3.0
141
12.0
290
     0
  0
SCALE
  5
67
102
{ACAD_REACTORS
330
47
102
}
330
47
100
AcDbScale
 70
     0
300
6" = 1'-0"
140
6.0
141
12.0
290
     0
  0
SCALE
  5
68
102
{ACAD_REACTORS
330
47
102
}
330
47
100
AcDbScale
 70
     0
300
1'-0" = 1'-0"
140
12.0
141
12.0
290
     0
  0
ENDSEC
  0
EOF
