  0
SECTION
  2
HEADER
  9
$ACADVER
  1
AC1015
  9
$ACADMAINTVER
 70
     6
  9
$DWGCODEPAGE
  3
ANSI_949
  9
$INSBASE
 10
0.0
 20
0.0
 30
0.0
  9
$EXTMIN
 10
-61.35000000000011
 20
-49.97180738881175
 30
0.0
  9
$EXTMAX
 10
89.63360812582184
 20
42.31249999999999
 30
0.0
  9
$LIMMIN
 10
0.0
 20
0.0
  9
$LIMMAX
 10
420.0
 20
297.0
  9
$ORTHOMODE
 70
     1
  9
$REGENMODE
 70
     1
  9
$FILLMODE
 70
     1
  9
$QTEXTMODE
 70
     0
  9
$MIRRTEXT
 70
     1
  9
$LTSCALE
 40
1.0
  9
$ATTMODE
 70
     1
  9
$TEXTSIZE
 40
3.5
  9
$TRACEWID
 40
1.0
  9
$TEXTSTYLE
  7
Standard
  9
$CLAYER
  8
0
  9
$CELTYPE
  6
ByLayer
  9
$CECOLOR
 62
   256
  9
$CELTSCALE
 40
1.0
  9
$DISPSILH
 70
     0
  9
$DIMSCALE
 40
1.0
  9
$DIMASZ
 40
3.302
  9
$DIMEXO
 40
1.0
  9
$DIMDLI
 40
3.75
  9
$DIMRND
 40
0.0
  9
$DIMDLE
 40
0.0
  9
$DIMEXE
 40
1.0
  9
$DIMTP
 40
0.0
  9
$DIMTM
 40
0.0
  9
$DIMTXT
 40
3.5
  9
$DIMCEN
 40
2.5
  9
$DIMTSZ
 40
0.0
  9
$DIMTOL
 70
     0
  9
$DIMLIM
 70
     0
  9
$DIMTIH
 70
     1
  9
$DIMTOH
 70
     1
  9
$DIMSE1
 70
     0
  9
$DIMSE2
 70
     0
  9
$DIMTAD
 70
     1
  9
$DIMZIN
 70
     0
  9
$DIMBLK
  1

  9
$DIMASO
 70
     1
  9
$DIMSHO
 70
     1
  9
$DIMPOST
  1

  9
$DIMAPOST
  1

  9
$DIMALT
 70
     0
  9
$DIMALTD
 70
     3
  9
$DIMALTF
 40
0.0393700787401575
  9
$DIMLFAC
 40
1.0
  9
$DIMTOFL
 70
     1
  9
$DIMTVP
 40
0.0
  9
$DIMTIX
 70
     0
  9
$DIMSOXD
 70
     0
  9
$DIMSAH
 70
     0
  9
$DIMBLK1
  1

  9
$DIMBLK2
  1

  9
$DIMSTYLE
  2
ISO-25
  9
$DIMCLRD
 70
     0
  9
$DIMCLRE
 70
     0
  9
$DIMCLRT
 70
     0
  9
$DIMTFAC
 40
1.0
  9
$DIMGAP
 40
1.524
  9
$DIMJUST
 70
     0
  9
$DIMSD1
 70
     0
  9
$DIMSD2
 70
     0
  9
$DIMTOLJ
 70
     0
  9
$DIMTZIN
 70
     0
  9
$DIMALTZ
 70
     0
  9
$DIMALTTZ
 70
     0
  9
$DIMUPT
 70
     0
  9
$DIMDEC
 70
     2
  9
$DIMTDEC
 70
     2
  9
$DIMALTU
 70
     2
  9
$DIMALTTD
 70
     3
  9
$DIMTXSTY
  7
Standard
  9
$DIMAUNIT
 70
     0
  9
$DIMADEC
 70
     2
  9
$DIMALTRND
 40
0.0
  9
$DIMAZIN
 70
     0
  9
$DIMDSEP
 70
    44
  9
$DIMATFIT
 70
     3
  9
$DIMFRAC
 70
     0
  9
$DIMLDRBLK
  1

  9
$DIMLUNIT
 70
     2
  9
$DIMLWD
 70
    -2
  9
$DIMLWE
 70
    -2
  9
$DIMTMOVE
 70
     0
  9
$LUNITS
 70
     2
  9
$LUPREC
 70
     2
  9
$SKETCHINC
 40
1.0
  9
$FILLETRAD
 40
10.0
  9
$AUNITS
 70
     0
  9
$AUPREC
 70
     2
  9
$MENU
  1
.
  9
$ELEVATION
 40
0.0
  9
$PELEVATION
 40
0.0
  9
$THICKNESS
 40
0.0
  9
$LIMCHECK
 70
     0
  9
$CHAMFERA
 40
0.0
  9
$CHAMFERB
 40
0.0
  9
$CHAMFERC
 40
0.0
  9
$CHAMFERD
 40
0.0
  9
$SKPOLY
 70
     0
  9
$TDCREATE
 40
2458311.458813785
  9
$TDUCREATE
 40
2458311.083813785
  9
$TDUPDATE
 40
2458323.451973229
  9
$TDUUPDATE
 40
2458323.076973229
  9
$TDINDWG
 40
0.0006331481
  9
$TDUSRTIMER
 40
2458323.076934132
  9
$USRTIMER
 70
     1
  9
$ANGBASE
 50
0.0
  9
$ANGDIR
 70
     0
  9
$PDMODE
 70
     0
  9
$PDSIZE
 40
-1.0
  9
$PLINEWID
 40
0.0
  9
$SPLFRAME
 70
     0
  9
$SPLINETYPE
 70
     6
  9
$SPLINESEGS
 70
     8
  9
$HANDSEED
  5
235
  9
$SURFTAB1
 70
     6
  9
$SURFTAB2
 70
     6
  9
$SURFTYPE
 70
     6
  9
$SURFU
 70
     6
  9
$SURFV
 70
     6
  9
$UCSBASE
  2

  9
$UCSNAME
  2

  9
$UCSORG
 10
0.0
 20
0.0
 30
0.0
  9
$UCSXDIR
 10
1.0
 20
0.0
 30
0.0
  9
$UCSYDIR
 10
0.0
 20
1.0
 30
0.0
  9
$UCSORTHOREF
  2

  9
$UCSORTHOVIEW
 70
     0
  9
$UCSORGTOP
 10
0.0
 20
0.0
 30
0.0
  9
$UCSORGBOTTOM
 10
0.0
 20
0.0
 30
0.0
  9
$UCSORGLEFT
 10
0.0
 20
0.0
 30
0.0
  9
$UCSORGRIGHT
 10
0.0
 20
0.0
 30
0.0
  9
$UCSORGFRONT
 10
0.0
 20
0.0
 30
0.0
  9
$UCSORGBACK
 10
0.0
 20
0.0
 30
0.0
  9
$PUCSBASE
  2

  9
$PUCSNAME
  2

  9
$PUCSORG
 10
0.0
 20
0.0
 30
0.0
  9
$PUCSXDIR
 10
1.0
 20
0.0
 30
0.0
  9
$PUCSYDIR
 10
0.0
 20
1.0
 30
0.0
  9
$PUCSORTHOREF
  2

  9
$PUCSORTHOVIEW
 70
     0
  9
$PUCSORGTOP
 10
0.0
 20
0.0
 30
0.0
  9
$PUCSORGBOTTOM
 10
0.0
 20
0.0
 30
0.0
  9
$PUCSORGLEFT
 10
0.0
 20
0.0
 30
0.0
  9
$PUCSORGRIGHT
 10
0.0
 20
0.0
 30
0.0
  9
$PUCSORGFRONT
 10
0.0
 20
0.0
 30
0.0
  9
$PUCSORGBACK
 10
0.0
 20
0.0
 30
0.0
  9
$USERI1
 70
     0
  9
$USERI2
 70
     0
  9
$USERI3
 70
     0
  9
$USERI4
 70
     0
  9
$USERI5
 70
     0
  9
$USERR1
 40
0.0
  9
$USERR2
 40
0.0
  9
$USERR3
 40
0.0
  9
$USERR4
 40
0.0
  9
$USERR5
 40
0.0
  9
$WORLDVIEW
 70
     1
  9
$SHADEDGE
 70
     3
  9
$SHADEDIF
 70
    70
  9
$TILEMODE
 70
     1
  9
$MAXACTVP
 70
    64
  9
$PINSBASE
 10
0.0
 20
0.0
 30
0.0
  9
$PLIMCHECK
 70
     0
  9
$PEXTMIN
 10
1.000000000000000E+20
 20
1.000000000000000E+20
 30
1.000000000000000E+20
  9
$PEXTMAX
 10
-1.000000000000000E+20
 20
-1.000000000000000E+20
 30
-1.000000000000000E+20
  9
$PLIMMIN
 10
0.0
 20
0.0
  9
$PLIMMAX
 10
0.0
 20
0.0
  9
$UNITMODE
 70
     0
  9
$VISRETAIN
 70
     1
  9
$PLINEGEN
 70
     0
  9
$PSLTSCALE
 70
     1
  9
$TREEDEPTH
 70
  3020
  9
$CMLSTYLE
  2
Standard
  9
$CMLJUST
 70
     0
  9
$CMLSCALE
 40
20.0
  9
$PROXYGRAPHICS
 70
     1
  9
$MEASUREMENT
 70
     1
  9
$CELWEIGHT
370
    -1
  9
$ENDCAPS
280
     0
  9
$JOINSTYLE
280
     0
  9
$LWDISPLAY
290
     1
  9
$INSUNITS
 70
     4
  9
$HYPERLINKBASE
  1

  9
$STYLESHEET
  1

  9
$XEDIT
290
     1
  9
$CEPSNTYPE
380
     0
  9
$PSTYLEMODE
290
     1
  9
$FINGERPRINTGUID
  2
{A869201E-B8DC-4A3A-869B-355B0CC8F2E2}
  9
$VERSIONGUID
  2
{FAEB1C32-E019-11D5-929B-00C0DF256EC4}
  9
$EXTNAMES
290
     1
  9
$PSVPSCALE
 40
0.0
  9
$OLESTARTUP
290
     0
  0
ENDSEC
  0
SECTION
  2
CLASSES
  0
CLASS
  1
ACDBDICTIONARYWDFLT
  2
AcDbDictionaryWithDefault
  3
ObjectDBX Classes
 90
        0
280
     0
281
     0
  0
CLASS
  1
VISUALSTYLE
  2
AcDbVisualStyle
  3
ObjectDBX Classes
 90
     4095
280
     0
281
     0
  0
CLASS
  1
MATERIAL
  2
AcDbMaterial
  3
ObjectDBX Classes
 90
     1153
280
     0
281
     0
  0
CLASS
  1
SCALE
  2
AcDbScale
  3
ObjectDBX Classes
 90
     1153
280
     0
281
     0
  0
CLASS
  1
SUN
  2
AcDbSun
  3
SCENEOE
 90
     1153
280
     0
281
     0
  0
CLASS
  1
ACDBPLACEHOLDER
  2
AcDbPlaceHolder
  3
ObjectDBX Classes
 90
        0
280
     0
281
     0
  0
CLASS
  1
LAYOUT
  2
AcDbLayout
  3
ObjectDBX Classes
 90
        0
280
     0
281
     0
  0
CLASS
  1
TABLESTYLE
  2
AcDbTableStyle
  3
ObjectDBX Classes
 90
     4095
280
     0
281
     0
  0
CLASS
  1
MLEADERSTYLE
  2
AcDbMLeaderStyle
  3
ACDB_MLEADERSTYLE_CLASS
 90
     4095
280
     0
281
     0
  0
CLASS
  1
DICTIONARYVAR
  2
AcDbDictionaryVar
  3
ObjectDBX Classes
 90
        0
280
     0
281
     0
  0
CLASS
  1
RASTERVARIABLES
  2
AcDbRasterVariables
  3
ISM
 90
        0
280
     0
281
     0
  0
ENDSEC
  0
SECTION
  2
TABLES
  0
TABLE
  2
VPORT
  5
8
330
0
100
AcDbSymbolTable
 70
     1
  0
VPORT
  5
29
330
8
100
AcDbSymbolTableRecord
100
AcDbViewportTableRecord
  2
*Active
 70
     0
 10
0.0
 20
0.0
 11
1.0
 21
1.0
 12
14.14180406291086
 22
-3.829653694405877
 13
0.0
 23
0.0
 14
10.0
 24
10.0
 15
10.0
 25
10.0
 16
0.0
 26
0.0
 36
1.0
 17
0.0
 27
0.0
 37
0.0
 40
94.12999353658796
 41
1.782762691853601
 42
50.0
 43
0.0
 44
0.0
 50
0.0
 51
0.0
 71
    16
 72
  2000
 73
     1
 74
     3
 75
     0
 76
     0
 77
     0
 78
     0
281
     0
 65
     1
110
0.0
120
0.0
130
0.0
111
1.0
121
0.0
131
0.0
112
0.0
122
1.0
132
0.0
 79
     0
146
0.0
  0
ENDTAB
  0
TABLE
  2
LTYPE
  5
5
330
0
100
AcDbSymbolTable
 70
     6
  0
LTYPE
  5
14
330
5
100
AcDbSymbolTableRecord
100
AcDbLinetypeTableRecord
  2
ByBlock
 70
     0
  3

 72
    65
 73
     0
 40
0.0
  0
LTYPE
  5
15
330
5
100
AcDbSymbolTableRecord
100
AcDbLinetypeTableRecord
  2
ByLayer
 70
     0
  3

 72
    65
 73
     0
 40
0.0
  0
LTYPE
  5
16
330
5
100
AcDbSymbolTableRecord
100
AcDbLinetypeTableRecord
  2
Continuous
 70
     0
  3
Solid line
 72
    65
 73
     0
 40
0.0
  0
LTYPE
  5
6A
330
5
100
AcDbSymbolTableRecord
100
AcDbLinetypeTableRecord
  2
HIDDEN
 70
     0
  3
Hidden __ __ __ __ __ __ __ __ __ __ __ __ __ __
 72
    65
 73
     2
 40
1.905
 49
1.27
 74
     0
 49
-0.635
 74
     0
  0
LTYPE
  5
6B
330
5
100
AcDbSymbolTableRecord
100
AcDbLinetypeTableRecord
  2
PHANTOM
 70
     0
  3
Phantom ______  __  __  ______  __  __  ______
 72
    65
 73
     6
 40
12.7
 49
6.35
 74
     0
 49
-1.27
 74
     0
 49
1.27
 74
     0
 49
-1.27
 74
     0
 49
1.27
 74
     0
 49
-1.27
 74
     0
  0
LTYPE
  5
6C
330
5
100
AcDbSymbolTableRecord
100
AcDbLinetypeTableRecord
  2
CENTER
 70
     0
  3
Center ____ _ ____ _ ____ _ ____ _ ____ _ ____
 72
    65
 73
     4
 40
10.16
 49
6.35
 74
     0
 49
-1.27
 74
     0
 49
1.27
 74
     0
 49
-1.27
 74
     0
  0
LTYPE
  5
6D
330
5
100
AcDbSymbolTableRecord
100
AcDbLinetypeTableRecord
  2
CENTERX2
 70
     0
  3
Center (2x) ________  __  ________  __  _____
 72
    65
 73
     4
 40
20.32
 49
12.7
 74
     0
 49
-2.54
 74
     0
 49
2.54
 74
     0
 49
-2.54
 74
     0
  0
LTYPE
  5
6E
330
5
100
AcDbSymbolTableRecord
100
AcDbLinetypeTableRecord
  2
DOT2
 70
     0
  3
Dot (.5x) ........................................
 72
    65
 73
     2
 40
0.635
 49
0.0
 74
     0
 49
-0.635
 74
     0
  0
ENDTAB
  0
TABLE
  2
LAYER
  5
2
102
{ACAD_XDICTIONARY
360
18B
102
}
330
0
100
AcDbSymbolTable
 70
    18
  0
LAYER
  5
10
330
2
100
AcDbSymbolTableRecord
100
AcDbLayerTableRecord
  2
0
 70
     0
 62
     7
  6
Continuous
370
    -3
390
F
  0
LAYER
  5
6F
330
2
100
AcDbSymbolTableRecord
100
AcDbLayerTableRecord
  2
FORMAT
 70
     0
 62
     2
  6
Continuous
370
    -3
390
F
  0
LAYER
  5
70
330
2
100
AcDbSymbolTableRecord
100
AcDbLayerTableRecord
  2
외형선
 70
     0
 62
     4
  6
Continuous
370
    30
390
F
  0
LAYER
  5
71
330
2
100
AcDbSymbolTableRecord
100
AcDbLayerTableRecord
  2
숨은선
 70
     0
 62
     2
  6
HIDDEN
370
    15
390
F
  0
LAYER
  5
72
330
2
100
AcDbSymbolTableRecord
100
AcDbLayerTableRecord
  2
중심선
 70
     0
 62
     1
  6
CENTERX2
370
    -3
390
F
  0
LAYER
  5
73
330
2
100
AcDbSymbolTableRecord
100
AcDbLayerTableRecord
  2
파단선
 70
     0
 62
     4
  6
Continuous
370
    -3
390
F
  0
LAYER
  5
74
330
2
100
AcDbSymbolTableRecord
100
AcDbLayerTableRecord
  2
해칭선
 70
     0
 62
   100
  6
Continuous
370
    -3
390
F
  0
LAYER
  5
75
330
2
100
AcDbSymbolTableRecord
100
AcDbLayerTableRecord
  2
가는실선
 70
     0
 62
     4
  6
Continuous
370
    -3
390
F
  0
LAYER
  5
76
330
2
100
AcDbSymbolTableRecord
100
AcDbLayerTableRecord
  2
치수_보조선
 70
     0
 62
     4
  6
Continuous
370
    -3
390
F
  0
LAYER
  5
77
330
2
100
AcDbSymbolTableRecord
100
AcDbLayerTableRecord
  2
치수문자_일반주서
 70
     0
 62
     7
  6
Continuous
370
    15
390
F
  0
LAYER
  5
78
330
2
100
AcDbSymbolTableRecord
100
AcDbLayerTableRecord
  2
개별주서
 70
     0
 62
   100
  6
Continuous
370
    30
390
F
  0
LAYER
  5
79
330
2
100
AcDbSymbolTableRecord
100
AcDbLayerTableRecord
  2
중간선
 70
     0
 62
     2
  6
Continuous
370
    15
390
F
  0
LAYER
  5
7A
330
2
100
AcDbSymbolTableRecord
100
AcDbLayerTableRecord
  2
윤곽선
 70
     0
 62
     3
  6
Continuous
370
    40
390
F
  0
LAYER
  5
7B
330
2
100
AcDbSymbolTableRecord
100
AcDbLayerTableRecord
  2
중심마크
 70
     0
 62
   100
  6
Continuous
370
    30
390
F
  0
LAYER
  5
7C
330
2
100
AcDbSymbolTableRecord
100
AcDbLayerTableRecord
  2
가상선
 70
     0
 62
     4
  6
PHANTOM
370
    -3
390
F
  0
LAYER
  5
7D
330
2
100
AcDbSymbolTableRecord
100
AcDbLayerTableRecord
  2
특수지정선
 70
     0
 62
     5
  6
CENTERX2
370
    60
390
F
  0
LAYER
  5
7E
330
2
100
AcDbSymbolTableRecord
100
AcDbLayerTableRecord
  2
참조1
 70
     0
 62
    -4
  6
Continuous
370
    -3
390
F
  0
LAYER
  5
154
330
2
100
AcDbSymbolTableRecord
100
AcDbLayerTableRecord
  2
Defpoints
 70
     0
 62
     7
  6
Continuous
290
     0
370
    -3
390
F
  0
ENDTAB
  0
TABLE
  2
STYLE
  5
3
330
0
100
AcDbSymbolTable
 70
     2
  0
STYLE
  5
11
330
3
100
AcDbSymbolTableRecord
100
AcDbTextStyleTableRecord
  2
Standard
 70
     0
 40
0.0
 41
1.0
 50
0.0
 71
     0
 42
3.5
  3
txt
  4

  0
STYLE
  5
94
330
3
100
AcDbSymbolTableRecord
100
AcDbTextStyleTableRecord
  2
SLDTEXTSTYLE0
 70
     0
 40
0.0
 41
0.75
 50
0.0
 71
     0
 42
3.5
  3
TXT
  4

  0
ENDTAB
  0
TABLE
  2
VIEW
  5
6
330
0
100
AcDbSymbolTable
 70
     0
  0
ENDTAB
  0
TABLE
  2
UCS
  5
7
330
0
100
AcDbSymbolTable
 70
     0
  0
ENDTAB
  0
TABLE
  2
APPID
  5
9
330
0
100
AcDbSymbolTable
 70
     4
  0
APPID
  5
12
330
9
100
AcDbSymbolTableRecord
100
AcDbRegAppTableRecord
  2
ACAD
 70
     0
  0
APPID
  5
15B
330
9
100
AcDbSymbolTableRecord
100
AcDbRegAppTableRecord
  2
PE_URL
 70
     0
  0
APPID
  5
1BA
330
9
100
AcDbSymbolTableRecord
100
AcDbRegAppTableRecord
  2
ACAD_DSTYLE_DIMFLIPARROW_SYMBOL
 70
     0
  0
APPID
  5
1BB
330
9
100
AcDbSymbolTableRecord
100
AcDbRegAppTableRecord
  2
ACAD_DSTYLE_DIMFLIPARROW_WHICH_SYMBOL
 70
     0
  0
ENDTAB
  0
TABLE
  2
DIMSTYLE
  5
A
330
0
100
AcDbSymbolTable
 70
     3
100
AcDbDimStyleTable
  0
DIMSTYLE
105
27
330
A
100
AcDbSymbolTableRecord
100
AcDbDimStyleTableRecord
  2
ISO-25
 70
     0
 41
2.5
 42
0.625
 43
3.75
 44
1.25
 73
     0
 74
     0
 77
     1
 78
     8
140
2.5
141
2.5
143
0.03937007874016
147
0.625
171
     3
172
     1
178
     0
271
     2
272
     2
274
     3
278
    44
283
     0
284
     8
340
11
  0
DIMSTYLE
105
D4
330
A
100
AcDbSymbolTableRecord
100
AcDbDimStyleTableRecord
  2
SLDDIMSTYLE0
 70
     0
 41
3.302
 44
0.0
 45
0.000000001
 73
     0
 74
     0
 77
     1
 78
    12
 79
     3
140
3.5
143
0.0393700787401575
147
0.875
148
0.000000001
170
     1
172
     1
173
     1
178
     0
271
     2
272
     2
276
     2
284
    12
289
     0
340
94
  0
DIMSTYLE
105
E9
102
{ACAD_REACTORS
330
E8
330
FD
330
110
330
D3
102
}
330
A
100
AcDbSymbolTableRecord
100
AcDbDimStyleTableRecord
  2
SLDDIMSTYLE1
 70
     0
 41
3.302
 44
0.0
 45
0.000000001
 73
     0
 74
     0
 77
     1
 78
    12
 79
     3
140
3.5
143
0.0393700787401575
147
0.875
148
0.000000001
170
     1
173
     1
178
     0
271
     2
272
     2
276
     2
284
    12
340
94
  0
ENDTAB
  0
TABLE
  2
BLOCK_RECORD
  5
1
330
0
100
AcDbSymbolTable
 70
     9
  0
BLOCK_RECORD
  5
1F
330
1
100
AcDbSymbolTableRecord
100
AcDbBlockTableRecord
  2
*Model_Space
340
22
  0
BLOCK_RECORD
  5
1B
330
1
100
AcDbSymbolTableRecord
100
AcDbBlockTableRecord
  2
*Paper_Space
340
1E
  0
BLOCK_RECORD
  5
23
330
1
100
AcDbSymbolTableRecord
100
AcDbBlockTableRecord
  2
*Paper_Space0
340
26
  0
BLOCK_RECORD
  5
7F
330
1
100
AcDbSymbolTableRecord
100
AcDbBlockTableRecord
  2
블럭10
340
0
102
{BLKREFS
331
CC
102
}
  0
BLOCK_RECORD
  5
D5
330
1
100
AcDbSymbolTableRecord
100
AcDbBlockTableRecord
  2
_D
340
0
  0
BLOCK_RECORD
  5
EA
330
1
100
AcDbSymbolTableRecord
100
AcDbBlockTableRecord
  2
_D_1
340
0
  0
BLOCK_RECORD
  5
FE
330
1
100
AcDbSymbolTableRecord
100
AcDbBlockTableRecord
  2
_D_2
340
0
  0
BLOCK_RECORD
  5
111
330
1
100
AcDbSymbolTableRecord
100
AcDbBlockTableRecord
  2
_D_3
340
0
  0
BLOCK_RECORD
  5
12A
330
1
100
AcDbSymbolTableRecord
100
AcDbBlockTableRecord
  2
SW_DOWELSYMBOL_0
340
0
102
{BLKREFS
331
130
102
}
  0
BLOCK_RECORD
  5
18F
330
1
100
AcDbSymbolTableRecord
100
AcDbBlockTableRecord
  2
*D7
340
0
  0
BLOCK_RECORD
  5
19F
330
1
100
AcDbSymbolTableRecord
100
AcDbBlockTableRecord
  2
*D8
340
0
  0
ENDTAB
  0
ENDSEC
  0
SECTION
  2
BLOCKS
  0
BLOCK
  5
20
330
1F
100
AcDbEntity
  8
0
100
AcDbBlockBegin
  2
*Model_Space
 70
     0
 10
0.0
 20
0.0
 30
0.0
  3
*Model_Space
  1
*Model_Space
  0
ENDBLK
  5
21
330
1F
100
AcDbEntity
  8
0
100
AcDbBlockEnd
  0
BLOCK
  5
1C
330
1B
100
AcDbEntity
 67
     1
  8
0
100
AcDbBlockBegin
  2
*Paper_Space
 70
     0
 10
0.0
 20
0.0
 30
0.0
  3
*Paper_Space
  1
*Paper_Space
  0
ENDBLK
  5
1D
330
1B
100
AcDbEntity
 67
     1
  8
0
100
AcDbBlockEnd
  0
BLOCK
  5
24
330
23
100
AcDbEntity
  8
0
100
AcDbBlockBegin
  2
*Paper_Space0
 70
     0
 10
0.0
 20
0.0
 30
0.0
  3
*Paper_Space0
  1
*Paper_Space0
  0
ENDBLK
  5
25
330
23
100
AcDbEntity
  8
0
100
AcDbBlockEnd
  0
BLOCK
  5
80
330
7F
100
AcDbEntity
  8
0
100
AcDbBlockBegin
  2
블럭10
 70
     2
 10
0.0
 20
0.0
 30
0.0
  3
블럭10
  1
블럭10
  0
ELLIPSE
  5
82
330
7F
100
AcDbEntity
  8
중심선
100
AcDbEllipse
 10
20.54032771741204
 20
12.0471743016438
 30
0.0
 11
6.600054785286829
 21
-1.261213355974178E-13
 31
0.0
210
0.0
220
0.0
230
1.0
 40
0.636358354079598
 41
0.9219305317359503
 42
6.513795318482858
  0
ELLIPSE
  5
83
330
7F
100
AcDbEntity
  8
중심선
100
AcDbEllipse
 10
20.54032771746488
 20
12.04717430159265
 30
0.0
 11
3.960054785062283
 21
1.540847449632565E-10
 31
0.0
210
0.0
220
0.0
230
1.0
 40
0.3939339440162632
 41
1.131841032648279
 42
5.62031148352944
  0
LINE
  5
84
330
7F
100
AcDbEntity
  8
중심선
100
AcDbLine
 10
2.268634060543552
 20
16.24717430164393
 30
0.0
 11
5.714909304380834
 21
16.24717430164393
 31
0.0
  0
LINE
  5
85
330
7F
100
AcDbEntity
  8
중심선
100
AcDbLine
 10
5.245725140726316
 20
7.84717430164391
 30
0.0
 11
8.692000384563599
 21
7.84717430164391
 31
0.0
  0
LINE
  5
86
330
7F
100
AcDbEntity
  8
중심선
100
AcDbLine
 10
15.74043728645272
 20
16.24717430164393
 30
0.0
 11
8.692000384563599
 21
7.84717430164391
 31
0.0
  0
LINE
  5
87
330
7F
100
AcDbEntity
  8
중심선
100
AcDbLine
 10
0.1404042013395286
 20
13.71084872107135
 30
0.0
 11
3.58671253028996
 21
13.71088815037384
 31
0.0
  0
LINE
  5
88
330
7F
100
AcDbEntity
  8
중심선
100
AcDbLine
 10
2.750260043222114
 20
10.84717430164391
 30
0.0
 11
6.196535287059397
 21
10.84717430164391
 31
0.0
  0
LINE
  5
89
330
7F
100
AcDbEntity
  8
중심선
100
AcDbLine
 10
12.29416204261559
 20
16.24717430164393
 30
0.0
 11
5.245725140726316
 21
7.84717430164391
 31
0.0
  0
LINE
  5
8A
330
7F
100
AcDbEntity
  8
중심선
100
AcDbLine
 10
10.72767329541681
 20
16.24717430164393
 30
0.0
 11
6.196535287059397
 21
10.84717430164391
 31
0.0
  0
LINE
  5
8B
330
7F
100
AcDbEntity
  8
중심선
100
AcDbLine
 10
7.28139805157953
 20
16.24717430164393
 30
0.0
 11
2.750260043222114
 21
10.84717430164391
 31
0.0
  0
LINE
  5
8C
330
7F
100
AcDbEntity
  8
중심선
100
AcDbLine
 10
5.714909304380834
 20
16.24717430164393
 30
0.0
 11
3.58671253028996
 21
13.71088815037384
 31
0.0
  0
LINE
  5
8D
330
7F
100
AcDbEntity
  8
중심선
100
AcDbLine
 10
2.268634060543552
 20
16.24717430164393
 30
0.0
 11
0.1404042013395286
 21
13.71084872107135
 31
0.0
  0
LINE
  5
8E
330
7F
100
AcDbEntity
  8
중심선
100
AcDbLine
 10
7.28139805157953
 20
16.24717430164393
 30
0.0
 11
10.72767329541681
 21
16.24717430164393
 31
0.0
  0
LINE
  5
8F
330
7F
100
AcDbEntity
  8
중심선
100
AcDbLine
 10
12.29416204261559
 20
16.24717430164393
 30
0.0
 11
15.74043728645272
 21
16.24717430164393
 31
0.0
  0
LINE
  5
90
330
7F
100
AcDbEntity
  8
중심선
100
AcDbLine
 10
19.22036997980202
 20
11.08717430171403
 30
0.0
 11
23.66174974927406
 21
11.08717430171406
 31
0.0
  0
LINE
  5
91
330
7F
100
AcDbEntity
  8
중심선
100
AcDbLine
 10
19.22039502424796
 20
13.00717430171391
 30
0.0
 11
19.22036997980202
 21
11.08717430171403
 31
0.0
  0
LINE
  5
92
330
7F
100
AcDbEntity
  8
중심선
100
AcDbLine
 10
19.22039502424796
 20
13.00717430171391
 30
0.0
 11
26.96566020931264
 21
13.00717430171391
 31
0.0
  0
LINE
  5
93
330
7F
100
AcDbEntity
  8
중심선
100
AcDbLine
 10
22.22332737316547
 20
13.45928029700563
 30
0.0
 11
24.52862924686651
 21
15.39360700705356
 31
0.0
  0
ATTDEF
  5
95
330
7F
100
AcDbEntity
  8
FORMAT
 62
     2
100
AcDbText
 10
4.408487351596664
 20
2.075366912832191
 30
0.0
 40
4.233333333333333
  1
E1030040
 41
0.75
  7
SLDTEXTSTYLE0
 11
4.408487351596664
 21
-0.0412997538344756
 31
0.0
100
AcDbAttributeDefinition
  3

  2
AUTOATTR0
 70
     0
 74
     1
  0
ENDBLK
  5
81
330
7F
100
AcDbEntity
  8
0
100
AcDbBlockEnd
  0
BLOCK
  5
D6
330
D5
100
AcDbEntity
  8
0
100
AcDbBlockBegin
  2
_D
 70
     0
 10
0.0
 20
0.0
 30
0.0
  3
_D
  1
_D
  0
LINE
  5
D8
330
D5
100
AcDbEntity
  8
치수문자_일반주서
 62
     0
370
    -2
100
AcDbLine
 10
-41.03749999999999
 20
7.937499999999982
 30
0.0
 11
-56.97499999999999
 21
7.937499999999922
 31
0.0
  0
LINE
  5
D9
330
D5
100
AcDbEntity
  8
치수문자_일반주서
 62
     0
370
    -2
100
AcDbLine
 10
-41.03749999999999
 20
-7.937500000000018
 30
0.0
 11
-56.97499999999994
 21
-7.937500000000075
 31
0.0
  0
LINE
  5
DA
330
D5
100
AcDbEntity
  8
치수문자_일반주서
 62
     0
370
    -2
100
AcDbLine
 10
-56.97499999999999
 20
7.937499999999922
 30
0.0
 11
-56.97500000000011
 21
39.23949999999992
 31
0.0
  0
LINE
  5
DB
330
D5
100
AcDbEntity
  8
치수문자_일반주서
 62
     0
370
    -2
100
AcDbLine
 10
-56.97499999999998
 20
4.635499999999922
 30
0.0
 11
-56.97499999999995
 21
-4.635500000000075
 31
0.0
  0
SOLID
  5
DC
330
D5
100
AcDbEntity
  8
치수문자_일반주서
 62
     0
100
AcDbTrace
 10
-56.42466666666665
 20
4.635499999999924
 30
0.0
 11
-57.52533333333331
 21
4.63549999999992
 31
0.0
 12
-56.97499999999999
 22
7.937499999999922
 32
0.0
 13
-56.97499999999999
 23
7.937499999999922
 33
0.0
  0
SOLID
  5
DD
330
D5
100
AcDbEntity
  8
치수문자_일반주서
 62
     0
100
AcDbTrace
 10
-57.52533333333329
 20
-4.635500000000077
 30
0.0
 11
-56.42466666666662
 21
-4.635500000000073
 31
0.0
 12
-56.97499999999994
 22
-7.937500000000075
 32
0.0
 13
-56.97499999999994
 23
-7.937500000000075
 33
0.0
  0
MTEXT
  5
DE
330
D5
100
AcDbEntity
  8
치수문자_일반주서
 62
     0
100
AcDbMText
 10
-61.35000000000006
 20
25.23949999999991
 30
0.0
 40
3.5
 41
0.0
 71
     2
 72
     1
  1
\A1;%%c15.88 [5/8]
  7
SLDTEXTSTYLE0
 11
-3.580687802255623E-15
 21
1.0
 31
0.0
 73
     1
 44
1.0
  0
POINT
  5
DF
330
D5
100
AcDbEntity
  8
Defpoints
 62
     0
100
AcDbPoint
 10
-40.97499999999999
 20
7.937499999999982
 30
0.0
  0
POINT
  5
E0
330
D5
100
AcDbEntity
  8
Defpoints
 62
     0
100
AcDbPoint
 10
-40.97499999999999
 20
-7.937500000000018
 30
0.0
  0
POINT
  5
1AF
330
D5
100
AcDbEntity
  8
Defpoints
 62
     0
100
AcDbPoint
 10
-56.97499999999994
 20
-7.937500000000077
 30
0.0
  0
ENDBLK
  5
D7
330
D5
100
AcDbEntity
  8
0
100
AcDbBlockEnd
  0
BLOCK
  5
EB
330
EA
100
AcDbEntity
  8
0
100
AcDbBlockBegin
  2
_D_1
 70
     0
 10
0.0
 20
0.0
 30
0.0
  3
_D_1
  1
_D_1
  0
LINE
  5
ED
330
EA
100
AcDbEntity
  8
치수문자_일반주서
 62
     0
370
    -2
100
AcDbLine
 10
45.33749999999999
 20
7.993291345885292
 30
0.0
 11
45.33749999999999
 21
22.93749999999998
 31
0.0
  0
LINE
  5
EE
330
EA
100
AcDbEntity
  8
치수문자_일반주서
 62
     0
370
    -2
100
AcDbLine
 10
12.0
 20
7.386512631442477
 30
0.0
 11
12.0
 21
22.93749999999998
 31
0.0
  0
LINE
  5
EF
330
EA
100
AcDbEntity
  8
치수문자_일반주서
 62
     0
370
    -2
100
AcDbLine
 10
45.33749999999999
 20
22.93749999999998
 30
0.0
 11
81.0145
 21
22.93749999999998
 31
0.0
  0
LINE
  5
F0
330
EA
100
AcDbEntity
  8
치수문자_일반주서
 62
     0
370
    -2
100
AcDbLine
 10
42.03549999999999
 20
22.93749999999998
 30
0.0
 11
15.302
 21
22.93749999999998
 31
0.0
  0
SOLID
  5
F1
330
EA
100
AcDbEntity
  8
치수문자_일반주서
 62
     0
100
AcDbTrace
 10
42.03549999999999
 20
22.38716666666664
 30
0.0
 11
42.03549999999999
 21
23.48783333333331
 31
0.0
 12
45.33749999999999
 22
22.93749999999998
 32
0.0
 13
45.33749999999999
 23
22.93749999999998
 33
0.0
  0
SOLID
  5
F2
330
EA
100
AcDbEntity
  8
치수문자_일반주서
 62
     0
100
AcDbTrace
 10
15.302
 20
23.48783333333331
 30
0.0
 11
15.302
 21
22.38716666666664
 31
0.0
 12
12.0
 22
22.93749999999998
 32
0.0
 13
12.0
 23
22.93749999999998
 33
0.0
  0
MTEXT
  5
F3
330
EA
100
AcDbEntity
  8
치수문자_일반주서
 62
     0
100
AcDbMText
 10
64.827
 20
27.31249999999998
 30
0.0
 40
3.5
 41
0.0
 71
     2
 72
     1
  1
\A1;33.34 [1 5/16]
  7
SLDTEXTSTYLE0
 73
     1
 44
1.0
  0
POINT
  5
F4
330
EA
100
AcDbEntity
  8
Defpoints
 62
     0
100
AcDbPoint
 10
45.33749999999999
 20
7.930791345885292
 30
0.0
  0
POINT
  5
F5
330
EA
100
AcDbEntity
  8
Defpoints
 62
     0
100
AcDbPoint
 10
12.0
 20
7.324012631442477
 30
0.0
  0
POINT
  5
F6
330
EA
100
AcDbEntity
  8
Defpoints
 62
     0
100
AcDbPoint
 10
12.0
 20
22.93749999999998
 30
0.0
  0
ENDBLK
  5
EC
330
EA
100
AcDbEntity
  8
0
100
AcDbBlockEnd
  0
BLOCK
  5
FF
330
FE
100
AcDbEntity
  8
0
100
AcDbBlockBegin
  2
_D_2
 70
     0
 10
0.0
 20
0.0
 30
0.0
  3
_D_2
  1
_D_2
  0
LINE
  5
101
330
FE
100
AcDbEntity
  8
치수문자_일반주서
 62
     0
370
    -2
100
AcDbLine
 10
45.33749999999999
 20
7.993291345885292
 30
0.0
 11
45.33749999999999
 21
37.93749999999999
 31
0.0
  0
LINE
  5
102
330
FE
100
AcDbEntity
  8
치수문자_일반주서
 62
     0
370
    -2
100
AcDbLine
 10
-41.97500000000001
 20
6.99999999999999
 30
0.0
 11
-41.97500000000001
 21
37.93749999999999
 31
0.0
  0
LINE
  5
103
330
FE
100
AcDbEntity
  8
치수문자_일반주서
 62
     0
370
    -2
100
AcDbLine
 10
42.03549999999999
 20
37.93749999999999
 30
0.0
 11
-38.67300000000001
 21
37.93749999999999
 31
0.0
  0
SOLID
  5
104
330
FE
100
AcDbEntity
  8
치수문자_일반주서
 62
     0
100
AcDbTrace
 10
42.03549999999999
 20
37.38716666666666
 30
0.0
 11
42.03549999999999
 21
38.48783333333333
 31
0.0
 12
45.33749999999999
 22
37.93749999999999
 32
0.0
 13
45.33749999999999
 23
37.93749999999999
 33
0.0
  0
SOLID
  5
105
330
FE
100
AcDbEntity
  8
치수문자_일반주서
 62
     0
100
AcDbTrace
 10
-38.67300000000001
 20
38.48783333333333
 30
0.0
 11
-38.67300000000001
 21
37.38716666666666
 31
0.0
 12
-41.97500000000001
 22
37.93749999999999
 32
0.0
 13
-41.97500000000001
 23
37.93749999999999
 33
0.0
  0
MTEXT
  5
106
330
FE
100
AcDbEntity
  8
치수문자_일반주서
 62
     0
100
AcDbMText
 10
1.68124999999999
 20
42.31249999999999
 30
0.0
 40
3.5
 41
0.0
 71
     2
 72
     1
  1
\A1;87.31 [3 7/16]
  7
SLDTEXTSTYLE0
 73
     1
 44
1.0
  0
POINT
  5
107
330
FE
100
AcDbEntity
  8
Defpoints
 62
     0
100
AcDbPoint
 10
45.33749999999999
 20
7.930791345885292
 30
0.0
  0
POINT
  5
108
330
FE
100
AcDbEntity
  8
Defpoints
 62
     0
100
AcDbPoint
 10
-41.97500000000001
 20
6.93749999999999
 30
0.0
  0
POINT
  5
109
330
FE
100
AcDbEntity
  8
Defpoints
 62
     0
100
AcDbPoint
 10
-41.97500000000001
 20
37.93749999999999
 30
0.0
  0
ENDBLK
  5
100
330
FE
100
AcDbEntity
  8
0
100
AcDbBlockEnd
  0
BLOCK
  5
112
330
111
100
AcDbEntity
  8
0
100
AcDbBlockBegin
  2
_D_3
 70
     0
 10
0.0
 20
0.0
 30
0.0
  3
_D_3
  1
_D_3
  0
LINE
  5
114
330
111
100
AcDbEntity
  8
치수문자_일반주서
 62
     0
370
    -2
100
AcDbLine
 10
45.39999999999999
 20
-7.930791345885296
 30
0.0
 11
89.08327479248848
 21
-7.93079134588513
 31
0.0
  0
LINE
  5
115
330
111
100
AcDbEntity
  8
치수문자_일반주서
 62
     0
370
    -2
100
AcDbLine
 10
45.39999999999999
 20
7.930791345885292
 30
0.0
 11
89.08327479248842
 21
7.930791345885456
 31
0.0
  0
LINE
  5
116
330
111
100
AcDbEntity
  8
치수문자_일반주서
 62
     0
370
    -2
100
AcDbLine
 10
89.08327479248842
 20
7.930791345885456
 30
0.0
 11
89.08327479248831
 21
39.23279134588546
 31
0.0
  0
LINE
  5
117
330
111
100
AcDbEntity
  8
치수문자_일반주서
 62
     0
370
    -2
100
AcDbLine
 10
89.08327479248848
 20
-7.93079134588513
 30
0.0
 11
89.08327479248842
 21
7.930791345885456
 31
0.0
  0
LINE
  5
118
330
111
100
AcDbEntity
  8
치수문자_일반주서
 62
     0
370
    -2
100
AcDbLine
 10
89.0832747924885
 20
-11.23279134588513
 30
0.0
 11
89.08327479248851
 21
-14.53479134588513
 31
0.0
  0
LINE
  5
119
330
111
100
AcDbEntity
  8
치수문자_일반주서
 62
     0
370
    -2
100
AcDbLine
 10
89.08327479248841
 20
11.23279134588546
 30
0.0
 11
89.0832747924884
 21
14.53479134588546
 31
0.0
  0
SOLID
  5
11A
330
111
100
AcDbEntity
  8
치수문자_일반주서
 62
     0
100
AcDbTrace
 10
89.63360812582182
 20
-11.23279134588513
 30
0.0
 11
88.53294145915517
 21
-11.23279134588513
 31
0.0
 12
89.08327479248848
 22
-7.93079134588513
 32
0.0
 13
89.08327479248848
 23
-7.93079134588513
 33
0.0
  0
SOLID
  5
11B
330
111
100
AcDbEntity
  8
치수문자_일반주서
 62
     0
100
AcDbTrace
 10
88.53294145915508
 20
11.23279134588545
 30
0.0
 11
89.63360812582174
 21
11.23279134588546
 31
0.0
 12
89.08327479248842
 22
7.930791345885456
 32
0.0
 13
89.08327479248842
 23
7.930791345885456
 33
0.0
  0
MTEXT
  5
11C
330
111
100
AcDbEntity
  8
치수문자_일반주서
 62
     0
100
AcDbMText
 10
84.70827479248837
 20
25.23279134588544
 30
0.0
 40
3.5
 41
0.0
 71
     2
 72
     1
  1
\A1;%%c15.86 [5/8]
  7
SLDTEXTSTYLE0
 11
-3.583716705035992E-15
 21
1.0
 31
0.0
 73
     1
 44
1.0
  0
POINT
  5
11D
330
111
100
AcDbEntity
  8
Defpoints
 62
     0
100
AcDbPoint
 10
45.33749999999999
 20
-7.930791345885296
 30
0.0
  0
POINT
  5
1B0
330
111
100
AcDbEntity
  8
Defpoints
 62
     0
100
AcDbPoint
 10
45.33749999999999
 20
7.930791345885292
 30
0.0
  0
POINT
  5
1B1
330
111
100
AcDbEntity
  8
Defpoints
 62
     0
100
AcDbPoint
 10
89.08327479248842
 20
7.930791345885456
 30
0.0
  0
ENDBLK
  5
113
330
111
100
AcDbEntity
  8
0
100
AcDbBlockEnd
  0
BLOCK
  5
12B
330
12A
100
AcDbEntity
  8
0
100
AcDbBlockBegin
  2
SW_DOWELSYMBOL_0
 70
     0
 10
0.0
 20
0.0
 30
0.0
  3
SW_DOWELSYMBOL_0
  1
SW_DOWELSYMBOL_0
  0
CIRCLE
  5
12D
330
12A
100
AcDbEntity
  8
해칭선
 62
     0
100
AcDbCircle
 10
0.0
 20
0.0
 30
0.0
 40
2.999999999999994
  0
HATCH
  5
12E
330
12A
100
AcDbEntity
  8
0
  6
Continuous
 62
     0
370
     0
100
AcDbHatch
 10
0.0
 20
0.0
 30
0.0
210
0.0
220
0.0
230
1.0
  2
SOLID
 70
     1
 71
     0
 91
        1
 92
        0
 93
        3
 72
     2
 10
0.0
 20
0.0
 40
2.999999999999994
 50
0.0
 51
90.0
 73
     1
 72
     1
 10
0.0
 20
2.999999999999994
 11
0.0
 21
0.0
 72
     1
 10
0.0
 20
0.0
 11
2.999999999999994
 21
0.0
 97
        0
 75
     0
 76
     1
 98
        1
 10
0.0
 20
0.0
  0
HATCH
  5
12F
330
12A
100
AcDbEntity
  8
0
  6
Continuous
 62
     0
370
     0
100
AcDbHatch
 10
0.0
 20
0.0
 30
0.0
210
0.0
220
0.0
230
1.0
  2
SOLID
 70
     1
 71
     0
 91
        1
 92
        0
 93
        3
 72
     2
 10
0.0
 20
0.0
 40
2.999999999999994
 50
180.0
 51
270.0000000000007
 73
     1
 72
     1
 10
0.0
 20
-2.999999999999994
 11
0.0
 21
0.0
 72
     1
 10
0.0
 20
0.0
 11
-2.999999999999994
 21
0.0
 97
        0
 75
     0
 76
     1
 98
        1
 10
0.0
 20
0.0
  0
ENDBLK
  5
12C
330
12A
100
AcDbEntity
  8
0
100
AcDbBlockEnd
  0
BLOCK
  5
190
330
18F
100
AcDbEntity
  8
0
100
AcDbBlockBegin
  2
*D7
 70
     1
 10
0.0
 20
0.0
 30
0.0
  3
*D7
  1
*D7
  0
LINE
  5
192
330
18F
100
AcDbEntity
  8
치수문자_일반주서
 62
     0
370
    -2
100
AcDbLine
 10
35.17899999999999
 20
5.202140506500241
 30
0.0
 11
35.17899999999999
 21
19.35192829520348
 31
0.0
  0
LINE
  5
193
330
18F
100
AcDbEntity
  8
치수문자_일반주서
 62
     0
370
    -2
100
AcDbLine
 10
6.604000000000002
 20
3.537277619272867
 30
0.0
 11
6.603999999999999
 21
19.35192829520348
 31
0.0
  0
LINE
  5
194
330
18F
100
AcDbEntity
  8
치수문자_일반주서
 62
     0
370
    -2
100
AcDbLine
 10
35.17899999999999
 20
19.35192829520348
 30
0.0
 11
71.53299999999999
 21
19.35192829520348
 31
0.0
  0
LINE
  5
195
330
18F
100
AcDbEntity
  8
치수문자_일반주서
 62
     0
370
    -2
100
AcDbLine
 10
31.877
 20
19.35192829520348
 30
0.0
 11
9.905999999999999
 21
19.35192829520348
 31
0.0
  0
SOLID
  5
196
330
18F
100
AcDbEntity
  8
치수문자_일반주서
 62
     0
100
AcDbTrace
 10
31.877
 20
18.80159496187014
 30
0.0
 11
31.877
 21
19.90226162853681
 31
0.0
 12
35.17899999999999
 22
19.35192829520348
 32
0.0
 13
35.17899999999999
 23
19.35192829520348
 33
0.0
  0
SOLID
  5
197
330
18F
100
AcDbEntity
  8
치수문자_일반주서
 62
     0
100
AcDbTrace
 10
9.905999999999999
 20
19.90226162853681
 30
0.0
 11
9.905999999999999
 21
18.80159496187014
 31
0.0
 12
6.603999999999999
 22
19.35192829520348
 32
0.0
 13
6.603999999999999
 23
19.35192829520348
 33
0.0
  0
MTEXT
  5
198
330
18F
100
AcDbEntity
  8
치수문자_일반주서
 62
     0
100
AcDbMText
 10
56.65799999999999
 20
23.72692829520348
 30
0.0
 40
3.5
 41
0.0
 71
     2
 72
     1
  1
\A1;28.58 [1 1/8]
  7
SLDTEXTSTYLE0
 73
     1
 44
1.0
  0
POINT
  5
199
330
18F
100
AcDbEntity
  8
Defpoints
 62
     0
100
AcDbPoint
 10
35.17899999999999
 20
5.139640506500241
 30
0.0
  0
POINT
  5
19A
330
18F
100
AcDbEntity
  8
Defpoints
 62
     0
100
AcDbPoint
 10
6.604000000000002
 20
3.474777619272867
 30
0.0
  0
POINT
  5
19B
330
18F
100
AcDbEntity
  8
Defpoints
 62
     0
100
AcDbPoint
 10
6.604000000000002
 20
19.35192829520348
 30
0.0
  0
ENDBLK
  5
191
330
18F
100
AcDbEntity
  8
0
100
AcDbBlockEnd
  0
BLOCK
  5
1A0
330
19F
100
AcDbEntity
  8
0
100
AcDbBlockBegin
  2
*D8
 70
     1
 10
0.0
 20
0.0
 30
0.0
  3
*D8
  1
*D8
  0
LINE
  5
1A2
330
19F
100
AcDbEntity
  8
치수문자_일반주서
 62
     0
370
    -2
100
AcDbLine
 10
153.3865878047114
 20
-20.33826333321427
 30
0.0
 11
153.3865878047114
 21
-6.188475544511036
 31
0.0
  0
LINE
  5
1A3
330
19F
100
AcDbEntity
  8
치수문자_일반주서
 62
     0
370
    -2
100
AcDbLine
 10
124.8115878047114
 20
-22.00312622044165
 30
0.0
 11
124.8115878047114
 21
-6.188475544511036
 31
0.0
  0
LINE
  5
1A4
330
19F
100
AcDbEntity
  8
치수문자_일반주서
 62
     0
370
    -2
100
AcDbLine
 10
153.3865878047114
 20
-6.188475544511036
 30
0.0
 11
189.7405878047114
 21
-6.188475544511036
 31
0.0
  0
LINE
  5
1A5
330
19F
100
AcDbEntity
  8
치수문자_일반주서
 62
     0
370
    -2
100
AcDbLine
 10
150.0845878047114
 20
-6.188475544511036
 30
0.0
 11
128.1135878047114
 21
-6.188475544511036
 31
0.0
  0
SOLID
  5
1A6
330
19F
100
AcDbEntity
  8
치수문자_일반주서
 62
     0
100
AcDbTrace
 10
150.0845878047114
 20
-6.738808877844369
 30
0.0
 11
150.0845878047114
 21
-5.638142211177702
 31
0.0
 12
153.3865878047114
 22
-6.188475544511036
 32
0.0
 13
153.3865878047114
 23
-6.188475544511036
 33
0.0
  0
SOLID
  5
1A7
330
19F
100
AcDbEntity
  8
치수문자_일반주서
 62
     0
100
AcDbTrace
 10
128.1135878047114
 20
-5.638142211177702
 30
0.0
 11
128.1135878047114
 21
-6.738808877844369
 31
0.0
 12
124.8115878047114
 22
-6.188475544511036
 32
0.0
 13
124.8115878047114
 23
-6.188475544511036
 33
0.0
  0
MTEXT
  5
1A8
330
19F
100
AcDbEntity
  8
치수문자_일반주서
 62
     0
100
AcDbMText
 10
174.8655878047114
 20
-1.813475544511036
 30
0.0
 40
3.5
 41
0.0
 71
     2
 72
     1
  1
\A1;28.58 [1 1/8]
  7
SLDTEXTSTYLE0
 73
     1
 44
1.0
  0
POINT
  5
1A9
330
19F
100
AcDbEntity
  8
Defpoints
 62
     0
100
AcDbPoint
 10
153.3865878047114
 20
-20.40076333321427
 30
0.0
  0
POINT
  5
1AA
330
19F
100
AcDbEntity
  8
Defpoints
 62
     0
100
AcDbPoint
 10
124.8115878047114
 20
-22.06562622044165
 30
0.0
  0
POINT
  5
1AB
330
19F
100
AcDbEntity
  8
Defpoints
 62
     0
100
AcDbPoint
 10
124.8115878047114
 20
-6.188475544511036
 30
0.0
  0
ENDBLK
  5
1A1
330
19F
100
AcDbEntity
  8
0
100
AcDbBlockEnd
  0
ENDSEC
  0
SECTION
  2
ENTITIES
  0
LINE
  5
96
330
1F
100
AcDbEntity
  8
외형선
  6
Continuous
370
    15
100
AcDbLine
 10
8.950012361278553
 20
7.937499999999996
 30
0.0
 11
-11.02192500000008
 21
7.937499999999995
 31
0.0
  0
LINE
  5
97
330
1F
100
AcDbEntity
  8
외형선
  6
Continuous
370
    15
100
AcDbLine
 10
-40.97499999999999
 20
-7.937500000000007
 30
0.0
 11
8.950012361278553
 21
-7.937500000000004
 31
0.0
  0
LINE
  5
98
330
1F
100
AcDbEntity
  8
외형선
  6
Continuous
370
    15
100
AcDbLine
 10
-40.97499999999999
 20
7.937499999999989
 30
0.0
 11
-41.97500000000001
 21
6.937499999999989
 31
0.0
  0
LINE
  5
99
330
1F
100
AcDbEntity
  8
외형선
  6
Continuous
370
    15
100
AcDbLine
 10
-41.97500000000001
 20
-6.937500000000004
 30
0.0
 11
-40.97499999999999
 21
-7.937500000000004
 31
0.0
  0
SPLINE
  5
9A
330
1F
100
AcDbEntity
  8
외형선
  6
Continuous
370
    15
100
AcDbSpline
210
0.0
220
0.0
230
1.0
 70
     8
 71
     3
 72
     9
 73
     5
 74
     0
 42
0.000000001
 43
0.00000001
 40
0.0
 40
0.0
 40
0.0
 40
0.0
 40
0.4989829524466181
 40
1.0
 40
1.0
 40
1.0
 40
1.0
 10
10.21138371584545
 20
-6.605090986884307
 30
0.0
 10
10.50901574159762
 20
-6.575995557256683
 30
0.0
 10
11.10549308474695
 20
-6.517686091001446
 30
0.0
 10
11.70142696618491
 20
-6.468901101713136
 30
0.0
 10
11.99999999999998
 20
-6.444458990414984
 30
0.0
  0
SPLINE
  5
9B
330
1F
100
AcDbEntity
  8
0
  6
Continuous
 62
     1
370
    15
100
AcDbSpline
210
0.0
220
0.0
230
1.0
 70
     8
 71
     3
 72
     9
 73
     5
 74
     0
 42
0.000000001
 43
0.00000001
 40
0.0
 40
0.0
 40
0.0
 40
0.0
 40
0.4793004641340241
 40
0.9999999999999999
 40
0.9999999999999999
 40
0.9999999999999999
 40
0.9999999999999999
 10
24.77264931183339
 20
2.034008861052348
 30
0.0
 10
24.42131312841075
 20
2.201493296947115
 30
0.0
 10
23.68829446952543
 20
2.550928460122622
 30
0.0
 10
22.95415856274833
 20
2.93518740733154
 30
0.0
 10
22.57189433682694
 20
3.135270862795571
 30
0.0
1001
PE_URL
1000

  0
SPLINE
  5
9C
330
1F
100
AcDbEntity
  8
0
  6
Continuous
 62
     1
370
    15
100
AcDbSpline
210
0.0
220
0.0
230
1.0
 70
     8
 71
     3
 72
    23
 73
    19
 74
     0
 42
0.000000001
 43
0.00000001
 40
0.0
 40
0.0
 40
0.0
 40
0.0
 40
0.0989161947018256
 40
0.1796542623721228
 40
0.2426983234637047
 40
0.2946082665648053
 40
0.3648827215213135
 40
0.4260964625287812
 40
0.4799524857794693
 40
0.527190936814523
 40
0.5768770836052829
 40
0.6480918802421434
 40
0.7205946333421617
 40
0.7709771320174286
 40
0.8195800559603151
 40
0.8856644664886749
 40
0.9604202100566709
 40
1.0
 40
1.0
 40
1.0
 40
1.0
 10
22.14903777478121
 20
6.307445285558868
 30
0.0
 10
21.94047472622846
 20
6.296759019117841
 30
0.0
 10
21.56167688873809
 20
6.277350333606213
 30
0.0
 10
21.04489626467906
 20
6.255561143852074
 30
0.0
 10
20.6217259925684
 20
6.240441309215492
 30
0.0
 10
20.21839041492834
 20
6.228193569386915
 30
0.0
 10
19.820725651878
 20
6.218007956593398
 30
0.0
 10
19.42173459577122
 20
6.210041296203449
 30
0.0
 10
19.07323816180968
 20
6.204794890704829
 30
0.0
 10
18.74919025357146
 20
6.201321082231381
 30
0.0
 10
18.38777632560721
 20
6.198955331850237
 30
0.0
 10
17.97244193306431
 20
6.198414305876609
 30
0.0
 10
17.55502031446954
 20
6.200468120508231
 30
0.0
 10
17.18761375248778
 20
6.204215803194822
 30
0.0
 10
16.82814707338103
 20
6.209384851484909
 30
0.0
 10
16.41499608900804
 20
6.217232077573378
 30
0.0
 10
16.01887845119504
 20
6.225967076304245
 30
0.0
 10
15.77373834301888
 20
6.234035184977687
 30
0.0
 10
15.68887763794912
 20
6.236828140384706
 30
0.0
1001
PE_URL
1000

  0
SPLINE
  5
9D
330
1F
100
AcDbEntity
  8
0
  6
Continuous
 62
     1
370
    15
100
AcDbSpline
210
0.0
220
0.0
230
1.0
 70
     8
 71
     3
 72
    35
 73
    31
 74
     0
 42
0.000000001
 43
0.00000001
 40
0.0
 40
0.0
 40
0.0
 40
0.0
 40
0.0589302646437882
 40
0.1054243420265038
 40
0.1392651363601747
 40
0.1635814424138876
 40
0.1871943708162363
 40
0.2450937313417615
 40
0.2955756107999156
 40
0.3478671279835897
 40
0.4016045552316432
 40
0.4613062600994383
 40
0.5244433440130664
 40
0.5510910419385513
 40
0.5790410846981053
 40
0.6117835803533056
 40
0.6463869228062687
 40
0.6730825474132569
 40
0.691274513262347
 40
0.7118737592804191
 40
0.7369986735921815
 40
0.7675993479098235
 40
0.7951837196507682
 40
0.8179224581675948
 40
0.8306388282080532
 40
0.8483900742438821
 40
0.8742533740891971
 40
0.90819106995902
 40
0.9500919848996835
 40
1.0
 40
1.0
 40
1.0
 40
1.0
 10
42.38866864088024
 20
5.428878683247024
 30
0.0
 10
42.1178013051079
 20
5.406653755868384
 30
0.0
 10
41.63322838111235
 20
5.366894077888945
 30
0.0
 10
40.99194341266959
 20
5.325095120275036
 30
0.0
 10
40.50803832760757
 20
5.297941086251404
 30
0.0
 10
40.12584737152601
 20
5.279402351325271
 30
0.0
 10
39.63383818070733
 20
5.258441709517975
 30
0.0
 10
39.02433522744793
 20
5.238935346158716
 30
0.0
 10
38.28119463646408
 20
5.22544019108437
 30
0.0
 10
37.55778520620841
 20
5.221825946429743
 30
0.0
 10
36.79218649612849
 20
5.228489142080042
 30
0.0
 10
35.97573448170186
 20
5.247463284287478
 30
0.0
 10
35.28481948323946
 20
5.274307716787235
 30
0.0
 10
34.74059461108951
 20
5.301686668278596
 30
0.0
 10
34.33712107824935
 20
5.324832575981387
 30
0.0
 10
33.89677120415146
 20
5.353369094033116
 30
0.0
 10
33.46207086803194
 20
5.385112420339992
 30
0.0
 10
33.09451817971762
 20
5.414691823924156
 30
0.0
 10
32.79165081752924
 20
5.440718731316604
 30
0.0
 10
32.49629097349728
 20
5.467497044171965
 30
0.0
 10
32.14368893900248
 20
5.501419181063214
 30
0.0
 10
31.75869328671492
 20
5.54113467966979
 30
0.0
 10
31.38566898230128
 20
5.582093675222322
 30
0.0
 10
31.09575164339875
 20
5.615545392507088
 30
0.0
 10
30.85324071069432
 20
5.644441176883548
 30
0.0
 10
30.59402641960392
 20
5.676212710424547
 30
0.0
 10
30.23572316003496
 20
5.72188434713988
 30
0.0
 10
29.76466547844103
 20
5.785143703416804
 30
0.0
 10
29.18137102021336
 20
5.868145210793768
 30
0.0
 10
28.75464169472758
 20
5.934171235050775
 30
0.0
 10
28.52266846934976
 20
5.970063471395995
 30
0.0
1001
PE_URL
1000

  0
SPLINE
  5
9E
330
1F
100
AcDbEntity
  8
0
  6
Continuous
 62
     1
370
    15
100
AcDbSpline
210
0.0
220
0.0
230
1.0
 70
     8
 71
     3
 72
    17
 73
    13
 74
     0
 42
0.000000001
 43
0.00000001
 40
0.0
 40
0.0
 40
0.0
 40
0.0
 40
0.1361938461965288
 40
0.2443243706256726
 40
0.3241999022052374
 40
0.3826686972639693
 40
0.4386606266198223
 40
0.5716728122383385
 40
0.6918484894048916
 40
0.813055379907155
 40
0.9399831522117355
 40
1.0
 40
1.0
 40
1.0
 40
1.0
 10
28.52266846934975
 20
-5.970063471396
 30
0.0
 10
28.78925214439123
 20
-5.928914037100841
 30
0.0
 10
29.26748879342158
 20
-5.855094184614563
 30
0.0
 10
29.9032673230161
 20
-5.76600922857787
 30
0.0
 10
30.38908858306026
 20
-5.702006571528963
 30
0.0
 10
30.77601173118841
 20
-5.65369018239313
 30
0.0
 10
31.26650405677488
 20
-5.595059803048058
 30
0.0
 10
31.87455521829695
 20
-5.527782338553808
 30
0.0
 10
32.61224396495605
 20
-5.455461764631983
 30
0.0
 10
33.3373823134765
 20
-5.394145169255867
 30
0.0
 10
33.94431706810831
 20
-5.348656709515838
 30
0.0
 10
34.31237693690448
 20
-5.327896727995007
 30
0.0
 10
34.43053916650775
 20
-5.321231927208526
 30
0.0
1001
PE_URL
1000

  0
SPLINE
  5
9F
330
1F
100
AcDbEntity
  8
0
  6
Continuous
 62
     1
370
    15
100
AcDbSpline
210
0.0
220
0.0
230
1.0
 70
     8
 71
     3
 72
    31
 73
    27
 74
     0
 42
0.000000001
 43
0.00000001
 40
0.0
 40
0.0
 40
0.0
 40
0.0
 40
0.0626810649607559
 40
0.1114747719593175
 40
0.1499264018420431
 40
0.1738710616582629
 40
0.2008154901047734
 40
0.2339195252712386
 40
0.2682650819320078
 40
0.2996614293817643
 40
0.3285999933977783
 40
0.3721005306977499
 40
0.4241007074492953
 40
0.4753289022864451
 40
0.5118572852526309
 40
0.5463744124269585
 40
0.596495815638621
 40
0.6420835354047437
 40
0.6737763757294948
 40
0.7070212379469197
 40
0.7554298014163447
 40
0.8134684548613571
 40
0.8463352919247273
 40
0.886251707931476
 40
0.9373711034924136
 40
1.0
 40
1.0
 40
1.0
 40
1.0
 10
11.99999999999998
 20
-6.444458990414984
 30
0.0
 10
12.21143496505367
 20
-6.428231260537331
 30
0.0
 10
12.58746023725259
 20
-6.399371149614499
 30
0.0
 10
13.09303234885428
 20
-6.364923815761622
 30
0.0
 10
13.46822376102687
 20
-6.34130626610881
 30
0.0
 10
13.77148079336772
 20
-6.323486224426564
 30
0.0
 10
14.05651283820086
 20
-6.307681366063565
 30
0.0
 10
14.37737509119156
 20
-6.291159666867324
 30
0.0
 10
14.71069196343208
 20
-6.275446112813796
 30
0.0
 10
15.0247527370421
 20
-6.261994324574265
 30
0.0
 10
15.34926295905024
 20
-6.248347380687246
 30
0.0
 10
15.76757755409394
 20
-6.23302619367359
 30
0.0
 10
16.27411766334246
 20
-6.219982010441867
 30
0.0
 10
16.75615712116059
 20
-6.210537635332354
 30
0.0
 10
17.17708095588553
 20
-6.20427301712521
 30
0.0
 10
17.5870571143343
 20
-6.200176848499361
 30
0.0
 10
18.02938452842738
 20
-6.198279131329374
 30
0.0
 10
18.461522520296
 20
-6.199264160103028
 30
0.0
 10
18.83677127334193
 20
-6.202100610373602
 30
0.0
 10
19.22147426540011
 20
-6.206708972012794
 30
0.0
 10
19.69496968605161
 20
-6.214981220762028
 30
0.0
 10
20.17182369623893
 20
-6.226776858084554
 30
0.0
 10
20.62172242982842
 20
-6.240441867717364
 30
0.0
 10
21.04489760717673
 20
-6.255560933399605
 30
0.0
 10
21.56167642191463
 20
-6.277350406786347
 30
0.0
 10
21.94047456046643
 20
-6.296759045103014
 30
0.0
 10
22.14903777478121
 20
-6.307445285558874
 30
0.0
1001
PE_URL
1000

  0
SPLINE
  5
A0
330
1F
100
AcDbEntity
  8
외형선
  6
Continuous
370
    15
100
AcDbSpline
210
0.0
220
0.0
230
1.0
 70
     8
 71
     3
 72
    10
 73
     6
 74
     0
 42
0.000000001
 43
0.00000001
 40
0.0
 40
0.0
 40
0.0
 40
0.0
 40
0.5
 40
0.5
 40
1.0
 40
1.0
 40
1.0
 40
1.0
 10
12.0
 20
7.32401263145255
 30
0.0
 10
11.49090184597931
 20
7.437187322271186
 30
0.0
 10
10.98055872834583
 20
7.535377902534309
 30
0.0
 10
9.966764630757158
 20
7.700116877555909
 30
0.0
 10
9.459448785463561
 20
7.766917912075675
 30
0.0
 10
8.95002531627748
 20
7.817735754974883
 30
0.0
  0
LINE
  5
A1
330
1F
100
AcDbEntity
  8
외형선
  6
Continuous
370
    15
100
AcDbLine
 10
12.0
 20
7.324012631452547
 30
0.0
 11
12.0
 21
6.194075739295053
 31
0.0
  0
SPLINE
  5
A2
330
1F
100
AcDbEntity
  8
외형선
  6
Continuous
370
    15
100
AcDbSpline
210
0.0
220
0.0
230
1.0
 70
     8
 71
     3
 72
    10
 73
     6
 74
     0
 42
0.000000001
 43
0.00000001
 40
0.0
 40
0.0
 40
0.0
 40
0.0
 40
0.5
 40
0.5
 40
1.0
 40
1.0
 40
1.0
 40
1.0
 10
12.0
 20
6.194075739295051
 30
0.0
 10
11.49089968819166
 20
6.377664627764326
 30
0.0
 10
10.98055440228525
 20
6.548651828859398
 30
0.0
 10
9.966756066067873
 20
6.862391590481819
 30
0.0
 10
9.45943799250289
 20
7.005580735715089
 30
0.0
 10
8.950012361278546
 20
7.134298040333171
 30
0.0
  0
SPLINE
  5
A3
330
1F
100
AcDbEntity
  8
외형선
  6
Continuous
370
    15
100
AcDbSpline
210
0.0
220
0.0
230
1.0
 70
     8
 71
     3
 72
    10
 73
     6
 74
     0
 42
0.000000001
 43
0.00000001
 40
0.0
 40
0.0
 40
0.0
 40
0.0
 40
0.5
 40
0.5
 40
1.0
 40
1.0
 40
1.0
 40
1.0
 10
12.0
 20
-7.324012631452555
 30
0.0
 10
11.49090184597931
 20
-7.437187322271192
 30
0.0
 10
10.98055872834583
 20
-7.535377902534315
 30
0.0
 10
9.966764630757158
 20
-7.700116877555915
 30
0.0
 10
9.459448785463561
 20
-7.766917912075681
 30
0.0
 10
8.95002531627748
 20
-7.817735754974891
 30
0.0
  0
LINE
  5
A4
330
1F
100
AcDbEntity
  8
외형선
  6
Continuous
370
    15
100
AcDbLine
 10
8.950012361278553
 20
7.817794618563648
 30
0.0
 11
8.950012361278553
 21
7.937499999999996
 31
0.0
  0
LINE
  5
A5
330
1F
100
AcDbEntity
  8
외형선
  6
Continuous
370
    15
100
AcDbLine
 10
-40.97499999999999
 20
7.937499999999989
 30
0.0
 11
-40.97499999999999
 21
-7.937500000000007
 31
0.0
  0
LINE
  5
A6
330
1F
100
AcDbEntity
  8
외형선
  6
Continuous
370
    15
100
AcDbLine
 10
8.950012361278553
 20
-7.937500000000004
 30
0.0
 11
8.95001236127855
 21
7.134297639327838
 31
0.0
  0
LINE
  5
A7
330
1F
100
AcDbEntity
  8
외형선
  6
Continuous
370
    15
100
AcDbLine
 10
-41.97500000000001
 20
6.93749999999999
 30
0.0
 11
-41.97500000000001
 21
-6.937500000000003
 31
0.0
  0
SPLINE
  5
A8
330
1F
100
AcDbEntity
  8
외형선
  6
Continuous
370
    15
100
AcDbSpline
210
0.0
220
0.0
230
1.0
 70
    24
 71
     3
 72
    14
 73
    10
 74
     0
 42
0.000000001
 43
0.00000001
 40
0.0
 40
0.0
 40
0.0
 40
0.0
 40
0.2500000000000001
 40
0.2500000000000001
 40
0.5000000000000002
 40
0.5000000000000002
 40
0.7500000000000001
 40
0.7500000000000001
 40
1.0
 40
1.0
 40
1.0
 40
1.0
 10
12.0
 20
4.189366811097349
 30
0.0
 10
12.0
 20
3.625205325294496
 30
0.0
 10
12.0
 20
2.991485487838136
 30
0.0
 10
12.0
 20
1.627960375546328
 30
0.0
 10
12.0
 20
0.8986311196507845
 30
0.0
 10
12.0
 20
-0.587284866072516
 30
0.0
 10
12.0
 20
-1.343079837739576
 30
0.0
 10
12.0
 20
-2.807447878364645
 30
0.0
 10
12.0
 20
-3.515403289048677
 30
0.0
 10
12.0
 20
-4.17121248513917
 30
0.0
  0
SPLINE
  5
A9
330
1F
100
AcDbEntity
  8
외형선
  6
Continuous
370
    15
100
AcDbSpline
210
0.0
220
0.0
230
1.0
 70
     8
 71
     3
 72
    10
 73
     6
 74
     0
 42
0.000000001
 43
0.00000001
 40
0.0
 40
0.0
 40
0.0
 40
0.0
 40
0.5
 40
0.5
 40
1.0
 40
1.0
 40
1.0
 40
1.0
 10
12.0
 20
-4.17121248513917
 30
0.0
 10
11.49090047598009
 20
-3.994124450780332
 30
0.0
 10
10.98055598169019
 20
-3.808307907314182
 30
0.0
 10
9.966759192957072
 20
-3.422705135087107
 30
0.0
 10
9.459441932913656
 20
-3.222450063665406
 30
0.0
 10
8.950017091029522
 20
-3.015715467236679
 30
0.0
  0
SPLINE
  5
AA
330
1F
100
AcDbEntity
  8
외형선
  6
Continuous
370
    15
100
AcDbSpline
210
0.0
220
0.0
230
1.0
 70
     8
 71
     3
 72
    10
 73
     6
 74
     0
 42
0.000000001
 43
0.00000001
 40
0.0
 40
0.0
 40
0.0
 40
0.0
 40
0.5
 40
0.5
 40
1.0
 40
1.0
 40
1.0
 40
1.0
 10
12.0
 20
4.189366811097349
 30
0.0
 10
11.49090020798993
 20
4.324362368971578
 30
0.0
 10
10.98055544440764
 20
4.450843508203418
 30
0.0
 10
9.966758129250753
 20
4.6845277385053
 30
0.0
 10
9.459440592463286
 20
4.792053572109412
 30
0.0
 10
8.950015482061104
 20
4.889673819300838
 30
0.0
  0
LINE
  5
AB
330
1F
100
AcDbEntity
  8
외형선
  6
Continuous
370
    15
100
AcDbLine
 10
10.21277899957014
 20
-6.599109394244972
 30
0.0
 11
8.95002531627748
 21
-6.70336826641392
 31
0.0
  0
SPLINE
  5
AC
330
1F
100
AcDbEntity
  8
외형선
  6
Continuous
370
    15
100
AcDbSpline
210
0.0
220
0.0
230
1.0
 70
    24
 71
     3
 72
    14
 73
    10
 74
     0
 42
0.000000001
 43
0.00000001
 40
0.0
 40
0.0
 40
0.0
 40
0.0
 40
0.15266884771503
 40
0.3053376954300597
 40
0.5286179486179072
 40
0.6436004399011238
 40
0.7585829311843406
 40
0.9602124568226299
 40
1.0
 40
1.0
 40
1.0
 40
1.0
 10
12.0
 20
-4.17121248513917
 30
0.0
 10
12.0
 20
-4.385636162098209
 30
0.0
 10
12.0
 20
-4.814483516016284
 30
0.0
 10
12.0
 20
-5.42646265225022
 30
0.0
 10
12.0
 20
-5.870685787494907
 30
0.0
 10
12.0
 20
-6.164238698891078
 30
0.0
 10
12.0
 20
-6.358071935670947
 30
0.0
 10
12.0
 20
-6.467747353414917
 30
0.0
 10
12.0
 20
-6.433994082628042
 30
0.0
 10
12.0
 20
-6.428431262544944
 30
0.0
  0
SPLINE
  5
AD
330
1F
100
AcDbEntity
  8
외형선
  6
Continuous
370
    15
100
AcDbSpline
210
0.0
220
0.0
230
1.0
 70
    24
 71
     3
 72
    10
 73
     6
 74
     0
 42
0.000000001
 43
0.00000001
 40
0.0
 40
0.0
 40
0.0
 40
0.0
 40
0.5000000000000002
 40
0.5000000000000002
 40
1.0
 40
1.0
 40
1.0
 40
1.0
 10
12.0
 20
6.194075739295051
 30
0.0
 10
12.0
 20
5.961163101808031
 30
0.0
 10
12.0
 20
5.654560272547076
 30
0.0
 10
12.0
 20
4.958409812769889
 30
0.0
 10
12.0
 20
4.57105018211658
 30
0.0
 10
12.0
 20
4.18936681109735
 30
0.0
  0
SPLINE
  5
AE
330
1F
100
AcDbEntity
  8
외형선
  6
Continuous
370
    15
100
AcDbSpline
210
0.0
220
0.0
230
1.0
 70
    24
 71
     3
 72
    10
 73
     6
 74
     0
 42
0.000000001
 43
0.00000001
 40
0.0
 40
0.0
 40
0.0
 40
0.0
 40
0.3801611154143867
 40
0.8405054771075369
 40
1.0
 40
1.0
 40
1.0
 40
1.0
 10
12.0
 20
-6.444458990414983
 30
0.0
 10
12.0
 20
-6.562009617694972
 30
0.0
 10
11.99999999999999
 20
-6.821904546608364
 30
0.0
 10
11.99999999999999
 20
-7.109745139057053
 30
0.0
 10
12.0
 20
-7.280161705585267
 30
0.0
 10
12.0
 20
-7.324012631442492
 30
0.0
  0
SPLINE
  5
AF
330
1F
100
AcDbEntity
  8
0
  6
Continuous
 62
     1
370
    15
100
AcDbSpline
210
0.0
220
0.0
230
1.0
 70
     8
 71
     3
 72
    52
 73
    48
 74
     0
 42
0.000000001
 43
0.00000001
 40
0.0
 40
0.0
 40
0.0
 40
0.0
 40
0.0625000000000001
 40
0.0625000000000001
 40
0.0937499999999999
 40
0.0937499999999999
 40
0.1249999999999997
 40
0.1249999999999997
 40
0.1874999999999993
 40
0.1874999999999993
 40
0.2187499999999993
 40
0.2187499999999993
 40
0.2499999999999992
 40
0.2499999999999992
 40
0.3124999999999989
 40
0.3124999999999989
 40
0.3437499999999987
 40
0.3437499999999987
 40
0.3749999999999985
 40
0.3749999999999985
 40
0.4374999999999982
 40
0.4374999999999982
 40
0.4687499999999982
 40
0.4687499999999982
 40
0.4999999999999981
 40
0.4999999999999981
 40
0.5624999999999982
 40
0.5624999999999982
 40
0.6249999999999986
 40
0.6249999999999986
 40
0.6562499999999986
 40
0.6562499999999986
 40
0.6874999999999987
 40
0.6874999999999987
 40
0.7187499999999987
 40
0.7187499999999987
 40
0.7499999999999987
 40
0.7499999999999987
 40
0.812499999999999
 40
0.812499999999999
 40
0.8749999999999993
 40
0.8749999999999993
 40
0.9062499999999996
 40
0.9062499999999996
 40
0.9374999999999997
 40
0.9374999999999997
 40
1.0
 40
1.0
 40
1.0
 40
1.0
 10
45.33749999999999
 20
-7.53221814952821
 30
0.0
 10
44.64629468359349
 20
-7.405924674383994
 30
0.0
 10
43.94734134597623
 20
-7.250253337596877
 30
0.0
 10
42.90523538068926
 20
-6.976465983767415
 30
0.0
 10
42.56014472591185
 20
-6.878652019345873
 30
0.0
 10
41.86627514673042
 20
-6.669723964282593
 30
0.0
 10
41.51801220492055
 20
-6.558638217491037
 30
0.0
 10
40.47373109281776
 20
-6.206886691008568
 30
0.0
 10
39.78313066717508
 20
-5.948351188362917
 30
0.0
 10
38.73981903897663
 20
-5.527021748592524
 30
0.0
 10
38.39133167070727
 20
-5.381045135735107
 30
0.0
 10
37.69592448198541
 20
-5.079284150313079
 30
0.0
 10
37.35016230178511
 20
-4.923680919802956
 30
0.0
 10
36.31095507075425
 20
-4.442938566022312
 30
0.0
 10
35.61175012401809
 20
-4.103154311288047
 30
0.0
 10
34.57130985619864
 20
-3.573246671453085
 30
0.0
 10
34.22611674452905
 20
-3.393306777412618
 30
0.0
 10
33.531196948495
 20
-3.026494931829107
 30
0.0
 10
33.18274732548706
 20
-2.839837460739426
 30
0.0
 10
32.13892945995126
 20
-2.272509812993597
 30
0.0
 10
31.44859910030026
 20
-1.885152883282539
 30
0.0
 10
30.40454362312202
 20
-1.293941019659151
 30
0.0
 10
30.05614900502194
 20
-1.095368704909197
 30
0.0
 10
29.36160606290893
 20
-0.6969352675370258
 30
0.0
 10
29.01657753586162
 20
-0.4972915593449183
 30
0.0
 10
27.97542681516514
 20
0.1036556875956162
 30
0.0
 10
27.27628353566889
 20
0.5063895050828829
 30
0.0
 10
25.89186088236811
 20
1.302270269529174
 30
0.0
 10
25.19511646978643
 20
1.697607192144049
 30
0.0
 10
24.15222441262839
 20
2.278187858268792
 30
0.0
 10
23.80668888582825
 20
2.469332017469612
 30
0.0
 10
23.11360496782419
 20
2.846911296757942
 30
0.0
 10
22.76553057166151
 20
3.033434832506816
 30
0.0
 10
22.06930629621903
 20
3.400319840602988
 30
0.0
 10
21.72115928773097
 20
3.580679797686733
 30
0.0
 10
21.02778699532474
 20
3.933710222812003
 30
0.0
 10
20.68245110343981
 20
4.1064114358372
 30
0.0
 10
19.6398155196231
 20
4.613329948315242
 30
0.0
 10
18.94233305016494
 20
4.935205786387308
 30
0.0
 10
17.55859090228673
 20
5.53717090732184
 30
0.0
 10
16.8595011461222
 20
5.819084169718114
 30
0.0
 10
15.81799609176509
 20
6.205991868038088
 30
0.0
 10
15.47298935974514
 20
6.328891845968988
 30
0.0
 10
14.77866982386121
 20
6.56286756960081
 30
0.0
 10
14.43031491733
 20
6.673812782002905
 30
0.0
 10
13.38616089651678
 20
6.987039132192771
 30
0.0
 10
12.69577308736682
 20
7.169339306827937
 30
0.0
 10
11.99999999999753
 20
7.324012631453102
 30
0.0
1001
PE_URL
1000

  0
SPLINE
  5
B0
330
1F
100
AcDbEntity
  8
0
  6
Continuous
 62
     1
370
    15
100
AcDbSpline
210
0.0
220
0.0
230
1.0
 70
     8
 71
     3
 72
    17
 73
    13
 74
     0
 42
0.000000001
 43
0.00000001
 40
0.0
 40
0.0
 40
0.0
 40
0.0
 40
0.1103956694370538
 40
0.2207353028345846
 40
0.3310445960826362
 40
0.4413493838340096
 40
0.5516755213709721
 40
0.6620487662741193
 40
0.7724600573338036
 40
0.8828163061867552
 40
0.993133241378972
 40
1.0
 40
1.0
 40
1.0
 40
1.0
 10
45.33750000000001
 20
-6.262467348422718
 30
0.0
 10
44.5790172504618
 20
-6.107506433378398
 30
0.0
 10
43.06243675171692
 20
-5.797663260324078
 30
0.0
 10
40.7882052511573
 20
-5.12866239652577
 30
0.0
 10
38.51467338028727
 20
-4.331983892915678
 30
0.0
 10
36.24125255586433
 20
-3.41380799392068
 30
0.0
 10
33.96732664271199
 20
-2.403103690258768
 30
0.0
 10
31.69252112999646
 20
-1.327002363494623
 30
0.0
 10
29.4173008831479
 20
-0.2131392804594058
 30
0.0
 10
27.14274897916992
 20
0.899803736338339
 30
0.0
 10
25.57961161442496
 20
1.666210459817832
 30
0.0
 10
24.77460546385301
 20
2.031922429809591
 30
0.0
 10
24.72743351744525
 20
2.053352508867827
 30
0.0
1001
PE_URL
1000

  0
LINE
  5
B1
330
1F
100
AcDbEntity
  8
0
  6
Continuous
 62
     1
370
    15
100
AcDbLine
 10
45.33750000000001
 20
-7.532218149528211
 30
0.0
 11
45.33750000000001
 21
-6.262467348422718
 31
0.0
1001
PE_URL
1000

  0
SPLINE
  5
B2
330
1F
100
AcDbEntity
  8
0
  6
Continuous
 62
     1
370
    15
100
AcDbSpline
210
0.0
220
0.0
230
1.0
 70
     8
 71
     3
 72
    52
 73
    48
 74
     0
 42
0.000000001
 43
0.00000001
 40
0.0
 40
0.0
 40
0.0
 40
0.0
 40
0.0625
 40
0.0625
 40
0.09375
 40
0.09375
 40
0.1250000000000001
 40
0.1250000000000001
 40
0.1875000000000003
 40
0.1875000000000003
 40
0.2187500000000003
 40
0.2187500000000003
 40
0.2500000000000002
 40
0.2500000000000002
 40
0.3124999999999999
 40
0.3124999999999999
 40
0.3437499999999998
 40
0.3437499999999998
 40
0.3749999999999997
 40
0.3749999999999997
 40
0.4374999999999994
 40
0.4374999999999994
 40
0.4687499999999995
 40
0.4687499999999995
 40
0.4999999999999995
 40
0.4999999999999995
 40
0.5624999999999998
 40
0.5624999999999998
 40
0.6249999999999999
 40
0.6249999999999999
 40
0.6562500000000001
 40
0.6562500000000001
 40
0.6875000000000001
 40
0.6875000000000001
 40
0.7187500000000001
 40
0.7187500000000001
 40
0.7500000000000001
 40
0.7500000000000001
 40
0.8125000000000001
 40
0.8125000000000001
 40
0.8750000000000001
 40
0.8750000000000001
 40
0.9062500000000002
 40
0.9062500000000002
 40
0.9375000000000002
 40
0.9375000000000002
 40
1.0
 40
1.0
 40
1.0
 40
1.0
 10
45.33749999999999
 20
-7.930791345885299
 30
0.0
 10
44.64629468359355
 20
-7.914334601681134
 30
0.0
 10
43.94734134597632
 20
-7.867378306236805
 30
0.0
 10
42.90523538068944
 20
-7.752171937859659
 30
0.0
 10
42.56014472591206
 20
-7.706412296041548
 30
0.0
 10
41.86627514673069
 20
-7.60009648663284
 30
0.0
 10
41.51801220492082
 20
-7.539540268413625
 30
0.0
 10
40.47373109281813
 20
-7.336386079240937
 30
0.0
 10
39.78313066717548
 20
-7.172704788798255
 30
0.0
 10
38.73981903897712
 20
-6.886432153468101
 30
0.0
 10
38.39133167070779
 20
-6.784244347236876
 30
0.0
 10
37.69592448198598
 20
-6.567224113708993
 30
0.0
 10
37.35016230178569
 20
-6.4525292513879
 30
0.0
 10
36.31095507075494
 20
-6.090094380286407
 30
0.0
 10
35.61175012401881
 20
-5.823394464874646
 30
0.0
 10
34.57130985619944
 20
-5.39254291138744
 30
0.0
 10
34.22611674452986
 20
-5.243865720718863
 30
0.0
 10
33.53119694849588
 20
-4.936114910843783
 30
0.0
 10
33.18274732548798
 20
-4.777213328035363
 30
0.0
 10
32.13892945995222
 20
-4.287463334332732
 30
0.0
 10
31.44859910030129
 20
-3.944174545818002
 30
0.0
 10
30.40454362312313
 20
-3.407184750587771
 30
0.0
 10
30.05614900502307
 20
-3.224681938297496
 30
0.0
 10
29.36160606291011
 20
-2.854248823820147
 30
0.0
 10
29.01657753586284
 20
-2.666528445796513
 30
0.0
 10
27.97542681516644
 20
-2.095168618250182
 30
0.0
 10
27.27628353567023
 20
-1.703820442402266
 30
0.0
 10
25.89186088236954
 20
-0.9136878666723268
 30
0.0
 10
25.19511646978793
 20
-0.5127453765359726
 30
0.0
 10
24.15222441262996
 20
0.0888983088043439
 30
0.0
 10
23.80668888582984
 20
0.2891496721674739
 30
0.0
 10
23.11360496782584
 20
0.6891046735825525
 30
0.0
 10
22.76553057166319
 20
0.8889085143858755
 30
0.0
 10
22.06930629622075
 20
1.286443360515811
 30
0.0
 10
21.72115928773272
 20
1.484172725818982
 30
0.0
 10
21.02778699532653
 20
1.875864994404558
 30
0.0
 10
20.68245110344164
 20
2.06985430634878
 30
0.0
 10
19.63981551962502
 20
2.646558346191525
 30
0.0
 10
18.94233305016688
 20
3.022756017012954
 30
0.0
 10
17.55859090228881
 20
3.747236251995353
 30
0.0
 10
16.85950114612432
 20
4.097728168849415
 30
0.0
 10
15.81799609176728
 20
4.596759019467765
 30
0.0
 10
15.47298935974734
 20
4.758527883058422
 30
0.0
 10
14.77866982386348
 20
5.073329607108876
 30
0.0
 10
14.4303149173323
 20
5.226200216600886
 30
0.0
 10
13.38616089651915
 20
5.669209355497163
 30
0.0
 10
12.69577308736924
 20
5.943169965375504
 30
0.0
 10
11.99999999999999
 20
6.194075739295058
 30
0.0
1001
PE_URL
1000

  0
SPLINE
  5
B3
330
1F
100
AcDbEntity
  8
0
  6
Continuous
 62
     1
370
    15
100
AcDbSpline
210
0.0
220
0.0
230
1.0
 70
     8
 71
     3
 72
    13
 73
     9
 74
     0
 42
0.000000001
 43
0.00000001
 40
0.0
 40
0.0
 40
0.0
 40
0.0
 40
0.1022985260780716
 40
0.2818634956402945
 40
0.4614073901656477
 40
0.6409389384469867
 40
0.8204668899112332
 40
1.0
 40
1.0
 40
1.0
 40
1.0
 10
25.61477026035268
 20
-0.7520713750485309
 30
0.0
 10
25.15049892577533
 20
-0.5665196247775781
 30
0.0
 10
23.87129045321448
 20
-0.055268222058134
 30
0.0
 10
21.77728963211504
 20
0.7957104137057077
 30
0.0
 10
19.3328042548379
 20
1.760834024629166
 30
0.0
 10
16.88850611015517
 20
2.668919710577714
 30
0.0
 10
14.44426277253414
 20
3.502036603308795
 30
0.0
 10
12.81476206118159
 20
3.960254547431208
 30
0.0
 10
12.0
 20
4.189366811097348
 30
0.0
1001
PE_URL
1000

  0
SPLINE
  5
B4
330
1F
100
AcDbEntity
  8
외형선
  6
Continuous
370
    15
100
AcDbSpline
210
0.0
220
0.0
230
1.0
 70
    24
 71
     3
 72
    10
 73
     6
 74
     0
 42
0.000000001
 43
0.00000001
 40
0.0
 40
0.0
 40
0.0
 40
0.0
 40
0.5
 40
0.5
 40
1.0
 40
1.0
 40
1.0
 40
1.0
 10
12.0
 20
6.194075739295051
 30
0.0
 10
12.0
 20
5.961163101808028
 30
0.0
 10
12.0
 20
5.654560272547076
 30
0.0
 10
12.0
 20
4.958409812769885
 30
0.0
 10
12.0
 20
4.571050182116577
 30
0.0
 10
12.0
 20
4.189366811097349
 30
0.0
  0
LINE
  5
B5
330
1F
100
AcDbEntity
  8
0
  6
Continuous
 62
     1
370
    15
100
AcDbLine
 10
45.33749999999999
 20
-7.930791345885296
 30
0.0
 11
45.33750000000001
 21
-7.532218149528212
 31
0.0
1001
PE_URL
1000

  0
SPLINE
  5
B6
330
1F
100
AcDbEntity
  8
0
  6
Continuous
 62
     1
370
    15
100
AcDbSpline
210
0.0
220
0.0
230
1.0
 70
     8
 71
     3
 72
     8
 73
     4
 74
     0
 42
0.000000001
 43
0.00000001
 40
0.0
 40
0.0
 40
0.0
 40
0.0
 40
1.0
 40
1.0
 40
1.0
 40
1.0
 10
40.42633024581498
 20
2.220079671996134
 30
0.0
 10
40.39640471791195
 20
2.255523819278451
 30
0.0
 10
40.36679209920447
 20
2.290863161826617
 30
0.0
 10
40.3375
 20
2.326095150670329
 30
0.0
1001
PE_URL
1000

  0
LINE
  5
B7
330
1F
100
AcDbEntity
  8
0
  6
Continuous
 62
     1
370
    15
100
AcDbLine
 10
40.3375
 20
2.937719435296589
 30
0.0
 11
45.33750000000001
 21
0.0000000000000013
 31
0.0
1001
PE_URL
1000

  0
LINE
  5
B8
330
1F
100
AcDbEntity
  8
0
  6
Continuous
 62
     1
370
    15
100
AcDbLine
 10
45.33750000000001
 20
0.0000000000000013
 30
0.0
 11
45.33750000000001
 21
-2.121240884110306
 31
0.0
1001
PE_URL
1000

  0
SPLINE
  5
B9
330
1F
100
AcDbEntity
  8
0
  6
Continuous
 62
     1
370
    15
100
AcDbSpline
210
0.0
220
0.0
230
1.0
 70
     8
 71
     3
 72
    12
 73
     8
 74
     0
 42
0.000000001
 43
0.00000001
 40
0.0
 40
0.0
 40
0.0
 40
0.0
 40
0.5
 40
0.5
 40
0.75
 40
0.75
 40
1.0
 40
1.0
 40
1.0
 40
1.0
 10
45.33750000000001
 20
-2.121240884110305
 30
0.0
 10
44.48735708373018
 20
-1.452887382416917
 30
0.0
 10
43.65141642663288
 20
-0.7571355301524731
 30
0.0
 10
42.41936851419033
 20
0.3286694918016382
 30
0.0
 10
42.01238238863036
 20
0.6977356413040319
 30
0.0
 10
41.20672911848983
 20
1.451916538950691
 30
0.0
 10
40.81024411284289
 20
1.83509037929404
 30
0.0
 10
40.42633024581498
 20
2.220079671996137
 30
0.0
1001
PE_URL
1000

  0
SPLINE
  5
BA
330
1F
100
AcDbEntity
  8
0
  6
Continuous
 62
     1
370
    15
100
AcDbSpline
210
0.0
220
0.0
230
1.0
 70
     8
 71
     3
 72
    14
 73
    10
 74
     0
 42
0.000000001
 43
0.00000001
 40
0.0
 40
0.0
 40
0.0
 40
0.0
 40
0.1451631652056631
 40
0.2903256654180786
 40
0.4354875380892916
 40
0.5806488207056468
 40
0.7258095507857467
 40
0.8709697658784127
 40
1.0
 40
1.0
 40
1.0
 40
1.0
 10
40.42633024581498
 20
2.220079671996132
 30
0.0
 10
39.54188364914397
 20
2.594816274413877
 30
0.0
 10
37.7729945074566
 20
3.34428776257896
 30
0.0
 10
35.11966847167156
 20
4.322319293176455
 30
0.0
 10
32.46635627109977
 20
5.145414382820583
 30
0.0
 10
29.81305269869429
 20
5.777212475063816
 30
0.0
 10
27.15977407370342
 20
6.189893336225882
 30
0.0
 10
24.6047303096848
 20
6.383917232076328
 30
0.0
 10
22.93424171786162
 20
6.328047087867353
 30
0.0
 10
22.14813288468355
 20
6.301755370528731
 30
0.0
1001
PE_URL
1000

  0
SPLINE
  5
BB
330
1F
100
AcDbEntity
  8
0
  6
Continuous
 62
     1
370
    15
100
AcDbSpline
210
0.0
220
0.0
230
1.0
 70
    24
 71
     3
 72
    10
 73
     6
 74
     0
 42
0.000000001
 43
0.00000001
 40
0.0
 40
0.0
 40
0.0
 40
0.0
 40
0.5
 40
0.5
 40
1.0
 40
1.0
 40
1.0
 40
1.0
 10
45.33750000000001
 20
-6.262467348422716
 30
0.0
 10
45.33749999999999
 20
-5.782400400217704
 30
0.0
 10
45.33750000000001
 20
-5.175817403507598
 30
0.0
 10
45.33750000000001
 20
-3.765570313258523
 30
0.0
 10
45.33749999999999
 20
-2.963127829219771
 30
0.0
 10
45.33750000000001
 20
-2.121240884110559
 30
0.0
1001
PE_URL
1000

  0
SPLINE
  5
BC
330
1F
100
AcDbEntity
  8
0
  6
Continuous
 62
     1
370
    15
100
AcDbSpline
210
0.0
220
0.0
230
1.0
 70
     8
 71
     3
 72
     9
 73
     5
 74
     0
 42
0.000000001
 43
0.00000001
 40
0.0
 40
0.0
 40
0.0
 40
0.0
 40
0.90351766144706
 40
1.0
 40
1.0
 40
1.0
 40
1.0
 10
45.33750000000001
 20
5.556249999999997
 30
0.0
 10
44.44842603725621
 20
5.55230917067226
 30
0.0
 10
43.46441210960386
 20
5.547947518990297
 30
0.0
 10
42.48039874630037
 20
5.4303910731839
 30
0.0
 10
42.38545883584151
 20
5.419048952380527
 30
0.0
1001
PE_URL
1000

  0
SPLINE
  5
BD
330
1F
100
AcDbEntity
  8
0
  6
Continuous
 62
     1
370
    15
100
AcDbSpline
210
0.0
220
0.0
230
1.0
 70
     8
 71
     3
 72
    10
 73
     6
 74
     0
 42
0.000000001
 43
0.00000001
 40
0.0
 40
0.0
 40
0.0
 40
0.0
 40
0.5000000000000007
 40
0.5000000000000007
 40
1.0
 40
1.0
 40
1.0
 40
1.0
 10
45.33750000000001
 20
5.556250000000001
 30
0.0
 10
44.52102361685138
 20
5.334841988152204
 30
0.0
 10
43.70900566384055
 20
5.086020824326229
 30
0.0
 10
42.09682145579499
 20
4.529646173222816
 30
0.0
 10
41.29661785017193
 20
4.222606164143142
 30
0.0
 10
40.50599131611423
 20
3.876674191206894
 30
0.0
1001
PE_URL
1000

  0
SPLINE
  5
BE
330
1F
100
AcDbEntity
  8
0
  6
Continuous
 62
     1
370
    15
100
AcDbSpline
210
0.0
220
0.0
230
1.0
 70
    24
 71
     3
 72
     8
 73
     4
 74
     0
 42
0.000000001
 43
0.00000001
 40
0.0
 40
0.0
 40
0.0
 40
0.0
 40
1.0
 40
1.0
 40
1.0
 40
1.0
 10
40.50599131611423
 20
3.876674191206896
 30
0.0
 10
40.4505816833712
 20
3.830179988808565
 30
0.0
 10
40.39440809952008
 20
3.783044755317179
 30
0.0
 10
40.33750000000001
 20
3.735293189998882
 30
0.0
1001
PE_URL
1000

  0
SPLINE
  5
BF
330
1F
100
AcDbEntity
  8
0
  6
Continuous
 62
     1
370
    15
100
AcDbSpline
210
0.0
220
0.0
230
1.0
 70
    24
 71
     3
 72
     8
 73
     4
 74
     0
 42
0.000000001
 43
0.00000001
 40
0.0
 40
0.0
 40
0.0
 40
0.0
 40
1.0
 40
1.0
 40
1.0
 40
1.0
 10
40.33750000000001
 20
2.326095150670325
 30
0.0
 10
40.33750000000001
 20
2.844328698008595
 30
0.0
 10
40.33750000000002
 20
3.323694336874994
 30
0.0
 10
40.33750000000002
 20
3.735293189998728
 30
0.0
1001
PE_URL
1000

  0
SPLINE
  5
C0
330
1F
100
AcDbEntity
  8
0
  6
Continuous
 62
     1
370
    15
100
AcDbSpline
210
0.0
220
0.0
230
1.0
 70
     8
 71
     3
 72
    14
 73
    10
 74
     0
 42
0.000000001
 43
0.00000001
 40
0.0
 40
0.0
 40
0.0
 40
0.0
 40
0.0831612586240733
 40
0.243621117136955
 40
0.3949031627317611
 40
0.5461787873429643
 40
0.6974512762005
 40
0.8487239176789961
 40
1.0
 40
1.0
 40
1.0
 40
1.0
 10
28.53487348291714
 20
-5.940132057029873
 30
0.0
 10
28.07650415365527
 20
-6.017439971224907
 30
0.0
 10
26.73371004611432
 20
-6.243913701076203
 30
0.0
 10
24.55703917985564
 20
-6.369510372817254
 30
0.0
 10
22.00510984439813
 20
-6.335890272423484
 30
0.0
 10
19.50379039149666
 20
-6.084163156315157
 30
0.0
 10
17.00254025934805
 20
-5.631662785337285
 30
0.0
 10
14.50128542653822
 20
-5.002372681331475
 30
0.0
 10
12.83376813032307
 20
-4.448267984453906
 30
0.0
 10
12.0
 20
-4.171212485139172
 30
0.0
1001
PE_URL
1000

  0
SPLINE
  5
C1
330
1F
100
AcDbEntity
  8
외형선
  6
Continuous
370
    15
100
AcDbSpline
210
0.0
220
0.0
230
1.0
 70
    24
 71
     3
 72
    14
 73
    10
 74
     0
 42
0.000000001
 43
0.00000001
 40
0.0
 40
0.0
 40
0.0
 40
0.0
 40
0.25
 40
0.25
 40
0.5
 40
0.5
 40
0.75
 40
0.75
 40
1.0
 40
1.0
 40
1.0
 40
1.0
 10
12.0
 20
4.189366811097348
 30
0.0
 10
12.0
 20
3.625205325294495
 30
0.0
 10
12.0
 20
2.991485487838134
 30
0.0
 10
12.0
 20
1.627960375546327
 30
0.0
 10
12.0
 20
0.898631119650782
 30
0.0
 10
12.0
 20
-0.5872848660725185
 30
0.0
 10
12.0
 20
-1.343079837739578
 30
0.0
 10
12.0
 20
-2.807447878364647
 30
0.0
 10
12.0
 20
-3.515403289048679
 30
0.0
 10
12.0
 20
-4.171212485139173
 30
0.0
  0
SPLINE
  5
C2
330
1F
100
AcDbEntity
  8
외형선
  6
Continuous
370
    15
100
AcDbSpline
210
0.0
220
0.0
230
1.0
 70
    24
 71
     3
 72
    14
 73
    10
 74
     0
 42
0.000000001
 43
0.00000001
 40
0.0
 40
0.0
 40
0.0
 40
0.0
 40
0.152720611185259
 40
0.3054412223705178
 40
0.528797180333187
 40
0.6438186572565883
 40
0.7588401341799896
 40
0.9605380237582963
 40
1.0
 40
1.0
 40
1.0
 40
1.0
 10
12.0
 20
-4.171212485139172
 30
0.0
 10
12.0
 20
-4.385636131479945
 30
0.0
 10
12.0
 20
-4.814483424161491
 30
0.0
 10
11.99999999999999
 20
-5.426463090476204
 30
0.0
 10
11.99999999999999
 20
-5.870683808560345
 30
0.0
 10
11.99999999999999
 20
-6.164242213956471
 30
0.0
 10
11.99999999999999
 20
-6.358054294229235
 30
0.0
 10
12.0
 20
-6.46772216374926
 30
0.0
 10
11.99999999999999
 20
-6.434057169096287
 30
0.0
 10
11.99999999999999
 20
-6.428548428184295
 30
0.0
  0
LINE
  5
C3
330
1F
100
AcDbEntity
  8
0
  6
Continuous
 62
     1
370
    15
100
AcDbLine
 10
45.33750000000001
 20
0.0000000000000013
 30
0.0
 11
45.33750000000001
 21
5.556249999999997
 31
0.0
1001
PE_URL
1000

  0
SPLINE
  5
C4
330
1F
100
AcDbEntity
  8
0
  6
Continuous
 62
     1
370
    15
100
AcDbSpline
210
0.0
220
0.0
230
1.0
 70
     8
 71
     3
 72
    13
 73
     9
 74
     0
 42
0.000000001
 43
0.00000001
 40
0.0
 40
0.0
 40
0.0
 40
0.0
 40
0.039485415962786
 40
0.2317255885612367
 40
0.4238139622210456
 40
0.6157999841502628
 40
0.8078174819945447
 40
1.0
 40
1.0
 40
1.0
 40
1.0
 10
34.42792484993465
 20
5.320070180496781
 30
0.0
 10
34.57150826372832
 20
5.384521973717709
 30
0.0
 10
35.41414725480107
 20
5.762766177400962
 30
0.0
 10
36.95581748191888
 20
6.33264257076754
 30
0.0
 10
39.05146883686938
 20
7.001274648061126
 30
0.0
 10
41.14616303868966
 20
7.493492939914742
 30
0.0
 10
43.2412050289439
 20
7.827924849844784
 30
0.0
 10
44.63853495099844
 20
7.896492696869622
 30
0.0
 10
45.33749999999999
 20
7.930791345885292
 30
0.0
1001
PE_URL
1000

  0
SPLINE
  5
C5
330
1F
100
AcDbEntity
  8
0
  6
Continuous
 62
     1
370
    15
100
AcDbSpline
210
0.0
220
0.0
230
1.0
 70
    24
 71
     3
 72
    10
 73
     6
 74
     0
 42
0.000000001
 43
0.00000001
 40
0.0
 40
0.0
 40
0.0
 40
0.0
 40
0.5
 40
0.5
 40
1.0
 40
1.0
 40
1.0
 40
1.0
 10
45.33750000000001
 20
5.556249999999996
 30
0.0
 10
45.33750000000001
 20
5.893056038408049
 30
0.0
 10
45.33750000000001
 20
6.284455846632739
 30
0.0
 10
45.33749999999999
 20
7.105611590126785
 30
0.0
 10
45.33749999999999
 20
7.533270396674181
 30
0.0
 10
45.33749999999999
 20
7.930791345885292
 30
0.0
1001
PE_URL
1000

  0
SPLINE
  5
C6
330
1F
100
AcDbEntity
  8
0
  6
Continuous
 62
     1
370
    15
100
AcDbSpline
210
0.0
220
0.0
230
1.0
 70
     8
 71
     3
 72
     9
 73
     5
 74
     0
 42
0.000000001
 43
0.00000001
 40
0.0
 40
0.0
 40
0.0
 40
0.0
 40
0.4323910325177319
 40
1.0
 40
1.0
 40
1.0
 40
1.0
 10
15.68957981722357
 20
-6.236591328199165
 30
0.0
 10
15.15778021045182
 20
-6.424555919321417
 30
0.0
 10
13.92787587206817
 20
-6.859265654229119
 30
0.0
 10
12.69805650253049
 20
-7.155734344358151
 30
0.0
 10
11.99999999999752
 20
-7.324012631453109
 30
0.0
1001
PE_URL
1000

  0
SPLINE
  5
C7
330
1F
100
AcDbEntity
  8
외형선
  6
Continuous
370
    15
100
AcDbSpline
210
0.0
220
0.0
230
1.0
 70
    24
 71
     3
 72
    12
 73
     8
 74
     0
 42
0.000000001
 43
0.00000001
 40
0.0
 40
0.0
 40
0.0
 40
0.0
 40
0.1507779048362684
 40
0.3808403659354424
 40
0.6106350219769504
 40
0.8406974830761241
 40
0.9999999999999999
 40
0.9999999999999999
 40
0.9999999999999999
 40
0.9999999999999999
 10
12.0
 20
-6.444458990414983
 30
0.0
 10
12.0
 20
-6.491488629208358
 30
0.0
 10
11.99999999999999
 20
-6.610277816969856
 30
0.0
 10
12.0
 20
-6.794238930993626
 30
0.0
 10
11.99999999999999
 20
-6.996788996758212
 30
0.0
 10
11.99999999999999
 20
-7.173100179932102
 30
0.0
 10
12.0
 20
-7.280196051123502
 30
0.0
 10
12.0
 20
-7.324012631442482
 30
0.0
  0
LINE
  5
C8
330
1F
100
AcDbEntity
  8
중심선
 62
     1
100
AcDbLine
 10
-48.97500000000002
 20
-0.0000000000000046
 30
0.0
 11
52.33750000000001
 21
0.0000000000000027
 31
0.0
  0
LINE
  5
C9
330
1F
100
AcDbEntity
  8
참조1
100
AcDbLine
 10
1.681249999999996
 20
-0.0000000000000077
 30
0.0
 11
1.68125
 21
-40.00000000000001
 31
0.0
  0
LINE
  5
CA
330
1F
100
AcDbEntity
  8
참조1
100
AcDbLine
 10
1.68125
 20
-40.00000000000001
 30
0.0
 11
-23.00006253529964
 21
-40.0
 31
0.0
  0
CIRCLE
  5
CB
330
1F
100
AcDbEntity
  8
해칭선
100
AcDbCircle
 10
0.0
 20
0.0
 30
0.0
 40
2.999999999999993
  0
INSERT
  5
CC
330
1F
100
AcDbEntity
  8
0
  6
Continuous
 62
     7
100
AcDbBlockReference
 66
     1
  2
블럭10
 10
-12.25902293212521
 20
-52.04717430164393
 30
0.0
  0
ATTRIB
  5
CD
330
CC
100
AcDbEntity
  8
FORMAT
 62
     2
100
AcDbText
 10
-21.44031822086649
 20
-49.97180738881174
 30
0.0
 40
4.233333333333333
  1
E2030040 [ 2 FLUTE ]
 41
0.75
  7
SLDTEXTSTYLE0
 11
-21.44031822086649
 21
-52.08847405547841
 31
0.0
100
AcDbAttribute
  2
AUTOATTR0
 70
     0
 74
     1
  0
SEQEND
  5
CE
330
CC
100
AcDbEntity
  8
0
  6
Continuous
 62
     7
  0
HATCH
  5
CF
330
1F
100
AcDbEntity
  8
중심선
100
AcDbHatch
 10
0.0
 20
0.0
 30
0.0
210
0.0
220
0.0
230
1.0
  2
SOLID
 70
     1
 71
     0
 91
        1
 92
        0
 93
        4
 72
     1
 10
-6.544113627744361
 20
-35.8
 11
-9.990388871581644
 21
-35.8
 72
     1
 10
-9.990388871581642
 20
-35.8
 11
-12.11861873078567
 21
-38.3363255805726
 72
     1
 10
-12.11861873078566
 20
-38.3363255805726
 11
-8.672310401835205
 21
-38.33628615127011
 72
     1
 10
-8.672310401835206
 20
-38.33628615127011
 11
-6.544113627744361
 21
-35.8
 97
        0
 75
     0
 76
     1
 98
        1
 10
-2.849261314031168
 20
-0.0010749287238969
  0
HATCH
  5
D0
330
1F
100
AcDbEntity
  8
중심선
100
AcDbHatch
 10
0.0
 20
0.0
 30
0.0
210
0.0
220
0.0
230
1.0
  2
SOLID
 70
     1
 71
     0
 91
        1
 92
        0
 93
        4
 72
     1
 10
-1.531349636708381
 20
-35.8
 11
-4.977624880545663
 21
-35.8
 72
     1
 10
-4.977624880545664
 20
-35.8
 11
-9.50876288890308
 21
-41.20000000000002
 72
     1
 10
-9.50876288890308
 20
-41.20000000000002
 11
-6.062487645065797
 21
-41.20000000000002
 72
     1
 10
-6.062487645065797
 20
-41.20000000000002
 11
-1.531349636708383
 21
-35.8
 97
        0
 75
     0
 76
     1
 98
        1
 10
-2.849261314031168
 20
-0.0010749287238969
  0
HATCH
  5
D1
330
1F
100
AcDbEntity
  8
중심선
100
AcDbHatch
 10
0.0
 20
0.0
 30
0.0
210
0.0
220
0.0
230
1.0
  2
SOLID
 70
     1
 71
     0
 91
        1
 92
        0
 93
        4
 72
     1
 10
3.481414354327542
 20
-35.8
 11
0.0351391104903982
 21
-35.8
 72
     1
 10
0.0351391104903982
 20
-35.8
 11
-7.013297791398879
 21
-44.20000000000002
 72
     1
 10
-7.013297791398879
 20
-44.20000000000002
 11
-3.567022547561596
 21
-44.20000000000002
 72
     1
 10
-3.567022547561596
 20
-44.20000000000002
 11
3.481414354327542
 21
-35.8
 97
        0
 75
     0
 76
     1
 98
        1
 10
-2.849261314031168
 20
-0.0010749287238969
  0
HATCH
  5
D2
330
1F
100
AcDbEntity
  8
중심선
100
AcDbHatch
 10
0.0
 20
0.0
 30
0.0
210
0.0
220
0.0
230
1.0
  2
SOLID
 70
     1
 71
     0
 91
        1
 92
        0
 93
        6
 72
     3
 10
8.281304785339685
 20
-40.00000000005127
 11
3.960054785062283
 21
1.540882976769353E-10
 40
0.3939339440162628
 50
17.09539180608439
 51
320.0019657685081
 73
     0
 72
     1
 10
9.964304441040282
 20
-38.5878940046383
 11
12.26960631474132
 21
-36.65356729459035
 72
     3
 10
8.281304785286839
 20
-40.00000000000015
 11
6.600054785286829
 21
-1.278976924368180E-13
 40
0.636358354079598
 50
39.9987384933743
 51
368.4976242363725
 73
     1
 72
     1
 10
14.70663727718745
 20
-39.03999999993002
 11
6.961372092122762
 21
-39.03999999993002
 72
     1
 10
6.961372092122762
 20
-39.03999999993002
 11
6.961347047676828
 21
-40.95999999992991
 72
     1
 10
6.961347047676828
 20
-40.95999999992991
 11
11.40272681714887
 21
-40.95999999992988
 97
        0
 75
     0
 76
     1
 98
        1
 10
-2.849261314031168
 20
-0.0010749287238969
  0
DIMENSION
  5
D3
330
1F
100
AcDbEntity
  8
치수문자_일반주서
100
AcDbDimension
  2
_D
 10
-56.97499999999994
 20
-7.937500000000075
 30
0.0
 11
-56.97500000000006
 21
25.23949999999992
 31
0.0
 70
   160
  1
%%c<>
 71
     2
 42
15.875
 52
-270.0
  3
SLDDIMSTYLE1
100
AcDbAlignedDimension
 13
-40.97499999999999
 23
7.937499999999982
 33
0.0
 14
-40.97499999999999
 24
-7.937500000000018
 34
0.0
 50
90.0000000000002
100
AcDbRotatedDimension
1001
PE_URL
1000

1001
ACAD
1000
DSTYLE
1002
{
1070
   171
1070
     8
1070
   273
1070
     7
1002
}
  0
DIMENSION
  5
E8
330
1F
100
AcDbEntity
  8
치수문자_일반주서
100
AcDbDimension
  2
_D_1
 10
12.0
 20
22.93749999999998
 30
0.0
 11
64.827
 21
22.93749999999998
 31
0.0
 70
   160
  1
<>
 71
     2
 42
33.33749999999999
  3
SLDDIMSTYLE1
100
AcDbAlignedDimension
 13
45.33749999999999
 23
7.930791345885292
 33
0.0
 14
12.0
 24
7.324012631442477
 34
0.0
 50
0.0000000000000061
100
AcDbRotatedDimension
1001
PE_URL
1000

1001
ACAD
1000
DSTYLE
1002
{
1070
   171
1070
     8
1070
   273
1070
     7
1002
}
  0
DIMENSION
  5
FD
330
1F
100
AcDbEntity
  8
치수문자_일반주서
100
AcDbDimension
  2
_D_2
 10
-41.97500000000001
 20
37.93749999999999
 30
0.0
 11
1.68124999999999
 21
37.93749999999999
 31
0.0
 70
   160
  1
<>
 71
     2
 42
87.3125
  3
SLDDIMSTYLE1
100
AcDbAlignedDimension
 13
45.33749999999999
 23
7.930791345885292
 33
0.0
 14
-41.97500000000001
 24
6.93749999999999
 34
0.0
 50
0.0000000000000093
100
AcDbRotatedDimension
1001
PE_URL
1000

1001
ACAD
1000
DSTYLE
1002
{
1070
   171
1070
     8
1070
   273
1070
     7
1002
}
  0
DIMENSION
  5
110
330
1F
100
AcDbEntity
  8
치수문자_일반주서
100
AcDbDimension
  2
_D_3
 10
89.08327479248842
 20
7.930791345885456
 30
0.0
 11
89.08327479248837
 21
25.23279134588546
 31
0.0
 70
   160
  1
%%c<>
 71
     2
 42
15.86158269177059
 52
-270.0
  3
SLDDIMSTYLE1
100
AcDbAlignedDimension
 13
45.33749999999999
 23
-7.930791345885296
 33
0.0
 14
45.33749999999999
 24
7.930791345885292
 34
0.0
 50
90.0000000000002
100
AcDbRotatedDimension
1001
PE_URL
1000

1001
ACAD
1000
DSTYLE
1002
{
1070
   171
1070
     8
1070
   273
1070
     7
1002
}
1001
ACAD_DSTYLE_DIMFLIPARROW_SYMBOL
1070
   385
1070
     0
1001
ACAD_DSTYLE_DIMFLIPARROW_WHICH_SYMBOL
1070
   386
1070
     3
  0
LINE
  5
123
330
1F
100
AcDbEntity
  8
참조1
100
AcDbLine
 10
74.97227809435462
 20
7.439999999999999
 30
0.0
 11
74.97227809435462
 21
-7.440000000000006
 31
0.0
  0
LINE
  5
124
330
1F
100
AcDbEntity
  8
참조1
100
AcDbLine
 10
87.67227809435462
 20
5.439999999999999
 30
0.0
 11
74.97227809435462
 21
5.439999999999999
 31
0.0
  0
SOLID
  5
125
330
1F
100
AcDbEntity
  8
참조1
100
AcDbTrace
 10
74.97227809435462
 20
5.439999999999999
 30
0.0
 11
81.32227809435462
 21
4.423999999999999
 31
0.0
 12
81.32227809435462
 22
6.455999999999999
 32
0.0
 13
81.32227809435462
 23
6.455999999999999
 33
0.0
  0
LINE
  5
126
330
1F
100
AcDbEntity
  8
참조1
100
AcDbLine
 10
87.67227809435462
 20
-5.440000000000006
 30
0.0
 11
74.97227809435462
 21
-5.440000000000006
 31
0.0
  0
SOLID
  5
127
330
1F
100
AcDbEntity
  8
참조1
100
AcDbTrace
 10
74.97227809435462
 20
-5.440000000000006
 30
0.0
 11
81.32227809435462
 21
-6.456000000000006
 31
0.0
 12
81.32227809435462
 22
-4.424000000000006
 32
0.0
 13
81.32227809435462
 23
-4.424000000000006
 33
0.0
  0
MTEXT
  5
128
330
1F
100
AcDbEntity
  8
참조1
100
AcDbMText
 10
84.35662822698062
 20
11.01029177718832
 30
0.0
 40
3.5
 41
0.0
 71
     1
 72
     1
  1
A
  7
SLDTEXTSTYLE0
 73
     1
 44
1.0
  0
MTEXT
  5
129
330
1F
100
AcDbEntity
  8
참조1
100
AcDbMText
 10
84.35662822698062
 20
0.1302917771883223
 30
0.0
 40
3.5
 41
0.0
 71
     1
 72
     1
  1
A
  7
SLDTEXTSTYLE0
 73
     1
 44
1.0
  0
INSERT
  5
130
330
1F
100
AcDbEntity
  8
해칭선
100
AcDbBlockReference
  2
SW_DOWELSYMBOL_0
 10
0.0
 20
0.0
 30
0.0
  0
LINE
  5
20C
330
1F
100
AcDbEntity
  8
외형선
  6
Continuous
370
    15
100
AcDbLine
 10
-22.85832500000002
 20
6.286499999999954
 30
0.0
 11
-12.67292500000001
 21
6.286499999999954
 31
0.0
1001
PE_URL
1000

  0
LINE
  5
20D
330
1F
100
AcDbEntity
  8
외형선
  6
Continuous
370
    15
100
AcDbLine
 10
-22.85832500000002
 20
6.286500000000053
 30
0.0
 11
-24.50932499999998
 21
7.937499999999964
 31
0.0
1001
PE_URL
1000

  0
LINE
  5
20E
330
1F
100
AcDbEntity
  8
외형선
  6
Continuous
370
    15
100
AcDbLine
 10
-12.67292500000012
 20
6.286500000000053
 30
0.0
 11
-11.02192500000011
 21
7.937499999999964
 31
0.0
1001
PE_URL
1000

  0
LINE
  5
20F
330
1F
100
AcDbEntity
  8
외형선
  6
Continuous
370
    15
100
AcDbLine
 10
-24.509325
 20
7.937499999999994
 30
0.0
 11
-40.97499999999999
 21
7.937499999999993
 31
0.0
  0
ENDSEC
  0
SECTION
  2
OBJECTS
  0
DICTIONARY
  5
C
330
0
100
AcDbDictionary
281
     1
  3
ACAD_DETAILVIEWSTYLE
350
1B7
  3
ACAD_GROUP
350
D
  3
ACAD_IMAGE_VARS
350
233
  3
ACAD_LAYOUT
350
1A
  3
ACAD_MLINESTYLE
350
17
  3
ACAD_PLOTSETTINGS
350
19
  3
ACAD_PLOTSTYLENAME
350
E
  3
ACAD_SCALELIST
350
47
  3
ACAD_SECTIONVIEWSTYLE
350
1B8
  3
AcDbVariableDictionary
350
1B2
  3
APPDATA
350
152
  3
DWGPROPS
350
234
  0
DICTIONARY
  5
18B
330
2
100
AcDbDictionary
280
     1
281
     1
  3
ACAD_LAYERSTATES
360
18C
  0
DICTIONARY
  5
1B7
102
{ACAD_REACTORS
330
C
102
}
330
C
100
AcDbDictionary
281
     1
  0
DICTIONARY
  5
D
102
{ACAD_REACTORS
330
C
102
}
330
C
100
AcDbDictionary
281
     1
  0
RASTERVARIABLES
  5
233
102
{ACAD_REACTORS
330
C
102
}
330
C
100
AcDbRasterVariables
 90
        0
 70
     1
 71
     1
 72
     1
  0
DICTIONARY
  5
1A
102
{ACAD_REACTORS
330
C
102
}
330
C
100
AcDbDictionary
281
     1
  3
Layout1
350
1E
  3
Layout2
350
26
  3
Model
350
22
  0
DICTIONARY
  5
17
102
{ACAD_REACTORS
330
C
102
}
330
C
100
AcDbDictionary
281
     1
  3
Standard
350
18
  0
DICTIONARY
  5
19
102
{ACAD_REACTORS
330
C
102
}
330
C
100
AcDbDictionary
281
     1
  0
ACDBDICTIONARYWDFLT
  5
E
102
{ACAD_REACTORS
330
C
102
}
330
C
100
AcDbDictionary
281
     1
  3
Normal
350
F
100
AcDbDictionaryWithDefault
340
F
  0
DICTIONARY
  5
47
102
{ACAD_REACTORS
330
C
102
}
330
C
100
AcDbDictionary
281
     1
  3
A0
350
48
  3
A1
350
49
  3
A2
350
4A
  3
A3
350
4B
  3
A4
350
4C
  3
A5
350
4D
  3
A6
350
4E
  3
A7
350
4F
  3
A8
350
50
  3
A9
350
51
  3
B0
350
52
  3
B1
350
53
  3
B2
350
54
  3
B3
350
55
  3
B4
350
56
  3
B5
350
57
  3
B6
350
58
  3
B7
350
59
  3
B8
350
5A
  3
B9
350
5B
  3
C0
350
5C
  3
C1
350
5D
  3
C2
350
5E
  3
C3
350
5F
  3
C4
350
60
  3
C5
350
61
  3
C6
350
62
  3
C7
350
63
  3
C8
350
64
  3
C9
350
65
  3
D0
350
66
  3
D1
350
67
  3
D2
350
68
  0
DICTIONARY
  5
1B8
102
{ACAD_REACTORS
330
C
102
}
330
C
100
AcDbDictionary
281
     1
  0
DICTIONARY
  5
1B2
102
{ACAD_REACTORS
330
C
102
}
330
C
100
AcDbDictionary
281
     1
  0
DICTIONARY
  5
152
102
{ACAD_REACTORS
330
C
102
}
330
C
100
AcDbDictionary
281
     1
  0
XRECORD
  5
234
102
{ACAD_REACTORS
330
C
102
}
330
C
100
AcDbXrecord
280
     1
  1
DWGPROPS COOKIE
  2

  3

  4

  6

  7

  8
12016016
  9

300
=
301
=
302
=
303
=
304
=
305
=
306
=
307
=
308
=
309
=
 40
0.0
 41
2458311.083813785
 42
2458323.076973229
  1

 90
        0
  0
DICTIONARY
  5
18C
102
{ACAD_REACTORS
330
18B
102
}
330
18B
100
AcDbDictionary
281
     1
  0
LAYOUT
  5
1E
102
{ACAD_REACTORS
330
1A
102
}
330
1A
100
AcDbPlotSettings
  1

  2
none_device
  4

  6

 40
0.0
 41
0.0
 42
0.0
 43
0.0
 44
0.0
 45
0.0
 46
0.0
 47
0.0
 48
0.0
 49
0.0
140
0.0
141
0.0
142
1.0
143
1.0
 70
   688
 72
     1
 73
     0
 74
     5
  7

 75
    16
147
1.0
148
0.0
149
0.0
100
AcDbLayout
  1
Layout1
 70
     1
 71
     1
 10
0.0
 20
0.0
 11
420.0
 21
297.0
 12
0.0
 22
0.0
 32
0.0
 14
1.000000000000000E+20
 24
1.000000000000000E+20
 34
1.000000000000000E+20
 15
-1.000000000000000E+20
 25
-1.000000000000000E+20
 35
-1.000000000000000E+20
146
0.0
 13
0.0
 23
0.0
 33
0.0
 16
1.0
 26
0.0
 36
0.0
 17
0.0
 27
1.0
 37
0.0
 76
     0
330
1B
  0
LAYOUT
  5
26
102
{ACAD_REACTORS
330
1A
102
}
330
1A
100
AcDbPlotSettings
  1

  2
none_device
  4

  6

 40
0.0
 41
0.0
 42
0.0
 43
0.0
 44
0.0
 45
0.0
 46
0.0
 47
0.0
 48
0.0
 49
0.0
140
0.0
141
0.0
142
1.0
143
1.0
 70
   688
 72
     1
 73
     0
 74
     5
  7

 75
    16
147
1.0
148
0.0
149
0.0
100
AcDbLayout
  1
Layout2
 70
     1
 71
     2
 10
0.0
 20
0.0
 11
0.0
 21
0.0
 12
0.0
 22
0.0
 32
0.0
 14
0.0
 24
0.0
 34
0.0
 15
0.0
 25
0.0
 35
0.0
146
0.0
 13
0.0
 23
0.0
 33
0.0
 16
1.0
 26
0.0
 36
0.0
 17
0.0
 27
1.0
 37
0.0
 76
     0
330
23
  0
LAYOUT
  5
22
102
{ACAD_REACTORS
330
1A
102
}
330
1A
100
AcDbPlotSettings
  1

  2
none_device
  4
ANSI_A_(11.00_x_8.50_Inches)
  6

 40
6.35
 41
19.05
 42
6.35000508
 43
19.05000254
 44
279.4
 45
215.9
 46
110.2559363589861
 47
63.5402635944213
 48
0.0
 49
0.0
140
0.0
141
0.0
142
0.063277222282902
143
1.0
 70
  1696
 72
     0
 73
     0
 74
     0
  7

 75
     0
147
0.0235690232323232
148
0.0
149
0.0
100
AcDbLayout
  1
Model
 70
     1
 71
     0
 10
0.0
 20
0.0
 11
420.0
 21
297.0
 12
0.0
 22
0.0
 32
0.0
 14
-61.35000000000011
 24
-49.97180738881175
 34
0.0
 15
89.63360812582184
 25
42.31249999999999
 35
0.0
146
0.0
 13
0.0
 23
0.0
 33
0.0
 16
1.0
 26
0.0
 36
0.0
 17
0.0
 27
1.0
 37
0.0
 76
     0
330
1F
331
29
  0
MLINESTYLE
  5
18
102
{ACAD_REACTORS
330
17
102
}
330
17
100
AcDbMlineStyle
  2
Standard
 70
     0
  3

 62
   256
 51
90.0
 52
90.0
 71
     2
 49
0.5
 62
   256
  6
BYLAYER
 49
-0.5
 62
   256
  6
BYLAYER
  0
ACDBPLACEHOLDER
  5
F
102
{ACAD_REACTORS
330
E
102
}
330
E
  0
SCALE
  5
48
102
{ACAD_REACTORS
330
47
102
}
330
47
100
AcDbScale
 70
     0
300
1:1
140
1.0
141
1.0
290
     1
  0
SCALE
  5
49
102
{ACAD_REACTORS
330
47
102
}
330
47
100
AcDbScale
 70
     0
300
1:2
140
1.0
141
2.0
290
     0
  0
SCALE
  5
4A
102
{ACAD_REACTORS
330
47
102
}
330
47
100
AcDbScale
 70
     0
300
1:4
140
1.0
141
4.0
290
     0
  0
SCALE
  5
4B
102
{ACAD_REACTORS
330
47
102
}
330
47
100
AcDbScale
 70
     0
300
1:5
140
1.0
141
5.0
290
     0
  0
SCALE
  5
4C
102
{ACAD_REACTORS
330
47
102
}
330
47
100
AcDbScale
 70
     0
300
1:8
140
1.0
141
8.0
290
     0
  0
SCALE
  5
4D
102
{ACAD_REACTORS
330
47
102
}
330
47
100
AcDbScale
 70
     0
300
1:10
140
1.0
141
10.0
290
     0
  0
SCALE
  5
4E
102
{ACAD_REACTORS
330
47
102
}
330
47
100
AcDbScale
 70
     0
300
1:16
140
1.0
141
16.0
290
     0
  0
SCALE
  5
4F
102
{ACAD_REACTORS
330
47
102
}
330
47
100
AcDbScale
 70
     0
300
1:20
140
1.0
141
20.0
290
     0
  0
SCALE
  5
50
102
{ACAD_REACTORS
330
47
102
}
330
47
100
AcDbScale
 70
     0
300
1:30
140
1.0
141
30.0
290
     0
  0
SCALE
  5
51
102
{ACAD_REACTORS
330
47
102
}
330
47
100
AcDbScale
 70
     0
300
1:40
140
1.0
141
40.0
290
     0
  0
SCALE
  5
52
102
{ACAD_REACTORS
330
47
102
}
330
47
100
AcDbScale
 70
     0
300
1:50
140
1.0
141
50.0
290
     0
  0
SCALE
  5
53
102
{ACAD_REACTORS
330
47
102
}
330
47
100
AcDbScale
 70
     0
300
1:100
140
1.0
141
100.0
290
     0
  0
SCALE
  5
54
102
{ACAD_REACTORS
330
47
102
}
330
47
100
AcDbScale
 70
     0
300
2:1
140
2.0
141
1.0
290
     0
  0
SCALE
  5
55
102
{ACAD_REACTORS
330
47
102
}
330
47
100
AcDbScale
 70
     0
300
4:1
140
4.0
141
1.0
290
     0
  0
SCALE
  5
56
102
{ACAD_REACTORS
330
47
102
}
330
47
100
AcDbScale
 70
     0
300
8:1
140
8.0
141
1.0
290
     0
  0
SCALE
  5
57
102
{ACAD_REACTORS
330
47
102
}
330
47
100
AcDbScale
 70
     0
300
10:1
140
10.0
141
1.0
290
     0
  0
SCALE
  5
58
102
{ACAD_REACTORS
330
47
102
}
330
47
100
AcDbScale
 70
     0
300
100:1
140
100.0
141
1.0
290
     0
  0
SCALE
  5
59
102
{ACAD_REACTORS
330
47
102
}
330
47
100
AcDbScale
 70
     0
300
1/128" = 1'-0"
140
0.0078125
141
12.0
290
     0
  0
SCALE
  5
5A
102
{ACAD_REACTORS
330
47
102
}
330
47
100
AcDbScale
 70
     0
300
1/64" = 1'-0"
140
0.015625
141
12.0
290
     0
  0
SCALE
  5
5B
102
{ACAD_REACTORS
330
47
102
}
330
47
100
AcDbScale
 70
     0
300
1/32" = 1'-0"
140
0.03125
141
12.0
290
     0
  0
SCALE
  5
5C
102
{ACAD_REACTORS
330
47
102
}
330
47
100
AcDbScale
 70
     0
300
1/16" = 1'-0"
140
0.0625
141
12.0
290
     0
  0
SCALE
  5
5D
102
{ACAD_REACTORS
330
47
102
}
330
47
100
AcDbScale
 70
     0
300
3/32" = 1'-0"
140
0.09375
141
12.0
290
     0
  0
SCALE
  5
5E
102
{ACAD_REACTORS
330
47
102
}
330
47
100
AcDbScale
 70
     0
300
1/8" = 1'-0"
140
0.125
141
12.0
290
     0
  0
SCALE
  5
5F
102
{ACAD_REACTORS
330
47
102
}
330
47
100
AcDbScale
 70
     0
300
3/16" = 1'-0"
140
0.1875
141
12.0
290
     0
  0
SCALE
  5
60
102
{ACAD_REACTORS
330
47
102
}
330
47
100
AcDbScale
 70
     0
300
1/4" = 1'-0"
140
0.25
141
12.0
290
     0
  0
SCALE
  5
61
102
{ACAD_REACTORS
330
47
102
}
330
47
100
AcDbScale
 70
     0
300
3/8" = 1'-0"
140
0.375
141
12.0
290
     0
  0
SCALE
  5
62
102
{ACAD_REACTORS
330
47
102
}
330
47
100
AcDbScale
 70
     0
300
1/2" = 1'-0"
140
0.5
141
12.0
290
     0
  0
SCALE
  5
63
102
{ACAD_REACTORS
330
47
102
}
330
47
100
AcDbScale
 70
     0
300
3/4" = 1'-0"
140
0.75
141
12.0
290
     0
  0
SCALE
  5
64
102
{ACAD_REACTORS
330
47
102
}
330
47
100
AcDbScale
 70
     0
300
1" = 1'-0"
140
1.0
141
12.0
290
     0
  0
SCALE
  5
65
102
{ACAD_REACTORS
330
47
102
}
330
47
100
AcDbScale
 70
     0
300
1-1/2" = 1'-0"
140
1.5
141
12.0
290
     0
  0
SCALE
  5
66
102
{ACAD_REACTORS
330
47
102
}
330
47
100
AcDbScale
 70
     0
300
3" = 1'-0"
140
3.0
141
12.0
290
     0
  0
SCALE
  5
67
102
{ACAD_REACTORS
330
47
102
}
330
47
100
AcDbScale
 70
     0
300
6" = 1'-0"
140
6.0
141
12.0
290
     0
  0
SCALE
  5
68
102
{ACAD_REACTORS
330
47
102
}
330
47
100
AcDbScale
 70
     0
300
1'-0" = 1'-0"
140
12.0
141
12.0
290
     0
  0
ENDSEC
  0
EOF
