  0
SECTION
  2
HEADER
  9
$ACADVER
  1
AC1015
  9
$ACADMAINTVER
 70
     6
  9
$DWGCODEPAGE
  3
ANSI_949
  9
$INSBASE
 10
0.0
 20
0.0
 30
0.0
  9
$EXTMIN
 10
-71.85000000000014
 20
-49.97180738881174
 30
0.0
  9
$EXTMAX
 10
86.40100881534559
 20
50.56002874965107
 30
0.0
  9
$LIMMIN
 10
0.0
 20
0.0
  9
$LIMMAX
 10
420.0
 20
297.0
  9
$ORTHOMODE
 70
     1
  9
$REGENMODE
 70
     1
  9
$FILLMODE
 70
     1
  9
$QTEXTMODE
 70
     0
  9
$MIRRTEXT
 70
     1
  9
$LTSCALE
 40
1.0
  9
$ATTMODE
 70
     1
  9
$TEXTSIZE
 40
3.5
  9
$TRACEWID
 40
1.0
  9
$TEXTSTYLE
  7
Standard
  9
$CLAYER
  8
0
  9
$CELTYPE
  6
ByLayer
  9
$CECOLOR
 62
   256
  9
$CELTSCALE
 40
1.0
  9
$DISPSILH
 70
     0
  9
$DIMSCALE
 40
1.0
  9
$DIMASZ
 40
3.302
  9
$DIMEXO
 40
1.0
  9
$DIMDLI
 40
3.75
  9
$DIMRND
 40
0.0
  9
$DIMDLE
 40
0.0
  9
$DIMEXE
 40
1.0
  9
$DIMTP
 40
0.0
  9
$DIMTM
 40
0.0
  9
$DIMTXT
 40
3.5
  9
$DIMCEN
 40
2.5
  9
$DIMTSZ
 40
0.0
  9
$DIMTOL
 70
     0
  9
$DIMLIM
 70
     0
  9
$DIMTIH
 70
     1
  9
$DIMTOH
 70
     1
  9
$DIMSE1
 70
     0
  9
$DIMSE2
 70
     0
  9
$DIMTAD
 70
     1
  9
$DIMZIN
 70
     0
  9
$DIMBLK
  1

  9
$DIMASO
 70
     1
  9
$DIMSHO
 70
     1
  9
$DIMPOST
  1

  9
$DIMAPOST
  1

  9
$DIMALT
 70
     0
  9
$DIMALTD
 70
     3
  9
$DIMALTF
 40
0.0393700787401575
  9
$DIMLFAC
 40
1.0
  9
$DIMTOFL
 70
     1
  9
$DIMTVP
 40
0.0
  9
$DIMTIX
 70
     0
  9
$DIMSOXD
 70
     0
  9
$DIMSAH
 70
     0
  9
$DIMBLK1
  1

  9
$DIMBLK2
  1

  9
$DIMSTYLE
  2
ISO-25
  9
$DIMCLRD
 70
     0
  9
$DIMCLRE
 70
     0
  9
$DIMCLRT
 70
     0
  9
$DIMTFAC
 40
1.0
  9
$DIMGAP
 40
1.524
  9
$DIMJUST
 70
     0
  9
$DIMSD1
 70
     0
  9
$DIMSD2
 70
     0
  9
$DIMTOLJ
 70
     0
  9
$DIMTZIN
 70
     0
  9
$DIMALTZ
 70
     0
  9
$DIMALTTZ
 70
     0
  9
$DIMUPT
 70
     0
  9
$DIMDEC
 70
     2
  9
$DIMTDEC
 70
     2
  9
$DIMALTU
 70
     2
  9
$DIMALTTD
 70
     3
  9
$DIMTXSTY
  7
Standard
  9
$DIMAUNIT
 70
     0
  9
$DIMADEC
 70
     2
  9
$DIMALTRND
 40
0.0
  9
$DIMAZIN
 70
     0
  9
$DIMDSEP
 70
    44
  9
$DIMATFIT
 70
     3
  9
$DIMFRAC
 70
     0
  9
$DIMLDRBLK
  1

  9
$DIMLUNIT
 70
     2
  9
$DIMLWD
 70
    -2
  9
$DIMLWE
 70
    -2
  9
$DIMTMOVE
 70
     0
  9
$LUNITS
 70
     2
  9
$LUPREC
 70
     2
  9
$SKETCHINC
 40
1.0
  9
$FILLETRAD
 40
10.0
  9
$AUNITS
 70
     0
  9
$AUPREC
 70
     2
  9
$MENU
  1
.
  9
$ELEVATION
 40
0.0
  9
$PELEVATION
 40
0.0
  9
$THICKNESS
 40
0.0
  9
$LIMCHECK
 70
     0
  9
$CHAMFERA
 40
0.0
  9
$CHAMFERB
 40
0.0
  9
$CHAMFERC
 40
0.0
  9
$CHAMFERD
 40
0.0
  9
$SKPOLY
 70
     0
  9
$TDCREATE
 40
2458311.562248044
  9
$TDUCREATE
 40
2458311.187248044
  9
$TDUPDATE
 40
2458323.453998565
  9
$TDUUPDATE
 40
2458323.078998565
  9
$TDINDWG
 40
0.0034155787
  9
$TDUSRTIMER
 40
2458323.078952604
  9
$USRTIMER
 70
     1
  9
$ANGBASE
 50
0.0
  9
$ANGDIR
 70
     0
  9
$PDMODE
 70
     0
  9
$PDSIZE
 40
-1.0
  9
$PLINEWID
 40
0.0
  9
$SPLFRAME
 70
     0
  9
$SPLINETYPE
 70
     6
  9
$SPLINESEGS
 70
     8
  9
$HANDSEED
  5
25C
  9
$SURFTAB1
 70
     6
  9
$SURFTAB2
 70
     6
  9
$SURFTYPE
 70
     6
  9
$SURFU
 70
     6
  9
$SURFV
 70
     6
  9
$UCSBASE
  2

  9
$UCSNAME
  2

  9
$UCSORG
 10
0.0
 20
0.0
 30
0.0
  9
$UCSXDIR
 10
1.0
 20
0.0
 30
0.0
  9
$UCSYDIR
 10
0.0
 20
1.0
 30
0.0
  9
$UCSORTHOREF
  2

  9
$UCSORTHOVIEW
 70
     0
  9
$UCSORGTOP
 10
0.0
 20
0.0
 30
0.0
  9
$UCSORGBOTTOM
 10
0.0
 20
0.0
 30
0.0
  9
$UCSORGLEFT
 10
0.0
 20
0.0
 30
0.0
  9
$UCSORGRIGHT
 10
0.0
 20
0.0
 30
0.0
  9
$UCSORGFRONT
 10
0.0
 20
0.0
 30
0.0
  9
$UCSORGBACK
 10
0.0
 20
0.0
 30
0.0
  9
$PUCSBASE
  2

  9
$PUCSNAME
  2

  9
$PUCSORG
 10
0.0
 20
0.0
 30
0.0
  9
$PUCSXDIR
 10
1.0
 20
0.0
 30
0.0
  9
$PUCSYDIR
 10
0.0
 20
1.0
 30
0.0
  9
$PUCSORTHOREF
  2

  9
$PUCSORTHOVIEW
 70
     0
  9
$PUCSORGTOP
 10
0.0
 20
0.0
 30
0.0
  9
$PUCSORGBOTTOM
 10
0.0
 20
0.0
 30
0.0
  9
$PUCSORGLEFT
 10
0.0
 20
0.0
 30
0.0
  9
$PUCSORGRIGHT
 10
0.0
 20
0.0
 30
0.0
  9
$PUCSORGFRONT
 10
0.0
 20
0.0
 30
0.0
  9
$PUCSORGBACK
 10
0.0
 20
0.0
 30
0.0
  9
$USERI1
 70
     0
  9
$USERI2
 70
     0
  9
$USERI3
 70
     0
  9
$USERI4
 70
     0
  9
$USERI5
 70
     0
  9
$USERR1
 40
0.0
  9
$USERR2
 40
0.0
  9
$USERR3
 40
0.0
  9
$USERR4
 40
0.0
  9
$USERR5
 40
0.0
  9
$WORLDVIEW
 70
     1
  9
$SHADEDGE
 70
     3
  9
$SHADEDIF
 70
    70
  9
$TILEMODE
 70
     1
  9
$MAXACTVP
 70
    64
  9
$PINSBASE
 10
0.0
 20
0.0
 30
0.0
  9
$PLIMCHECK
 70
     0
  9
$PEXTMIN
 10
1.000000000000000E+20
 20
1.000000000000000E+20
 30
1.000000000000000E+20
  9
$PEXTMAX
 10
-1.000000000000000E+20
 20
-1.000000000000000E+20
 30
-1.000000000000000E+20
  9
$PLIMMIN
 10
0.0
 20
0.0
  9
$PLIMMAX
 10
0.0
 20
0.0
  9
$UNITMODE
 70
     0
  9
$VISRETAIN
 70
     1
  9
$PLINEGEN
 70
     0
  9
$PSLTSCALE
 70
     1
  9
$TREEDEPTH
 70
  3020
  9
$CMLSTYLE
  2
Standard
  9
$CMLJUST
 70
     0
  9
$CMLSCALE
 40
20.0
  9
$PROXYGRAPHICS
 70
     1
  9
$MEASUREMENT
 70
     1
  9
$CELWEIGHT
370
    -1
  9
$ENDCAPS
280
     0
  9
$JOINSTYLE
280
     0
  9
$LWDISPLAY
290
     1
  9
$INSUNITS
 70
     4
  9
$HYPERLINKBASE
  1

  9
$STYLESHEET
  1

  9
$XEDIT
290
     1
  9
$CEPSNTYPE
380
     0
  9
$PSTYLEMODE
290
     1
  9
$FINGERPRINTGUID
  2
{26B60C52-D4B5-4297-83F9-F3A153779C0C}
  9
$VERSIONGUID
  2
{FAEB1C32-E019-11D5-929B-00C0DF256EC4}
  9
$EXTNAMES
290
     1
  9
$PSVPSCALE
 40
0.0
  9
$OLESTARTUP
290
     0
  0
ENDSEC
  0
SECTION
  2
CLASSES
  0
CLASS
  1
ACDBDICTIONARYWDFLT
  2
AcDbDictionaryWithDefault
  3
ObjectDBX Classes
 90
        0
280
     0
281
     0
  0
CLASS
  1
VISUALSTYLE
  2
AcDbVisualStyle
  3
ObjectDBX Classes
 90
     4095
280
     0
281
     0
  0
CLASS
  1
MATERIAL
  2
AcDbMaterial
  3
ObjectDBX Classes
 90
     1153
280
     0
281
     0
  0
CLASS
  1
SCALE
  2
AcDbScale
  3
ObjectDBX Classes
 90
     1153
280
     0
281
     0
  0
CLASS
  1
SUN
  2
AcDbSun
  3
SCENEOE
 90
     1153
280
     0
281
     0
  0
CLASS
  1
ACDBPLACEHOLDER
  2
AcDbPlaceHolder
  3
ObjectDBX Classes
 90
        0
280
     0
281
     0
  0
CLASS
  1
LAYOUT
  2
AcDbLayout
  3
ObjectDBX Classes
 90
        0
280
     0
281
     0
  0
CLASS
  1
TABLESTYLE
  2
AcDbTableStyle
  3
ObjectDBX Classes
 90
     4095
280
     0
281
     0
  0
CLASS
  1
MLEADERSTYLE
  2
AcDbMLeaderStyle
  3
ACDB_MLEADERSTYLE_CLASS
 90
     4095
280
     0
281
     0
  0
CLASS
  1
DICTIONARYVAR
  2
AcDbDictionaryVar
  3
ObjectDBX Classes
 90
        0
280
     0
281
     0
  0
CLASS
  1
RASTERVARIABLES
  2
AcDbRasterVariables
  3
ISM
 90
        0
280
     0
281
     0
  0
ENDSEC
  0
SECTION
  2
TABLES
  0
TABLE
  2
VPORT
  5
8
330
0
100
AcDbSymbolTable
 70
     1
  0
VPORT
  5
29
330
8
100
AcDbSymbolTableRecord
100
AcDbViewportTableRecord
  2
*Active
 70
     0
 10
0.0
 20
0.0
 11
1.0
 21
1.0
 12
7.275504407672727
 22
0.2941106804196636
 13
0.0
 23
0.0
 14
10.0
 24
10.0
 15
10.0
 25
10.0
 16
0.0
 26
0.0
 36
1.0
 17
0.0
 27
0.0
 37
0.0
 40
102.5424728612321
 41
1.782762691853601
 42
50.0
 43
0.0
 44
0.0
 50
0.0
 51
0.0
 71
    16
 72
  2000
 73
     1
 74
     3
 75
     0
 76
     0
 77
     0
 78
     0
281
     0
 65
     1
110
0.0
120
0.0
130
0.0
111
1.0
121
0.0
131
0.0
112
0.0
122
1.0
132
0.0
 79
     0
146
0.0
  0
ENDTAB
  0
TABLE
  2
LTYPE
  5
5
330
0
100
AcDbSymbolTable
 70
     6
  0
LTYPE
  5
14
330
5
100
AcDbSymbolTableRecord
100
AcDbLinetypeTableRecord
  2
ByBlock
 70
     0
  3

 72
    65
 73
     0
 40
0.0
  0
LTYPE
  5
15
330
5
100
AcDbSymbolTableRecord
100
AcDbLinetypeTableRecord
  2
ByLayer
 70
     0
  3

 72
    65
 73
     0
 40
0.0
  0
LTYPE
  5
16
330
5
100
AcDbSymbolTableRecord
100
AcDbLinetypeTableRecord
  2
Continuous
 70
     0
  3
Solid line
 72
    65
 73
     0
 40
0.0
  0
LTYPE
  5
6A
330
5
100
AcDbSymbolTableRecord
100
AcDbLinetypeTableRecord
  2
HIDDEN
 70
     0
  3
Hidden __ __ __ __ __ __ __ __ __ __ __ __ __ __
 72
    65
 73
     2
 40
1.905
 49
1.27
 74
     0
 49
-0.635
 74
     0
  0
LTYPE
  5
6B
330
5
100
AcDbSymbolTableRecord
100
AcDbLinetypeTableRecord
  2
PHANTOM
 70
     0
  3
Phantom ______  __  __  ______  __  __  ______
 72
    65
 73
     6
 40
12.7
 49
6.35
 74
     0
 49
-1.27
 74
     0
 49
1.27
 74
     0
 49
-1.27
 74
     0
 49
1.27
 74
     0
 49
-1.27
 74
     0
  0
LTYPE
  5
6C
330
5
100
AcDbSymbolTableRecord
100
AcDbLinetypeTableRecord
  2
CENTER
 70
     0
  3
Center ____ _ ____ _ ____ _ ____ _ ____ _ ____
 72
    65
 73
     4
 40
10.16
 49
6.35
 74
     0
 49
-1.27
 74
     0
 49
1.27
 74
     0
 49
-1.27
 74
     0
  0
LTYPE
  5
6D
330
5
100
AcDbSymbolTableRecord
100
AcDbLinetypeTableRecord
  2
CENTERX2
 70
     0
  3
Center (2x) ________  __  ________  __  _____
 72
    65
 73
     4
 40
20.32
 49
12.7
 74
     0
 49
-2.54
 74
     0
 49
2.54
 74
     0
 49
-2.54
 74
     0
  0
LTYPE
  5
6E
330
5
100
AcDbSymbolTableRecord
100
AcDbLinetypeTableRecord
  2
DOT2
 70
     0
  3
Dot (.5x) ........................................
 72
    65
 73
     2
 40
0.635
 49
0.0
 74
     0
 49
-0.635
 74
     0
  0
ENDTAB
  0
TABLE
  2
LAYER
  5
2
102
{ACAD_XDICTIONARY
360
183
102
}
330
0
100
AcDbSymbolTable
 70
    18
  0
LAYER
  5
10
330
2
100
AcDbSymbolTableRecord
100
AcDbLayerTableRecord
  2
0
 70
     0
 62
     7
  6
Continuous
370
    -3
390
F
  0
LAYER
  5
6F
330
2
100
AcDbSymbolTableRecord
100
AcDbLayerTableRecord
  2
FORMAT
 70
     0
 62
     2
  6
Continuous
370
    -3
390
F
  0
LAYER
  5
70
330
2
100
AcDbSymbolTableRecord
100
AcDbLayerTableRecord
  2
외형선
 70
     0
 62
     4
  6
Continuous
370
    30
390
F
  0
LAYER
  5
71
330
2
100
AcDbSymbolTableRecord
100
AcDbLayerTableRecord
  2
숨은선
 70
     0
 62
     2
  6
HIDDEN
370
    15
390
F
  0
LAYER
  5
72
330
2
100
AcDbSymbolTableRecord
100
AcDbLayerTableRecord
  2
중심선
 70
     0
 62
     1
  6
CENTERX2
370
    -3
390
F
  0
LAYER
  5
73
330
2
100
AcDbSymbolTableRecord
100
AcDbLayerTableRecord
  2
파단선
 70
     0
 62
     4
  6
Continuous
370
    -3
390
F
  0
LAYER
  5
74
330
2
100
AcDbSymbolTableRecord
100
AcDbLayerTableRecord
  2
해칭선
 70
     0
 62
   100
  6
Continuous
370
    -3
390
F
  0
LAYER
  5
75
330
2
100
AcDbSymbolTableRecord
100
AcDbLayerTableRecord
  2
가는실선
 70
     0
 62
     4
  6
Continuous
370
    -3
390
F
  0
LAYER
  5
76
330
2
100
AcDbSymbolTableRecord
100
AcDbLayerTableRecord
  2
치수_보조선
 70
     0
 62
     4
  6
Continuous
370
    -3
390
F
  0
LAYER
  5
77
330
2
100
AcDbSymbolTableRecord
100
AcDbLayerTableRecord
  2
치수문자_일반주서
 70
     0
 62
     7
  6
Continuous
370
    15
390
F
  0
LAYER
  5
78
330
2
100
AcDbSymbolTableRecord
100
AcDbLayerTableRecord
  2
개별주서
 70
     0
 62
   100
  6
Continuous
370
    30
390
F
  0
LAYER
  5
79
330
2
100
AcDbSymbolTableRecord
100
AcDbLayerTableRecord
  2
중간선
 70
     0
 62
     2
  6
Continuous
370
    15
390
F
  0
LAYER
  5
7A
330
2
100
AcDbSymbolTableRecord
100
AcDbLayerTableRecord
  2
윤곽선
 70
     0
 62
     3
  6
Continuous
370
    40
390
F
  0
LAYER
  5
7B
330
2
100
AcDbSymbolTableRecord
100
AcDbLayerTableRecord
  2
중심마크
 70
     0
 62
   100
  6
Continuous
370
    30
390
F
  0
LAYER
  5
7C
330
2
100
AcDbSymbolTableRecord
100
AcDbLayerTableRecord
  2
가상선
 70
     0
 62
     4
  6
PHANTOM
370
    -3
390
F
  0
LAYER
  5
7D
330
2
100
AcDbSymbolTableRecord
100
AcDbLayerTableRecord
  2
특수지정선
 70
     0
 62
     5
  6
CENTERX2
370
    60
390
F
  0
LAYER
  5
7E
330
2
100
AcDbSymbolTableRecord
100
AcDbLayerTableRecord
  2
참조1
 70
     0
 62
    -4
  6
Continuous
370
    -3
390
F
  0
LAYER
  5
1A6
330
2
100
AcDbSymbolTableRecord
100
AcDbLayerTableRecord
  2
Defpoints
 70
     0
 62
     7
  6
Continuous
290
     0
370
    -3
390
F
  0
ENDTAB
  0
TABLE
  2
STYLE
  5
3
330
0
100
AcDbSymbolTable
 70
     2
  0
STYLE
  5
11
330
3
100
AcDbSymbolTableRecord
100
AcDbTextStyleTableRecord
  2
Standard
 70
     0
 40
0.0
 41
1.0
 50
0.0
 71
     0
 42
3.5
  3
txt
  4

  0
STYLE
  5
94
330
3
100
AcDbSymbolTableRecord
100
AcDbTextStyleTableRecord
  2
SLDTEXTSTYLE0
 70
     0
 40
0.0
 41
0.75
 50
0.0
 71
     0
 42
3.5
  3
TXT
  4

  0
ENDTAB
  0
TABLE
  2
VIEW
  5
6
330
0
100
AcDbSymbolTable
 70
     0
  0
ENDTAB
  0
TABLE
  2
UCS
  5
7
330
0
100
AcDbSymbolTable
 70
     0
  0
ENDTAB
  0
TABLE
  2
APPID
  5
9
330
0
100
AcDbSymbolTable
 70
     4
  0
APPID
  5
12
330
9
100
AcDbSymbolTableRecord
100
AcDbRegAppTableRecord
  2
ACAD
 70
     0
  0
APPID
  5
140
330
9
100
AcDbSymbolTableRecord
100
AcDbRegAppTableRecord
  2
PE_URL
 70
     0
  0
APPID
  5
213
330
9
100
AcDbSymbolTableRecord
100
AcDbRegAppTableRecord
  2
ACAD_DSTYLE_DIMFLIPARROW_SYMBOL
 70
     0
  0
APPID
  5
214
330
9
100
AcDbSymbolTableRecord
100
AcDbRegAppTableRecord
  2
ACAD_DSTYLE_DIMFLIPARROW_WHICH_SYMBOL
 70
     0
  0
ENDTAB
  0
TABLE
  2
DIMSTYLE
  5
A
330
0
100
AcDbSymbolTable
 70
     5
100
AcDbDimStyleTable
  0
DIMSTYLE
105
27
330
A
100
AcDbSymbolTableRecord
100
AcDbDimStyleTableRecord
  2
ISO-25
 70
     0
 41
2.5
 42
0.625
 43
3.75
 44
1.25
 73
     0
 74
     0
 77
     1
 78
     8
140
2.5
141
2.5
143
0.03937007874016
147
0.625
171
     3
172
     1
178
     0
271
     2
272
     2
274
     3
278
    44
283
     0
284
     8
340
11
  0
DIMSTYLE
105
BF
330
A
100
AcDbSymbolTableRecord
100
AcDbDimStyleTableRecord
  2
SLDDIMSTYLE0
 70
     0
 41
3.302
 44
0.0
 45
0.000000001
 73
     0
 74
     0
 77
     1
 78
     4
 79
     1
140
3.5
147
0.875
172
     1
173
     1
178
     0
271
     2
272
     2
276
     2
284
    12
289
     0
340
94
  0
DIMSTYLE
105
CD
330
A
100
AcDbSymbolTableRecord
100
AcDbDimStyleTableRecord
  2
SLDDIMSTYLE1
 70
     0
 41
3.302
 44
0.0
 45
0.000000001
 73
     0
 74
     0
 77
     1
 78
     4
 79
     1
140
3.5
143
0.0393700787401575
147
0.875
148
0.000000001
170
     1
172
     1
173
     1
178
     0
271
     2
272
     2
276
     2
284
    12
289
     0
340
94
  0
DIMSTYLE
105
E3
102
{ACAD_REACTORS
330
E2
330
CC
330
F6
330
BE
102
}
330
A
100
AcDbSymbolTableRecord
100
AcDbDimStyleTableRecord
  2
SLDDIMSTYLE2
 70
     0
 41
3.302
 44
0.0
 45
0.000000001
 73
     0
 74
     0
 77
     1
 78
     4
 79
     1
140
3.5
143
0.0393700787401575
147
0.875
148
0.000000001
170
     1
173
     1
178
     0
271
     2
272
     2
276
     2
284
    12
340
94
  0
DIMSTYLE
105
F7
330
A
100
AcDbSymbolTableRecord
100
AcDbDimStyleTableRecord
  2
SLDDIMSTYLE3
 70
     0
 41
3.302
 44
0.0
 45
0.000000001
 73
     0
 74
     0
 77
     1
 78
    12
 79
     3
140
3.5
143
0.0393700787401575
147
0.875
148
0.000000001
170
     1
173
     1
178
     0
271
     2
272
     2
276
     2
284
    12
340
94
  0
ENDTAB
  0
TABLE
  2
BLOCK_RECORD
  5
1
330
0
100
AcDbSymbolTable
 70
     9
  0
BLOCK_RECORD
  5
1F
330
1
100
AcDbSymbolTableRecord
100
AcDbBlockTableRecord
  2
*Model_Space
340
22
  0
BLOCK_RECORD
  5
1B
330
1
100
AcDbSymbolTableRecord
100
AcDbBlockTableRecord
  2
*Paper_Space
340
1E
  0
BLOCK_RECORD
  5
23
330
1
100
AcDbSymbolTableRecord
100
AcDbBlockTableRecord
  2
*Paper_Space0
340
26
  0
BLOCK_RECORD
  5
7F
330
1
100
AcDbSymbolTableRecord
100
AcDbBlockTableRecord
  2
블럭10
340
0
102
{BLKREFS
331
B7
102
}
  0
BLOCK_RECORD
  5
C0
330
1
100
AcDbSymbolTableRecord
100
AcDbBlockTableRecord
  2
_D
340
0
  0
BLOCK_RECORD
  5
CE
330
1
100
AcDbSymbolTableRecord
100
AcDbBlockTableRecord
  2
_D_1
340
0
  0
BLOCK_RECORD
  5
E4
330
1
100
AcDbSymbolTableRecord
100
AcDbBlockTableRecord
  2
_D_2
340
0
  0
BLOCK_RECORD
  5
F8
330
1
100
AcDbSymbolTableRecord
100
AcDbBlockTableRecord
  2
_D_3
340
0
  0
BLOCK_RECORD
  5
111
330
1
100
AcDbSymbolTableRecord
100
AcDbBlockTableRecord
  2
SW_DOWELSYMBOL_0
340
0
102
{BLKREFS
331
1A1
102
}
  0
BLOCK_RECORD
  5
1E1
330
1
100
AcDbSymbolTableRecord
100
AcDbBlockTableRecord
  2
*D7
340
0
  0
BLOCK_RECORD
  5
1F1
330
1
100
AcDbSymbolTableRecord
100
AcDbBlockTableRecord
  2
*D8
340
0
  0
ENDTAB
  0
ENDSEC
  0
SECTION
  2
BLOCKS
  0
BLOCK
  5
20
330
1F
100
AcDbEntity
  8
0
100
AcDbBlockBegin
  2
*Model_Space
 70
     0
 10
0.0
 20
0.0
 30
0.0
  3
*Model_Space
  1
*Model_Space
  0
ENDBLK
  5
21
330
1F
100
AcDbEntity
  8
0
100
AcDbBlockEnd
  0
BLOCK
  5
1C
330
1B
100
AcDbEntity
 67
     1
  8
0
100
AcDbBlockBegin
  2
*Paper_Space
 70
     0
 10
0.0
 20
0.0
 30
0.0
  3
*Paper_Space
  1
*Paper_Space
  0
ENDBLK
  5
1D
330
1B
100
AcDbEntity
 67
     1
  8
0
100
AcDbBlockEnd
  0
BLOCK
  5
24
330
23
100
AcDbEntity
  8
0
100
AcDbBlockBegin
  2
*Paper_Space0
 70
     0
 10
0.0
 20
0.0
 30
0.0
  3
*Paper_Space0
  1
*Paper_Space0
  0
ENDBLK
  5
25
330
23
100
AcDbEntity
  8
0
100
AcDbBlockEnd
  0
BLOCK
  5
80
330
7F
100
AcDbEntity
  8
0
100
AcDbBlockBegin
  2
블럭10
 70
     2
 10
0.0
 20
0.0
 30
0.0
  3
블럭10
  1
블럭10
  0
ELLIPSE
  5
82
330
7F
100
AcDbEntity
  8
중심선
100
AcDbEllipse
 10
20.54032771741204
 20
12.0471743016438
 30
0.0
 11
6.600054785286829
 21
-1.261213355974178E-13
 31
0.0
210
0.0
220
0.0
230
1.0
 40
0.636358354079598
 41
0.9219305317359503
 42
6.513795318482858
  0
ELLIPSE
  5
83
330
7F
100
AcDbEntity
  8
중심선
100
AcDbEllipse
 10
20.54032771746488
 20
12.04717430159265
 30
0.0
 11
3.960054785062283
 21
1.540847449632565E-10
 31
0.0
210
0.0
220
0.0
230
1.0
 40
0.3939339440162632
 41
1.131841032648279
 42
5.62031148352944
  0
LINE
  5
84
330
7F
100
AcDbEntity
  8
중심선
100
AcDbLine
 10
2.268634060543552
 20
16.24717430164393
 30
0.0
 11
5.714909304380834
 21
16.24717430164393
 31
0.0
  0
LINE
  5
85
330
7F
100
AcDbEntity
  8
중심선
100
AcDbLine
 10
5.245725140726316
 20
7.84717430164391
 30
0.0
 11
8.692000384563599
 21
7.84717430164391
 31
0.0
  0
LINE
  5
86
330
7F
100
AcDbEntity
  8
중심선
100
AcDbLine
 10
15.74043728645272
 20
16.24717430164393
 30
0.0
 11
8.692000384563599
 21
7.84717430164391
 31
0.0
  0
LINE
  5
87
330
7F
100
AcDbEntity
  8
중심선
100
AcDbLine
 10
0.1404042013395286
 20
13.71084872107135
 30
0.0
 11
3.58671253028996
 21
13.71088815037384
 31
0.0
  0
LINE
  5
88
330
7F
100
AcDbEntity
  8
중심선
100
AcDbLine
 10
2.750260043222114
 20
10.84717430164391
 30
0.0
 11
6.196535287059397
 21
10.84717430164391
 31
0.0
  0
LINE
  5
89
330
7F
100
AcDbEntity
  8
중심선
100
AcDbLine
 10
12.29416204261559
 20
16.24717430164393
 30
0.0
 11
5.245725140726316
 21
7.84717430164391
 31
0.0
  0
LINE
  5
8A
330
7F
100
AcDbEntity
  8
중심선
100
AcDbLine
 10
10.72767329541681
 20
16.24717430164393
 30
0.0
 11
6.196535287059397
 21
10.84717430164391
 31
0.0
  0
LINE
  5
8B
330
7F
100
AcDbEntity
  8
중심선
100
AcDbLine
 10
7.28139805157953
 20
16.24717430164393
 30
0.0
 11
2.750260043222114
 21
10.84717430164391
 31
0.0
  0
LINE
  5
8C
330
7F
100
AcDbEntity
  8
중심선
100
AcDbLine
 10
5.714909304380834
 20
16.24717430164393
 30
0.0
 11
3.58671253028996
 21
13.71088815037384
 31
0.0
  0
LINE
  5
8D
330
7F
100
AcDbEntity
  8
중심선
100
AcDbLine
 10
2.268634060543552
 20
16.24717430164393
 30
0.0
 11
0.1404042013395286
 21
13.71084872107135
 31
0.0
  0
LINE
  5
8E
330
7F
100
AcDbEntity
  8
중심선
100
AcDbLine
 10
7.28139805157953
 20
16.24717430164393
 30
0.0
 11
10.72767329541681
 21
16.24717430164393
 31
0.0
  0
LINE
  5
8F
330
7F
100
AcDbEntity
  8
중심선
100
AcDbLine
 10
12.29416204261559
 20
16.24717430164393
 30
0.0
 11
15.74043728645272
 21
16.24717430164393
 31
0.0
  0
LINE
  5
90
330
7F
100
AcDbEntity
  8
중심선
100
AcDbLine
 10
19.22036997980202
 20
11.08717430171403
 30
0.0
 11
23.66174974927406
 21
11.08717430171406
 31
0.0
  0
LINE
  5
91
330
7F
100
AcDbEntity
  8
중심선
100
AcDbLine
 10
19.22039502424796
 20
13.00717430171391
 30
0.0
 11
19.22036997980202
 21
11.08717430171403
 31
0.0
  0
LINE
  5
92
330
7F
100
AcDbEntity
  8
중심선
100
AcDbLine
 10
19.22039502424796
 20
13.00717430171391
 30
0.0
 11
26.96566020931264
 21
13.00717430171391
 31
0.0
  0
LINE
  5
93
330
7F
100
AcDbEntity
  8
중심선
100
AcDbLine
 10
22.22332737316547
 20
13.45928029700563
 30
0.0
 11
24.52862924686651
 21
15.39360700705356
 31
0.0
  0
ATTDEF
  5
95
330
7F
100
AcDbEntity
  8
FORMAT
 62
     2
100
AcDbText
 10
4.408487351596664
 20
2.075366912832191
 30
0.0
 40
4.233333333333333
  1
E1030052
 41
0.75
  7
SLDTEXTSTYLE0
 11
4.408487351596664
 21
-0.0412997538344756
 31
0.0
100
AcDbAttributeDefinition
  3

  2
AUTOATTR0
 70
     0
 74
     1
  0
ENDBLK
  5
81
330
7F
100
AcDbEntity
  8
0
100
AcDbBlockEnd
  0
BLOCK
  5
C1
330
C0
100
AcDbEntity
  8
0
100
AcDbBlockBegin
  2
_D
 70
     0
 10
0.0
 20
0.0
 30
0.0
  3
_D
  1
_D
  0
LINE
  5
C3
330
C0
100
AcDbEntity
  8
치수문자_일반주서
 62
     0
370
    -2
100
AcDbLine
 10
-51.03749999999999
 20
7.781826873210862
 30
0.0
 11
-66.97500000000001
 21
7.781826873210804
 31
0.0
  0
LINE
  5
C4
330
C0
100
AcDbEntity
  8
치수문자_일반주서
 62
     0
370
    -2
100
AcDbLine
 10
-51.03749999999999
 20
-8.093173126789136
 30
0.0
 11
-66.97499999999995
 21
-8.0931731267892
 31
0.0
  0
LINE
  5
C5
330
C0
100
AcDbEntity
  8
치수문자_일반주서
 62
     0
370
    -2
100
AcDbLine
 10
-66.97500000000001
 20
7.781826873210804
 30
0.0
 11
-66.97500000000014
 21
43.5318268732108
 31
0.0
  0
LINE
  5
C6
330
C0
100
AcDbEntity
  8
치수문자_일반주서
 62
     0
370
    -2
100
AcDbLine
 10
-66.97500000000001
 20
7.781826873210804
 30
0.0
 11
-66.97499999999995
 21
-8.0931731267892
 31
0.0
  0
LINE
  5
C7
330
C0
100
AcDbEntity
  8
치수문자_일반주서
 62
     0
370
    -2
100
AcDbLine
 10
-66.97500000000002
 20
11.7818268732108
 30
0.0
 11
-66.97500000000004
 21
15.7818268732108
 31
0.0
  0
LINE
  5
C8
330
C0
100
AcDbEntity
  8
치수문자_일반주서
 62
     0
370
    -2
100
AcDbLine
 10
-66.97499999999994
 20
-12.0931731267892
 30
0.0
 11
-66.97499999999992
 21
-16.0931731267892
 31
0.0
  0
SOLID
  5
C9
330
C0
100
AcDbEntity
  8
치수문자_일반주서
 62
     0
100
AcDbTrace
 10
-67.6416666666667
 20
11.7818268732108
 30
0.0
 11
-66.30833333333335
 21
11.78182687321081
 31
0.0
 12
-66.97500000000001
 22
7.781826873210804
 32
0.0
 13
-66.97500000000001
 23
7.781826873210804
 33
0.0
  0
SOLID
  5
CA
330
C0
100
AcDbEntity
  8
치수문자_일반주서
 62
     0
100
AcDbTrace
 10
-66.30833333333327
 20
-12.0931731267892
 30
0.0
 11
-67.64166666666661
 21
-12.0931731267892
 31
0.0
 12
-66.97499999999995
 22
-8.0931731267892
 32
0.0
 13
-66.97499999999995
 23
-8.0931731267892
 33
0.0
  0
MTEXT
  5
CB
330
C0
100
AcDbEntity
  8
치수문자_일반주서
 62
     0
100
AcDbMText
 10
-71.85000000000008
 20
27.65682687321079
 30
0.0
 40
4.0
 41
0.0
 71
     2
 72
     1
  1
\A1;%%c15.88 [5/8]
  7
SLDTEXTSTYLE0
 11
-3.580687802255624E-15
 21
1.0
 31
0.0
 73
     1
 44
1.0
  0
POINT
  5
20D
330
C0
100
AcDbEntity
  8
Defpoints
 62
     0
100
AcDbPoint
 10
-50.97499999999999
 20
7.781826873210862
 30
0.0
  0
POINT
  5
20E
330
C0
100
AcDbEntity
  8
Defpoints
 62
     0
100
AcDbPoint
 10
-50.97499999999999
 20
-8.093173126789136
 30
0.0
  0
POINT
  5
20F
330
C0
100
AcDbEntity
  8
Defpoints
 62
     0
100
AcDbPoint
 10
-66.97499999999997
 20
-8.093173126789196
 30
0.0
  0
ENDBLK
  5
C2
330
C0
100
AcDbEntity
  8
0
100
AcDbBlockEnd
  0
BLOCK
  5
CF
330
CE
100
AcDbEntity
  8
0
100
AcDbBlockBegin
  2
_D_1
 70
     0
 10
0.0
 20
0.0
 30
0.0
  3
_D_1
  1
_D_1
  0
LINE
  5
D1
330
CE
100
AcDbEntity
  8
치수문자_일반주서
 62
     0
370
    -2
100
AcDbLine
 10
40.1
 20
10.37252874965089
 30
0.0
 11
40.1
 21
22.78182687321087
 31
0.0
  0
LINE
  5
D2
330
CE
100
AcDbEntity
  8
치수문자_일반주서
 62
     0
370
    -2
100
AcDbLine
 10
2.0
 20
5.535349324069392
 30
0.0
 11
2.0
 21
22.78182687321087
 31
0.0
  0
LINE
  5
D3
330
CE
100
AcDbEntity
  8
치수문자_일반주서
 62
     0
370
    -2
100
AcDbLine
 10
40.1
 20
22.78182687321087
 30
0.0
 11
76.35
 21
22.78182687321087
 31
0.0
  0
LINE
  5
D4
330
CE
100
AcDbEntity
  8
치수문자_일반주서
 62
     0
370
    -2
100
AcDbLine
 10
40.1
 20
22.78182687321087
 30
0.0
 11
2.0
 21
22.78182687321087
 31
0.0
  0
LINE
  5
D5
330
CE
100
AcDbEntity
  8
치수문자_일반주서
 62
     0
370
    -2
100
AcDbLine
 10
44.1
 20
22.78182687321087
 30
0.0
 11
48.1
 21
22.78182687321087
 31
0.0
  0
LINE
  5
D6
330
CE
100
AcDbEntity
  8
치수문자_일반주서
 62
     0
370
    -2
100
AcDbLine
 10
-2.0
 20
22.78182687321087
 30
0.0
 11
-6.0
 21
22.78182687321087
 31
0.0
  0
SOLID
  5
D7
330
CE
100
AcDbEntity
  8
치수문자_일반주서
 62
     0
100
AcDbTrace
 10
44.1
 20
23.44849353987754
 30
0.0
 11
44.1
 21
22.1151602065442
 31
0.0
 12
40.1
 22
22.78182687321087
 32
0.0
 13
40.1
 23
22.78182687321087
 33
0.0
  0
SOLID
  5
D8
330
CE
100
AcDbEntity
  8
치수문자_일반주서
 62
     0
100
AcDbTrace
 10
-2.0
 20
22.1151602065442
 30
0.0
 11
-2.0
 21
23.44849353987754
 31
0.0
 12
2.0
 22
22.78182687321087
 32
0.0
 13
2.0
 23
22.78182687321087
 33
0.0
  0
MTEXT
  5
D9
330
CE
100
AcDbEntity
  8
치수문자_일반주서
 62
     0
100
AcDbMText
 10
60.225
 20
27.65682687321087
 30
0.0
 40
4.0
 41
0.0
 71
     2
 72
     1
  1
\A1;38.10 [1 1/2]
  7
SLDTEXTSTYLE0
 73
     1
 44
1.0
  0
POINT
  5
1A7
330
CE
100
AcDbEntity
  8
Defpoints
 62
     0
100
AcDbPoint
 10
40.1
 20
10.31002874965089
 30
0.0
  0
POINT
  5
210
330
CE
100
AcDbEntity
  8
Defpoints
 62
     0
100
AcDbPoint
 10
2.0
 20
5.472849324069392
 30
0.0
  0
POINT
  5
211
330
CE
100
AcDbEntity
  8
Defpoints
 62
     0
100
AcDbPoint
 10
2.0
 20
22.78182687321087
 30
0.0
  0
ENDBLK
  5
D0
330
CE
100
AcDbEntity
  8
0
100
AcDbBlockEnd
  0
BLOCK
  5
E5
330
E4
100
AcDbEntity
  8
0
100
AcDbBlockBegin
  2
_D_2
 70
     0
 10
0.0
 20
0.0
 30
0.0
  3
_D_2
  1
_D_2
  0
LINE
  5
E7
330
E4
100
AcDbEntity
  8
치수문자_일반주서
 62
     0
370
    -2
100
AcDbLine
 10
40.1
 20
10.37252874965089
 30
0.0
 11
40.10000000000001
 21
37.78182687321087
 31
0.0
  0
LINE
  5
E8
330
E4
100
AcDbEntity
  8
치수문자_일반주서
 62
     0
370
    -2
100
AcDbLine
 10
-51.97500000000001
 20
6.844326873210859
 30
0.0
 11
-51.975
 21
37.78182687321087
 31
0.0
  0
LINE
  5
E9
330
E4
100
AcDbEntity
  8
치수문자_일반주서
 62
     0
370
    -2
100
AcDbLine
 10
36.10000000000001
 20
37.78182687321087
 30
0.0
 11
-47.975
 21
37.78182687321087
 31
0.0
  0
SOLID
  5
EA
330
E4
100
AcDbEntity
  8
치수문자_일반주서
 62
     0
100
AcDbTrace
 10
36.10000000000001
 20
37.1151602065442
 30
0.0
 11
36.10000000000001
 21
38.44849353987753
 31
0.0
 12
40.10000000000001
 22
37.78182687321087
 32
0.0
 13
40.10000000000001
 23
37.78182687321087
 33
0.0
  0
SOLID
  5
EB
330
E4
100
AcDbEntity
  8
치수문자_일반주서
 62
     0
100
AcDbTrace
 10
-47.975
 20
38.44849353987753
 30
0.0
 11
-47.975
 21
37.1151602065442
 31
0.0
 12
-51.975
 22
37.78182687321087
 32
0.0
 13
-51.975
 23
37.78182687321087
 33
0.0
  0
MTEXT
  5
EC
330
E4
100
AcDbEntity
  8
치수문자_일반주서
 62
     0
100
AcDbMText
 10
-4.350000000000004
 20
42.65682687321087
 30
0.0
 40
4.0
 41
0.0
 71
     2
 72
     1
  1
\A1;92.08 [3 5/8]
  7
SLDTEXTSTYLE0
 73
     1
 44
1.0
  0
POINT
  5
ED
330
E4
100
AcDbEntity
  8
Defpoints
 62
     0
100
AcDbPoint
 10
40.1
 20
10.31002874965089
 30
0.0
  0
POINT
  5
EE
330
E4
100
AcDbEntity
  8
Defpoints
 62
     0
100
AcDbPoint
 10
-51.97500000000001
 20
6.781826873210859
 30
0.0
  0
POINT
  5
EF
330
E4
100
AcDbEntity
  8
Defpoints
 62
     0
100
AcDbPoint
 10
-51.97500000000001
 20
37.78182687321087
 30
0.0
  0
ENDBLK
  5
E6
330
E4
100
AcDbEntity
  8
0
100
AcDbBlockEnd
  0
BLOCK
  5
F9
330
F8
100
AcDbEntity
  8
0
100
AcDbBlockBegin
  2
_D_3
 70
     0
 10
0.0
 20
0.0
 30
0.0
  3
_D_3
  1
_D_3
  0
LINE
  5
FB
330
F8
100
AcDbEntity
  8
치수문자_일반주서
 62
     0
370
    -2
100
AcDbLine
 10
40.1625
 20
-10.31002874965089
 30
0.0
 11
83.83738343029854
 21
-10.31002874965073
 31
0.0
  0
LINE
  5
FC
330
F8
100
AcDbEntity
  8
치수문자_일반주서
 62
     0
370
    -2
100
AcDbLine
 10
40.1625
 20
10.31002874965089
 30
0.0
 11
83.83738343029847
 21
10.31002874965105
 31
0.0
  0
LINE
  5
FD
330
F8
100
AcDbEntity
  8
치수문자_일반주서
 62
     0
370
    -2
100
AcDbLine
 10
83.83738343029847
 20
10.31002874965105
 30
0.0
 11
83.83738343029835
 21
50.56002874965105
 31
0.0
  0
LINE
  5
FE
330
F8
100
AcDbEntity
  8
치수문자_일반주서
 62
     0
370
    -2
100
AcDbLine
 10
83.83738343029853
 20
-6.310028749650726
 30
0.0
 11
83.83738343029849
 21
6.310028749651053
 31
0.0
  0
SOLID
  5
FF
330
F8
100
AcDbEntity
  8
치수문자_일반주서
 62
     0
100
AcDbTrace
 10
83.17071676363186
 20
-6.310028749650729
 30
0.0
 11
84.5040500969652
 21
-6.310028749650724
 31
0.0
 12
83.83738343029854
 22
-10.31002874965073
 32
0.0
 13
83.83738343029854
 23
-10.31002874965073
 33
0.0
  0
SOLID
  5
100
330
F8
100
AcDbEntity
  8
치수문자_일반주서
 62
     0
100
AcDbTrace
 10
84.50405009696516
 20
6.310028749651056
 30
0.0
 11
83.17071676363182
 21
6.310028749651051
 31
0.0
 12
83.83738343029847
 22
10.31002874965105
 32
0.0
 13
83.83738343029847
 23
10.31002874965105
 33
0.0
  0
MTEXT
  5
101
330
F8
100
AcDbEntity
  8
치수문자_일반주서
 62
     0
100
AcDbMText
 10
78.9623834302984
 20
32.43502874965104
 30
0.0
 40
4.0
 41
0.0
 71
     2
 72
     1
  1
\A1;%%c20.62 [13/16]
  7
SLDTEXTSTYLE0
 11
-3.445881447149990E-15
 21
1.0
 31
0.0
 73
     1
 44
1.0
  0
POINT
  5
102
330
F8
100
AcDbEntity
  8
Defpoints
 62
     0
100
AcDbPoint
 10
40.1
 20
-10.31002874965089
 30
0.0
  0
POINT
  5
103
330
F8
100
AcDbEntity
  8
Defpoints
 62
     0
100
AcDbPoint
 10
40.1
 20
10.31002874965089
 30
0.0
  0
POINT
  5
104
330
F8
100
AcDbEntity
  8
Defpoints
 62
     0
100
AcDbPoint
 10
83.83738343029847
 20
10.31002874965105
 30
0.0
  0
ENDBLK
  5
FA
330
F8
100
AcDbEntity
  8
0
100
AcDbBlockEnd
  0
BLOCK
  5
112
330
111
100
AcDbEntity
  8
0
100
AcDbBlockBegin
  2
SW_DOWELSYMBOL_0
 70
     0
 10
0.0
 20
0.0
 30
0.0
  3
SW_DOWELSYMBOL_0
  1
SW_DOWELSYMBOL_0
  0
CIRCLE
  5
114
330
111
100
AcDbEntity
  8
해칭선
 62
     0
100
AcDbCircle
 10
0.0
 20
0.0
 30
0.0
 40
3.000000000000001
  0
HATCH
  5
115
330
111
100
AcDbEntity
  8
0
  6
Continuous
 62
     0
370
     0
100
AcDbHatch
 10
0.0
 20
0.0
 30
0.0
210
0.0
220
0.0
230
1.0
  2
SOLID
 70
     1
 71
     0
 91
        1
 92
        0
 93
        3
 72
     2
 10
0.0
 20
0.0
 40
3.000000000000001
 50
0.0
 51
90.0
 73
     1
 72
     1
 10
0.0
 20
3.000000000000001
 11
0.0
 21
0.0
 72
     1
 10
0.0
 20
0.0
 11
3.000000000000001
 21
0.0
 97
        0
 75
     0
 76
     1
 98
        1
 10
0.0
 20
0.0
  0
HATCH
  5
116
330
111
100
AcDbEntity
  8
0
  6
Continuous
 62
     0
370
     0
100
AcDbHatch
 10
0.0
 20
0.0
 30
0.0
210
0.0
220
0.0
230
1.0
  2
SOLID
 70
     1
 71
     0
 91
        1
 92
        0
 93
        3
 72
     2
 10
0.0
 20
0.0
 40
3.000000000000001
 50
180.0
 51
270.0000000000007
 73
     1
 72
     1
 10
0.0
 20
-3.000000000000001
 11
0.0
 21
0.0
 72
     1
 10
0.0
 20
0.0
 11
-3.000000000000001
 21
0.0
 97
        0
 75
     0
 76
     1
 98
        1
 10
0.0
 20
0.0
  0
ENDBLK
  5
113
330
111
100
AcDbEntity
  8
0
100
AcDbBlockEnd
  0
BLOCK
  5
1E2
330
1E1
100
AcDbEntity
  8
0
100
AcDbBlockBegin
  2
*D7
 70
     1
 10
0.0
 20
0.0
 30
0.0
  3
*D7
  1
*D7
  0
LINE
  5
1E4
330
1E1
100
AcDbEntity
  8
치수문자_일반주서
 62
     0
370
    -2
100
AcDbLine
 10
38.09999999999937
 20
7.699178019206265
 30
0.0
 11
38.09999999999937
 21
20.66068883684966
 31
0.0
  0
LINE
  5
1E5
330
1E1
100
AcDbEntity
  8
치수문자_일반주서
 62
     0
370
    -2
100
AcDbLine
 10
0.0000000000000027
 20
3.258538160919052
 30
0.0
 11
0.0
 21
20.66068883684966
 31
0.0
  0
LINE
  5
1E6
330
1E1
100
AcDbEntity
  8
치수문자_일반주서
 62
     0
370
    -2
100
AcDbLine
 10
38.09999999999937
 20
20.66068883684966
 30
0.0
 11
74.34999999999937
 21
20.66068883684966
 31
0.0
  0
LINE
  5
1E7
330
1E1
100
AcDbEntity
  8
치수문자_일반주서
 62
     0
370
    -2
100
AcDbLine
 10
34.09999999999937
 20
20.66068883684966
 30
0.0
 11
4.0
 21
20.66068883684966
 31
0.0
  0
SOLID
  5
1E8
330
1E1
100
AcDbEntity
  8
치수문자_일반주서
 62
     0
100
AcDbTrace
 10
34.09999999999937
 20
19.99402217018299
 30
0.0
 11
34.09999999999937
 21
21.32735550351633
 31
0.0
 12
38.09999999999937
 22
20.66068883684966
 32
0.0
 13
38.09999999999937
 23
20.66068883684966
 33
0.0
  0
SOLID
  5
1E9
330
1E1
100
AcDbEntity
  8
치수문자_일반주서
 62
     0
100
AcDbTrace
 10
4.0
 20
21.32735550351633
 30
0.0
 11
4.0
 21
19.99402217018299
 31
0.0
 12
0.0
 22
20.66068883684966
 32
0.0
 13
0.0
 23
20.66068883684966
 33
0.0
  0
MTEXT
  5
1EA
330
1E1
100
AcDbEntity
  8
치수문자_일반주서
 62
     0
100
AcDbMText
 10
58.22499999999937
 20
25.53568883684966
 30
0.0
 40
4.0
 41
0.0
 71
     2
 72
     1
  1
\A1;38.10 [1 1/2]
  7
SLDTEXTSTYLE0
 73
     1
 44
1.0
  0
POINT
  5
1EB
330
1E1
100
AcDbEntity
  8
Defpoints
 62
     0
100
AcDbPoint
 10
38.09999999999937
 20
7.636678019206265
 30
0.0
  0
POINT
  5
1EC
330
1E1
100
AcDbEntity
  8
Defpoints
 62
     0
100
AcDbPoint
 10
0.0000000000000027
 20
3.196038160919052
 30
0.0
  0
POINT
  5
1ED
330
1E1
100
AcDbEntity
  8
Defpoints
 62
     0
100
AcDbPoint
 10
0.0000000000000027
 20
20.66068883684966
 30
0.0
  0
ENDBLK
  5
1E3
330
1E1
100
AcDbEntity
  8
0
100
AcDbBlockEnd
  0
BLOCK
  5
1F2
330
1F1
100
AcDbEntity
  8
0
100
AcDbBlockBegin
  2
*D8
 70
     1
 10
0.0
 20
0.0
 30
0.0
  3
*D8
  1
*D8
  0
LINE
  5
1F4
330
1F1
100
AcDbEntity
  8
치수문자_일반주서
 62
     0
370
    -2
100
AcDbLine
 10
103.8559297526961
 20
-38.45015971380162
 30
0.0
 11
103.8559297526961
 21
-25.48864889615822
 31
0.0
  0
LINE
  5
1F5
330
1F1
100
AcDbEntity
  8
치수문자_일반주서
 62
     0
370
    -2
100
AcDbLine
 10
65.75592975269676
 20
-42.89079957208883
 30
0.0
 11
65.75592975269676
 21
-25.48864889615822
 31
0.0
  0
LINE
  5
1F6
330
1F1
100
AcDbEntity
  8
치수문자_일반주서
 62
     0
370
    -2
100
AcDbLine
 10
103.8559297526961
 20
-25.48864889615822
 30
0.0
 11
140.1059297526961
 21
-25.48864889615822
 31
0.0
  0
LINE
  5
1F7
330
1F1
100
AcDbEntity
  8
치수문자_일반주서
 62
     0
370
    -2
100
AcDbLine
 10
99.85592975269613
 20
-25.48864889615822
 30
0.0
 11
69.75592975269676
 21
-25.48864889615822
 31
0.0
  0
SOLID
  5
1F8
330
1F1
100
AcDbEntity
  8
치수문자_일반주서
 62
     0
100
AcDbTrace
 10
99.85592975269613
 20
-26.15531556282489
 30
0.0
 11
99.85592975269613
 21
-24.82198222949156
 31
0.0
 12
103.8559297526961
 22
-25.48864889615822
 32
0.0
 13
103.8559297526961
 23
-25.48864889615822
 33
0.0
  0
SOLID
  5
1F9
330
1F1
100
AcDbEntity
  8
치수문자_일반주서
 62
     0
100
AcDbTrace
 10
69.75592975269676
 20
-24.82198222949156
 30
0.0
 11
69.75592975269676
 21
-26.15531556282489
 31
0.0
 12
65.75592975269676
 22
-25.48864889615822
 32
0.0
 13
65.75592975269676
 23
-25.48864889615822
 33
0.0
  0
MTEXT
  5
1FA
330
1F1
100
AcDbEntity
  8
치수문자_일반주서
 62
     0
100
AcDbMText
 10
123.9809297526961
 20
-20.61364889615822
 30
0.0
 40
4.0
 41
0.0
 71
     2
 72
     1
  1
\A1;38.10 [1 1/2]
  7
SLDTEXTSTYLE0
 73
     1
 44
1.0
  0
POINT
  5
1FB
330
1F1
100
AcDbEntity
  8
Defpoints
 62
     0
100
AcDbPoint
 10
103.8559297526961
 20
-38.51265971380162
 30
0.0
  0
POINT
  5
1FC
330
1F1
100
AcDbEntity
  8
Defpoints
 62
     0
100
AcDbPoint
 10
65.75592975269676
 20
-42.95329957208883
 30
0.0
  0
POINT
  5
1FD
330
1F1
100
AcDbEntity
  8
Defpoints
 62
     0
100
AcDbPoint
 10
65.75592975269676
 20
-25.48864889615822
 30
0.0
  0
ENDBLK
  5
1F3
330
1F1
100
AcDbEntity
  8
0
100
AcDbBlockEnd
  0
ENDSEC
  0
SECTION
  2
ENTITIES
  0
SPLINE
  5
96
330
1F
100
AcDbEntity
  8
0
  6
Continuous
 62
     1
370
    15
100
AcDbSpline
210
0.0
220
0.0
230
1.0
 70
     8
 71
     3
 72
    13
 73
     9
 74
     0
 42
0.000000001
 43
0.00000001
 40
0.0
 40
0.0
 40
0.0
 40
0.0
 40
0.2102586662788659
 40
0.3256690946377023
 40
0.4874419980610785
 40
0.6499293217919909
 40
0.7723117870709014
 40
1.0
 40
1.0
 40
1.0
 40
1.0
 10
13.36612272396256
 20
2.644177558072236
 30
0.0
 10
13.1642349796989
 20
2.739359590540139
 30
0.0
 10
12.85153158413187
 20
2.886786790037761
 30
0.0
 10
12.38752116126616
 20
3.112578051645168
 30
0.0
 10
11.97039482667023
 20
3.319413466345945
 30
0.0
 10
11.5481507491005
 20
3.533057309378252
 30
0.0
 10
11.05947740289578
 20
3.78375777268172
 30
0.0
 10
10.72308243243324
 20
3.96077437463237
 30
0.0
 10
10.50428898747798
 20
4.075907107151535
 30
0.0
1001
PE_URL
1000

  0
SPLINE
  5
97
330
1F
100
AcDbEntity
  8
0
  6
Continuous
 62
     1
370
    15
100
AcDbSpline
210
0.0
220
0.0
230
1.0
 70
     8
 71
     3
 72
    26
 73
    22
 74
     0
 42
0.000000001
 43
0.00000001
 40
0.0
 40
0.0
 40
0.0
 40
0.0
 40
0.0388409132946397
 40
0.0732016960007876
 40
0.1043097150246799
 40
0.1473010657400496
 40
0.1903517255610615
 40
0.2329439004853207
 40
0.2751915755005354
 40
0.316652985862022
 40
0.395492187605847
 40
0.4679273225233676
 40
0.5100849411335359
 40
0.5615523016295223
 40
0.6244770038309817
 40
0.6899734720536694
 40
0.7507684149225966
 40
0.8058330679205551
 40
0.8606742859849782
 40
0.9252051700654339
 40
1.0
 40
1.0
 40
1.0
 40
1.0
 10
9.954930396881263
 20
8.199679895899344
 30
0.0
 10
9.876592303111511
 20
8.19526062546489
 30
0.0
 10
9.72895207431684
 20
8.186931828239292
 30
0.0
 10
9.4831891206134
 20
8.172349725909214
 30
0.0
 10
9.200303153384493
 20
8.157589798358615
 30
0.0
 10
8.875546220441741
 20
8.145214639592147
 30
0.0
 10
8.52933024100906
 20
8.132804166180964
 30
0.0
 10
8.179959838356261
 20
8.12028838035372
 30
0.0
 10
7.835512259110032
 20
8.108734586759759
 30
0.0
 10
7.392655371691821
 20
8.095146004658453
 30
0.0
 10
6.876478850018562
 20
8.08212112271864
 30
0.0
 10
6.365856664766061
 20
8.072334426226853
 30
0.0
 10
5.919658434512166
 20
8.065814175013017
 30
0.0
 10
5.499611646980219
 20
8.061320388012327
 30
0.0
 10
5.016463823171116
 20
8.058454786372302
 30
0.0
 10
4.508380018211899
 20
8.058150125303673
 30
0.0
 10
4.021511190748356
 20
8.060406637702215
 30
0.0
 10
3.563373568737531
 20
8.064715225343267
 30
0.0
 10
3.095320435342352
 20
8.071293025172444
 30
0.0
 10
2.574465001357176
 20
8.081000273501012
 30
0.0
 10
2.200667396445552
 20
8.090720853469517
 30
0.0
 10
1.999999999999993
 20
8.095939194755257
 30
0.0
1001
PE_URL
1000

  0
SPLINE
  5
98
330
1F
100
AcDbEntity
  8
0
  6
Continuous
 62
     1
370
    15
100
AcDbSpline
210
0.0
220
0.0
230
1.0
 70
     8
 71
     3
 72
    50
 73
    46
 74
     0
 42
0.000000001
 43
0.00000001
 40
0.0
 40
0.0
 40
0.0
 40
0.0
 40
0.0215201539005568
 40
0.0413175908536113
 40
0.0602682097250533
 40
0.0797883264102803
 40
0.1003069056453749
 40
0.1190170915217724
 40
0.1351254196755751
 40
0.1487365686249972
 40
0.163827968163098
 40
0.1782753207094344
 40
0.1923934959892655
 40
0.2055912722673929
 40
0.2197070291553145
 40
0.2351410519912211
 40
0.2536679250232513
 40
0.2754998803655209
 40
0.2987254417844267
 40
0.3346835876839046
 40
0.3673359464287267
 40
0.4020048836820491
 40
0.4339258114872925
 40
0.4625595897390549
 40
0.4893650174719553
 40
0.512340795418131
 40
0.5396259231037558
 40
0.568851785252669
 40
0.5984686794221827
 40
0.6275980894526582
 40
0.655578688238897
 40
0.6955121864895746
 40
0.7307518980154983
 40
0.7633829281761891
 40
0.7821597324218381
 40
0.8012910274592513
 40
0.8233153384932731
 40
0.8488944236700143
 40
0.8756285243318348
 40
0.8921025767235363
 40
0.9077678979887508
 40
0.9236927536850731
 40
0.9439121715435294
 40
0.9692868164326573
 40
1.0
 40
1.0
 40
1.0
 40
1.0
 10
36.26642388488826
 20
7.057535314683694
 30
0.0
 10
36.17566037041374
 20
7.049277553295672
 30
0.0
 10
36.00139908153903
 20
7.033423075303853
 30
0.0
 10
35.68521336707472
 20
7.003794899902349
 30
0.0
 10
35.34178165662768
 20
6.976081209205731
 30
0.0
 10
34.97028216393913
 20
6.951523486601789
 30
0.0
 10
34.60513851948362
 20
6.931362586460765
 30
0.0
 10
34.2605469377633
 20
6.911885414643566
 30
0.0
 10
33.95734990214383
 20
6.89513569618312
 30
0.0
 10
33.67634548327833
 20
6.880226474290812
 30
0.0
 10
33.4100321105937
 20
6.867155384583877
 30
0.0
 10
33.14452310553247
 20
6.85527942593454
 30
0.0
 10
32.89986796918519
 20
6.845353385620416
 30
0.0
 10
32.65432835501019
 20
6.836106023844871
 30
0.0
 10
32.39703647378647
 20
6.827276067442965
 30
0.0
 10
32.10482233740937
 20
6.818353989179281
 30
0.0
 10
31.76586708549481
 20
6.809490702306084
 30
0.0
 10
31.37932742925382
 20
6.801394243126225
 30
0.0
 10
30.88694157510866
 20
6.793950493251389
 30
0.0
 10
30.32930468828068
 20
6.789815379618726
 30
0.0
 10
29.70206589807463
 20
6.790780056737892
 30
0.0
 10
29.09910625036246
 20
6.796969506431346
 30
0.0
 10
28.52052178418237
 20
6.807902859792667
 30
0.0
 10
27.98957067840551
 20
6.822107333786797
 30
0.0
 10
27.5133504946974
 20
6.838308360805343
 30
0.0
 10
27.04530615690397
 20
6.857215892767204
 30
0.0
 10
26.56251227646718
 20
6.879797668243896
 30
0.0
 10
26.03923742605094
 20
6.908015174253348
 30
0.0
 10
25.50451205821512
 20
6.940831335216498
 30
0.0
 10
24.97745831059998
 20
6.977090228465669
 30
0.0
 10
24.38845608372814
 20
7.021924355931368
 30
0.0
 10
23.76146362828473
 20
7.07489133874384
 30
0.0
 10
23.10718125562705
 20
7.135991503328814
 30
0.0
 10
22.57703452268548
 20
7.189872840044811
 30
0.0
 10
22.1650200805514
 20
7.234189279093362
 30
0.0
 10
21.82691072308079
 20
7.271244742437567
 30
0.0
 10
21.41873795411898
 20
7.318769916619727
 30
0.0
 10
20.95882876737301
 20
7.37565373109183
 30
0.0
 10
20.53108672599792
 20
7.430786917753276
 30
0.0
 10
20.16491449738586
 20
7.479241736533084
 30
0.0
 10
19.86685383628594
 20
7.519248862375477
 30
0.0
 10
19.54329711173937
 20
7.563175572266749
 30
0.0
 10
19.16966342820275
 20
7.617322325280482
 30
0.0
 10
18.72539235021677
 20
7.684722481857617
 30
0.0
 10
18.41154897221378
 20
7.734064694934414
 30
0.0
 10
18.23969119940872
 20
7.761084041012732
 30
0.0
1001
PE_URL
1000

  0
SPLINE
  5
99
330
1F
100
AcDbEntity
  8
0
  6
Continuous
 62
     1
370
    15
100
AcDbSpline
210
0.0
220
0.0
230
1.0
 70
     8
 71
     3
 72
    26
 73
    22
 74
     0
 42
0.000000001
 43
0.00000001
 40
0.0
 40
0.0
 40
0.0
 40
0.0
 40
0.0662468059074277
 40
0.122120473106782
 40
0.1678730768958872
 40
0.2043139408442708
 40
0.2371218528019857
 40
0.2714824978456254
 40
0.3286665224600076
 40
0.3878292822163943
 40
0.4403369013017988
 40
0.4889844902824561
 40
0.5329941770022723
 40
0.5777534930380442
 40
0.6240746397825845
 40
0.6725622364056021
 40
0.7298086345090543
 40
0.792591807553172
 40
0.8608732807631818
 40
0.9325386693781328
 40
1.0
 40
1.0
 40
1.0
 40
1.0
 10
18.23969119940872
 20
-7.761084041012735
 30
0.0
 10
18.3967367036897
 20
-7.736386891905433
 30
0.0
 10
18.68623702026171
 20
-7.690859753018353
 30
0.0
 10
19.09892920312893
 20
-7.627951310666687
 30
0.0
 10
19.45018740292664
 20
-7.576457510330498
 30
0.0
 10
19.75422867439454
 20
-7.534356070799847
 30
0.0
 10
20.02647995768702
 20
-7.497822822202279
 30
0.0
 10
20.35434354252128
 20
-7.45402505680183
 30
0.0
 10
20.75149934191901
 20
-7.402157517651446
 30
0.0
 10
21.19626651548529
 20
-7.345990585863428
 30
0.0
 10
21.61473899231331
 20
-7.295577955961795
 30
0.0
 10
21.9817188149917
 20
-7.254095388815591
 30
0.0
 10
22.30778781541794
 20
-7.218728724840183
 30
0.0
 10
22.65054578559407
 20
-7.182415461193291
 30
0.0
 10
23.01087911961897
 20
-7.145998790933718
 30
0.0
 10
23.40250490206968
 20
-7.108277434539337
 30
0.0
 10
23.83699924913197
 20
-7.068767622877842
 30
0.0
 10
24.32200636482169
 20
-7.027600661432041
 30
0.0
 10
24.84371058584911
 20
-6.986908929678408
 30
0.0
 10
25.37797064512618
 20
-6.948942329847621
 30
0.0
 10
25.73649606467621
 20
-6.927024944185995
 30
0.0
 10
25.91034190821571
 20
-6.916397395368653
 30
0.0
1001
PE_URL
1000

  0
SPLINE
  5
9A
330
1F
100
AcDbEntity
  8
0
  6
Continuous
 62
     1
370
    15
100
AcDbSpline
210
0.0
220
0.0
230
1.0
 70
     8
 71
     3
 72
    25
 73
    21
 74
     0
 42
0.000000001
 43
0.00000001
 40
0.0
 40
0.0
 40
0.0
 40
0.0
 40
0.0760485980937342
 40
0.1414656661102269
 40
0.1970264826823645
 40
0.2533849595642904
 40
0.3145108361533048
 40
0.3791154046078525
 40
0.4404281041207435
 40
0.4906703053185743
 40
0.5320065258566024
 40
0.5992239931114101
 40
0.67243359241819
 40
0.7485667579232139
 40
0.8069341616036995
 40
0.8661162760378706
 40
0.8957032559371698
 40
0.9268074066643479
 40
0.9611639165910948
 40
1.0
 40
1.0
 40
1.0
 40
1.0
 10
1.999999999999993
 20
-8.095939194755257
 30
0.0
 10
2.204055768089637
 20
-8.090638524928636
 30
0.0
 10
2.583640479445598
 20
-8.080778214460729
 30
0.0
 10
3.112235851897136
 20
-8.071004907223589
 30
0.0
 10
3.588131888067712
 20
-8.064415938626226
 30
0.0
 10
4.052628538660988
 20
-8.060183739846075
 30
0.0
 10
4.541532188123697
 20
-8.058093864754635
 30
0.0
 10
5.043857653203632
 20
-8.0585651766757
 30
0.0
 10
5.517028031935699
 20
-8.06148302004851
 30
0.0
 10
5.927336083957212
 20
-8.06592247906974
 30
0.0
 10
6.353957714602031
 20
-8.072167639996874
 30
0.0
 10
6.834724348204911
 20
-8.081297076198464
 30
0.0
 10
7.412526709500802
 20
-8.095480273766519
 30
0.0
 10
7.980131445735512
 20
-8.113185230806234
 30
0.0
 10
8.509617965268383
 20
-8.13219454965759
 30
0.0
 10
8.90541716971671
 20
-8.145898749767664
 30
0.0
 10
9.23546245840631
 20
-8.159451213098986
 30
0.0
 10
9.48312621334103
 20
-8.172338281907223
 30
0.0
 10
9.728970949754121
 20
-8.18693526203214
 30
0.0
 10
9.87659884650806
 20
-8.195261815830335
 30
0.0
 10
9.954930396881263
 20
-8.199679895899347
 30
0.0
1001
PE_URL
1000

  0
SPLINE
  5
9B
330
1F
100
AcDbEntity
  8
0
  6
Continuous
 62
     1
370
    15
100
AcDbSpline
210
0.0
220
0.0
230
1.0
 70
     8
 71
     3
 72
    50
 73
    46
 74
     0
 42
0.000000001
 43
0.00000001
 40
0.0
 40
0.0
 40
0.0
 40
0.0
 40
0.0624999999999998
 40
0.0624999999999998
 40
0.0937499999999996
 40
0.0937499999999996
 40
0.1249999999999995
 40
0.1249999999999995
 40
0.1874999999999993
 40
0.1874999999999993
 40
0.2499999999999991
 40
0.2499999999999991
 40
0.3124999999999986
 40
0.3124999999999986
 40
0.3437499999999984
 40
0.3437499999999984
 40
0.3749999999999982
 40
0.3749999999999982
 40
0.4374999999999979
 40
0.4374999999999979
 40
0.4687499999999979
 40
0.4687499999999979
 40
0.4999999999999979
 40
0.4999999999999979
 40
0.5624999999999979
 40
0.5624999999999979
 40
0.5937499999999979
 40
0.5937499999999979
 40
0.6249999999999979
 40
0.6249999999999979
 40
0.6874999999999982
 40
0.6874999999999982
 40
0.7187499999999984
 40
0.7187499999999984
 40
0.7499999999999986
 40
0.7499999999999986
 40
0.812499999999999
 40
0.812499999999999
 40
0.8749999999999993
 40
0.8749999999999993
 40
0.9374999999999997
 40
0.9374999999999997
 40
0.9687499999999999
 40
0.9687499999999999
 40
1.0
 40
1.0
 40
1.0
 40
1.0
 10
40.1
 20
-10.31002874965088
 30
0.0
 10
39.30924672675271
 20
-10.29121463326051
 30
0.0
 10
38.511573417477
 20
-10.24178308836444
 30
0.0
 10
37.32053458240149
 20
-10.12250549402081
 30
0.0
 10
36.92556355620698
 20
-10.07530820700032
 30
0.0
 10
36.13256430361835
 20
-9.965982779887767
 30
0.0
 10
35.73483509955393
 20
-9.903848026114389
 30
0.0
 10
34.54192423952367
 20
-9.695584591091997
 30
0.0
 10
33.75154983656066
 20
-9.527923864838264
 30
0.0
 10
32.16257644606368
 20
-9.136728203913854
 30
0.0
 10
31.36692293364754
 20
-8.913328245852629
 30
0.0
 10
29.78358100990311
 20
-8.41602647999908
 30
0.0
 10
28.98572731317474
 20
-8.14102653914171
 30
0.0
 10
27.79553568300644
 20
-7.694388903950128
 30
0.0
 10
27.40069090403104
 20
-7.53995575515532
 30
0.0
 10
26.60705348349994
 20
-7.219661845796616
 30
0.0
 10
26.20919013172967
 20
-7.053910271973673
 30
0.0
 10
25.01643608830811
 20
-6.541465690933565
 30
0.0
 10
24.22643101064691
 20
-6.180213599437477
 30
0.0
 10
23.03416605948722
 20
-5.611446741379533
 30
0.0
 10
22.63620242410357
 20
-5.417472212490727
 30
0.0
 10
21.84184002663335
 20
-5.022048076126275
 30
0.0
 10
21.44656430447163
 20
-4.820794283479512
 30
0.0
 10
20.257835783779
 20
-4.206314873241866
 30
0.0
 10
19.45990737074252
 20
-3.78202674046709
 30
0.0
 10
18.2707185722356
 20
-3.132072529865888
 30
0.0
 10
17.87564283420694
 20
-2.913190006515522
 30
0.0
 10
17.08147107396415
 20
-2.470700226007726
 30
0.0
 10
16.68352594565327
 20
-2.247301848210531
 30
0.0
 10
15.4910854667406
 20
-1.572871446784438
 30
0.0
 10
14.70114369650441
 20
-1.118215466705659
 30
0.0
 10
13.50850037073528
 20
-0.4318167809565189
 30
0.0
 10
13.11059683420439
 20
-0.2024595116024473
 30
0.0
 10
12.31672575196797
 20
0.2558432928325891
 30
0.0
 10
11.92182874394014
 20
0.4845827266675376
 30
0.0
 10
10.73203313327751
 20
1.170201537850167
 30
0.0
 10
9.93413570820595
 20
1.626058114925194
 30
0.0
 10
8.350094670788632
 20
2.523251496185087
 30
0.0
 10
7.555188026348092
 20
2.966247184521731
 30
0.0
 10
5.965894287871543
 20
3.831978484673725
 30
0.0
 10
5.175709779469245
 20
4.253981682464268
 30
0.0
 10
3.982844778487054
 20
4.86759269785686
 30
0.0
 10
3.585053729631258
 20
5.068701156297841
 30
0.0
 10
2.791777893006318
 20
5.462741117468456
 30
0.0
 10
2.396902415629259
 20
5.6555830004985
 30
0.0
 10
1.999999999999948
 20
5.844430702950175
 30
0.0
1001
PE_URL
1000

  0
SPLINE
  5
9C
330
1F
100
AcDbEntity
  8
0
  6
Continuous
 62
     1
370
    15
100
AcDbSpline
210
0.0
220
0.0
230
1.0
 70
     8
 71
     3
 72
    14
 73
    10
 74
     0
 42
0.000000001
 43
0.00000001
 40
0.0
 40
0.0
 40
0.0
 40
0.0
 40
0.0893909188827329
 40
0.2543293300059472
 40
0.4195286180037924
 40
0.5646077736006313
 40
0.7097341463359783
 40
0.8549822806210559
 40
1.0
 40
1.0
 40
1.0
 40
1.0
 10
14.46574690153779
 20
-0.9816225334341885
 30
0.0
 10
14.09429419134946
 20
-0.833150109703511
 30
0.0
 10
13.03746067747739
 20
-0.4107258576235127
 30
0.0
 10
11.29448524144701
 20
0.2972181488432414
 30
0.0
 10
9.31935179263121
 20
1.091145583347583
 30
0.0
 10
7.4272596799168
 20
1.841441006711719
 30
0.0
 10
5.617893767038148
 20
2.538727776506164
 30
0.0
 10
3.808458048158037
 20
3.212057489789233
 30
0.0
 10
2.602500250360908
 20
3.632763403290224
 30
0.0
 10
2.000000000000007
 20
3.842949380507397
 30
0.0
1001
PE_URL
1000

  0
SPLINE
  5
9D
330
1F
100
AcDbEntity
  8
외형선
  6
Continuous
370
    15
100
AcDbSpline
210
0.0
220
0.0
230
1.0
 70
    24
 71
     3
 72
    10
 73
     6
 74
     0
 42
0.000000001
 43
0.00000001
 40
0.0
 40
0.0
 40
0.0
 40
0.0
 40
0.5
 40
0.5
 40
1.0
 40
1.0
 40
1.0
 40
1.0
 10
2.0
 20
5.844430702950151
 30
0.0
 10
2.0
 20
5.681449207129766
 30
0.0
 10
2.0
 20
5.412218515696173
 30
0.0
 10
2.0
 20
4.715232191859107
 30
0.0
 10
2.0
 20
4.289943811049479
 30
0.0
 10
2.0
 20
3.8429493805074
 30
0.0
  0
SPLINE
  5
9E
330
1F
100
AcDbEntity
  8
0
  6
Continuous
 62
     1
370
    15
100
AcDbSpline
210
0.0
220
0.0
230
1.0
 70
     8
 71
     3
 72
    50
 73
    46
 74
     0
 42
0.000000001
 43
0.00000001
 40
0.0
 40
0.0
 40
0.0
 40
0.0
 40
0.0624999999999994
 40
0.0624999999999994
 40
0.0937499999999993
 40
0.0937499999999993
 40
0.1249999999999992
 40
0.1249999999999992
 40
0.187499999999999
 40
0.187499999999999
 40
0.2499999999999989
 40
0.2499999999999989
 40
0.3124999999999989
 40
0.3124999999999989
 40
0.3437499999999989
 40
0.3437499999999989
 40
0.3749999999999989
 40
0.3749999999999989
 40
0.4374999999999988
 40
0.4374999999999988
 40
0.4687499999999988
 40
0.4687499999999988
 40
0.4999999999999988
 40
0.4999999999999988
 40
0.562499999999999
 40
0.562499999999999
 40
0.593749999999999
 40
0.593749999999999
 40
0.624999999999999
 40
0.624999999999999
 40
0.6874999999999991
 40
0.6874999999999991
 40
0.7187499999999992
 40
0.7187499999999992
 40
0.7499999999999992
 40
0.7499999999999992
 40
0.8124999999999994
 40
0.8124999999999994
 40
0.8749999999999996
 40
0.8749999999999996
 40
0.9374999999999998
 40
0.9374999999999998
 40
0.9687499999999999
 40
0.9687499999999999
 40
1.0
 40
1.0
 40
1.0
 40
1.0
 10
40.09999999999999
 20
-9.791883594386665
 30
0.0
 10
39.30924672675263
 20
-9.647499011918278
 30
0.0
 10
38.51157341747686
 20
-9.473668286150215
 30
0.0
 10
37.32053458240125
 20
-9.172034778214222
 30
0.0
 10
36.92556355620671
 20
-9.064813571846127
 30
0.0
 10
36.132564303618
 20
-8.836867118212567
 30
0.0
 10
35.73483509955356
 20
-8.716152276279509
 30
0.0
 10
34.54192423952325
 20
-8.3349317466892
 30
0.0
 10
33.75154983656017
 20
-8.055888893379894
 30
0.0
 10
32.16257644606306
 20
-7.45089959027309
 30
0.0
 10
31.36692293364685
 20
-7.125240025454453
 30
0.0
 10
29.7835810099023
 20
-6.434906512446264
 30
0.0
 10
28.98572731317387
 20
-6.068731727698466
 30
0.0
 10
27.79553568300547
 20
-5.49517652551799
 30
0.0
 10
27.40069090403001
 20
-5.300096673421793
 30
0.0
 10
26.60705348349888
 20
-4.901744894404659
 30
0.0
 10
26.20919013172856
 20
-4.698617516485245
 30
0.0
 10
25.01643608830692
 20
-4.079387983907377
 30
0.0
 10
24.22643101064565
 20
-3.654173143967823
 30
0.0
 10
23.03416605948587
 20
-3.000747005301625
 30
0.0
 10
22.63620242410218
 20
-2.780453988457322
 30
0.0
 10
21.84184002663191
 20
-2.336368255381138
 30
0.0
 10
21.44656430447015
 20
-2.112789706324262
 30
0.0
 10
20.25783578377743
 20
-1.437326857081494
 30
0.0
 10
19.45990737074088
 20
-0.9803901641624029
 30
0.0
 10
18.27071857223387
 20
-0.2941277295216003
 30
0.0
 10
17.87564283420518
 20
-0.0652412814410276
 30
0.0
 10
17.08147107396232
 20
0.3930630573927009
 30
0.0
 10
16.68352594565142
 20
0.6222589107424972
 30
0.0
 10
15.49108546673864
 20
1.307688138639172
 30
0.0
 10
14.70114369650239
 20
1.761163204772497
 30
0.0
 10
13.50850037073316
 20
2.433026309482442
 30
0.0
 10
13.11059683420224
 20
2.655409554180624
 30
0.0
 10
12.31672575196578
 20
3.095559579109236
 30
0.0
 10
11.92182874393791
 20
3.313134398926059
 30
0.0
 10
10.73203313327517
 20
3.958969001331459
 30
0.0
 10
9.934135708203552
 20
4.37988814238578
 30
0.0
 10
8.350094670786131
 20
5.191327908105185
 30
0.0
 10
7.555188026345502
 20
5.583366736949687
 30
0.0
 10
5.965894287868838
 20
6.332008513560475
 30
0.0
 10
5.175709779466481
 20
6.688009688464733
 30
0.0
 10
3.982844778484189
 20
7.191906348021179
 30
0.0
 10
3.585053729628362
 20
7.354687799394008
 30
0.0
 10
2.791777893003371
 20
7.668826077279032
 30
0.0
 10
2.396902415626277
 20
7.820118472020506
 30
0.0
 10
1.999999999996914
 20
7.965776746919691
 30
0.0
1001
PE_URL
1000

  0
SPLINE
  5
9F
330
1F
100
AcDbEntity
  8
0
  6
Continuous
 62
     1
370
    15
100
AcDbSpline
210
0.0
220
0.0
230
1.0
 70
     8
 71
     3
 72
    20
 73
    16
 74
     0
 42
0.000000001
 43
0.00000001
 40
0.0
 40
0.0
 40
0.0
 40
0.0
 40
0.0769708002164711
 40
0.1538556941503103
 40
0.2308368411567516
 40
0.3077969615477205
 40
0.3846825658936177
 40
0.4616726879728115
 40
0.5386228341562895
 40
0.6155098592809803
 40
0.6925075840779313
 40
0.7694484623069672
 40
0.8463376184865489
 40
0.9233415731059293
 40
1.0
 40
1.0
 40
1.0
 40
1.0
 10
40.1
 20
-8.141207552949535
 30
0.0
 10
39.41382777876306
 20
-8.005606463900968
 30
0.0
 10
38.04224916572849
 20
-7.734555628721518
 30
0.0
 10
35.98511680467397
 20
-7.195878655851159
 30
0.0
 10
33.92728572603598
 20
-6.570554669577352
 30
0.0
 10
31.86961792320967
 20
-5.856078340641521
 30
0.0
 10
29.81248649260181
 20
-5.063581108572215
 30
0.0
 10
27.75458634887019
 20
-4.205336002475664
 30
0.0
 10
25.69699551616867
 20
-3.290965410257133
 30
0.0
 10
23.63985896826746
 20
-2.331931705419233
 30
0.0
 10
21.58190069572959
 20
-1.343885008309901
 30
0.0
 10
19.5243794787582
 20
-0.3369649660475095
 30
0.0
 10
17.46723715917146
 20
0.6746496756852426
 30
0.0
 10
15.41165339250547
 20
1.676707414179612
 30
0.0
 10
14.04205255210109
 20
2.324417494127119
 30
0.0
 10
13.35879198523941
 20
2.647544308401191
 30
0.0
1001
PE_URL
1000

  0
LINE
  5
A0
330
1F
100
AcDbEntity
  8
0
  6
Continuous
 62
     1
370
    15
100
AcDbLine
 10
40.09999999999972
 20
-9.791883594386672
 30
0.0
 11
40.1
 21
-8.141207552949535
 31
0.0
1001
PE_URL
1000

  0
LINE
  5
A1
330
1F
100
AcDbEntity
  8
외형선
  6
Continuous
370
    15
100
AcDbLine
 10
2.0
 20
5.844430702950148
 30
0.0
 11
2.0
 21
7.965776746910479
 31
0.0
  0
LINE
  5
A2
330
1F
100
AcDbEntity
  8
0
  6
Continuous
 62
     1
370
    15
100
AcDbLine
 10
40.1
 20
-10.31002874965089
 30
0.0
 11
40.09999999999909
 21
-9.791883594386647
 31
0.0
1001
PE_URL
1000

  0
SPLINE
  5
A3
330
1F
100
AcDbEntity
  8
0
  6
Continuous
 62
     1
370
    15
100
AcDbSpline
210
0.0
220
0.0
230
1.0
 70
     8
 71
     3
 72
    10
 73
     6
 74
     0
 42
0.000000001
 43
0.00000001
 40
0.0
 40
0.0
 40
0.0
 40
0.0
 40
0.5
 40
0.5
 40
1.0
 40
1.0
 40
1.0
 40
1.0
 10
40.1
 20
-2.757613149343399
 30
0.0
 10
39.24405189114962
 20
-2.084697382489834
 30
0.0
 10
38.39928731791928
 20
-1.390213294025299
 30
0.0
 10
36.7320226342628
 20
0.0416936377457141
 30
0.0
 10
35.90947597532531
 20
0.7790267086136794
 30
0.0
 10
35.10000000000203
 20
1.5415676133407
 30
0.0
1001
PE_URL
1000

  0
LINE
  5
A4
330
1F
100
AcDbEntity
  8
0
  6
Continuous
 62
     1
370
    15
100
AcDbLine
 10
35.1
 20
2.93771943529659
 30
0.0
 11
40.1
 21
0.0000000000000037
 31
0.0
1001
PE_URL
1000

  0
LINE
  5
A5
330
1F
100
AcDbEntity
  8
0
  6
Continuous
 62
     1
370
    15
100
AcDbLine
 10
40.1
 20
0.0000000000000037
 30
0.0
 11
40.1
 21
-2.757613149343395
 31
0.0
1001
PE_URL
1000

  0
SPLINE
  5
A6
330
1F
100
AcDbEntity
  8
외형선
  6
Continuous
370
    15
100
AcDbSpline
210
0.0
220
0.0
230
1.0
 70
    24
 71
     3
 72
    10
 73
     6
 74
     0
 42
0.000000001
 43
0.00000001
 40
0.0
 40
0.0
 40
0.0
 40
0.0
 40
0.2588437345625993
 40
0.9261205705855923
 40
0.9999999999999999
 40
0.9999999999999999
 40
0.9999999999999999
 40
0.9999999999999999
 10
1.999999999999996
 20
8.086124638702323
 30
0.0
 10
1.999999999999996
 20
8.08833472332984
 30
0.0
 10
1.999999999999996
 20
8.09624221562336
 30
0.0
 10
1.999999999999998
 20
8.061606817002282
 30
0.0
 10
1.999999999999996
 20
8.004275855965489
 30
0.0
 10
1.999999999999996
 20
7.998561030514098
 30
0.0
  0
SPLINE
  5
A7
330
1F
100
AcDbEntity
  8
0
  6
Continuous
 62
     1
370
    15
100
AcDbSpline
210
0.0
220
0.0
230
1.0
 70
     8
 71
     3
 72
    20
 73
    16
 74
     0
 42
0.000000001
 43
0.00000001
 40
0.0
 40
0.0
 40
0.0
 40
0.0
 40
0.0700449150569138
 40
0.140225838433226
 40
0.2102566656119422
 40
0.2921322937925329
 40
0.3739648216926886
 40
0.4557292804725722
 40
0.5376131060038436
 40
0.6194356414096559
 40
0.7012023974270704
 40
0.7830929403706529
 40
0.8649062452199251
 40
0.9466760639912606
 40
1.0
 40
1.0
 40
1.0
 40
1.0
 10
35.09999999999999
 20
2.279221589113958
 30
0.0
 10
34.51302503054595
 20
2.53795754563089
 30
0.0
 10
33.33793534467608
 20
3.055931854057557
 30
0.0
 10
31.57499690434703
 20
3.795023520145139
 30
0.0
 10
29.71417495767519
 20
4.540891738327709
 30
0.0
 10
27.75455043847139
 20
5.270714217318425
 30
0.0
 10
25.69699343491489
 20
5.968353765679998
 30
0.0
 10
23.63980099392599
 20
6.587508496543168
 30
0.0
 10
21.58188335333704
 20
7.118356580554274
 30
0.0
 10
19.52435823626926
 20
7.555644579957371
 30
0.0
 10
17.46716529013732
 20
7.892791305830222
 30
0.0
 10
15.40920204324882
 20
8.126072995537868
 30
0.0
 10
13.35173629861761
 20
8.247784888831859
 30
0.0
 10
11.53397070297693
 20
8.273097229719493
 30
0.0
 10
10.40144406842476
 20
8.21155586251934
 30
0.0
 10
9.95441542607659
 20
8.1872643774554
 30
0.0
1001
PE_URL
1000

  0
SPLINE
  5
A8
330
1F
100
AcDbEntity
  8
0
  6
Continuous
 62
     1
370
    15
100
AcDbSpline
210
0.0
220
0.0
230
1.0
 70
    24
 71
     3
 72
     8
 73
     4
 74
     0
 42
0.000000001
 43
0.00000001
 40
0.0
 40
0.0
 40
0.0
 40
0.0
 40
1.0
 40
1.0
 40
1.0
 40
1.0
 10
35.1
 20
1.541567613331816
 30
0.0
 10
35.1
 20
1.790034597079982
 30
0.0
 10
35.1
 20
2.036158352876969
 30
0.0
 10
35.1
 20
2.279221589113959
 30
0.0
1001
PE_URL
1000

  0
SPLINE
  5
A9
330
1F
100
AcDbEntity
  8
0
  6
Continuous
 62
     1
370
    15
100
AcDbSpline
210
0.0
220
0.0
230
1.0
 70
    24
 71
     3
 72
    10
 73
     6
 74
     0
 42
0.000000001
 43
0.00000001
 40
0.0
 40
0.0
 40
0.0
 40
0.0
 40
0.5
 40
0.5
 40
1.0
 40
1.0
 40
1.0
 40
1.0
 10
40.1
 20
-8.141207552949528
 30
0.0
 10
40.1
 20
-7.517120520283012
 30
0.0
 10
40.1
 20
-6.728562624559874
 30
0.0
 10
40.09999999999999
 20
-4.895241407236082
 30
0.0
 10
40.1
 20
-3.852066177985706
 30
0.0
 10
40.1
 20
-2.757613149343729
 30
0.0
1001
PE_URL
1000

  0
SPLINE
  5
AA
330
1F
100
AcDbEntity
  8
0
  6
Continuous
 62
     1
370
    15
100
AcDbSpline
210
0.0
220
0.0
230
1.0
 70
    24
 71
     3
 72
    10
 73
     6
 74
     0
 42
0.000000001
 43
0.00000001
 40
0.0
 40
0.0
 40
0.0
 40
0.0
 40
0.5
 40
0.5
 40
1.0
 40
1.0
 40
1.0
 40
1.0
 10
35.1
 20
2.279221589113954
 30
0.0
 10
35.1
 20
2.930490490764
 30
0.0
 10
35.10000000000002
 20
3.549290110444906
 30
0.0
 10
35.1
 20
4.664673689832867
 30
0.0
 10
35.10000000000002
 20
5.160757541772306
 30
0.0
 10
35.10000000000002
 20
5.572296685583262
 30
0.0
1001
PE_URL
1000

  0
SPLINE
  5
AB
330
1F
100
AcDbEntity
  8
0
  6
Continuous
 62
     1
370
    15
100
AcDbSpline
210
0.0
220
0.0
230
1.0
 70
     8
 71
     3
 72
     9
 73
     5
 74
     0
 42
0.000000001
 43
0.00000001
 40
0.0
 40
0.0
 40
0.0
 40
0.0
 40
0.5368282605070793
 40
1.0
 40
1.0
 40
1.0
 40
1.0
 10
40.1
 20
7.223124999999997
 30
0.0
 10
39.41384377320854
 20
7.215692114854937
 30
0.0
 10
38.13567666229061
 20
7.201846187410584
 30
0.0
 10
36.8577397562218
 20
7.099421752046192
 30
0.0
 10
36.26583549647568
 20
7.051981648151886
 30
0.0
1001
PE_URL
1000

  0
SPLINE
  5
AC
330
1F
100
AcDbEntity
  8
0
  6
Continuous
 62
     1
370
    15
100
AcDbSpline
210
0.0
220
0.0
230
1.0
 70
     8
 71
     3
 72
     8
 73
     4
 74
     0
 42
0.000000001
 43
0.00000001
 40
0.0
 40
0.0
 40
0.0
 40
0.0
 40
1.0
 40
1.0
 40
1.0
 40
1.0
 10
40.1
 20
7.223125000000002
 30
0.0
 10
38.41596526849705
 20
6.766557509173663
 30
0.0
 10
36.74621092951797
 20
6.223096727994649
 30
0.0
 10
35.09999999999999
 20
5.572296685583262
 30
0.0
1001
PE_URL
1000

  0
SPLINE
  5
AD
330
1F
100
AcDbEntity
  8
0
  6
Continuous
 62
     1
370
    15
100
AcDbSpline
210
0.0
220
0.0
230
1.0
 70
     8
 71
     3
 72
    16
 73
    12
 74
     0
 42
0.000000001
 43
0.00000001
 40
0.0
 40
0.0
 40
0.0
 40
0.0
 40
0.0477560020838585
 40
0.1745230625681759
 40
0.3011705580109001
 40
0.4277507367394611
 40
0.5545259041286905
 40
0.6658655082070406
 40
0.777240407059757
 40
0.8887063128180194
 40
1.0
 40
1.0
 40
1.0
 40
1.0
 10
18.24373556002759
 20
-7.748457568606379
 30
0.0
 10
17.98518635783859
 20
-7.792312092523336
 30
0.0
 10
17.04032504990606
 20
-7.952577305009443
 30
0.0
 10
15.40919135939495
 20
-8.121204515704711
 30
0.0
 10
13.35173481648553
 20
-8.251605423506653
 30
0.0
 10
11.29454413043513
 20
-8.266011213543528
 30
0.0
 10
9.319308310136382
 20
-8.176557733452483
 30
0.0
 10
7.427278735690691
 20
-7.997109171834083
 30
0.0
 10
5.617926020319829
 20
-7.742322635878364
 30
0.0
 10
3.808413508920595
 20
-7.41381813056628
 30
0.0
 10
2.602493731789839
 20
-7.130998064896761
 30
0.0
 10
1.999999999999993
 20
-6.9896973581485
 30
0.0
1001
PE_URL
1000

  0
SPLINE
  5
AE
330
1F
100
AcDbEntity
  8
외형선
  6
Continuous
370
    15
100
AcDbSpline
210
0.0
220
0.0
230
1.0
 70
    24
 71
     3
 72
    14
 73
    10
 74
     0
 42
0.000000001
 43
0.00000001
 40
0.0
 40
0.0
 40
0.0
 40
0.0
 40
0.25
 40
0.25
 40
0.4999999999999999
 40
0.4999999999999999
 40
0.75
 40
0.75
 40
1.0
 40
1.0
 40
1.0
 40
1.0
 10
2.0
 20
3.842949380507399
 30
0.0
 10
2.0
 20
2.983182938993095
 30
0.0
 10
2.0
 20
2.057760388999146
 30
0.0
 10
2.0
 20
0.1493513186933814
 30
0.0
 10
2.0
 20
-0.8328193863866739
 30
0.0
 10
2.0
 20
-2.758093029076469
 30
0.0
 10
2.0
 20
-3.70017010039712
 30
0.0
 10
2.0
 20
-5.455809471567406
 30
0.0
 10
2.0
 20
-6.26877052947079
 30
0.0
 10
2.0
 20
-6.989697358148499
 30
0.0
  0
SPLINE
  5
AF
330
1F
100
AcDbEntity
  8
외형선
  6
Continuous
370
    15
100
AcDbSpline
210
0.0
220
0.0
230
1.0
 70
    24
 71
     3
 72
    13
 73
     9
 74
     0
 42
0.000000001
 43
0.00000001
 40
0.0
 40
0.0
 40
0.0
 40
0.0
 40
0.1698848887169216
 40
0.3400138991949014
 40
0.509898787911823
 40
0.6966297566748
 40
0.883360725437777
 40
1.0
 40
1.0
 40
1.0
 40
1.0
 10
2.0
 20
-6.989697358148502
 30
0.0
 10
2.0
 20
-7.107218578448376
 30
0.0
 10
2.0
 20
-7.342429895088117
 30
0.0
 10
1.999999999999996
 20
-7.618770078482141
 30
0.0
 10
1.999999999999995
 20
-7.845473331702398
 30
0.0
 10
1.999999999999996
 20
-8.00321092217633
 30
0.0
 10
1.999999999999996
 20
-8.089522556768244
 30
0.0
 10
1.999999999999996
 20
-8.086968251716094
 30
0.0
 10
1.999999999999996
 20
-8.085986176859222
 30
0.0
  0
LINE
  5
B0
330
1F
100
AcDbEntity
  8
0
  6
Continuous
 62
     1
370
    15
100
AcDbLine
 10
40.1
 20
0.0000000000000037
 30
0.0
 11
40.1
 21
7.223125000000001
 31
0.0
1001
PE_URL
1000

  0
SPLINE
  5
B1
330
1F
100
AcDbEntity
  8
0
  6
Continuous
 62
     1
370
    15
100
AcDbSpline
210
0.0
220
0.0
230
1.0
 70
     8
 71
     3
 72
    15
 73
    11
 74
     0
 42
0.000000001
 43
0.00000001
 40
0.0
 40
0.0
 40
0.0
 40
0.0
 40
0.0832221784797782
 40
0.2154611707037292
 40
0.3477912047960471
 40
0.4801835036981708
 40
0.6100378924947886
 40
0.7401359767285804
 40
0.870004153432341
 40
0.9999999999999999
 40
0.9999999999999999
 40
0.9999999999999999
 40
0.9999999999999999
 10
25.9107602266276
 20
6.916574009262244
 30
0.0
 10
26.30448727294256
 20
7.0855431476528
 30
0.0
 10
27.32384163119643
 20
7.52300211634918
 30
0.0
 10
28.96829871421433
 20
8.139869971142865
 30
0.0
 10
30.84585677368614
 20
8.76544224248294
 30
0.0
 10
32.71258144986629
 20
9.28760977476388
 30
0.0
 10
34.56743139926461
 20
9.708747580586504
 30
0.0
 10
36.41212459539889
 20
10.02058872146416
 30
0.0
 10
38.25582450998653
 20
10.23463975067517
 30
0.0
 10
39.48507352874616
 20
10.28489085395574
 30
0.0
 10
40.1
 20
10.31002874965088
 30
0.0
1001
PE_URL
1000

  0
SPLINE
  5
B2
330
1F
100
AcDbEntity
  8
0
  6
Continuous
 62
     1
370
    15
100
AcDbSpline
210
0.0
220
0.0
230
1.0
 70
    24
 71
     3
 72
    10
 73
     6
 74
     0
 42
0.000000001
 43
0.00000001
 40
0.0
 40
0.0
 40
0.0
 40
0.0
 40
0.5
 40
0.5
 40
1.0
 40
1.0
 40
1.0
 40
1.0
 10
40.1
 20
7.223124999999999
 30
0.0
 10
40.1
 20
7.660972849930467
 30
0.0
 10
40.1
 20
8.169792600622568
 30
0.0
 10
40.1
 20
9.237295067164826
 30
0.0
 10
40.1
 20
9.793251515676442
 30
0.0
 10
40.1
 20
10.31002874965089
 30
0.0
1001
PE_URL
1000

  0
LINE
  5
B3
330
1F
100
AcDbEntity
  8
중심선
 62
     1
100
AcDbLine
 10
-58.97500000000001
 20
-0.0000000000000062
 30
0.0
 11
47.10000000000002
 21
0.0000000000000062
 31
0.0
  0
LINE
  5
B4
330
1F
100
AcDbEntity
  8
참조1
100
AcDbLine
 10
-4.349999999999994
 20
-0.0000000000000051
 30
0.0
 11
-4.349999999999989
 21
-40.00000000000001
 31
0.0
  0
LINE
  5
B5
330
1F
100
AcDbEntity
  8
참조1
100
AcDbLine
 10
-4.349999999999989
 20
-40.00000000000001
 30
0.0
 11
-24.27133181430868
 21
-40.0
 31
0.0
  0
INSERT
  5
B7
330
1F
100
AcDbEntity
  8
0
  6
Continuous
 62
     7
100
AcDbBlockReference
 66
     1
  2
블럭10
 10
-18.2902729321252
 20
-52.04717430164393
 30
0.0
  0
ATTRIB
  5
B8
330
B7
100
AcDbEntity
  8
FORMAT
 62
     2
100
AcDbText
 10
-27.47156822086648
 20
-49.97180738881174
 30
0.0
 40
4.233333333333333
  1
E2030052 [ 2 FLUTE ]
 41
0.75
  7
SLDTEXTSTYLE0
 11
-27.47156822086648
 21
-52.08847405547841
 31
0.0
100
AcDbAttribute
  2
AUTOATTR0
 70
     0
 74
     1
  0
SEQEND
  5
B9
330
B7
100
AcDbEntity
  8
0
  6
Continuous
 62
     7
  0
HATCH
  5
BA
330
1F
100
AcDbEntity
  8
중심선
100
AcDbHatch
 10
0.0
 20
0.0
 30
0.0
210
0.0
220
0.0
230
1.0
  2
SOLID
 70
     1
 71
     0
 91
        1
 92
        0
 93
        4
 72
     1
 10
-12.57536362774436
 20
-35.8
 11
-16.02163887158164
 21
-35.8
 72
     1
 10
-16.02163887158164
 20
-35.8
 11
-18.14986873078566
 21
-38.3363255805726
 72
     1
 10
-18.14986873078566
 20
-38.3363255805726
 11
-14.70356040183523
 21
-38.33628615127011
 72
     1
 10
-14.70356040183523
 20
-38.33628615127011
 11
-12.57536362774436
 21
-35.8
 97
        0
 75
     0
 76
     1
 98
        1
 10
-1.740578832126938
 20
-0.0010749287238943
  0
HATCH
  5
BB
330
1F
100
AcDbEntity
  8
중심선
100
AcDbHatch
 10
0.0
 20
0.0
 30
0.0
210
0.0
220
0.0
230
1.0
  2
SOLID
 70
     1
 71
     0
 91
        1
 92
        0
 93
        4
 72
     1
 10
-7.562599636708377
 20
-35.8
 11
-11.00887488054566
 21
-35.8
 72
     1
 10
-11.00887488054566
 20
-35.8
 11
-15.54001288890308
 21
-41.20000000000002
 72
     1
 10
-15.54001288890308
 20
-41.20000000000002
 11
-12.09373764506579
 21
-41.20000000000002
 72
     1
 10
-12.09373764506579
 20
-41.20000000000002
 11
-7.562599636708377
 21
-35.8
 97
        0
 75
     0
 76
     1
 98
        1
 10
-1.740578832126938
 20
-0.0010749287238943
  0
HATCH
  5
BC
330
1F
100
AcDbEntity
  8
중심선
100
AcDbHatch
 10
0.0
 20
0.0
 30
0.0
210
0.0
220
0.0
230
1.0
  2
SOLID
 70
     1
 71
     0
 91
        1
 92
        0
 93
        4
 72
     1
 10
-2.549835645672511
 20
-35.8
 11
-5.996110889509627
 21
-35.8
 72
     1
 10
-5.996110889509627
 20
-35.8
 11
-13.04454779139888
 21
-44.20000000000002
 72
     1
 10
-13.04454779139888
 20
-44.20000000000002
 11
-9.598272547561594
 21
-44.20000000000002
 72
     1
 10
-9.598272547561592
 20
-44.20000000000002
 11
-2.54983564567251
 21
-35.8
 97
        0
 75
     0
 76
     1
 98
        1
 10
-1.740578832126938
 20
-0.0010749287238943
  0
HATCH
  5
BD
330
1F
100
AcDbEntity
  8
중심선
100
AcDbHatch
 10
0.0
 20
0.0
 30
0.0
210
0.0
220
0.0
230
1.0
  2
SOLID
 70
     1
 71
     0
 91
        1
 92
        0
 93
        6
 72
     3
 10
2.250054785339689
 20
-40.00000000005127
 11
3.960054785062284
 21
1.540882976769353E-10
 40
0.3939339440162627
 50
17.09539180608438
 51
320.0019657685082
 73
     0
 72
     1
 10
3.933054441040285
 20
-38.5878940046383
 11
6.238356314741321
 21
-36.65356729459035
 72
     3
 10
2.250054785286842
 20
-40.00000000000015
 11
6.600054785286829
 21
-1.278976924368180E-13
 40
0.636358354079598
 50
39.99873849337429
 51
368.4976242363724
 73
     1
 72
     1
 10
8.67538727718745
 20
-39.03999999993002
 11
0.9301220921227635
 21
-39.03999999993002
 72
     1
 10
0.9301220921227644
 20
-39.03999999993002
 11
0.9300970476768304
 21
-40.95999999992991
 72
     1
 10
0.9300970476768304
 20
-40.95999999992991
 11
5.371476817148868
 21
-40.95999999992988
 97
        0
 75
     0
 76
     1
 98
        1
 10
-1.740578832126938
 20
-0.0010749287238943
  0
DIMENSION
  5
BE
330
1F
100
AcDbEntity
  8
치수문자_일반주서
100
AcDbDimension
  2
_D
 10
-66.97499999999995
 20
-8.0931731267892
 30
0.0
 11
-66.97500000000008
 21
27.6568268732108
 31
0.0
 70
   160
  1
%%c<>
 71
     2
 42
15.875
 52
-270.0
  3
SLDDIMSTYLE2
100
AcDbAlignedDimension
 13
-50.97499999999999
 23
7.781826873210862
 33
0.0
 14
-50.97499999999999
 24
-8.093173126789136
 34
0.0
 50
90.0000000000002
100
AcDbRotatedDimension
1001
PE_URL
1000

1001
ACAD
1000
DSTYLE
1002
{
1070
   171
1070
     8
1070
   273
1070
     7
1070
    41
1040
4.0
1070
   140
1040
4.0
1002
}
1001
ACAD_DSTYLE_DIMFLIPARROW_SYMBOL
1070
   385
1070
     0
1001
ACAD_DSTYLE_DIMFLIPARROW_WHICH_SYMBOL
1070
   386
1070
     3
  0
DIMENSION
  5
CC
330
1F
100
AcDbEntity
  8
치수문자_일반주서
100
AcDbDimension
  2
_D_1
 10
2.0
 20
22.78182687321087
 30
0.0
 11
60.225
 21
22.78182687321087
 31
0.0
 70
   160
  1
<>
 71
     2
 42
38.1
  3
SLDDIMSTYLE2
100
AcDbAlignedDimension
 13
40.1
 23
10.31002874965089
 33
0.0
 14
2.0
 24
5.472849324069392
 34
0.0
100
AcDbRotatedDimension
1001
PE_URL
1000

1001
ACAD
1000
DSTYLE
1002
{
1070
   171
1070
     8
1070
   273
1070
     7
1070
    41
1040
4.0
1070
   140
1040
4.0
1002
}
1001
ACAD_DSTYLE_DIMFLIPARROW_SYMBOL
1070
   385
1070
     0
1001
ACAD_DSTYLE_DIMFLIPARROW_WHICH_SYMBOL
1070
   386
1070
     3
  0
DIMENSION
  5
E2
330
1F
100
AcDbEntity
  8
치수문자_일반주서
100
AcDbDimension
  2
_D_2
 10
-51.975
 20
37.78182687321087
 30
0.0
 11
-4.350000000000004
 21
37.78182687321087
 31
0.0
 70
   160
  1
<>
 71
     2
 42
92.07500000000002
  3
SLDDIMSTYLE2
100
AcDbAlignedDimension
 13
40.1
 23
10.31002874965089
 33
0.0
 14
-51.97500000000001
 24
6.781826873210859
 34
0.0
 50
0.000000000000008
100
AcDbRotatedDimension
1001
PE_URL
1000

1001
ACAD
1000
DSTYLE
1002
{
1070
   171
1070
     8
1070
   273
1070
     7
1070
    41
1040
4.0
1070
   140
1040
4.0
1002
}
  0
DIMENSION
  5
F6
330
1F
100
AcDbEntity
  8
치수문자_일반주서
100
AcDbDimension
  2
_D_3
 10
83.83738343029847
 20
10.31002874965105
 30
0.0
 11
83.8373834302984
 21
32.43502874965105
 31
0.0
 70
   160
  1
%%c<>
 71
     2
 42
20.62005749930178
 52
-270.0
  3
SLDDIMSTYLE2
100
AcDbAlignedDimension
 13
40.1
 23
-10.31002874965089
 33
0.0
 14
40.1
 24
10.31002874965089
 34
0.0
 50
90.0000000000002
100
AcDbRotatedDimension
1001
PE_URL
1000

1001
ACAD
1000
DSTYLE
1002
{
1070
   171
1070
     8
1070
   273
1070
     7
1070
    41
1040
4.0
1070
   140
1040
4.0
1002
}
  0
LINE
  5
10A
330
1F
100
AcDbEntity
  8
참조1
100
AcDbLine
 10
73.70100881534559
 20
7.440000000000001
 30
0.0
 11
73.70100881534559
 21
-7.440000000000003
 31
0.0
  0
LINE
  5
10B
330
1F
100
AcDbEntity
  8
참조1
100
AcDbLine
 10
86.40100881534559
 20
5.440000000000001
 30
0.0
 11
73.70100881534559
 21
5.440000000000001
 31
0.0
  0
SOLID
  5
10C
330
1F
100
AcDbEntity
  8
참조1
100
AcDbTrace
 10
73.70100881534559
 20
5.440000000000001
 30
0.0
 11
80.05100881534558
 21
4.424000000000001
 31
0.0
 12
80.05100881534558
 22
6.456000000000001
 32
0.0
 13
80.05100881534558
 23
6.456000000000001
 33
0.0
  0
LINE
  5
10D
330
1F
100
AcDbEntity
  8
참조1
100
AcDbLine
 10
86.40100881534559
 20
-5.440000000000003
 30
0.0
 11
73.70100881534559
 21
-5.440000000000003
 31
0.0
  0
SOLID
  5
10E
330
1F
100
AcDbEntity
  8
참조1
100
AcDbTrace
 10
73.70100881534559
 20
-5.440000000000003
 30
0.0
 11
80.05100881534558
 21
-6.456000000000003
 31
0.0
 12
80.05100881534558
 22
-4.424000000000003
 32
0.0
 13
80.05100881534558
 23
-4.424000000000003
 33
0.0
  0
MTEXT
  5
10F
330
1F
100
AcDbEntity
  8
참조1
100
AcDbMText
 10
83.08535894797157
 20
11.01029177718833
 30
0.0
 40
3.5
 41
0.0
 71
     1
 72
     1
  1
A
  7
SLDTEXTSTYLE0
 73
     1
 44
1.0
  0
MTEXT
  5
110
330
1F
100
AcDbEntity
  8
참조1
100
AcDbMText
 10
83.08535894797157
 20
0.1302917771883258
 30
0.0
 40
3.5
 41
0.0
 71
     1
 72
     1
  1
A
  7
SLDTEXTSTYLE0
 73
     1
 44
1.0
  0
LINE
  5
188
330
1F
100
AcDbEntity
  8
외형선
  6
Continuous
370
    15
100
AcDbLine
 10
1.999999999999999
 20
7.781826873210866
 30
0.0
 11
-21.02192500000008
 21
7.781826873210864
 31
0.0
  0
LINE
  5
189
330
1F
100
AcDbEntity
  8
외형선
  6
Continuous
370
    15
100
AcDbLine
 10
-50.97499999999999
 20
-8.09317312678914
 30
0.0
 11
2.000000000000004
 21
-8.093173126789136
 31
0.0
  0
LINE
  5
18A
330
1F
100
AcDbEntity
  8
외형선
  6
Continuous
370
    15
100
AcDbLine
 10
-50.97499999999999
 20
7.781826873210859
 30
0.0
 11
-51.97500000000001
 21
6.781826873210859
 31
0.0
  0
LINE
  5
18B
330
1F
100
AcDbEntity
  8
외형선
  6
Continuous
370
    15
100
AcDbLine
 10
-51.97500000000001
 20
-7.093173126789134
 30
0.0
 11
-50.97499999999999
 21
-8.093173126789136
 31
0.0
  0
LINE
  5
18E
330
1F
100
AcDbEntity
  8
외형선
  6
Continuous
370
    15
100
AcDbLine
 10
2.0
 20
7.168339504663416
 30
0.0
 11
2.0
 21
6.038402612505923
 31
0.0
  0
LINE
  5
192
330
1F
100
AcDbEntity
  8
외형선
  6
Continuous
370
    15
100
AcDbLine
 10
-50.97499999999999
 20
7.781826873210859
 30
0.0
 11
-50.97499999999999
 21
-8.09317312678914
 31
0.0
  0
LINE
  5
194
330
1F
100
AcDbEntity
  8
외형선
  6
Continuous
370
    15
100
AcDbLine
 10
-51.97500000000001
 20
6.781826873210859
 30
0.0
 11
-51.97500000000001
 21
-7.093173126789134
 31
0.0
  0
SPLINE
  5
195
330
1F
100
AcDbEntity
  8
외형선
  6
Continuous
370
    15
100
AcDbSpline
210
0.0
220
0.0
230
1.0
 70
    24
 71
     3
 72
    14
 73
    10
 74
     0
 42
0.000000001
 43
0.00000001
 40
0.0
 40
0.0
 40
0.0
 40
0.0
 40
0.2500000000000001
 40
0.2500000000000001
 40
0.5000000000000002
 40
0.5000000000000002
 40
0.7500000000000001
 40
0.7500000000000001
 40
1.0
 40
1.0
 40
1.0
 40
1.0
 10
2.0
 20
4.03369368430822
 30
0.0
 10
2.0
 20
3.469532198505364
 30
0.0
 10
2.0
 20
2.835812361049006
 30
0.0
 10
2.0
 20
1.472287248757199
 30
0.0
 10
2.0
 20
0.7429579928616565
 30
0.0
 10
2.0
 20
-0.7429579928616459
 30
0.0
 10
2.0
 20
-1.498752964528707
 30
0.0
 10
2.0
 20
-2.963121005153775
 30
0.0
 10
2.0
 20
-3.671076415837808
 30
0.0
 10
2.0
 20
-4.326885611928303
 30
0.0
  0
SPLINE
  5
199
330
1F
100
AcDbEntity
  8
외형선
  6
Continuous
370
    15
100
AcDbSpline
210
0.0
220
0.0
230
1.0
 70
    24
 71
     3
 72
    14
 73
    10
 74
     0
 42
0.000000001
 43
0.00000001
 40
0.0
 40
0.0
 40
0.0
 40
0.0
 40
0.15266884771503
 40
0.3053376954300597
 40
0.5286179486179072
 40
0.6436004399011238
 40
0.7585829311843406
 40
0.9602124568226299
 40
1.0
 40
1.0
 40
1.0
 40
1.0
 10
2.0
 20
-4.326885611928303
 30
0.0
 10
2.0
 20
-4.541309288887339
 30
0.0
 10
2.0
 20
-4.970156642805414
 30
0.0
 10
2.0
 20
-5.58213577903935
 30
0.0
 10
2.0
 20
-6.026358914284037
 30
0.0
 10
2.0
 20
-6.319911825680206
 30
0.0
 10
2.0
 20
-6.513745062460075
 30
0.0
 10
2.0
 20
-6.623420480204049
 30
0.0
 10
2.0
 20
-6.589667209417174
 30
0.0
 10
2.0
 20
-6.584104389334074
 30
0.0
  0
SPLINE
  5
19A
330
1F
100
AcDbEntity
  8
외형선
  6
Continuous
370
    15
100
AcDbSpline
210
0.0
220
0.0
230
1.0
 70
    24
 71
     3
 72
    10
 73
     6
 74
     0
 42
0.000000001
 43
0.00000001
 40
0.0
 40
0.0
 40
0.0
 40
0.0
 40
0.5000000000000002
 40
0.5000000000000002
 40
1.0
 40
1.0
 40
1.0
 40
1.0
 10
2.0
 20
6.038402612505921
 30
0.0
 10
2.0
 20
5.805489975018901
 30
0.0
 10
2.0
 20
5.498887145757946
 30
0.0
 10
2.0
 20
4.802736685980761
 30
0.0
 10
2.0
 20
4.415377055327449
 30
0.0
 10
2.0
 20
4.03369368430822
 30
0.0
  0
SPLINE
  5
19B
330
1F
100
AcDbEntity
  8
외형선
  6
Continuous
370
    15
100
AcDbSpline
210
0.0
220
0.0
230
1.0
 70
    24
 71
     3
 72
    10
 73
     6
 74
     0
 42
0.000000001
 43
0.00000001
 40
0.0
 40
0.0
 40
0.0
 40
0.0
 40
0.3801611154143867
 40
0.8405054771075369
 40
1.0
 40
1.0
 40
1.0
 40
1.0
 10
2.0
 20
-6.600132117204114
 30
0.0
 10
2.0
 20
-6.717682744484103
 30
0.0
 10
1.999999999999987
 20
-6.977577673397496
 30
0.0
 10
1.999999999999987
 20
-7.265418265846185
 30
0.0
 10
2.0
 20
-7.435834832374399
 30
0.0
 10
2.0
 20
-7.479685758231623
 30
0.0
  0
SPLINE
  5
19C
330
1F
100
AcDbEntity
  8
외형선
  6
Continuous
370
    15
100
AcDbSpline
210
0.0
220
0.0
230
1.0
 70
    24
 71
     3
 72
    10
 73
     6
 74
     0
 42
0.000000001
 43
0.00000001
 40
0.0
 40
0.0
 40
0.0
 40
0.0
 40
0.5
 40
0.5
 40
1.0
 40
1.0
 40
1.0
 40
1.0
 10
2.0
 20
6.038402612505921
 30
0.0
 10
2.0
 20
5.805489975018897
 30
0.0
 10
2.0
 20
5.498887145757946
 30
0.0
 10
2.0
 20
4.802736685980754
 30
0.0
 10
2.0
 20
4.415377055327449
 30
0.0
 10
2.0
 20
4.03369368430822
 30
0.0
  0
SPLINE
  5
19D
330
1F
100
AcDbEntity
  8
외형선
  6
Continuous
370
    15
100
AcDbSpline
210
0.0
220
0.0
230
1.0
 70
    24
 71
     3
 72
    14
 73
    10
 74
     0
 42
0.000000001
 43
0.00000001
 40
0.0
 40
0.0
 40
0.0
 40
0.0
 40
0.25
 40
0.25
 40
0.5
 40
0.5
 40
0.75
 40
0.75
 40
1.0
 40
1.0
 40
1.0
 40
1.0
 10
2.0
 20
4.033693684308217
 30
0.0
 10
2.0
 20
3.469532198505364
 30
0.0
 10
2.0
 20
2.835812361049003
 30
0.0
 10
2.0
 20
1.472287248757196
 30
0.0
 10
2.0
 20
0.7429579928616494
 30
0.0
 10
2.0
 20
-0.7429579928616494
 30
0.0
 10
2.0
 20
-1.498752964528711
 30
0.0
 10
2.0
 20
-2.963121005153779
 30
0.0
 10
2.0
 20
-3.671076415837808
 30
0.0
 10
2.0
 20
-4.326885611928303
 30
0.0
  0
SPLINE
  5
19E
330
1F
100
AcDbEntity
  8
외형선
  6
Continuous
370
    15
100
AcDbSpline
210
0.0
220
0.0
230
1.0
 70
    24
 71
     3
 72
    14
 73
    10
 74
     0
 42
0.000000001
 43
0.00000001
 40
0.0
 40
0.0
 40
0.0
 40
0.0
 40
0.152720611185259
 40
0.3054412223705178
 40
0.528797180333187
 40
0.6438186572565883
 40
0.7588401341799896
 40
0.9605380237582963
 40
1.0
 40
1.0
 40
1.0
 40
1.0
 10
2.0
 20
-4.326885611928303
 30
0.0
 10
2.0
 20
-4.541309258269075
 30
0.0
 10
2.0
 20
-4.97015655095062
 30
0.0
 10
1.999999999999987
 20
-5.582136217265335
 30
0.0
 10
1.999999999999987
 20
-6.026356935349474
 30
0.0
 10
1.999999999999987
 20
-6.319915340745601
 30
0.0
 10
1.999999999999987
 20
-6.513727421018365
 30
0.0
 10
2.0
 20
-6.623395290538387
 30
0.0
 10
1.999999999999987
 20
-6.589730295885419
 30
0.0
 10
1.999999999999987
 20
-6.584221554973427
 30
0.0
  0
SPLINE
  5
19F
330
1F
100
AcDbEntity
  8
외형선
  6
Continuous
370
    15
100
AcDbSpline
210
0.0
220
0.0
230
1.0
 70
    24
 71
     3
 72
    12
 73
     8
 74
     0
 42
0.000000001
 43
0.00000001
 40
0.0
 40
0.0
 40
0.0
 40
0.0
 40
0.1507779048362684
 40
0.3808403659354424
 40
0.6106350219769504
 40
0.8406974830761241
 40
0.9999999999999999
 40
0.9999999999999999
 40
0.9999999999999999
 40
0.9999999999999999
 10
2.0
 20
-6.600132117204114
 30
0.0
 10
2.0
 20
-6.647161755997489
 30
0.0
 10
1.999999999999987
 20
-6.765950943758986
 30
0.0
 10
2.0
 20
-6.949912057782756
 30
0.0
 10
1.999999999999987
 20
-7.152462123547343
 30
0.0
 10
1.999999999999987
 20
-7.328773306721233
 30
0.0
 10
2.0
 20
-7.435869177912634
 30
0.0
 10
2.0
 20
-7.479685758231613
 30
0.0
  0
CIRCLE
  5
1A0
330
1F
100
AcDbEntity
  8
해칭선
100
AcDbCircle
 10
0.0
 20
0.0
 30
0.0
 40
2.999999999999993
  0
INSERT
  5
1A1
330
1F
100
AcDbEntity
  8
해칭선
100
AcDbBlockReference
  2
SW_DOWELSYMBOL_0
 10
0.0
 20
0.0
 30
0.0
  0
LINE
  5
1A2
330
1F
100
AcDbEntity
  8
외형선
  6
Continuous
370
    15
100
AcDbLine
 10
-32.85832500000001
 20
6.130826873210824
 30
0.0
 11
-22.67292500000001
 21
6.130826873210824
 31
0.0
1001
PE_URL
1000

  0
LINE
  5
1A3
330
1F
100
AcDbEntity
  8
외형선
  6
Continuous
370
    15
100
AcDbLine
 10
-32.85832500000001
 20
6.130826873210923
 30
0.0
 11
-34.50932499999999
 21
7.781826873210834
 31
0.0
1001
PE_URL
1000

  0
LINE
  5
1A4
330
1F
100
AcDbEntity
  8
외형선
  6
Continuous
370
    15
100
AcDbLine
 10
-22.67292500000012
 20
6.130826873210923
 30
0.0
 11
-21.02192500000011
 21
7.781826873210834
 31
0.0
1001
PE_URL
1000

  0
LINE
  5
1A5
330
1F
100
AcDbEntity
  8
외형선
  6
Continuous
370
    15
100
AcDbLine
 10
-34.509325
 20
7.781826873210862
 30
0.0
 11
-50.97499999999999
 21
7.781826873210862
 31
0.0
  0
LINE
  5
236
330
1F
100
AcDbEntity
  8
외형선
  6
Continuous
370
    15
100
AcDbLine
 10
1.999999999999996
 20
-8.085986176859222
 30
0.0
 11
1.999999999999993
 21
-8.095939194755257
 31
0.0
1001
PE_URL
1000

  0
ENDSEC
  0
SECTION
  2
OBJECTS
  0
DICTIONARY
  5
C
330
0
100
AcDbDictionary
281
     1
  3
ACAD_DETAILVIEWSTYLE
350
204
  3
ACAD_GROUP
350
D
  3
ACAD_IMAGE_VARS
350
25A
  3
ACAD_LAYOUT
350
1A
  3
ACAD_MLINESTYLE
350
17
  3
ACAD_PLOTSETTINGS
350
19
  3
ACAD_PLOTSTYLENAME
350
E
  3
ACAD_SCALELIST
350
47
  3
ACAD_SECTIONVIEWSTYLE
350
205
  3
AcDbVariableDictionary
350
1FF
  3
APPDATA
350
139
  3
DWGPROPS
350
25B
  0
DICTIONARY
  5
183
330
2
100
AcDbDictionary
280
     1
281
     1
  3
ACAD_LAYERSTATES
360
184
  0
DICTIONARY
  5
204
102
{ACAD_REACTORS
330
C
102
}
330
C
100
AcDbDictionary
281
     1
  0
DICTIONARY
  5
D
102
{ACAD_REACTORS
330
C
102
}
330
C
100
AcDbDictionary
281
     1
  0
RASTERVARIABLES
  5
25A
102
{ACAD_REACTORS
330
C
102
}
330
C
100
AcDbRasterVariables
 90
        0
 70
     1
 71
     1
 72
     1
  0
DICTIONARY
  5
1A
102
{ACAD_REACTORS
330
C
102
}
330
C
100
AcDbDictionary
281
     1
  3
Layout1
350
1E
  3
Layout2
350
26
  3
Model
350
22
  0
DICTIONARY
  5
17
102
{ACAD_REACTORS
330
C
102
}
330
C
100
AcDbDictionary
281
     1
  3
Standard
350
18
  0
DICTIONARY
  5
19
102
{ACAD_REACTORS
330
C
102
}
330
C
100
AcDbDictionary
281
     1
  0
ACDBDICTIONARYWDFLT
  5
E
102
{ACAD_REACTORS
330
C
102
}
330
C
100
AcDbDictionary
281
     1
  3
Normal
350
F
100
AcDbDictionaryWithDefault
340
F
  0
DICTIONARY
  5
47
102
{ACAD_REACTORS
330
C
102
}
330
C
100
AcDbDictionary
281
     1
  3
A0
350
48
  3
A1
350
49
  3
A2
350
4A
  3
A3
350
4B
  3
A4
350
4C
  3
A5
350
4D
  3
A6
350
4E
  3
A7
350
4F
  3
A8
350
50
  3
A9
350
51
  3
B0
350
52
  3
B1
350
53
  3
B2
350
54
  3
B3
350
55
  3
B4
350
56
  3
B5
350
57
  3
B6
350
58
  3
B7
350
59
  3
B8
350
5A
  3
B9
350
5B
  3
C0
350
5C
  3
C1
350
5D
  3
C2
350
5E
  3
C3
350
5F
  3
C4
350
60
  3
C5
350
61
  3
C6
350
62
  3
C7
350
63
  3
C8
350
64
  3
C9
350
65
  3
D0
350
66
  3
D1
350
67
  3
D2
350
68
  0
DICTIONARY
  5
205
102
{ACAD_REACTORS
330
C
102
}
330
C
100
AcDbDictionary
281
     1
  0
DICTIONARY
  5
1FF
102
{ACAD_REACTORS
330
C
102
}
330
C
100
AcDbDictionary
281
     1
  0
DICTIONARY
  5
139
102
{ACAD_REACTORS
330
C
102
}
330
C
100
AcDbDictionary
281
     1
  0
XRECORD
  5
25B
102
{ACAD_REACTORS
330
C
102
}
330
C
100
AcDbXrecord
280
     1
  1
DWGPROPS COOKIE
  2

  3

  4

  6

  7

  8
12016016
  9

300
=
301
=
302
=
303
=
304
=
305
=
306
=
307
=
308
=
309
=
 40
0.0
 41
2458311.187248044
 42
2458323.078998565
  1

 90
        0
  0
DICTIONARY
  5
184
102
{ACAD_REACTORS
330
183
102
}
330
183
100
AcDbDictionary
281
     1
  0
LAYOUT
  5
1E
102
{ACAD_REACTORS
330
1A
102
}
330
1A
100
AcDbPlotSettings
  1

  2
none_device
  4

  6

 40
0.0
 41
0.0
 42
0.0
 43
0.0
 44
0.0
 45
0.0
 46
0.0
 47
0.0
 48
0.0
 49
0.0
140
0.0
141
0.0
142
1.0
143
1.0
 70
   688
 72
     1
 73
     0
 74
     5
  7

 75
    16
147
1.0
148
0.0
149
0.0
100
AcDbLayout
  1
Layout1
 70
     1
 71
     1
 10
0.0
 20
0.0
 11
420.0
 21
297.0
 12
0.0
 22
0.0
 32
0.0
 14
1.000000000000000E+20
 24
1.000000000000000E+20
 34
1.000000000000000E+20
 15
-1.000000000000000E+20
 25
-1.000000000000000E+20
 35
-1.000000000000000E+20
146
0.0
 13
0.0
 23
0.0
 33
0.0
 16
1.0
 26
0.0
 36
0.0
 17
0.0
 27
1.0
 37
0.0
 76
     0
330
1B
  0
LAYOUT
  5
26
102
{ACAD_REACTORS
330
1A
102
}
330
1A
100
AcDbPlotSettings
  1

  2
none_device
  4

  6

 40
0.0
 41
0.0
 42
0.0
 43
0.0
 44
0.0
 45
0.0
 46
0.0
 47
0.0
 48
0.0
 49
0.0
140
0.0
141
0.0
142
1.0
143
1.0
 70
   688
 72
     1
 73
     0
 74
     5
  7

 75
    16
147
1.0
148
0.0
149
0.0
100
AcDbLayout
  1
Layout2
 70
     1
 71
     2
 10
0.0
 20
0.0
 11
0.0
 21
0.0
 12
0.0
 22
0.0
 32
0.0
 14
0.0
 24
0.0
 34
0.0
 15
0.0
 25
0.0
 35
0.0
146
0.0
 13
0.0
 23
0.0
 33
0.0
 16
1.0
 26
0.0
 36
0.0
 17
0.0
 27
1.0
 37
0.0
 76
     0
330
23
  0
LAYOUT
  5
22
102
{ACAD_REACTORS
330
1A
102
}
330
1A
100
AcDbPlotSettings
  1

  2
none_device
  4
ANSI_A_(11.00_x_8.50_Inches)
  6

 40
6.35
 41
19.05
 42
6.35000508
 43
19.05000254
 44
279.4
 45
215.9
 46
111.5354592427306
 47
97.62990263130112
 48
0.0
 49
0.0
140
0.0
141
0.0
142
0.0715194751484015
143
1.0
 70
  1696
 72
     0
 73
     0
 74
     0
  7

 75
     0
147
0.0235690232323232
148
0.0
149
0.0
100
AcDbLayout
  1
Model
 70
     1
 71
     0
 10
0.0
 20
0.0
 11
420.0
 21
297.0
 12
0.0
 22
0.0
 32
0.0
 14
-71.85000000000014
 24
-49.97180738881174
 34
0.0
 15
86.40100881534559
 25
50.56002874965107
 35
0.0
146
0.0
 13
0.0
 23
0.0
 33
0.0
 16
1.0
 26
0.0
 36
0.0
 17
0.0
 27
1.0
 37
0.0
 76
     0
330
1F
331
29
  0
MLINESTYLE
  5
18
102
{ACAD_REACTORS
330
17
102
}
330
17
100
AcDbMlineStyle
  2
Standard
 70
     0
  3

 62
   256
 51
90.0
 52
90.0
 71
     2
 49
0.5
 62
   256
  6
BYLAYER
 49
-0.5
 62
   256
  6
BYLAYER
  0
ACDBPLACEHOLDER
  5
F
102
{ACAD_REACTORS
330
E
102
}
330
E
  0
SCALE
  5
48
102
{ACAD_REACTORS
330
47
102
}
330
47
100
AcDbScale
 70
     0
300
1:1
140
1.0
141
1.0
290
     1
  0
SCALE
  5
49
102
{ACAD_REACTORS
330
47
102
}
330
47
100
AcDbScale
 70
     0
300
1:2
140
1.0
141
2.0
290
     0
  0
SCALE
  5
4A
102
{ACAD_REACTORS
330
47
102
}
330
47
100
AcDbScale
 70
     0
300
1:4
140
1.0
141
4.0
290
     0
  0
SCALE
  5
4B
102
{ACAD_REACTORS
330
47
102
}
330
47
100
AcDbScale
 70
     0
300
1:5
140
1.0
141
5.0
290
     0
  0
SCALE
  5
4C
102
{ACAD_REACTORS
330
47
102
}
330
47
100
AcDbScale
 70
     0
300
1:8
140
1.0
141
8.0
290
     0
  0
SCALE
  5
4D
102
{ACAD_REACTORS
330
47
102
}
330
47
100
AcDbScale
 70
     0
300
1:10
140
1.0
141
10.0
290
     0
  0
SCALE
  5
4E
102
{ACAD_REACTORS
330
47
102
}
330
47
100
AcDbScale
 70
     0
300
1:16
140
1.0
141
16.0
290
     0
  0
SCALE
  5
4F
102
{ACAD_REACTORS
330
47
102
}
330
47
100
AcDbScale
 70
     0
300
1:20
140
1.0
141
20.0
290
     0
  0
SCALE
  5
50
102
{ACAD_REACTORS
330
47
102
}
330
47
100
AcDbScale
 70
     0
300
1:30
140
1.0
141
30.0
290
     0
  0
SCALE
  5
51
102
{ACAD_REACTORS
330
47
102
}
330
47
100
AcDbScale
 70
     0
300
1:40
140
1.0
141
40.0
290
     0
  0
SCALE
  5
52
102
{ACAD_REACTORS
330
47
102
}
330
47
100
AcDbScale
 70
     0
300
1:50
140
1.0
141
50.0
290
     0
  0
SCALE
  5
53
102
{ACAD_REACTORS
330
47
102
}
330
47
100
AcDbScale
 70
     0
300
1:100
140
1.0
141
100.0
290
     0
  0
SCALE
  5
54
102
{ACAD_REACTORS
330
47
102
}
330
47
100
AcDbScale
 70
     0
300
2:1
140
2.0
141
1.0
290
     0
  0
SCALE
  5
55
102
{ACAD_REACTORS
330
47
102
}
330
47
100
AcDbScale
 70
     0
300
4:1
140
4.0
141
1.0
290
     0
  0
SCALE
  5
56
102
{ACAD_REACTORS
330
47
102
}
330
47
100
AcDbScale
 70
     0
300
8:1
140
8.0
141
1.0
290
     0
  0
SCALE
  5
57
102
{ACAD_REACTORS
330
47
102
}
330
47
100
AcDbScale
 70
     0
300
10:1
140
10.0
141
1.0
290
     0
  0
SCALE
  5
58
102
{ACAD_REACTORS
330
47
102
}
330
47
100
AcDbScale
 70
     0
300
100:1
140
100.0
141
1.0
290
     0
  0
SCALE
  5
59
102
{ACAD_REACTORS
330
47
102
}
330
47
100
AcDbScale
 70
     0
300
1/128" = 1'-0"
140
0.0078125
141
12.0
290
     0
  0
SCALE
  5
5A
102
{ACAD_REACTORS
330
47
102
}
330
47
100
AcDbScale
 70
     0
300
1/64" = 1'-0"
140
0.015625
141
12.0
290
     0
  0
SCALE
  5
5B
102
{ACAD_REACTORS
330
47
102
}
330
47
100
AcDbScale
 70
     0
300
1/32" = 1'-0"
140
0.03125
141
12.0
290
     0
  0
SCALE
  5
5C
102
{ACAD_REACTORS
330
47
102
}
330
47
100
AcDbScale
 70
     0
300
1/16" = 1'-0"
140
0.0625
141
12.0
290
     0
  0
SCALE
  5
5D
102
{ACAD_REACTORS
330
47
102
}
330
47
100
AcDbScale
 70
     0
300
3/32" = 1'-0"
140
0.09375
141
12.0
290
     0
  0
SCALE
  5
5E
102
{ACAD_REACTORS
330
47
102
}
330
47
100
AcDbScale
 70
     0
300
1/8" = 1'-0"
140
0.125
141
12.0
290
     0
  0
SCALE
  5
5F
102
{ACAD_REACTORS
330
47
102
}
330
47
100
AcDbScale
 70
     0
300
3/16" = 1'-0"
140
0.1875
141
12.0
290
     0
  0
SCALE
  5
60
102
{ACAD_REACTORS
330
47
102
}
330
47
100
AcDbScale
 70
     0
300
1/4" = 1'-0"
140
0.25
141
12.0
290
     0
  0
SCALE
  5
61
102
{ACAD_REACTORS
330
47
102
}
330
47
100
AcDbScale
 70
     0
300
3/8" = 1'-0"
140
0.375
141
12.0
290
     0
  0
SCALE
  5
62
102
{ACAD_REACTORS
330
47
102
}
330
47
100
AcDbScale
 70
     0
300
1/2" = 1'-0"
140
0.5
141
12.0
290
     0
  0
SCALE
  5
63
102
{ACAD_REACTORS
330
47
102
}
330
47
100
AcDbScale
 70
     0
300
3/4" = 1'-0"
140
0.75
141
12.0
290
     0
  0
SCALE
  5
64
102
{ACAD_REACTORS
330
47
102
}
330
47
100
AcDbScale
 70
     0
300
1" = 1'-0"
140
1.0
141
12.0
290
     0
  0
SCALE
  5
65
102
{ACAD_REACTORS
330
47
102
}
330
47
100
AcDbScale
 70
     0
300
1-1/2" = 1'-0"
140
1.5
141
12.0
290
     0
  0
SCALE
  5
66
102
{ACAD_REACTORS
330
47
102
}
330
47
100
AcDbScale
 70
     0
300
3" = 1'-0"
140
3.0
141
12.0
290
     0
  0
SCALE
  5
67
102
{ACAD_REACTORS
330
47
102
}
330
47
100
AcDbScale
 70
     0
300
6" = 1'-0"
140
6.0
141
12.0
290
     0
  0
SCALE
  5
68
102
{ACAD_REACTORS
330
47
102
}
330
47
100
AcDbScale
 70
     0
300
1'-0" = 1'-0"
140
12.0
141
12.0
290
     0
  0
ENDSEC
  0
EOF
