  0
SECTION
  2
HEADER
  9
$ACADVER
  1
AC1015
  9
$ACADMAINTVER
 70
     6
  9
$DWGCODEPAGE
  3
ANSI_949
  9
$INSBASE
 10
0.0
 20
0.0
 30
0.0
  9
$EXTMIN
 10
-71.37500000000011
 20
-49.97180738881175
 30
0.0
  9
$EXTMAX
 10
99.35755308226027
 20
47.57499999999999
 30
0.0
  9
$LIMMIN
 10
0.0
 20
0.0
  9
$LIMMAX
 10
420.0
 20
297.0
  9
$ORTHOMODE
 70
     1
  9
$REGENMODE
 70
     1
  9
$FILLMODE
 70
     1
  9
$QTEXTMODE
 70
     0
  9
$MIRRTEXT
 70
     1
  9
$LTSCALE
 40
1.0
  9
$ATTMODE
 70
     1
  9
$TEXTSIZE
 40
3.5
  9
$TRACEWID
 40
1.0
  9
$TEXTSTYLE
  7
Standard
  9
$CLAYER
  8
0
  9
$CELTYPE
  6
ByLayer
  9
$CECOLOR
 62
   256
  9
$CELTSCALE
 40
1.0
  9
$DISPSILH
 70
     0
  9
$DIMSCALE
 40
1.0
  9
$DIMASZ
 40
3.302
  9
$DIMEXO
 40
1.0
  9
$DIMDLI
 40
3.75
  9
$DIMRND
 40
0.0
  9
$DIMDLE
 40
0.0
  9
$DIMEXE
 40
1.0
  9
$DIMTP
 40
0.0
  9
$DIMTM
 40
0.0
  9
$DIMTXT
 40
3.5
  9
$DIMCEN
 40
2.5
  9
$DIMTSZ
 40
0.0
  9
$DIMTOL
 70
     0
  9
$DIMLIM
 70
     0
  9
$DIMTIH
 70
     1
  9
$DIMTOH
 70
     1
  9
$DIMSE1
 70
     0
  9
$DIMSE2
 70
     0
  9
$DIMTAD
 70
     1
  9
$DIMZIN
 70
     0
  9
$DIMBLK
  1

  9
$DIMASO
 70
     1
  9
$DIMSHO
 70
     1
  9
$DIMPOST
  1

  9
$DIMAPOST
  1

  9
$DIMALT
 70
     0
  9
$DIMALTD
 70
     3
  9
$DIMALTF
 40
0.0393700787401575
  9
$DIMLFAC
 40
1.0
  9
$DIMTOFL
 70
     1
  9
$DIMTVP
 40
0.0
  9
$DIMTIX
 70
     0
  9
$DIMSOXD
 70
     0
  9
$DIMSAH
 70
     0
  9
$DIMBLK1
  1

  9
$DIMBLK2
  1

  9
$DIMSTYLE
  2
ISO-25
  9
$DIMCLRD
 70
     0
  9
$DIMCLRE
 70
     0
  9
$DIMCLRT
 70
     0
  9
$DIMTFAC
 40
1.0
  9
$DIMGAP
 40
1.524
  9
$DIMJUST
 70
     0
  9
$DIMSD1
 70
     0
  9
$DIMSD2
 70
     0
  9
$DIMTOLJ
 70
     0
  9
$DIMTZIN
 70
     0
  9
$DIMALTZ
 70
     0
  9
$DIMALTTZ
 70
     0
  9
$DIMUPT
 70
     0
  9
$DIMDEC
 70
     2
  9
$DIMTDEC
 70
     2
  9
$DIMALTU
 70
     2
  9
$DIMALTTD
 70
     3
  9
$DIMTXSTY
  7
Standard
  9
$DIMAUNIT
 70
     0
  9
$DIMADEC
 70
     2
  9
$DIMALTRND
 40
0.0
  9
$DIMAZIN
 70
     0
  9
$DIMDSEP
 70
    44
  9
$DIMATFIT
 70
     3
  9
$DIMFRAC
 70
     0
  9
$DIMLDRBLK
  1

  9
$DIMLUNIT
 70
     2
  9
$DIMLWD
 70
    -2
  9
$DIMLWE
 70
    -2
  9
$DIMTMOVE
 70
     0
  9
$LUNITS
 70
     2
  9
$LUPREC
 70
     2
  9
$SKETCHINC
 40
1.0
  9
$FILLETRAD
 40
10.0
  9
$AUNITS
 70
     0
  9
$AUPREC
 70
     2
  9
$MENU
  1
.
  9
$ELEVATION
 40
0.0
  9
$PELEVATION
 40
0.0
  9
$THICKNESS
 40
0.0
  9
$LIMCHECK
 70
     0
  9
$CHAMFERA
 40
0.0
  9
$CHAMFERB
 40
0.0
  9
$CHAMFERC
 40
0.0
  9
$CHAMFERD
 40
0.0
  9
$SKPOLY
 70
     0
  9
$TDCREATE
 40
2458311.459449167
  9
$TDUCREATE
 40
2458311.084449167
  9
$TDUPDATE
 40
2458323.453800984
  9
$TDUUPDATE
 40
2458323.078800984
  9
$TDINDWG
 40
0.0009022801
  9
$TDUSRTIMER
 40
2458323.078756019
  9
$USRTIMER
 70
     1
  9
$ANGBASE
 50
0.0
  9
$ANGDIR
 70
     0
  9
$PDMODE
 70
     0
  9
$PDSIZE
 40
-1.0
  9
$PLINEWID
 40
0.0
  9
$SPLFRAME
 70
     0
  9
$SPLINETYPE
 70
     6
  9
$SPLINESEGS
 70
     8
  9
$HANDSEED
  5
240
  9
$SURFTAB1
 70
     6
  9
$SURFTAB2
 70
     6
  9
$SURFTYPE
 70
     6
  9
$SURFU
 70
     6
  9
$SURFV
 70
     6
  9
$UCSBASE
  2

  9
$UCSNAME
  2

  9
$UCSORG
 10
0.0
 20
0.0
 30
0.0
  9
$UCSXDIR
 10
1.0
 20
0.0
 30
0.0
  9
$UCSYDIR
 10
0.0
 20
1.0
 30
0.0
  9
$UCSORTHOREF
  2

  9
$UCSORTHOVIEW
 70
     0
  9
$UCSORGTOP
 10
0.0
 20
0.0
 30
0.0
  9
$UCSORGBOTTOM
 10
0.0
 20
0.0
 30
0.0
  9
$UCSORGLEFT
 10
0.0
 20
0.0
 30
0.0
  9
$UCSORGRIGHT
 10
0.0
 20
0.0
 30
0.0
  9
$UCSORGFRONT
 10
0.0
 20
0.0
 30
0.0
  9
$UCSORGBACK
 10
0.0
 20
0.0
 30
0.0
  9
$PUCSBASE
  2

  9
$PUCSNAME
  2

  9
$PUCSORG
 10
0.0
 20
0.0
 30
0.0
  9
$PUCSXDIR
 10
1.0
 20
0.0
 30
0.0
  9
$PUCSYDIR
 10
0.0
 20
1.0
 30
0.0
  9
$PUCSORTHOREF
  2

  9
$PUCSORTHOVIEW
 70
     0
  9
$PUCSORGTOP
 10
0.0
 20
0.0
 30
0.0
  9
$PUCSORGBOTTOM
 10
0.0
 20
0.0
 30
0.0
  9
$PUCSORGLEFT
 10
0.0
 20
0.0
 30
0.0
  9
$PUCSORGRIGHT
 10
0.0
 20
0.0
 30
0.0
  9
$PUCSORGFRONT
 10
0.0
 20
0.0
 30
0.0
  9
$PUCSORGBACK
 10
0.0
 20
0.0
 30
0.0
  9
$USERI1
 70
     0
  9
$USERI2
 70
     0
  9
$USERI3
 70
     0
  9
$USERI4
 70
     0
  9
$USERI5
 70
     0
  9
$USERR1
 40
0.0
  9
$USERR2
 40
0.0
  9
$USERR3
 40
0.0
  9
$USERR4
 40
0.0
  9
$USERR5
 40
0.0
  9
$WORLDVIEW
 70
     1
  9
$SHADEDGE
 70
     3
  9
$SHADEDIF
 70
    70
  9
$TILEMODE
 70
     1
  9
$MAXACTVP
 70
    64
  9
$PINSBASE
 10
0.0
 20
0.0
 30
0.0
  9
$PLIMCHECK
 70
     0
  9
$PEXTMIN
 10
1.000000000000000E+20
 20
1.000000000000000E+20
 30
1.000000000000000E+20
  9
$PEXTMAX
 10
-1.000000000000000E+20
 20
-1.000000000000000E+20
 30
-1.000000000000000E+20
  9
$PLIMMIN
 10
0.0
 20
0.0
  9
$PLIMMAX
 10
0.0
 20
0.0
  9
$UNITMODE
 70
     0
  9
$VISRETAIN
 70
     1
  9
$PLINEGEN
 70
     0
  9
$PSLTSCALE
 70
     1
  9
$TREEDEPTH
 70
  3020
  9
$CMLSTYLE
  2
Standard
  9
$CMLJUST
 70
     0
  9
$CMLSCALE
 40
20.0
  9
$PROXYGRAPHICS
 70
     1
  9
$MEASUREMENT
 70
     1
  9
$CELWEIGHT
370
    -1
  9
$ENDCAPS
280
     0
  9
$JOINSTYLE
280
     0
  9
$LWDISPLAY
290
     1
  9
$INSUNITS
 70
     4
  9
$HYPERLINKBASE
  1

  9
$STYLESHEET
  1

  9
$XEDIT
290
     1
  9
$CEPSNTYPE
380
     0
  9
$PSTYLEMODE
290
     1
  9
$FINGERPRINTGUID
  2
{5D9438F4-7127-4766-AE42-F34FED17B590}
  9
$VERSIONGUID
  2
{FAEB1C32-E019-11D5-929B-00C0DF256EC4}
  9
$EXTNAMES
290
     1
  9
$PSVPSCALE
 40
0.0
  9
$OLESTARTUP
290
     0
  0
ENDSEC
  0
SECTION
  2
CLASSES
  0
CLASS
  1
ACDBDICTIONARYWDFLT
  2
AcDbDictionaryWithDefault
  3
ObjectDBX Classes
 90
        0
280
     0
281
     0
  0
CLASS
  1
VISUALSTYLE
  2
AcDbVisualStyle
  3
ObjectDBX Classes
 90
     4095
280
     0
281
     0
  0
CLASS
  1
MATERIAL
  2
AcDbMaterial
  3
ObjectDBX Classes
 90
     1153
280
     0
281
     0
  0
CLASS
  1
SCALE
  2
AcDbScale
  3
ObjectDBX Classes
 90
     1153
280
     0
281
     0
  0
CLASS
  1
SUN
  2
AcDbSun
  3
SCENEOE
 90
     1153
280
     0
281
     0
  0
CLASS
  1
ACDBPLACEHOLDER
  2
AcDbPlaceHolder
  3
ObjectDBX Classes
 90
        0
280
     0
281
     0
  0
CLASS
  1
LAYOUT
  2
AcDbLayout
  3
ObjectDBX Classes
 90
        0
280
     0
281
     0
  0
CLASS
  1
TABLESTYLE
  2
AcDbTableStyle
  3
ObjectDBX Classes
 90
     4095
280
     0
281
     0
  0
CLASS
  1
MLEADERSTYLE
  2
AcDbMLeaderStyle
  3
ACDB_MLEADERSTYLE_CLASS
 90
     4095
280
     0
281
     0
  0
CLASS
  1
DICTIONARYVAR
  2
AcDbDictionaryVar
  3
ObjectDBX Classes
 90
        0
280
     0
281
     0
  0
CLASS
  1
RASTERVARIABLES
  2
AcDbRasterVariables
  3
ISM
 90
        0
280
     0
281
     0
  0
ENDSEC
  0
SECTION
  2
TABLES
  0
TABLE
  2
VPORT
  5
8
330
0
100
AcDbSymbolTable
 70
     1
  0
VPORT
  5
29
330
8
100
AcDbSymbolTableRecord
100
AcDbViewportTableRecord
  2
*Active
 70
     0
 10
0.0
 20
0.0
 11
1.0
 21
1.0
 12
13.99127654113008
 22
-1.198403694405883
 13
0.0
 23
0.0
 14
10.0
 24
10.0
 15
10.0
 25
10.0
 16
0.0
 26
0.0
 36
1.0
 17
0.0
 27
0.0
 37
0.0
 40
99.49774353658798
 41
1.782762691853601
 42
50.0
 43
0.0
 44
0.0
 50
0.0
 51
0.0
 71
    16
 72
  2000
 73
     1
 74
     3
 75
     0
 76
     0
 77
     0
 78
     0
281
     0
 65
     1
110
0.0
120
0.0
130
0.0
111
1.0
121
0.0
131
0.0
112
0.0
122
1.0
132
0.0
 79
     0
146
0.0
  0
ENDTAB
  0
TABLE
  2
LTYPE
  5
5
330
0
100
AcDbSymbolTable
 70
     6
  0
LTYPE
  5
14
330
5
100
AcDbSymbolTableRecord
100
AcDbLinetypeTableRecord
  2
ByBlock
 70
     0
  3

 72
    65
 73
     0
 40
0.0
  0
LTYPE
  5
15
330
5
100
AcDbSymbolTableRecord
100
AcDbLinetypeTableRecord
  2
ByLayer
 70
     0
  3

 72
    65
 73
     0
 40
0.0
  0
LTYPE
  5
16
330
5
100
AcDbSymbolTableRecord
100
AcDbLinetypeTableRecord
  2
Continuous
 70
     0
  3
Solid line
 72
    65
 73
     0
 40
0.0
  0
LTYPE
  5
6A
330
5
100
AcDbSymbolTableRecord
100
AcDbLinetypeTableRecord
  2
HIDDEN
 70
     0
  3
Hidden __ __ __ __ __ __ __ __ __ __ __ __ __ __
 72
    65
 73
     2
 40
1.905
 49
1.27
 74
     0
 49
-0.635
 74
     0
  0
LTYPE
  5
6B
330
5
100
AcDbSymbolTableRecord
100
AcDbLinetypeTableRecord
  2
PHANTOM
 70
     0
  3
Phantom ______  __  __  ______  __  __  ______
 72
    65
 73
     6
 40
12.7
 49
6.35
 74
     0
 49
-1.27
 74
     0
 49
1.27
 74
     0
 49
-1.27
 74
     0
 49
1.27
 74
     0
 49
-1.27
 74
     0
  0
LTYPE
  5
6C
330
5
100
AcDbSymbolTableRecord
100
AcDbLinetypeTableRecord
  2
CENTER
 70
     0
  3
Center ____ _ ____ _ ____ _ ____ _ ____ _ ____
 72
    65
 73
     4
 40
10.16
 49
6.35
 74
     0
 49
-1.27
 74
     0
 49
1.27
 74
     0
 49
-1.27
 74
     0
  0
LTYPE
  5
6D
330
5
100
AcDbSymbolTableRecord
100
AcDbLinetypeTableRecord
  2
CENTERX2
 70
     0
  3
Center (2x) ________  __  ________  __  _____
 72
    65
 73
     4
 40
20.32
 49
12.7
 74
     0
 49
-2.54
 74
     0
 49
2.54
 74
     0
 49
-2.54
 74
     0
  0
LTYPE
  5
6E
330
5
100
AcDbSymbolTableRecord
100
AcDbLinetypeTableRecord
  2
DOT2
 70
     0
  3
Dot (.5x) ........................................
 72
    65
 73
     2
 40
0.635
 49
0.0
 74
     0
 49
-0.635
 74
     0
  0
ENDTAB
  0
TABLE
  2
LAYER
  5
2
102
{ACAD_XDICTIONARY
360
18A
102
}
330
0
100
AcDbSymbolTable
 70
    18
  0
LAYER
  5
10
330
2
100
AcDbSymbolTableRecord
100
AcDbLayerTableRecord
  2
0
 70
     0
 62
     7
  6
Continuous
370
    -3
390
F
  0
LAYER
  5
6F
330
2
100
AcDbSymbolTableRecord
100
AcDbLayerTableRecord
  2
FORMAT
 70
     0
 62
     2
  6
Continuous
370
    -3
390
F
  0
LAYER
  5
70
330
2
100
AcDbSymbolTableRecord
100
AcDbLayerTableRecord
  2
외형선
 70
     0
 62
     4
  6
Continuous
370
    30
390
F
  0
LAYER
  5
71
330
2
100
AcDbSymbolTableRecord
100
AcDbLayerTableRecord
  2
숨은선
 70
     0
 62
     2
  6
HIDDEN
370
    15
390
F
  0
LAYER
  5
72
330
2
100
AcDbSymbolTableRecord
100
AcDbLayerTableRecord
  2
중심선
 70
     0
 62
     1
  6
CENTERX2
370
    -3
390
F
  0
LAYER
  5
73
330
2
100
AcDbSymbolTableRecord
100
AcDbLayerTableRecord
  2
파단선
 70
     0
 62
     4
  6
Continuous
370
    -3
390
F
  0
LAYER
  5
74
330
2
100
AcDbSymbolTableRecord
100
AcDbLayerTableRecord
  2
해칭선
 70
     0
 62
   100
  6
Continuous
370
    -3
390
F
  0
LAYER
  5
75
330
2
100
AcDbSymbolTableRecord
100
AcDbLayerTableRecord
  2
가는실선
 70
     0
 62
     4
  6
Continuous
370
    -3
390
F
  0
LAYER
  5
76
330
2
100
AcDbSymbolTableRecord
100
AcDbLayerTableRecord
  2
치수_보조선
 70
     0
 62
     4
  6
Continuous
370
    -3
390
F
  0
LAYER
  5
77
330
2
100
AcDbSymbolTableRecord
100
AcDbLayerTableRecord
  2
치수문자_일반주서
 70
     0
 62
     7
  6
Continuous
370
    15
390
F
  0
LAYER
  5
78
330
2
100
AcDbSymbolTableRecord
100
AcDbLayerTableRecord
  2
개별주서
 70
     0
 62
   100
  6
Continuous
370
    30
390
F
  0
LAYER
  5
79
330
2
100
AcDbSymbolTableRecord
100
AcDbLayerTableRecord
  2
중간선
 70
     0
 62
     2
  6
Continuous
370
    15
390
F
  0
LAYER
  5
7A
330
2
100
AcDbSymbolTableRecord
100
AcDbLayerTableRecord
  2
윤곽선
 70
     0
 62
     3
  6
Continuous
370
    40
390
F
  0
LAYER
  5
7B
330
2
100
AcDbSymbolTableRecord
100
AcDbLayerTableRecord
  2
중심마크
 70
     0
 62
   100
  6
Continuous
370
    30
390
F
  0
LAYER
  5
7C
330
2
100
AcDbSymbolTableRecord
100
AcDbLayerTableRecord
  2
가상선
 70
     0
 62
     4
  6
PHANTOM
370
    -3
390
F
  0
LAYER
  5
7D
330
2
100
AcDbSymbolTableRecord
100
AcDbLayerTableRecord
  2
특수지정선
 70
     0
 62
     5
  6
CENTERX2
370
    60
390
F
  0
LAYER
  5
7E
330
2
100
AcDbSymbolTableRecord
100
AcDbLayerTableRecord
  2
참조1
 70
     0
 62
    -4
  6
Continuous
370
    -3
390
F
  0
LAYER
  5
153
330
2
100
AcDbSymbolTableRecord
100
AcDbLayerTableRecord
  2
Defpoints
 70
     0
 62
     7
  6
Continuous
290
     0
370
    -3
390
F
  0
ENDTAB
  0
TABLE
  2
STYLE
  5
3
330
0
100
AcDbSymbolTable
 70
     2
  0
STYLE
  5
11
330
3
100
AcDbSymbolTableRecord
100
AcDbTextStyleTableRecord
  2
Standard
 70
     0
 40
0.0
 41
1.0
 50
0.0
 71
     0
 42
3.5
  3
txt
  4

  0
STYLE
  5
94
330
3
100
AcDbSymbolTableRecord
100
AcDbTextStyleTableRecord
  2
SLDTEXTSTYLE0
 70
     0
 40
0.0
 41
0.75
 50
0.0
 71
     0
 42
3.5
  3
TXT
  4

  0
ENDTAB
  0
TABLE
  2
VIEW
  5
6
330
0
100
AcDbSymbolTable
 70
     0
  0
ENDTAB
  0
TABLE
  2
UCS
  5
7
330
0
100
AcDbSymbolTable
 70
     0
  0
ENDTAB
  0
TABLE
  2
APPID
  5
9
330
0
100
AcDbSymbolTable
 70
     2
  0
APPID
  5
12
330
9
100
AcDbSymbolTableRecord
100
AcDbRegAppTableRecord
  2
ACAD
 70
     0
  0
APPID
  5
15A
330
9
100
AcDbSymbolTableRecord
100
AcDbRegAppTableRecord
  2
PE_URL
 70
     0
  0
ENDTAB
  0
TABLE
  2
DIMSTYLE
  5
A
330
0
100
AcDbSymbolTable
 70
     4
100
AcDbDimStyleTable
  0
DIMSTYLE
105
27
330
A
100
AcDbSymbolTableRecord
100
AcDbDimStyleTableRecord
  2
ISO-25
 70
     0
 41
2.5
 42
0.625
 43
3.75
 44
1.25
 73
     0
 74
     0
 77
     1
 78
     8
140
2.5
141
2.5
143
0.03937007874016
147
0.625
171
     3
172
     1
178
     0
271
     2
272
     2
274
     3
278
    44
283
     0
284
     8
340
11
  0
DIMSTYLE
105
D3
330
A
100
AcDbSymbolTableRecord
100
AcDbDimStyleTableRecord
  2
SLDDIMSTYLE0
 70
     0
 41
3.302
 44
0.0
 45
0.000000001
 73
     0
 74
     0
 77
     1
 78
     4
 79
     1
140
3.5
143
0.0393700787401575
147
0.875
148
0.000000001
170
     1
172
     1
173
     1
178
     0
271
     2
272
     2
276
     2
284
    12
289
     0
340
94
  0
DIMSTYLE
105
E8
330
A
100
AcDbSymbolTableRecord
100
AcDbDimStyleTableRecord
  2
SLDDIMSTYLE1
 70
     0
 41
3.302
 44
0.0
 45
0.000000001
 73
     0
 74
     0
 77
     1
 78
    12
 79
     3
140
3.5
143
0.0393700787401575
147
0.875
148
0.000000001
170
     1
173
     1
178
     0
271
     2
272
     2
276
     2
284
    12
340
94
  0
DIMSTYLE
105
158
102
{ACAD_REACTORS
330
E7
330
10F
330
FC
330
D2
102
}
330
A
100
AcDbSymbolTableRecord
100
AcDbDimStyleTableRecord
  2
SLDDIMSTYLE2
 70
     0
 41
3.302
 44
0.0
 45
0.000000001
 73
     0
 74
     0
 77
     1
 78
     4
 79
     1
140
3.5
143
0.0393700787401575
147
0.875
148
0.000000001
170
     1
173
     1
178
     0
271
     2
272
     2
276
     2
284
    12
340
94
  0
ENDTAB
  0
TABLE
  2
BLOCK_RECORD
  5
1
330
0
100
AcDbSymbolTable
 70
     9
  0
BLOCK_RECORD
  5
1F
330
1
100
AcDbSymbolTableRecord
100
AcDbBlockTableRecord
  2
*Model_Space
340
22
  0
BLOCK_RECORD
  5
1B
330
1
100
AcDbSymbolTableRecord
100
AcDbBlockTableRecord
  2
*Paper_Space
340
1E
  0
BLOCK_RECORD
  5
23
330
1
100
AcDbSymbolTableRecord
100
AcDbBlockTableRecord
  2
*Paper_Space0
340
26
  0
BLOCK_RECORD
  5
7F
330
1
100
AcDbSymbolTableRecord
100
AcDbBlockTableRecord
  2
블럭10
340
0
102
{BLKREFS
331
CB
102
}
  0
BLOCK_RECORD
  5
D4
330
1
100
AcDbSymbolTableRecord
100
AcDbBlockTableRecord
  2
_D
340
0
  0
BLOCK_RECORD
  5
E9
330
1
100
AcDbSymbolTableRecord
100
AcDbBlockTableRecord
  2
_D_1
340
0
  0
BLOCK_RECORD
  5
FD
330
1
100
AcDbSymbolTableRecord
100
AcDbBlockTableRecord
  2
_D_2
340
0
  0
BLOCK_RECORD
  5
110
330
1
100
AcDbSymbolTableRecord
100
AcDbBlockTableRecord
  2
_D_3
340
0
  0
BLOCK_RECORD
  5
129
330
1
100
AcDbSymbolTableRecord
100
AcDbBlockTableRecord
  2
SW_DOWELSYMBOL_0
340
0
102
{BLKREFS
331
12F
102
}
  0
BLOCK_RECORD
  5
18E
330
1
100
AcDbSymbolTableRecord
100
AcDbBlockTableRecord
  2
*D7
340
0
  0
BLOCK_RECORD
  5
1A0
330
1
100
AcDbSymbolTableRecord
100
AcDbBlockTableRecord
  2
*D8
340
0
  0
ENDTAB
  0
ENDSEC
  0
SECTION
  2
BLOCKS
  0
BLOCK
  5
20
330
1F
100
AcDbEntity
  8
0
100
AcDbBlockBegin
  2
*Model_Space
 70
     0
 10
0.0
 20
0.0
 30
0.0
  3
*Model_Space
  1
*Model_Space
  0
ENDBLK
  5
21
330
1F
100
AcDbEntity
  8
0
100
AcDbBlockEnd
  0
BLOCK
  5
1C
330
1B
100
AcDbEntity
 67
     1
  8
0
100
AcDbBlockBegin
  2
*Paper_Space
 70
     0
 10
0.0
 20
0.0
 30
0.0
  3
*Paper_Space
  1
*Paper_Space
  0
ENDBLK
  5
1D
330
1B
100
AcDbEntity
 67
     1
  8
0
100
AcDbBlockEnd
  0
BLOCK
  5
24
330
23
100
AcDbEntity
  8
0
100
AcDbBlockBegin
  2
*Paper_Space0
 70
     0
 10
0.0
 20
0.0
 30
0.0
  3
*Paper_Space0
  1
*Paper_Space0
  0
ENDBLK
  5
25
330
23
100
AcDbEntity
  8
0
100
AcDbBlockEnd
  0
BLOCK
  5
80
330
7F
100
AcDbEntity
  8
0
100
AcDbBlockBegin
  2
블럭10
 70
     2
 10
0.0
 20
0.0
 30
0.0
  3
블럭10
  1
블럭10
  0
ELLIPSE
  5
82
330
7F
100
AcDbEntity
  8
중심선
100
AcDbEllipse
 10
20.54032771741204
 20
12.0471743016438
 30
0.0
 11
6.600054785286829
 21
-1.261213355974178E-13
 31
0.0
210
0.0
220
0.0
230
1.0
 40
0.636358354079598
 41
0.9219305317359503
 42
6.513795318482858
  0
ELLIPSE
  5
83
330
7F
100
AcDbEntity
  8
중심선
100
AcDbEllipse
 10
20.54032771746488
 20
12.04717430159265
 30
0.0
 11
3.960054785062283
 21
1.540847449632565E-10
 31
0.0
210
0.0
220
0.0
230
1.0
 40
0.3939339440162632
 41
1.131841032648279
 42
5.62031148352944
  0
LINE
  5
84
330
7F
100
AcDbEntity
  8
중심선
100
AcDbLine
 10
2.268634060543552
 20
16.24717430164393
 30
0.0
 11
5.714909304380834
 21
16.24717430164393
 31
0.0
  0
LINE
  5
85
330
7F
100
AcDbEntity
  8
중심선
100
AcDbLine
 10
5.245725140726316
 20
7.84717430164391
 30
0.0
 11
8.692000384563599
 21
7.84717430164391
 31
0.0
  0
LINE
  5
86
330
7F
100
AcDbEntity
  8
중심선
100
AcDbLine
 10
15.74043728645272
 20
16.24717430164393
 30
0.0
 11
8.692000384563599
 21
7.84717430164391
 31
0.0
  0
LINE
  5
87
330
7F
100
AcDbEntity
  8
중심선
100
AcDbLine
 10
0.1404042013395286
 20
13.71084872107135
 30
0.0
 11
3.58671253028996
 21
13.71088815037384
 31
0.0
  0
LINE
  5
88
330
7F
100
AcDbEntity
  8
중심선
100
AcDbLine
 10
2.750260043222114
 20
10.84717430164391
 30
0.0
 11
6.196535287059397
 21
10.84717430164391
 31
0.0
  0
LINE
  5
89
330
7F
100
AcDbEntity
  8
중심선
100
AcDbLine
 10
12.29416204261559
 20
16.24717430164393
 30
0.0
 11
5.245725140726316
 21
7.84717430164391
 31
0.0
  0
LINE
  5
8A
330
7F
100
AcDbEntity
  8
중심선
100
AcDbLine
 10
10.72767329541681
 20
16.24717430164393
 30
0.0
 11
6.196535287059397
 21
10.84717430164391
 31
0.0
  0
LINE
  5
8B
330
7F
100
AcDbEntity
  8
중심선
100
AcDbLine
 10
7.28139805157953
 20
16.24717430164393
 30
0.0
 11
2.750260043222114
 21
10.84717430164391
 31
0.0
  0
LINE
  5
8C
330
7F
100
AcDbEntity
  8
중심선
100
AcDbLine
 10
5.714909304380834
 20
16.24717430164393
 30
0.0
 11
3.58671253028996
 21
13.71088815037384
 31
0.0
  0
LINE
  5
8D
330
7F
100
AcDbEntity
  8
중심선
100
AcDbLine
 10
2.268634060543552
 20
16.24717430164393
 30
0.0
 11
0.1404042013395286
 21
13.71084872107135
 31
0.0
  0
LINE
  5
8E
330
7F
100
AcDbEntity
  8
중심선
100
AcDbLine
 10
7.28139805157953
 20
16.24717430164393
 30
0.0
 11
10.72767329541681
 21
16.24717430164393
 31
0.0
  0
LINE
  5
8F
330
7F
100
AcDbEntity
  8
중심선
100
AcDbLine
 10
12.29416204261559
 20
16.24717430164393
 30
0.0
 11
15.74043728645272
 21
16.24717430164393
 31
0.0
  0
LINE
  5
90
330
7F
100
AcDbEntity
  8
중심선
100
AcDbLine
 10
19.22036997980202
 20
11.08717430171403
 30
0.0
 11
23.66174974927406
 21
11.08717430171406
 31
0.0
  0
LINE
  5
91
330
7F
100
AcDbEntity
  8
중심선
100
AcDbLine
 10
19.22039502424796
 20
13.00717430171391
 30
0.0
 11
19.22036997980202
 21
11.08717430171403
 31
0.0
  0
LINE
  5
92
330
7F
100
AcDbEntity
  8
중심선
100
AcDbLine
 10
19.22039502424796
 20
13.00717430171391
 30
0.0
 11
26.96566020931264
 21
13.00717430171391
 31
0.0
  0
LINE
  5
93
330
7F
100
AcDbEntity
  8
중심선
100
AcDbLine
 10
22.22332737316547
 20
13.45928029700563
 30
0.0
 11
24.52862924686651
 21
15.39360700705356
 31
0.0
  0
ATTDEF
  5
95
330
7F
100
AcDbEntity
  8
FORMAT
 62
     2
100
AcDbText
 10
4.408487351596664
 20
2.075366912832191
 30
0.0
 40
4.233333333333333
  1
E1030064
 41
0.75
  7
SLDTEXTSTYLE0
 11
4.408487351596664
 21
-0.0412997538344756
 31
0.0
100
AcDbAttributeDefinition
  3

  2
AUTOATTR0
 70
     0
 74
     1
  0
ENDBLK
  5
81
330
7F
100
AcDbEntity
  8
0
100
AcDbBlockEnd
  0
BLOCK
  5
D5
330
D4
100
AcDbEntity
  8
0
100
AcDbBlockBegin
  2
_D
 70
     0
 10
0.0
 20
0.0
 30
0.0
  3
_D
  1
_D
  0
LINE
  5
D7
330
D4
100
AcDbEntity
  8
치수문자_일반주서
 62
     0
370
    -2
100
AcDbLine
 10
-36.95750000000002
 20
12.7
 30
0.0
 11
-66.50000000000001
 21
12.69999999999989
 31
0.0
  0
LINE
  5
D8
330
D4
100
AcDbEntity
  8
치수문자_일반주서
 62
     0
370
    -2
100
AcDbLine
 10
-50.56249999999998
 20
-12.70000000000002
 30
0.0
 11
-66.49999999999993
 21
-12.70000000000008
 31
0.0
  0
LINE
  5
D9
330
D4
100
AcDbEntity
  8
치수문자_일반주서
 62
     0
370
    -2
100
AcDbLine
 10
-66.50000000000001
 20
12.69999999999989
 30
0.0
 11
-66.50000000000011
 21
41.94999999999992
 31
0.0
  0
LINE
  5
DA
330
D4
100
AcDbEntity
  8
치수문자_일반주서
 62
     0
370
    -2
100
AcDbLine
 10
-66.5
 20
8.699999999999886
 30
0.0
 11
-66.49999999999994
 21
-8.700000000000077
 31
0.0
  0
SOLID
  5
DB
330
D4
100
AcDbEntity
  8
치수문자_일반주서
 62
     0
100
AcDbTrace
 10
-65.83333333333333
 20
8.699999999999887
 30
0.0
 11
-67.16666666666667
 21
8.699999999999884
 31
0.0
 12
-66.50000000000001
 22
12.69999999999989
 32
0.0
 13
-66.50000000000001
 23
12.69999999999989
 33
0.0
  0
SOLID
  5
DC
330
D4
100
AcDbEntity
  8
치수문자_일반주서
 62
     0
100
AcDbTrace
 10
-67.16666666666661
 20
-8.70000000000008
 30
0.0
 11
-65.83333333333327
 21
-8.700000000000076
 31
0.0
 12
-66.49999999999993
 22
-12.70000000000008
 32
0.0
 13
-66.49999999999993
 23
-12.70000000000008
 33
0.0
  0
MTEXT
  5
DD
330
D4
100
AcDbEntity
  8
치수문자_일반주서
 62
     0
100
AcDbMText
 10
-71.37500000000007
 20
29.3249999999999
 30
0.0
 40
4.0
 41
0.0
 71
     2
 72
     1
  1
\A1;%%c25.40 [1]
  7
SLDTEXTSTYLE0
 11
-3.356894814614651E-15
 21
1.0
 31
0.0
 73
     1
 44
1.0
  0
POINT
  5
DE
330
D4
100
AcDbEntity
  8
Defpoints
 62
     0
100
AcDbPoint
 10
-36.89500000000002
 20
12.7
 30
0.0
  0
POINT
  5
DF
330
D4
100
AcDbEntity
  8
Defpoints
 62
     0
100
AcDbPoint
 10
-50.49999999999998
 20
-12.70000000000002
 30
0.0
  0
POINT
  5
1B2
330
D4
100
AcDbEntity
  8
Defpoints
 62
     0
100
AcDbPoint
 10
-66.49999999999993
 20
-12.70000000000008
 30
0.0
  0
ENDBLK
  5
D6
330
D4
100
AcDbEntity
  8
0
100
AcDbBlockEnd
  0
BLOCK
  5
EA
330
E9
100
AcDbEntity
  8
0
100
AcDbBlockBegin
  2
_D_1
 70
     0
 10
0.0
 20
0.0
 30
0.0
  3
_D_1
  1
_D_1
  0
LINE
  5
EC
330
E9
100
AcDbEntity
  8
치수문자_일반주서
 62
     0
370
    -2
100
AcDbLine
 10
53.27500000000003
 20
12.75176615341647
 30
0.0
 11
53.27500000000003
 21
27.7
 31
0.0
  0
LINE
  5
ED
330
E9
100
AcDbEntity
  8
치수문자_일반주서
 62
     0
370
    -2
100
AcDbLine
 10
12.00000000000002
 20
10.0025263028657
 30
0.0
 11
12.00000000000002
 21
27.7
 31
0.0
  0
LINE
  5
EE
330
E9
100
AcDbEntity
  8
치수문자_일반주서
 62
     0
370
    -2
100
AcDbLine
 10
53.27500000000003
 20
27.7
 30
0.0
 11
91.02500000000003
 21
27.7
 31
0.0
  0
LINE
  5
EF
330
E9
100
AcDbEntity
  8
치수문자_일반주서
 62
     0
370
    -2
100
AcDbLine
 10
49.27500000000003
 20
27.7
 30
0.0
 11
16.00000000000002
 21
27.7
 31
0.0
  0
SOLID
  5
F0
330
E9
100
AcDbEntity
  8
치수문자_일반주서
 62
     0
100
AcDbTrace
 10
49.27500000000003
 20
27.03333333333333
 30
0.0
 11
49.27500000000003
 21
28.36666666666666
 31
0.0
 12
53.27500000000003
 22
27.7
 32
0.0
 13
53.27500000000003
 23
27.7
 33
0.0
  0
SOLID
  5
F1
330
E9
100
AcDbEntity
  8
치수문자_일반주서
 62
     0
100
AcDbTrace
 10
16.00000000000002
 20
28.36666666666666
 30
0.0
 11
16.00000000000002
 21
27.03333333333333
 31
0.0
 12
12.00000000000002
 22
27.7
 32
0.0
 13
12.00000000000002
 23
27.7
 33
0.0
  0
MTEXT
  5
F2
330
E9
100
AcDbEntity
  8
치수문자_일반주서
 62
     0
100
AcDbMText
 10
74.15000000000003
 20
32.575
 30
0.0
 40
4.0
 41
0.0
 71
     2
 72
     1
  1
\A1;41.28 [1 5/8]
  7
SLDTEXTSTYLE0
 73
     1
 44
1.0
  0
POINT
  5
F3
330
E9
100
AcDbEntity
  8
Defpoints
 62
     0
100
AcDbPoint
 10
53.27500000000003
 20
12.68926615341647
 30
0.0
  0
POINT
  5
F4
330
E9
100
AcDbEntity
  8
Defpoints
 62
     0
100
AcDbPoint
 10
12.00000000000002
 20
9.940026302865698
 30
0.0
  0
POINT
  5
F5
330
E9
100
AcDbEntity
  8
Defpoints
 62
     0
100
AcDbPoint
 10
12.00000000000002
 20
27.7
 30
0.0
  0
ENDBLK
  5
EB
330
E9
100
AcDbEntity
  8
0
100
AcDbBlockEnd
  0
BLOCK
  5
FE
330
FD
100
AcDbEntity
  8
0
100
AcDbBlockBegin
  2
_D_2
 70
     0
 10
0.0
 20
0.0
 30
0.0
  3
_D_2
  1
_D_2
  0
LINE
  5
100
330
FD
100
AcDbEntity
  8
치수문자_일반주서
 62
     0
370
    -2
100
AcDbLine
 10
53.27499999999974
 20
12.11404903924512
 30
0.0
 11
53.27499999999974
 21
42.69999999999999
 31
0.0
  0
LINE
  5
101
330
FD
100
AcDbEntity
  8
치수문자_일반주서
 62
     0
370
    -2
100
AcDbLine
 10
-51.50000000000001
 20
10.8575
 30
0.0
 11
-51.50000000000001
 21
42.69999999999999
 31
0.0
  0
LINE
  5
102
330
FD
100
AcDbEntity
  8
치수문자_일반주서
 62
     0
370
    -2
100
AcDbLine
 10
49.27499999999974
 20
42.69999999999999
 30
0.0
 11
-47.50000000000001
 21
42.69999999999999
 31
0.0
  0
SOLID
  5
103
330
FD
100
AcDbEntity
  8
치수문자_일반주서
 62
     0
100
AcDbTrace
 10
49.27499999999974
 20
42.03333333333332
 30
0.0
 11
49.27499999999974
 21
43.36666666666665
 31
0.0
 12
53.27499999999974
 22
42.69999999999999
 32
0.0
 13
53.27499999999974
 23
42.69999999999999
 33
0.0
  0
SOLID
  5
104
330
FD
100
AcDbEntity
  8
치수문자_일반주서
 62
     0
100
AcDbTrace
 10
-47.50000000000001
 20
43.36666666666665
 30
0.0
 11
-47.50000000000001
 21
42.03333333333332
 31
0.0
 12
-51.50000000000001
 22
42.69999999999999
 32
0.0
 13
-51.50000000000001
 23
42.69999999999999
 33
0.0
  0
MTEXT
  5
105
330
FD
100
AcDbEntity
  8
치수문자_일반주서
 62
     0
100
AcDbMText
 10
0.8874999999998661
 20
47.57499999999999
 30
0.0
 40
4.0
 41
0.0
 71
     2
 72
     1
  1
\A1;104.78 [4 1/8]
  7
SLDTEXTSTYLE0
 73
     1
 44
1.0
  0
POINT
  5
106
330
FD
100
AcDbEntity
  8
Defpoints
 62
     0
100
AcDbPoint
 10
53.27499999999974
 20
12.05154903924512
 30
0.0
  0
POINT
  5
107
330
FD
100
AcDbEntity
  8
Defpoints
 62
     0
100
AcDbPoint
 10
-51.50000000000001
 20
10.795
 30
0.0
  0
POINT
  5
108
330
FD
100
AcDbEntity
  8
Defpoints
 62
     0
100
AcDbPoint
 10
-51.50000000000001
 20
42.69999999999999
 30
0.0
  0
ENDBLK
  5
FF
330
FD
100
AcDbEntity
  8
0
100
AcDbBlockEnd
  0
BLOCK
  5
111
330
110
100
AcDbEntity
  8
0
100
AcDbBlockBegin
  2
_D_3
 70
     0
 10
0.0
 20
0.0
 30
0.0
  3
_D_3
  1
_D_3
  0
LINE
  5
113
330
110
100
AcDbEntity
  8
치수문자_일반주서
 62
     0
370
    -2
100
AcDbLine
 10
53.33750000000003
 20
-12.68926615341648
 30
0.0
 11
98.69088641559362
 21
-12.68926615341631
 31
0.0
  0
LINE
  5
114
330
110
100
AcDbEntity
  8
치수문자_일반주서
 62
     0
370
    -2
100
AcDbLine
 10
53.33750000000003
 20
12.68926615341647
 30
0.0
 11
98.69088641559354
 21
12.68926615341664
 31
0.0
  0
LINE
  5
115
330
110
100
AcDbEntity
  8
치수문자_일반주서
 62
     0
370
    -2
100
AcDbLine
 10
98.69088641559354
 20
12.68926615341664
 30
0.0
 11
98.69088641559344
 21
42.43926615341664
 31
0.0
  0
LINE
  5
116
330
110
100
AcDbEntity
  8
치수문자_일반주서
 62
     0
370
    -2
100
AcDbLine
 10
98.69088641559361
 20
-8.689266153416312
 30
0.0
 11
98.69088641559355
 21
8.689266153416636
 31
0.0
  0
SOLID
  5
117
330
110
100
AcDbEntity
  8
치수문자_일반주서
 62
     0
100
AcDbTrace
 10
98.02421974892694
 20
-8.689266153416314
 30
0.0
 11
99.35755308226028
 21
-8.68926615341631
 31
0.0
 12
98.69088641559362
 22
-12.68926615341631
 32
0.0
 13
98.69088641559362
 23
-12.68926615341631
 33
0.0
  0
SOLID
  5
118
330
110
100
AcDbEntity
  8
치수문자_일반주서
 62
     0
100
AcDbTrace
 10
99.35755308226022
 20
8.689266153416638
 30
0.0
 11
98.02421974892688
 21
8.689266153416634
 31
0.0
 12
98.69088641559354
 22
12.68926615341664
 32
0.0
 13
98.69088641559354
 23
12.68926615341664
 33
0.0
  0
MTEXT
  5
119
330
110
100
AcDbEntity
  8
치수문자_일반주서
 62
     0
100
AcDbMText
 10
93.81588641559348
 20
29.56426615341662
 30
0.0
 40
4.0
 41
0.0
 71
     2
 72
     1
  1
\A1;%%c25.38 [1]
  7
SLDTEXTSTYLE0
 11
-3.359734410971241E-15
 21
1.0
 31
0.0
 73
     1
 44
1.0
  0
POINT
  5
11A
330
110
100
AcDbEntity
  8
Defpoints
 62
     0
100
AcDbPoint
 10
53.27500000000003
 20
-12.68926615341648
 30
0.0
  0
POINT
  5
11B
330
110
100
AcDbEntity
  8
Defpoints
 62
     0
100
AcDbPoint
 10
53.27500000000003
 20
12.68926615341647
 30
0.0
  0
POINT
  5
11C
330
110
100
AcDbEntity
  8
Defpoints
 62
     0
100
AcDbPoint
 10
98.69088641559354
 20
12.68926615341664
 30
0.0
  0
ENDBLK
  5
112
330
110
100
AcDbEntity
  8
0
100
AcDbBlockEnd
  0
BLOCK
  5
12A
330
129
100
AcDbEntity
  8
0
100
AcDbBlockBegin
  2
SW_DOWELSYMBOL_0
 70
     0
 10
0.0
 20
0.0
 30
0.0
  3
SW_DOWELSYMBOL_0
  1
SW_DOWELSYMBOL_0
  0
CIRCLE
  5
12C
330
129
100
AcDbEntity
  8
해칭선
 62
     0
100
AcDbCircle
 10
0.0
 20
0.0
 30
0.0
 40
2.999999999999994
  0
HATCH
  5
12D
330
129
100
AcDbEntity
  8
0
  6
Continuous
 62
     0
370
     0
100
AcDbHatch
 10
0.0
 20
0.0
 30
0.0
210
0.0
220
0.0
230
1.0
  2
SOLID
 70
     1
 71
     0
 91
        1
 92
        0
 93
        3
 72
     2
 10
0.0
 20
0.0
 40
2.999999999999994
 50
0.0
 51
90.0
 73
     1
 72
     1
 10
0.0
 20
2.999999999999994
 11
0.0
 21
0.0
 72
     1
 10
0.0
 20
0.0
 11
2.999999999999994
 21
0.0
 97
        0
 75
     0
 76
     1
 98
        1
 10
0.0
 20
0.0
  0
HATCH
  5
12E
330
129
100
AcDbEntity
  8
0
  6
Continuous
 62
     0
370
     0
100
AcDbHatch
 10
0.0
 20
0.0
 30
0.0
210
0.0
220
0.0
230
1.0
  2
SOLID
 70
     1
 71
     0
 91
        1
 92
        0
 93
        3
 72
     2
 10
0.0
 20
0.0
 40
2.999999999999994
 50
180.0
 51
270.0000000000007
 73
     1
 72
     1
 10
0.0
 20
-2.999999999999994
 11
0.0
 21
0.0
 72
     1
 10
0.0
 20
0.0
 11
-2.999999999999994
 21
0.0
 97
        0
 75
     0
 76
     1
 98
        1
 10
0.0
 20
0.0
  0
ENDBLK
  5
12B
330
129
100
AcDbEntity
  8
0
100
AcDbBlockEnd
  0
BLOCK
  5
18F
330
18E
100
AcDbEntity
  8
0
100
AcDbBlockBegin
  2
*D7
 70
     1
 10
0.0
 20
0.0
 30
0.0
  3
*D7
  1
*D7
  0
LINE
  5
191
330
18E
100
AcDbEntity
  8
치수문자_일반주서
 62
     0
370
    -2
100
AcDbLine
 10
46.10000000000001
 20
6.485837694758551
 30
0.0
 11
46.10000000000001
 21
19.05215067593061
 31
0.0
  0
LINE
  5
192
330
18E
100
AcDbEntity
  8
치수문자_일반주서
 62
     0
370
    -2
100
AcDbLine
 10
8.000000000000004
 20
0.0624999999999991
 30
0.0
 11
8.0
 21
19.05215067593061
 31
0.0
  0
LINE
  5
193
330
18E
100
AcDbEntity
  8
치수문자_일반주서
 62
     0
370
    -2
100
AcDbLine
 10
46.10000000000001
 20
19.05215067593061
 30
0.0
 11
82.35000000000001
 21
19.05215067593061
 31
0.0
  0
LINE
  5
194
330
18E
100
AcDbEntity
  8
치수문자_일반주서
 62
     0
370
    -2
100
AcDbLine
 10
46.10000000000001
 20
19.05215067593061
 30
0.0
 11
8.0
 21
19.05215067593061
 31
0.0
  0
LINE
  5
195
330
18E
100
AcDbEntity
  8
치수문자_일반주서
 62
     0
370
    -2
100
AcDbLine
 10
50.10000000000001
 20
19.05215067593061
 30
0.0
 11
54.10000000000001
 21
19.05215067593061
 31
0.0
  0
LINE
  5
196
330
18E
100
AcDbEntity
  8
치수문자_일반주서
 62
     0
370
    -2
100
AcDbLine
 10
4.0
 20
19.05215067593061
 30
0.0
 11
0.0
 21
19.05215067593061
 31
0.0
  0
SOLID
  5
197
330
18E
100
AcDbEntity
  8
치수문자_일반주서
 62
     0
100
AcDbTrace
 10
50.10000000000001
 20
19.71881734259728
 30
0.0
 11
50.10000000000001
 21
18.38548400926394
 31
0.0
 12
46.10000000000001
 22
19.05215067593061
 32
0.0
 13
46.10000000000001
 23
19.05215067593061
 33
0.0
  0
SOLID
  5
198
330
18E
100
AcDbEntity
  8
치수문자_일반주서
 62
     0
100
AcDbTrace
 10
4.0
 20
18.38548400926394
 30
0.0
 11
4.0
 21
19.71881734259728
 31
0.0
 12
8.0
 22
19.05215067593061
 32
0.0
 13
8.0
 23
19.05215067593061
 33
0.0
  0
MTEXT
  5
199
330
18E
100
AcDbEntity
  8
치수문자_일반주서
 62
     0
100
AcDbMText
 10
66.22500000000001
 20
23.92715067593061
 30
0.0
 40
4.0
 41
0.0
 71
     2
 72
     1
  1
\A1;38.10 [1 1/2]
  7
SLDTEXTSTYLE0
 73
     1
 44
1.0
  0
POINT
  5
19A
330
18E
100
AcDbEntity
  8
Defpoints
 62
     0
100
AcDbPoint
 10
46.10000000000001
 20
6.423337694758551
 30
0.0
  0
POINT
  5
19B
330
18E
100
AcDbEntity
  8
Defpoints
 62
     0
100
AcDbPoint
 10
8.000000000000004
 20
-0.0000000000000009
 30
0.0
  0
POINT
  5
19C
330
18E
100
AcDbEntity
  8
Defpoints
 62
     0
100
AcDbPoint
 10
8.000000000000004
 20
19.05215067593061
 30
0.0
  0
ENDBLK
  5
190
330
18E
100
AcDbEntity
  8
0
100
AcDbBlockEnd
  0
BLOCK
  5
1A1
330
1A0
100
AcDbEntity
  8
0
100
AcDbBlockBegin
  2
*D8
 70
     1
 10
0.0
 20
0.0
 30
0.0
  3
*D8
  1
*D8
  0
LINE
  5
1A3
330
1A0
100
AcDbEntity
  8
치수문자_일반주서
 62
     0
370
    -2
100
AcDbLine
 10
133.5475437521525
 20
-49.96964624249749
 30
0.0
 11
133.5475437521525
 21
-37.40333326132543
 31
0.0
  0
LINE
  5
1A4
330
1A0
100
AcDbEntity
  8
치수문자_일반주서
 62
     0
370
    -2
100
AcDbLine
 10
95.4475437521525
 20
-56.39298393725604
 30
0.0
 11
95.4475437521525
 21
-37.40333326132543
 31
0.0
  0
LINE
  5
1A5
330
1A0
100
AcDbEntity
  8
치수문자_일반주서
 62
     0
370
    -2
100
AcDbLine
 10
133.5475437521525
 20
-37.40333326132543
 30
0.0
 11
169.7975437521525
 21
-37.40333326132543
 31
0.0
  0
LINE
  5
1A6
330
1A0
100
AcDbEntity
  8
치수문자_일반주서
 62
     0
370
    -2
100
AcDbLine
 10
133.5475437521525
 20
-37.40333326132543
 30
0.0
 11
95.4475437521525
 21
-37.40333326132543
 31
0.0
  0
LINE
  5
1A7
330
1A0
100
AcDbEntity
  8
치수문자_일반주서
 62
     0
370
    -2
100
AcDbLine
 10
137.5475437521525
 20
-37.40333326132543
 30
0.0
 11
141.5475437521525
 21
-37.40333326132543
 31
0.0
  0
LINE
  5
1A8
330
1A0
100
AcDbEntity
  8
치수문자_일반주서
 62
     0
370
    -2
100
AcDbLine
 10
91.4475437521525
 20
-37.40333326132543
 30
0.0
 11
87.4475437521525
 21
-37.40333326132543
 31
0.0
  0
SOLID
  5
1A9
330
1A0
100
AcDbEntity
  8
치수문자_일반주서
 62
     0
100
AcDbTrace
 10
137.5475437521525
 20
-36.73666659465876
 30
0.0
 11
137.5475437521525
 21
-38.06999992799209
 31
0.0
 12
133.5475437521525
 22
-37.40333326132543
 32
0.0
 13
133.5475437521525
 23
-37.40333326132543
 33
0.0
  0
SOLID
  5
1AA
330
1A0
100
AcDbEntity
  8
치수문자_일반주서
 62
     0
100
AcDbTrace
 10
91.4475437521525
 20
-38.06999992799209
 30
0.0
 11
91.4475437521525
 21
-36.73666659465876
 31
0.0
 12
95.4475437521525
 22
-37.40333326132543
 32
0.0
 13
95.4475437521525
 23
-37.40333326132543
 33
0.0
  0
MTEXT
  5
1AB
330
1A0
100
AcDbEntity
  8
치수문자_일반주서
 62
     0
100
AcDbMText
 10
153.6725437521525
 20
-32.52833326132543
 30
0.0
 40
4.0
 41
0.0
 71
     2
 72
     1
  1
\A1;38.10 [1 1/2]
  7
SLDTEXTSTYLE0
 73
     1
 44
1.0
  0
POINT
  5
1AC
330
1A0
100
AcDbEntity
  8
Defpoints
 62
     0
100
AcDbPoint
 10
133.5475437521525
 20
-50.03214624249749
 30
0.0
  0
POINT
  5
1AD
330
1A0
100
AcDbEntity
  8
Defpoints
 62
     0
100
AcDbPoint
 10
95.4475437521525
 20
-56.45548393725604
 30
0.0
  0
POINT
  5
1AE
330
1A0
100
AcDbEntity
  8
Defpoints
 62
     0
100
AcDbPoint
 10
95.4475437521525
 20
-37.40333326132543
 30
0.0
  0
ENDBLK
  5
1A2
330
1A0
100
AcDbEntity
  8
0
100
AcDbBlockEnd
  0
ENDSEC
  0
SECTION
  2
ENTITIES
  0
LINE
  5
96
330
1F
100
AcDbEntity
  8
외형선
  6
Continuous
370
    15
100
AcDbLine
 10
8.950110812596098
 20
12.69999999999999
 30
0.0
 11
-14.069925
 21
12.69999999999999
 31
0.0
  0
LINE
  5
97
330
1F
100
AcDbEntity
  8
외형선
  6
Continuous
370
    15
100
AcDbLine
 10
-50.49999999999999
 20
-12.70000000000001
 30
0.0
 11
8.950110812596098
 21
-12.70000000000001
 31
0.0
  0
LINE
  5
99
330
1F
100
AcDbEntity
  8
외형선
  6
Continuous
370
    15
100
AcDbLine
 10
-51.50000000000001
 20
-11.7
 30
0.0
 11
-50.49999999999999
 21
-12.7
 31
0.0
  0
SPLINE
  5
9A
330
1F
100
AcDbEntity
  8
외형선
  6
Continuous
370
    15
100
AcDbSpline
210
0.0
220
0.0
230
1.0
 70
     8
 71
     3
 72
     9
 73
     5
 74
     0
 42
0.000000001
 43
0.00000001
 40
0.0
 40
0.0
 40
0.0
 40
0.0
 40
0.513415295112947
 40
1.0
 40
1.0
 40
1.0
 40
1.0
 10
12.00000000000002
 20
9.93948727729961
 30
0.0
 10
11.56346805561674
 20
9.932559342376884
 30
0.0
 10
10.71321690700759
 20
9.919065519756725
 30
0.0
 10
9.86327831658715
 20
9.918429673093254
 30
0.0
 10
9.449711198395303
 20
9.918120279832156
 30
0.0
  0
SPLINE
  5
9B
330
1F
100
AcDbEntity
  8
외형선
  6
Continuous
370
    15
100
AcDbSpline
210
0.0
220
0.0
230
1.0
 70
     8
 71
     3
 72
    15
 73
    11
 74
     0
 42
0.000000001
 43
0.00000001
 40
0.0
 40
0.0
 40
0.0
 40
0.0
 40
0.0244565305945641
 40
0.0541440412063436
 40
0.1454998821154878
 40
0.4992080449012715
 40
0.852911514464883
 40
0.9446926652743755
 40
0.9748701462068602
 40
1.0
 40
1.0
 40
1.0
 40
1.0
 10
9.449029934223324
 20
9.918313302500131
 30
0.0
 10
9.446740163760076
 20
9.918764000652326
 30
0.0
 10
9.441670866386277
 20
9.919761796281172
 30
0.0
 10
9.41827363102784
 20
9.933490939956588
 30
0.0
 10
9.327868005913698
 20
10.00468820002098
 30
0.0
 10
9.179175450037484
 20
10.14770306579338
 30
0.0
 10
9.036077449857526
 20
10.29663221865342
 30
0.0
 10
8.965094730680303
 20
10.38606605545353
 30
0.0
 10
8.951522721287036
 20
10.40862082226947
 30
0.0
 10
8.950551915270443
 20
10.41326827598809
 30
0.0
 10
8.950110812596098
 20
10.41537992777964
 30
0.0
  0
SPLINE
  5
9C
330
1F
100
AcDbEntity
  8
외형선
  6
Continuous
370
    15
100
AcDbSpline
210
0.0
220
0.0
230
1.0
 70
     8
 71
     3
 72
    11
 73
     7
 74
     0
 42
0.000000001
 43
0.00000001
 40
0.0
 40
0.0
 40
0.0
 40
0.0
 40
0.2098863354409208
 40
0.4444777216078921
 40
0.707289598900393
 40
1.0
 40
1.0
 40
1.0
 40
1.0
 10
8.95015318366937
 20
-9.920434641410122
 30
0.0
 10
9.154857916548613
 20
-9.919319023550942
 30
0.0
 10
9.58836252313187
 20
-9.9169564720147
 30
0.0
 10
10.31006195626751
 20
-9.918368485491907
 30
0.0
 10
11.12326974936986
 20
-9.925344987350629
 30
0.0
 10
11.69745558085327
 20
-9.934607018069434
 30
0.0
 10
12.00000000000002
 20
-9.939487277299621
 30
0.0
  0
SPLINE
  5
9D
330
1F
100
AcDbEntity
  8
0
  6
Continuous
 62
     1
370
    15
100
AcDbSpline
210
0.0
220
0.0
230
1.0
 70
     8
 71
     3
 72
    10
 73
     6
 74
     0
 42
0.000000001
 43
0.00000001
 40
0.0
 40
0.0
 40
0.0
 40
0.0
 40
0.4546850319362271
 40
0.6191840964945812
 40
1.0
 40
1.0
 40
1.0
 40
1.0
 10
20.37243445472382
 20
3.254372496492918
 30
0.0
 10
19.83722050515967
 20
3.509561084550673
 30
0.0
 10
19.10837318775192
 20
3.857073547539407
 30
0.0
 10
17.94276860349647
 20
4.442796872566451
 30
0.0
 10
17.29911217306121
 20
4.780583086247142
 30
0.0
 10
16.8496203757361
 20
5.016473112540063
 30
0.0
1001
PE_URL
1000

  0
LINE
  5
9E
330
1F
100
AcDbEntity
  8
0
  6
Continuous
 62
     1
370
    15
100
AcDbLine
 10
13.32001260190488
 20
3.591667772247321
 30
0.0
 11
13.21208456257705
 21
3.651209552347481
 31
0.0
1001
PE_URL
1000

  0
SPLINE
  5
9F
330
1F
100
AcDbEntity
  8
0
  6
Continuous
 62
     1
370
    15
100
AcDbSpline
210
0.0
220
0.0
230
1.0
 70
     8
 71
     3
 72
     9
 73
     5
 74
     0
 42
0.000000001
 43
0.00000001
 40
0.0
 40
0.0
 40
0.0
 40
0.0
 40
0.4999069767252088
 40
1.0
 40
1.0
 40
1.0
 40
1.0
 10
16.17494874251063
 20
10.09191712941579
 30
0.0
 10
15.47795047654305
 20
10.05765409389105
 30
0.0
 10
14.08369454810318
 20
9.989115271430146
 30
0.0
 10
12.69465099162137
 20
9.956031993686349
 30
0.0
 10
12.00000000000001
 20
9.939487277299614
 30
0.0
1001
PE_URL
1000

  0
SPLINE
  5
A0
330
1F
100
AcDbEntity
  8
0
  6
Continuous
 62
     1
370
    15
100
AcDbSpline
210
0.0
220
0.0
230
1.0
 70
     8
 71
     3
 72
    41
 73
    37
 74
     0
 42
0.000000001
 43
0.00000001
 40
0.0
 40
0.0
 40
0.0
 40
0.0
 40
0.026817118067125
 40
0.0506568004332871
 40
0.0716293940157532
 40
0.0900050363705528
 40
0.1062728547303763
 40
0.1211973852201806
 40
0.1435203664130207
 40
0.1655604536327489
 40
0.1865229445325855
 40
0.2322999553660414
 40
0.2734100250912319
 40
0.3188498010523824
 40
0.3498473853576477
 40
0.3833995721997501
 40
0.4126908393503768
 40
0.4354545772410917
 40
0.4535876666804128
 40
0.476094889409881
 40
0.5159263932838372
 40
0.5590677156766201
 40
0.6037121553633857
 40
0.6485494479408637
 40
0.6932168088676549
 40
0.7323520230576609
 40
0.7645568915265787
 40
0.7966452404924462
 40
0.8338447975742178
 40
0.8491820542024766
 40
0.8650895433498108
 40
0.8821251198342309
 40
0.9009019991268928
 40
0.9293482863540341
 40
0.9623028466351435
 40
1.0
 40
1.0
 40
1.0
 40
1.0
 10
48.5565215571371
 20
8.686197343680337
 30
0.0
 10
48.43379705529333
 20
8.674446751220103
 30
0.0
 10
48.20197383765252
 20
8.65225020438233
 30
0.0
 10
47.83029814035688
 20
8.606990567487305
 30
0.0
 10
47.46459692171585
 20
8.562949929097083
 30
0.0
 10
47.10115630216927
 20
8.523812177564707
 30
0.0
 10
46.73946811869071
 20
8.49331097659654
 30
0.0
 10
46.31443167095655
 20
8.46903111639723
 30
0.0
 10
45.85195994447048
 20
8.461363397349041
 30
0.0
 10
45.35639644991878
 20
8.450405886127236
 30
0.0
 10
44.66413468829154
 20
8.43011522562954
 30
0.0
 10
43.80586985473816
 20
8.401254459748264
 30
0.0
 10
42.76240641155806
 20
8.373719935807225
 30
0.0
 10
41.86069209401673
 20
8.36032991000648
 30
0.0
 10
41.01417844156688
 20
8.356387244412309
 30
0.0
 10
40.29388492252644
 20
8.359251734647122
 30
0.0
 10
39.63697958860788
 20
8.367356616655039
 30
0.0
 10
39.098766790687
 20
8.377736085693844
 30
0.0
 10
38.61304895744986
 20
8.389768285248726
 30
0.0
 10
37.99527718225123
 20
8.408398142035596
 30
0.0
 10
37.18426608130358
 20
8.4395180218329
 30
0.0
 10
36.20712949849728
 20
8.487626090402971
 30
0.0
 10
35.19484144869064
 20
8.549039193009516
 30
0.0
 10
34.16758948964887
 20
8.623288819665277
 30
0.0
 10
33.18218011240103
 20
8.70545898801699
 30
0.0
 10
32.28282335091421
 20
8.790053463248283
 30
0.0
 10
31.47044537861142
 20
8.87390588744899
 30
0.0
 10
30.66929750334675
 20
8.960498271288255
 30
0.0
 10
30.00917191955661
 20
9.031818549272211
 30
0.0
 10
29.48777247849448
 20
9.083759824563767
 30
0.0
 10
29.10558663906888
 20
9.125603709863203
 30
0.0
 10
28.70035471935179
 20
9.177442641004074
 30
0.0
 10
28.21870182599947
 20
9.247200707295475
 30
0.0
 10
27.65842801143715
 20
9.337763671750709
 30
0.0
 10
27.0170140628961
 20
9.44734109070805
 30
0.0
 10
26.59534021408579
 20
9.515652677811184
 30
0.0
 10
26.3703505722463
 20
9.552101225804341
 30
0.0
1001
PE_URL
1000

  0
SPLINE
  5
A1
330
1F
100
AcDbEntity
  8
0
  6
Continuous
 62
     1
370
    15
100
AcDbSpline
210
0.0
220
0.0
230
1.0
 70
     8
 71
     3
 72
    18
 73
    14
 74
     0
 42
0.000000001
 43
0.00000001
 40
0.0
 40
0.0
 40
0.0
 40
0.0
 40
0.0873206815603312
 40
0.1596107432709637
 40
0.2235529486635561
 40
0.2932372426988613
 40
0.4120545331744478
 40
0.5337171010505267
 40
0.6403538720721264
 40
0.7345346724332341
 40
0.8253032805735628
 40
0.9151709899006267
 40
1.0
 40
1.0
 40
1.0
 40
1.0
 10
26.3703505722463
 20
-9.552101225804352
 30
0.0
 10
26.58526206194922
 20
-9.51711616021773
 30
0.0
 10
26.97809205360763
 20
-9.453168052829156
 30
0.0
 10
27.61233009737488
 20
-9.346809953418818
 30
0.0
 10
28.26626527184809
 20
-9.250262080382765
 30
0.0
 10
29.08983195711226
 20
-9.140348847582368
 30
0.0
 10
30.11835776951995
 20
-9.020428440317298
 30
0.0
 10
31.26405900265781
 20
-8.895246626733558
 30
0.0
 10
32.33172631187801
 20
-8.78487232195508
 30
0.0
 10
33.29612483258883
 20
-8.69342567855778
 30
0.0
 10
34.19373119006823
 20
-8.6190403871835
 30
0.0
 10
35.01278441321172
 20
-8.561075767574703
 30
0.0
 10
35.5550978023842
 20
-8.527963969370328
 30
0.0
 10
35.81843364588589
 20
-8.51188558465017
 30
0.0
1001
PE_URL
1000

  0
SPLINE
  5
A2
330
1F
100
AcDbEntity
  8
0
  6
Continuous
 62
     1
370
    15
100
AcDbSpline
210
0.0
220
0.0
230
1.0
 70
     8
 71
     3
 72
     9
 73
     5
 74
     0
 42
0.000000001
 43
0.00000001
 40
0.0
 40
0.0
 40
0.0
 40
0.0
 40
0.5000930232747912
 40
1.0
 40
1.0
 40
1.0
 40
1.0
 10
12.00000000000001
 20
-9.939487277299625
 30
0.0
 10
12.69465099162137
 20
-9.95603199368636
 30
0.0
 10
14.08369454810318
 20
-9.989115271430157
 30
0.0
 10
15.47795047654305
 20
-10.05765409389107
 30
0.0
 10
16.17494874251063
 20
-10.0919171294158
 30
0.0
1001
PE_URL
1000

  0
SPLINE
  5
A3
330
1F
100
AcDbEntity
  8
외형선
  6
Continuous
370
    15
100
AcDbSpline
210
0.0
220
0.0
230
1.0
 70
     8
 71
     3
 72
    10
 73
     6
 74
     0
 42
0.000000001
 43
0.00000001
 40
0.0
 40
0.0
 40
0.0
 40
0.0
 40
0.5
 40
0.5
 40
1.0
 40
1.0
 40
1.0
 40
1.0
 10
12.00000000000001
 20
7.446721624469295
 30
0.0
 10
11.49102042277706
 20
7.684567226967089
 30
0.0
 10
10.98137695914895
 20
7.916538245378721
 30
0.0
 10
9.964434825066613
 20
8.367071821301087
 30
0.0
 10
9.458423685134008
 20
8.585462560442124
 30
0.0
 10
8.950226827818096
 20
8.79712200006722
 30
0.0
  0
LINE
  5
A4
330
1F
100
AcDbEntity
  8
외형선
  6
Continuous
370
    15
100
AcDbLine
 10
12.00000000000001
 20
7.446721624469292
 30
0.0
 11
12.00000000000001
 21
4.31582751875631
 31
0.0
  0
SPLINE
  5
A5
330
1F
100
AcDbEntity
  8
외형선
  6
Continuous
370
    15
100
AcDbSpline
210
0.0
220
0.0
230
1.0
 70
     8
 71
     3
 72
    10
 73
     6
 74
     0
 42
0.000000001
 43
0.00000001
 40
0.0
 40
0.0
 40
0.0
 40
0.0
 40
0.5
 40
0.5
 40
1.0
 40
1.0
 40
1.0
 40
1.0
 10
12.00000000000001
 20
4.315827518756309
 30
0.0
 10
11.49100105712978
 20
4.591981233107696
 30
0.0
 10
10.98133817740113
 20
4.864789966932774
 30
0.0
 10
9.964357529027627
 20
5.401758808994048
 30
0.0
 10
9.458327214088863
 20
5.665703784534663
 30
0.0
 10
8.950110812596108
 20
5.925282220656461
 30
0.0
  0
LINE
  5
A6
330
1F
100
AcDbEntity
  8
외형선
  6
Continuous
370
    15
100
AcDbLine
 10
8.950110812596105
 20
8.797514552226684
 30
0.0
 11
8.950110812596098
 21
12.69999999999999
 31
0.0
  0
LINE
  5
A7
330
1F
100
AcDbEntity
  8
외형선
  6
Continuous
370
    15
100
AcDbLine
 10
-50.49999999999999
 20
10.795
 30
0.0
 11
-50.49999999999999
 21
-12.70000000000001
 31
0.0
  0
LINE
  5
A8
330
1F
100
AcDbEntity
  8
외형선
  6
Continuous
370
    15
100
AcDbLine
 10
8.950110812596098
 20
-12.70000000000001
 30
0.0
 11
8.950110812596108
 21
5.925284874232198
 31
0.0
  0
LINE
  5
A9
330
1F
100
AcDbEntity
  8
외형선
  6
Continuous
370
    15
100
AcDbLine
 10
-51.50000000000001
 20
10.795
 30
0.0
 11
-51.50000000000001
 21
-11.69999999999998
 31
0.0
  0
SPLINE
  5
AA
330
1F
100
AcDbEntity
  8
외형선
  6
Continuous
370
    15
100
AcDbSpline
210
0.0
220
0.0
230
1.0
 70
    24
 71
     3
 72
    10
 73
     6
 74
     0
 42
0.000000001
 43
0.00000001
 40
0.0
 40
0.0
 40
0.0
 40
0.0
 40
0.4999999999999999
 40
0.4999999999999999
 40
1.0
 40
1.0
 40
1.0
 40
1.0
 10
12.00000000000001
 20
4.315827518756295
 30
0.0
 10
12.00000000000001
 20
4.279658615326985
 30
0.0
 10
12.00000000000001
 20
4.110592275494119
 30
0.0
 10
12.00000000000001
 20
3.536403249295895
 30
0.0
 10
12.00000000000001
 20
3.133699623960423
 30
0.0
 10
12.00000000000001
 20
2.674846316482875
 30
0.0
  0
SPLINE
  5
AB
330
1F
100
AcDbEntity
  8
외형선
  6
Continuous
370
    15
100
AcDbSpline
210
0.0
220
0.0
230
1.0
 70
     8
 71
     3
 72
    10
 73
     6
 74
     0
 42
0.000000001
 43
0.00000001
 40
0.0
 40
0.0
 40
0.0
 40
0.0
 40
0.5
 40
0.5
 40
1.0
 40
1.0
 40
1.0
 40
1.0
 10
12.00000000000001
 20
2.674846316482874
 30
0.0
 10
11.49100572366786
 20
2.870859885713887
 30
0.0
 10
10.98134752263519
 20
3.064811132365838
 30
0.0
 10
9.964376155044349
 20
3.447195878410513
 30
0.0
 10
9.458350460711763
 20
3.635475267125551
 30
0.0
 10
8.950138768776856
 20
3.820964835720192
 30
0.0
  0
SPLINE
  5
AC
330
1F
100
AcDbEntity
  8
외형선
  6
Continuous
370
    15
100
AcDbSpline
210
0.0
220
0.0
230
1.0
 70
     8
 71
     3
 72
    10
 73
     6
 74
     0
 42
0.000000001
 43
0.00000001
 40
0.0
 40
0.0
 40
0.0
 40
0.0
 40
0.5
 40
0.5
 40
1.0
 40
1.0
 40
1.0
 40
1.0
 10
12.00000000000001
 20
-9.689197666626095
 30
0.0
 10
11.49100812984954
 20
-9.618520521853254
 30
0.0
 10
10.9813523412674
 20
-9.540034571421145
 30
0.0
 10
9.964385759076658
 20
-9.36802604665634
 30
0.0
 10
9.458362447240429
 20
-9.274597583487255
 30
0.0
 10
8.950153183669366
 20
-9.17368858171646
 30
0.0
  0
SPLINE
  5
AD
330
1F
100
AcDbEntity
  8
외형선
  6
Continuous
370
    15
100
AcDbSpline
210
0.0
220
0.0
230
1.0
 70
    24
 71
     3
 72
    14
 73
    10
 74
     0
 42
0.000000001
 43
0.00000001
 40
0.0
 40
0.0
 40
0.0
 40
0.0
 40
0.25
 40
0.25
 40
0.5
 40
0.5
 40
0.75
 40
0.75
 40
1.0
 40
1.0
 40
1.0
 40
1.0
 10
12.0
 20
2.674846316482879
 30
0.0
 10
12.0
 20
1.554485769315657
 30
0.0
 10
12.0
 20
0.3856054938153949
 30
0.0
 10
12.0
 20
-1.94559413151868
 30
0.0
 10
12.0
 20
-3.10676743688673
 30
0.0
 10
12.0
 20
-5.304214521798377
 30
0.0
 10
12.0
 20
-6.339317409663782
 30
0.0
 10
12.0
 20
-8.190148010146237
 30
0.0
 10
12.0
 20
-9.005404382512426
 30
0.0
 10
12.0
 20
-9.689197666626091
 30
0.0
  0
SPLINE
  5
AE
330
1F
100
AcDbEntity
  8
외형선
  6
Continuous
370
    15
100
AcDbSpline
210
0.0
220
0.0
230
1.0
 70
    24
 71
     3
 72
    15
 73
    11
 74
     0
 42
0.000000001
 43
0.00000001
 40
0.0
 40
0.0
 40
0.0
 40
0.0
 40
0.0481601969769369
 40
0.1895210010626969
 40
0.3308818051484568
 40
0.4763494464407028
 40
0.6218170877329486
 40
0.7495835185739168
 40
0.877349949414885
 40
1.0
 40
1.0
 40
1.0
 40
1.0
 10
12.00000000000001
 20
9.922574482852255
 30
0.0
 10
12.00000000000001
 20
9.92669091662722
 30
0.0
 10
12.00000000000001
 20
9.94288999177249
 30
0.0
 10
12.00000000000001
 20
9.848832077628964
 30
0.0
 10
12.00000000000001
 20
9.667805616807714
 30
0.0
 10
12.00000000000001
 20
9.376527322424543
 30
0.0
 10
12.00000000000001
 20
9.00390886501546
 30
0.0
 10
12.00000000000001
 20
8.562310856005197
 30
0.0
 10
12.00000000000001
 20
8.081598201255906
 30
0.0
 10
12.00000000000001
 20
7.706205142716401
 30
0.0
 10
12.00000000000001
 20
7.52234353202301
 30
0.0
  0
SPLINE
  5
AF
330
1F
100
AcDbEntity
  8
외형선
  6
Continuous
370
    15
100
AcDbSpline
210
0.0
220
0.0
230
1.0
 70
    24
 71
     3
 72
     9
 73
     5
 74
     0
 42
0.000000001
 43
0.00000001
 40
0.0
 40
0.0
 40
0.0
 40
0.0
 40
0.571335264264989
 40
1.0
 40
1.0
 40
1.0
 40
1.0
 10
12.00000000000001
 20
-9.689197666626095
 30
0.0
 10
12.00000000000001
 20
-9.776153428683331
 30
0.0
 10
12.00000000000001
 20
-9.928350864227772
 30
0.0
 10
12.00000000000001
 20
-9.924307413507007
 30
0.0
 10
12.00000000000001
 20
-9.922574128772334
 30
0.0
  0
SPLINE
  5
B0
330
1F
100
AcDbEntity
  8
0
  6
Continuous
 62
     1
370
    15
100
AcDbSpline
210
0.0
220
0.0
230
1.0
 70
     8
 71
     3
 72
    46
 73
    42
 74
     0
 42
0.000000001
 43
0.00000001
 40
0.0
 40
0.0
 40
0.0
 40
0.0
 40
0.0625000000000011
 40
0.0625000000000011
 40
0.1250000000000022
 40
0.1250000000000022
 40
0.1562500000000025
 40
0.1562500000000025
 40
0.1875000000000028
 40
0.1875000000000028
 40
0.2500000000000031
 40
0.2500000000000031
 40
0.281250000000003
 40
0.281250000000003
 40
0.3125000000000029
 40
0.3125000000000029
 40
0.3750000000000027
 40
0.3750000000000027
 40
0.4375000000000025
 40
0.4375000000000025
 40
0.5000000000000023
 40
0.5000000000000023
 40
0.5625000000000022
 40
0.5625000000000022
 40
0.6250000000000019
 40
0.6250000000000019
 40
0.6875000000000017
 40
0.6875000000000017
 40
0.7187500000000016
 40
0.7187500000000016
 40
0.7500000000000014
 40
0.7500000000000014
 40
0.7812500000000013
 40
0.7812500000000013
 40
0.8125000000000012
 40
0.8125000000000012
 40
0.8750000000000008
 40
0.8750000000000008
 40
0.9375000000000004
 40
0.9375000000000004
 40
1.0
 40
1.0
 40
1.0
 40
1.0
 10
53.27500000000001
 20
-12.05154903924513
 30
0.0
 10
52.41802336815082
 20
-11.89511349864417
 30
0.0
 10
51.55479595826377
 20
-11.7106409071992
 30
0.0
 10
49.83357464804025
 20
-11.28918609935062
 30
0.0
 10
48.97727866983164
 20
-11.05246802764862
 30
0.0
 10
47.68537754825451
 20
-10.65953923207232
 30
0.0
 10
47.25448877638487
 20
-10.52234161189882
 30
0.0
 10
46.3944226578177
 20
-10.23622812879244
 30
0.0
 10
45.96627830225736
 20
-10.08744021235876
 30
0.0
 10
44.67786930258334
 20
-9.62355951369591
 30
0.0
 10
43.81427063034965
 20
-9.290919085209682
 30
0.0
 10
42.52520384645388
 20
-8.761992708821204
 30
0.0
 10
42.09720675507268
 20
-8.580802875162862
 30
0.0
 10
41.23750046485349
 20
-8.208282195955531
 30
0.0
 10
40.80668213912563
 20
-8.01706845283945
 30
0.0
 10
39.51466213924706
 20
-7.430019351370407
 30
0.0
 10
38.65804036066298
 20
-7.021439379603729
 30
0.0
 10
36.9373809167671
 20
-6.172837891571613
 30
0.0
 10
36.07399368937809
 20
-5.732859573800205
 30
0.0
 10
34.35885015507044
 20
-4.83068119810712
 30
0.0
 10
33.49696793172738
 20
-4.366722108927343
 30
0.0
 10
31.77527146257333
 20
-3.421262996181765
 30
0.0
 10
30.91916103708049
 20
-2.940479938841584
 30
0.0
 10
29.19687164099405
 20
-1.96577214504064
 30
0.0
 10
28.33689954836403
 20
-1.473007406397305
 30
0.0
 10
26.61998407398064
 20
-0.4835734897888014
 30
0.0
 10
25.75642925733101
 20
0.0143662456866188
 30
0.0
 10
24.46676940921311
 20
0.7584312913247175
 30
0.0
 10
24.03875799461127
 20
1.005800388957486
 30
0.0
 10
23.17945473452715
 20
1.499733638927587
 30
0.0
 10
22.74872861799554
 20
1.746187810395786
 30
0.0
 10
21.88734617668375
 20
2.23679625789998
 30
0.0
 10
21.45669112560874
 20
2.480949808911087
 30
0.0
 10
20.59767090886832
 20
2.965704551652906
 30
0.0
 10
20.16956444300769
 20
3.206260829992863
 30
0.0
 10
18.879556219563
 20
3.923068356389051
 30
0.0
 10
18.01605299435163
 20
4.393657964567733
 30
0.0
 10
16.29980487746098
 20
5.310637641695527
 30
0.0
 10
15.43912853062943
 20
5.758454978466907
 30
0.0
 10
13.71704368982193
 20
6.625757965686912
 30
0.0
 10
12.86097853820136
 20
7.044387290597891
 30
0.0
 10
11.99999999999626
 20
7.446721624471048
 30
0.0
1001
PE_URL
1000

  0
SPLINE
  5
B1
330
1F
100
AcDbEntity
  8
0
  6
Continuous
 62
     1
370
    15
100
AcDbSpline
210
0.0
220
0.0
230
1.0
 70
     8
 71
     3
 72
    19
 73
    15
 74
     0
 42
0.000000001
 43
0.00000001
 40
0.0
 40
0.0
 40
0.0
 40
0.0
 40
0.0840793558272142
 40
0.1681001210921681
 40
0.2521156446066643
 40
0.3361793137209563
 40
0.4202720998289532
 40
0.5043001615238255
 40
0.5883124994525234
 40
0.6723625243911815
 40
0.7564621857966848
 40
0.8404995965341937
 40
0.9245108059445415
 40
1.0
 40
1.0
 40
1.0
 40
1.0
 10
53.27500000000001
 20
-10.01994775747635
 30
0.0
 10
52.35112478898963
 20
-9.836014496566293
 30
0.0
 10
50.50401816790598
 20
-9.468276148339669
 30
0.0
 10
47.73416746078848
 20
-8.723853772026278
 30
0.0
 10
44.96449151755763
 20
-7.852620071816482
 30
0.0
 10
42.19373911864876
 20
-6.854057595921411
 30
0.0
 10
39.42257186192465
 20
-5.748170193040733
 30
0.0
 10
36.65250736881617
 20
-4.550338077965347
 30
0.0
 10
33.88293579279512
 20
-3.280595481151804
 30
0.0
 10
31.11240911842028
 20
-1.958909185612762
 30
0.0
 10
28.34114923994262
 20
-0.6066544279121557
 30
0.0
 10
25.5708578491649
 20
0.7548578659454528
 30
0.0
 10
22.8952812391823
 20
2.063014440402108
 30
0.0
 10
21.14281862103514
 20
2.889066020013147
 30
0.0
 10
20.31340384977653
 20
3.280024078037396
 30
0.0
1001
PE_URL
1000

  0
LINE
  5
B2
330
1F
100
AcDbEntity
  8
0
  6
Continuous
 62
     1
370
    15
100
AcDbLine
 10
53.27499999999974
 20
-12.05154903924513
 30
0.0
 11
53.27500000000001
 21
-10.01994775747635
 31
0.0
1001
PE_URL
1000

  0
SPLINE
  5
B3
330
1F
100
AcDbEntity
  8
0
  6
Continuous
 62
     1
370
    15
100
AcDbSpline
210
0.0
220
0.0
230
1.0
 70
     8
 71
     3
 72
    46
 73
    42
 74
     0
 42
0.000000001
 43
0.00000001
 40
0.0
 40
0.0
 40
0.0
 40
0.0
 40
0.0625000000000007
 40
0.0625000000000007
 40
0.1250000000000014
 40
0.1250000000000014
 40
0.1562500000000016
 40
0.1562500000000016
 40
0.1875000000000017
 40
0.1875000000000017
 40
0.2500000000000017
 40
0.2500000000000017
 40
0.2812500000000016
 40
0.2812500000000016
 40
0.3125000000000016
 40
0.3125000000000016
 40
0.3750000000000014
 40
0.3750000000000014
 40
0.4375000000000013
 40
0.4375000000000013
 40
0.5000000000000011
 40
0.5000000000000011
 40
0.5625000000000009
 40
0.5625000000000009
 40
0.6250000000000008
 40
0.6250000000000008
 40
0.6875000000000006
 40
0.6875000000000006
 40
0.7187500000000004
 40
0.7187500000000004
 40
0.7500000000000003
 40
0.7500000000000003
 40
0.7812500000000003
 40
0.7812500000000003
 40
0.8125000000000002
 40
0.8125000000000002
 40
0.8750000000000001
 40
0.8750000000000001
 40
0.9375000000000001
 40
0.9375000000000001
 40
1.0
 40
1.0
 40
1.0
 40
1.0
 10
53.27500000000003
 20
-12.68926615341648
 30
0.0
 10
52.4180233681509
 20
-12.66888172996808
 30
0.0
 10
51.55479595826392
 20
-12.61932649145726
 30
0.0
 10
49.83357464804055
 20
-12.46264914720379
 30
0.0
 10
48.97727866983205
 20
-12.35571397793478
 30
0.0
 10
47.685377548255
 20
-12.15290962277116
 30
0.0
 10
47.25448877638541
 20
-12.07827821850325
 30
0.0
 10
46.39442265781834
 20
-11.9153597528644
 30
0.0
 10
45.96627830225802
 20
-11.82715334534657
 30
0.0
 10
44.67786930258411
 20
-11.54211402367307
 30
0.0
 10
43.81427063035051
 20
-11.32478006311306
 30
0.0
 10
42.52520384645484
 20
-10.96114974958545
 30
0.0
 10
42.09720675507368
 20
-10.83376004118904
 30
0.0
 10
41.23750046485458
 20
-10.56635290185847
 30
0.0
 10
40.80668213912674
 20
-10.42641308132184
 30
0.0
 10
39.51466213924831
 20
-9.988932830999332
 30
0.0
 10
38.65804036066427
 20
-9.674245209912142
 30
0.0
 10
36.93738091676857
 20
-9.001124794393329
 30
0.0
 10
36.07399368937964
 20
-8.642684253806747
 30
0.0
 10
34.35885015507214
 20
-7.889541450259362
 30
0.0
 10
33.49696793172919
 20
-7.493378792072482
 30
0.0
 10
31.77527146257527
 20
-6.668806267028052
 30
0.0
 10
30.9191610370825
 20
-6.241054631410261
 30
0.0
 10
29.19687164099622
 20
-5.357253144744904
 30
0.0
 10
28.33689954836628
 20
-4.902233731272995
 30
0.0
 10
26.61998407398306
 20
-3.972395501729447
 30
0.0
 10
25.75642925733352
 20
-3.496364889126043
 30
0.0
 10
24.4667694092157
 20
-2.772974201691861
 30
0.0
 10
24.03875799461391
 20
-2.530470033960614
 30
0.0
 10
23.17945473452987
 20
-2.042225637007502
 30
0.0
 10
22.74872861799831
 20
-1.796589293843951
 30
0.0
 10
21.88734617668659
 20
-1.303549287776611
 30
0.0
 10
21.45669112561162
 20
-1.056146354259554
 30
0.0
 10
20.59767090887126
 20
-0.5608535141949662
 30
0.0
 10
20.16956444301068
 20
-0.3130141863220631
 30
0.0
 10
18.87955621956612
 20
0.4317098346949065
 30
0.0
 10
18.01605299435482
 20
0.9290096166786639
 30
0.0
 10
16.29980487746428
 20
1.91502400605962
 30
0.0
 10
15.43912853063286
 20
2.405258308834976
 30
0.0
 10
13.71704368982551
 20
3.372593096460403
 30
0.0
 10
12.86097853820501
 20
3.84870980734928
 30
0.0
 10
11.99999999999999
 20
4.315827518756321
 30
0.0
1001
PE_URL
1000

  0
SPLINE
  5
B4
330
1F
100
AcDbEntity
  8
0
  6
Continuous
 62
     1
370
    15
100
AcDbSpline
210
0.0
220
0.0
230
1.0
 70
     8
 71
     3
 72
    10
 73
     6
 74
     0
 42
0.000000001
 43
0.00000001
 40
0.0
 40
0.0
 40
0.0
 40
0.0
 40
0.1720206832233679
 40
0.5859910212018757
 40
1.0
 40
1.0
 40
1.0
 40
1.0
 10
21.7001192479553
 20
-1.19523692193983
 30
0.0
 10
21.14393029007679
 20
-0.9735720046709311
 30
0.0
 10
19.24926431560655
 20
-0.2184671602937864
 30
0.0
 10
16.01585361805559
 20
1.102758146251474
 30
0.0
 10
13.33865951985044
 20
2.1508006227697
 30
0.0
 10
12.00000000000002
 20
2.674846316482871
 30
0.0
1001
PE_URL
1000

  0
SPLINE
  5
B5
330
1F
100
AcDbEntity
  8
외형선
  6
Continuous
370
    15
100
AcDbSpline
210
0.0
220
0.0
230
1.0
 70
    24
 71
     3
 72
    10
 73
     6
 74
     0
 42
0.000000001
 43
0.00000001
 40
0.0
 40
0.0
 40
0.0
 40
0.0
 40
0.5
 40
0.5
 40
1.0
 40
1.0
 40
1.0
 40
1.0
 10
12.00000000000002
 20
4.315827518756293
 30
0.0
 10
12.00000000000002
 20
4.279658615326981
 30
0.0
 10
12.00000000000002
 20
4.110592275494114
 30
0.0
 10
12.00000000000002
 20
3.536403249295891
 30
0.0
 10
12.00000000000002
 20
3.133699623960421
 30
0.0
 10
12.00000000000002
 20
2.674846316482872
 30
0.0
  0
LINE
  5
B6
330
1F
100
AcDbEntity
  8
0
  6
Continuous
 62
     1
370
    15
100
AcDbLine
 10
53.27500000000003
 20
-12.68926615341648
 30
0.0
 11
53.27499999999968
 21
-12.05154903924511
 31
0.0
1001
PE_URL
1000

  0
SPLINE
  5
B7
330
1F
100
AcDbEntity
  8
0
  6
Continuous
 62
     1
370
    15
100
AcDbSpline
210
0.0
220
0.0
230
1.0
 70
     8
 71
     3
 72
    10
 73
     6
 74
     0
 42
0.000000001
 43
0.00000001
 40
0.0
 40
0.0
 40
0.0
 40
0.0
 40
0.5
 40
0.5
 40
1.0
 40
1.0
 40
1.0
 40
1.0
 10
53.27500000000001
 20
-3.39398541457649
 30
0.0
 10
52.42440223300545
 20
-2.725276500219911
 30
0.0
 10
51.58243926415033
 20
-2.038875865003515
 30
0.0
 10
49.91554037091925
 20
-0.6311881139455393
 30
0.0
 10
49.09060326807884
 20
0.0900965873561262
 30
0.0
 10
48.27500000000167
 20
0.8305052561804162
 30
0.0
1001
PE_URL
1000

  0
LINE
  5
B8
330
1F
100
AcDbEntity
  8
0
  6
Continuous
 62
     1
370
    15
100
AcDbLine
 10
48.27500000000002
 20
2.937719435296585
 30
0.0
 11
53.27500000000001
 21
-0.0000000000000013
 31
0.0
1001
PE_URL
1000

  0
LINE
  5
B9
330
1F
100
AcDbEntity
  8
0
  6
Continuous
 62
     1
370
    15
100
AcDbLine
 10
53.27500000000001
 20
-0.0000000000000013
 30
0.0
 11
53.27500000000001
 21
-3.393985414576492
 31
0.0
1001
PE_URL
1000

  0
SPLINE
  5
BA
330
1F
100
AcDbEntity
  8
0
  6
Continuous
 62
     1
370
    15
100
AcDbSpline
210
0.0
220
0.0
230
1.0
 70
     8
 71
     3
 72
    17
 73
    13
 74
     0
 42
0.000000001
 43
0.00000001
 40
0.0
 40
0.0
 40
0.0
 40
0.0
 40
0.094697193356427
 40
0.1894263379178352
 40
0.3044803249861337
 40
0.4195347475378057
 40
0.534589590188487
 40
0.6496448375402617
 40
0.7647004741821555
 40
0.8797564846906277
 40
0.9632103692004189
 40
1.0
 40
1.0
 40
1.0
 40
1.0
 10
48.27500000000001
 20
2.28978474425063
 30
0.0
 10
47.2617024672247
 20
2.741624747753545
 30
0.0
 10
45.23476551110663
 20
3.645457207351251
 30
0.0
 10
41.97651720154009
 20
5.010724720636126
 30
0.0
 10
38.50028058358028
 20
6.352667019293715
 30
0.0
 10
34.8065726112844
 20
7.598449174783773
 30
0.0
 10
31.11283609135846
 20
8.631100732678444
 30
0.0
 10
27.41909276575959
 20
9.419855470965087
 30
0.0
 10
23.72531691602583
 20
9.947343855564172
 30
0.0
 10
20.36977863245892
 20
10.15975049035618
 30
0.0
 10
17.85163890707121
 20
10.18105903823536
 30
0.0
 10
16.56503281368774
 20
10.09861581188564
 30
0.0
 10
16.17138361740231
 20
10.07339153387341
 30
0.0
1001
PE_URL
1000

  0
SPLINE
  5
BB
330
1F
100
AcDbEntity
  8
0
  6
Continuous
 62
     1
370
    15
100
AcDbSpline
210
0.0
220
0.0
230
1.0
 70
    24
 71
     3
 72
     8
 73
     4
 74
     0
 42
0.000000001
 43
0.00000001
 40
0.0
 40
0.0
 40
0.0
 40
0.0
 40
1.0
 40
1.0
 40
1.0
 40
1.0
 10
48.27500000000002
 20
0.830505256169323
 30
0.0
 10
48.27500000000002
 20
1.322728240362207
 30
0.0
 10
48.27500000000001
 20
1.810406971894828
 30
0.0
 10
48.27500000000001
 20
2.289784744250634
 30
0.0
1001
PE_URL
1000

  0
SPLINE
  5
BC
330
1F
100
AcDbEntity
  8
0
  6
Continuous
 62
     1
370
    15
100
AcDbSpline
210
0.0
220
0.0
230
1.0
 70
    24
 71
     3
 72
    12
 73
     8
 74
     0
 42
0.000000001
 43
0.00000001
 40
0.0
 40
0.0
 40
0.0
 40
0.0
 40
0.5000000000000001
 40
0.5000000000000001
 40
0.75
 40
0.75
 40
1.0
 40
1.0
 40
1.0
 40
1.0
 10
53.27500000000001
 20
-10.01994775747635
 30
0.0
 10
53.27500000000001
 20
-9.25184064034833
 30
0.0
 10
53.27500000000001
 20
-8.281307845612154
 30
0.0
 10
53.27500000000001
 20
-6.589011337313267
 30
0.0
 10
53.27500000000001
 20
-5.986484557406007
 30
0.0
 10
53.27500000000001
 20
-4.725678605577809
 30
0.0
 10
53.27500000000001
 20
-4.067494970664267
 30
0.0
 10
53.27500000000001
 20
-3.393985414576897
 30
0.0
1001
PE_URL
1000

  0
SPLINE
  5
BD
330
1F
100
AcDbEntity
  8
외형선
  6
Continuous
370
    15
100
AcDbSpline
210
0.0
220
0.0
230
1.0
 70
    24
 71
     3
 72
    15
 73
    11
 74
     0
 42
0.000000001
 43
0.00000001
 40
0.0
 40
0.0
 40
0.0
 40
0.0
 40
0.0487479268184043
 40
0.190021445246734
 40
0.3312949636750639
 40
0.4766727834726801
 40
0.6220506032702965
 40
0.7497381425331818
 40
0.8774256817960671
 40
1.0
 40
1.0
 40
1.0
 40
1.0
 10
12.00000000000001
 20
9.922400281477888
 30
0.0
 10
12.00000000000001
 20
9.92661165288955
 30
0.0
 10
12.00000000000001
 20
9.943027753723868
 30
0.0
 10
12.00000000000001
 20
9.848846094868138
 30
0.0
 10
12.00000000000001
 20
9.667801738062476
 30
0.0
 10
12.00000000000002
 20
9.376528378815008
 30
0.0
 10
12.00000000000003
 20
9.003908620097574
 30
0.0
 10
12.00000000000002
 20
8.562310917790478
 30
0.0
 10
12.00000000000002
 20
8.081598186529114
 30
0.0
 10
12.00000000000002
 20
7.706205137874792
 30
0.0
 10
12.00000000000002
 20
7.522343532023009
 30
0.0
  0
SPLINE
  5
BE
330
1F
100
AcDbEntity
  8
0
  6
Continuous
 62
     1
370
    15
100
AcDbSpline
210
0.0
220
0.0
230
1.0
 70
    24
 71
     3
 72
    10
 73
     6
 74
     0
 42
0.000000001
 43
0.00000001
 40
0.0
 40
0.0
 40
0.0
 40
0.0
 40
0.5
 40
0.5
 40
1.0
 40
1.0
 40
1.0
 40
1.0
 10
48.27500000000002
 20
2.289784744250635
 30
0.0
 10
48.27500000000002
 20
3.318117051978196
 30
0.0
 10
48.27500000000002
 20
4.293337801787539
 30
0.0
 10
48.27500000000002
 20
6.003026800807378
 30
0.0
 10
48.27500000000003
 20
6.735761112039306
 30
0.0
 10
48.27500000000002
 20
7.298596457508374
 30
0.0
1001
PE_URL
1000

  0
SPLINE
  5
BF
330
1F
100
AcDbEntity
  8
0
  6
Continuous
 62
     1
370
    15
100
AcDbSpline
210
0.0
220
0.0
230
1.0
 70
     8
 71
     3
 72
     9
 73
     5
 74
     0
 42
0.000000001
 43
0.00000001
 40
0.0
 40
0.0
 40
0.0
 40
0.0
 40
0.7825338639350078
 40
1.0
 40
1.0
 40
1.0
 40
1.0
 10
53.27500000000001
 20
8.889999999999992
 30
0.0
 10
52.04378275513607
 20
8.880476822777615
 30
0.0
 10
50.47041027682221
 20
8.868307154905999
 30
0.0
 10
48.897036752614
 20
8.698591732726115
 30
0.0
 10
48.55488129171747
 20
8.661684375634016
 30
0.0
1001
PE_URL
1000

  0
SPLINE
  5
C0
330
1F
100
AcDbEntity
  8
0
  6
Continuous
 62
     1
370
    15
100
AcDbSpline
210
0.0
220
0.0
230
1.0
 70
     8
 71
     3
 72
     8
 73
     4
 74
     0
 42
0.000000001
 43
0.00000001
 40
0.0
 40
0.0
 40
0.0
 40
0.0
 40
1.0
 40
1.0
 40
1.0
 40
1.0
 10
53.27500000000001
 20
8.889999999999999
 30
0.0
 10
51.59435188656208
 20
8.434389401781289
 30
0.0
 10
49.92704233969719
 20
7.907363561684504
 30
0.0
 10
48.27500000000002
 20
7.298596457508373
 30
0.0
1001
PE_URL
1000

  0
SPLINE
  5
C1
330
1F
100
AcDbEntity
  8
0
  6
Continuous
 62
     1
370
    15
100
AcDbSpline
210
0.0
220
0.0
230
1.0
 70
     8
 71
     3
 72
    12
 73
     8
 74
     0
 42
0.000000001
 43
0.00000001
 40
0.0
 40
0.0
 40
0.0
 40
0.0
 40
0.1843392896632229
 40
0.4412766793494116
 40
0.6276417649312684
 40
0.8138568032466839
 40
1.0
 40
1.0
 40
1.0
 40
1.0
 10
26.37542341426184
 20
-9.523825470908555
 30
0.0
 10
25.49205827848957
 20
-9.660516199179483
 30
0.0
 10
23.37743347723972
 20
-9.987730385473935
 30
0.0
 10
20.36976491602228
 20
-10.16379150185979
 30
0.0
 10
17.3530002474268
 20
-10.16467903312103
 30
0.0
 10
14.67591863452276
 20
-10.0195117661715
 30
0.0
 10
12.89185814127071
 20
-9.799288203406787
 30
0.0
 10
12.00000000000002
 20
-9.689197666626095
 30
0.0
1001
PE_URL
1000

  0
SPLINE
  5
C2
330
1F
100
AcDbEntity
  8
외형선
  6
Continuous
370
    15
100
AcDbSpline
210
0.0
220
0.0
230
1.0
 70
    24
 71
     3
 72
    14
 73
    10
 74
     0
 42
0.000000001
 43
0.00000001
 40
0.0
 40
0.0
 40
0.0
 40
0.0
 40
0.25
 40
0.25
 40
0.4999999999999999
 40
0.4999999999999999
 40
0.75
 40
0.75
 40
1.0
 40
1.0
 40
1.0
 40
1.0
 10
12.00000000000001
 20
2.674846316482877
 30
0.0
 10
12.00000000000001
 20
1.554485769315654
 30
0.0
 10
12.00000000000001
 20
0.3856054938153914
 30
0.0
 10
12.00000000000001
 20
-1.945594131518682
 30
0.0
 10
12.00000000000001
 20
-3.106767436886733
 30
0.0
 10
12.00000000000001
 20
-5.30421452179838
 30
0.0
 10
12.00000000000001
 20
-6.339317409663784
 30
0.0
 10
12.00000000000001
 20
-8.190148010146237
 30
0.0
 10
12.00000000000001
 20
-9.005404382512433
 30
0.0
 10
12.00000000000001
 20
-9.689197666626095
 30
0.0
  0
LINE
  5
C3
330
1F
100
AcDbEntity
  8
0
  6
Continuous
 62
     1
370
    15
100
AcDbLine
 10
53.27500000000001
 20
-0.0000000000000013
 30
0.0
 11
53.27500000000001
 21
8.889999999999995
 31
0.0
1001
PE_URL
1000

  0
SPLINE
  5
C4
330
1F
100
AcDbEntity
  8
외형선
  6
Continuous
370
    15
100
AcDbSpline
210
0.0
220
0.0
230
1.0
 70
    24
 71
     3
 72
     9
 73
     5
 74
     0
 42
0.000000001
 43
0.00000001
 40
0.0
 40
0.0
 40
0.0
 40
0.0
 40
0.5723804910689725
 40
1.0
 40
1.0
 40
1.0
 40
1.0
 10
12.00000000000002
 20
-9.689197666626098
 30
0.0
 10
12.00000000000002
 20
-9.776184529730223
 30
0.0
 10
12.00000000000002
 20
-9.928158373111348
 30
0.0
 10
12.00000000000001
 20
-9.924176642471048
 30
0.0
 10
12.00000000000001
 20
-9.922473976769947
 30
0.0
  0
SPLINE
  5
C5
330
1F
100
AcDbEntity
  8
0
  6
Continuous
 62
     1
370
    15
100
AcDbSpline
210
0.0
220
0.0
230
1.0
 70
     8
 71
     3
 72
    13
 73
     9
 74
     0
 42
0.000000001
 43
0.00000001
 40
0.0
 40
0.0
 40
0.0
 40
0.0
 40
0.1329397671411796
 40
0.3063531810909437
 40
0.479732224056916
 40
0.6531105943247072
 40
0.8265219926187168
 40
1.0
 40
1.0
 40
1.0
 40
1.0
 10
35.82119295510682
 20
8.513024895112911
 30
0.0
 10
36.59469374189027
 20
8.840653617405689
 30
0.0
 10
38.37718841375027
 20
9.59565795846612
 30
0.0
 10
41.16816940016781
 20
10.57194232212176
 30
0.0
 10
44.19432948630394
 20
11.45159522982426
 30
0.0
 10
47.22047207593418
 20
12.10491235177946
 30
0.0
 10
50.24728357458606
 20
12.54803546971509
 30
0.0
 10
52.265632004969
 20
12.64218323282061
 30
0.0
 10
53.27500000000003
 20
12.68926615341647
 30
0.0
1001
PE_URL
1000

  0
SPLINE
  5
C6
330
1F
100
AcDbEntity
  8
0
  6
Continuous
 62
     1
370
    15
100
AcDbSpline
210
0.0
220
0.0
230
1.0
 70
    24
 71
     3
 72
    10
 73
     6
 74
     0
 42
0.000000001
 43
0.00000001
 40
0.0
 40
0.0
 40
0.0
 40
0.0
 40
0.5
 40
0.5
 40
1.0
 40
1.0
 40
1.0
 40
1.0
 10
53.27500000000001
 20
8.889999999999992
 30
0.0
 10
53.27500000000001
 20
9.428889661452878
 30
0.0
 10
53.27500000000003
 20
10.05512935461238
 30
0.0
 10
53.27500000000003
 20
11.36897854420285
 30
0.0
 10
53.27500000000001
 20
12.05323263467869
 30
0.0
 10
53.27500000000001
 20
12.68926615341647
 30
0.0
1001
PE_URL
1000

  0
LINE
  5
C7
330
1F
100
AcDbEntity
  8
중심선
 62
     1
100
AcDbLine
 10
-58.50000000000001
 20
-0.0000000000000113
 30
0.0
 11
60.27500000000001
 21
0.0000000000000024
 31
0.0
  0
LINE
  5
C8
330
1F
100
AcDbEntity
  8
참조1
100
AcDbLine
 10
0.8874999999999984
 20
-0.0000000000000113
 30
0.0
 11
0.8875000000000037
 21
-40.00000000000001
 31
0.0
  0
LINE
  5
C9
330
1F
100
AcDbEntity
  8
참조1
100
AcDbLine
 10
0.8875000000000037
 20
-40.00000000000001
 30
0.0
 11
-23.00006253529962
 21
-40.00000000000001
 31
0.0
  0
CIRCLE
  5
CA
330
1F
100
AcDbEntity
  8
해칭선
100
AcDbCircle
 10
0.0
 20
0.0
 30
0.0
 40
2.999999999999993
  0
INSERT
  5
CB
330
1F
100
AcDbEntity
  8
0
  6
Continuous
 62
     7
100
AcDbBlockReference
 66
     1
  2
블럭10
 10
-13.05277293212521
 20
-52.04717430164394
 30
0.0
  0
ATTRIB
  5
CC
330
CB
100
AcDbEntity
  8
FORMAT
 62
     2
100
AcDbText
 10
-22.23406822086649
 20
-49.97180738881175
 30
0.0
 40
4.233333333333333
  1
E2030064 [ 2 FLUTE ]
 41
0.75
  7
SLDTEXTSTYLE0
 11
-22.23406822086649
 21
-52.08847405547842
 31
0.0
100
AcDbAttribute
  2
AUTOATTR0
 70
     0
 74
     1
  0
SEQEND
  5
CD
330
CB
100
AcDbEntity
  8
0
  6
Continuous
 62
     7
  0
HATCH
  5
CE
330
1F
100
AcDbEntity
  8
중심선
100
AcDbHatch
 10
0.0
 20
0.0
 30
0.0
210
0.0
220
0.0
230
1.0
  2
SOLID
 70
     1
 71
     0
 91
        1
 92
        0
 93
        4
 72
     1
 10
-7.33786362774435
 20
-35.8
 11
-10.78413887158163
 21
-35.8
 72
     1
 10
-10.78413887158163
 20
-35.8
 11
-12.91236873078565
 21
-38.33632558057261
 72
     1
 10
-12.91236873078565
 20
-38.33632558057261
 11
-9.466060401835225
 21
-38.33628615127012
 72
     1
 10
-9.466060401835225
 20
-38.33628615127012
 11
-7.337863627744351
 21
-35.8
 97
        0
 75
     0
 76
     1
 98
        1
 10
-2.849261314031148
 20
-0.0010749287239005
  0
HATCH
  5
CF
330
1F
100
AcDbEntity
  8
중심선
100
AcDbHatch
 10
0.0
 20
0.0
 30
0.0
210
0.0
220
0.0
230
1.0
  2
SOLID
 70
     1
 71
     0
 91
        1
 92
        0
 93
        4
 72
     1
 10
-2.325099636708344
 20
-35.79999999999998
 11
-5.771374880545681
 21
-35.80000000000003
 72
     1
 10
-5.771374880545681
 20
-35.80000000000003
 11
-10.30251288890307
 21
-41.20000000000002
 72
     1
 10
-10.30251288890307
 20
-41.20000000000002
 11
-6.856237645065788
 21
-41.20000000000002
 72
     1
 10
-6.856237645065788
 20
-41.20000000000002
 11
-2.325099636708345
 21
-35.79999999999998
 97
        0
 75
     0
 76
     1
 98
        1
 10
-2.849261314031148
 20
-0.0010749287239005
  0
HATCH
  5
D0
330
1F
100
AcDbEntity
  8
중심선
100
AcDbHatch
 10
0.0
 20
0.0
 30
0.0
210
0.0
220
0.0
230
1.0
  2
SOLID
 70
     1
 71
     0
 91
        1
 92
        0
 93
        4
 72
     1
 10
2.687664354327496
 20
-35.79999999999998
 11
-0.7586108895096197
 21
-35.8
 72
     1
 10
-0.7586108895096197
 20
-35.8
 11
-7.807047791398869
 21
-44.20000000000002
 72
     1
 10
-7.807047791398869
 20
-44.20000000000002
 11
-4.360772547561586
 21
-44.20000000000002
 72
     1
 10
-4.360772547561586
 20
-44.20000000000002
 11
2.687664354327496
 21
-35.79999999999998
 97
        0
 75
     0
 76
     1
 98
        1
 10
-2.849261314031148
 20
-0.0010749287239005
  0
HATCH
  5
D1
330
1F
100
AcDbEntity
  8
중심선
100
AcDbHatch
 10
0.0
 20
0.0
 30
0.0
210
0.0
220
0.0
230
1.0
  2
SOLID
 70
     1
 71
     0
 91
        1
 92
        0
 93
        6
 72
     3
 10
7.487554785339695
 20
-40.00000000005128
 11
3.960054785062283
 21
1.540882976769353E-10
 40
0.3939339440162628
 50
17.09539180608436
 51
320.0019657685081
 73
     0
 72
     1
 10
9.170554441040291
 20
-38.58789400463831
 11
11.47585631474133
 21
-36.65356729459042
 72
     3
 10
7.487554785286848
 20
-40.00000000000016
 11
6.600054785286829
 21
-1.278976924368180E-13
 40
0.636358354079598
 50
39.99873849337382
 51
368.4976242363724
 73
     1
 72
     1
 10
13.91288727718746
 20
-39.03999999993003
 11
6.167622092122771
 21
-39.03999999993003
 72
     1
 10
6.167622092122771
 20
-39.03999999993003
 11
6.167597047676837
 21
-40.95999999992992
 72
     1
 10
6.167597047676837
 20
-40.95999999992992
 11
10.60897681714887
 21
-40.95999999992989
 97
        0
 75
     0
 76
     1
 98
        1
 10
-2.849261314031148
 20
-0.0010749287239005
  0
DIMENSION
  5
D2
330
1F
100
AcDbEntity
  8
치수문자_일반주서
100
AcDbDimension
  2
_D
 10
-66.49999999999993
 20
-12.70000000000008
 30
0.0
 11
-66.50000000000007
 21
29.32499999999992
 31
0.0
 70
   160
  1
%%c<>
 71
     2
 42
25.39999999999997
 52
-270.0
  3
SLDDIMSTYLE2
100
AcDbAlignedDimension
 13
-36.89500000000002
 23
12.7
 33
0.0
 14
-50.49999999999998
 24
-12.70000000000002
 34
0.0
 50
90.0000000000002
100
AcDbRotatedDimension
1001
PE_URL
1000

1001
ACAD
1000
DSTYLE
1002
{
1070
   171
1070
     8
1070
   273
1070
     7
1070
    41
1040
4.0
1070
   140
1040
4.0
1002
}
  0
DIMENSION
  5
E7
330
1F
100
AcDbEntity
  8
치수문자_일반주서
100
AcDbDimension
  2
_D_1
 10
12.00000000000002
 20
27.7
 30
0.0
 11
74.15000000000003
 21
27.7
 31
0.0
 70
   160
  1
<>
 71
     2
 42
41.27500000000001
  3
SLDDIMSTYLE2
100
AcDbAlignedDimension
 13
53.27500000000003
 23
12.68926615341647
 33
0.0
 14
12.00000000000002
 24
9.940026302865698
 34
0.0
100
AcDbRotatedDimension
1001
PE_URL
1000

1001
ACAD
1000
DSTYLE
1002
{
1070
   171
1070
     8
1070
   273
1070
     7
1070
    41
1040
4.0
1070
   140
1040
4.0
1002
}
  0
DIMENSION
  5
FC
330
1F
100
AcDbEntity
  8
치수문자_일반주서
100
AcDbDimension
  2
_D_2
 10
-51.50000000000001
 20
42.69999999999999
 30
0.0
 11
0.8874999999998661
 21
42.69999999999999
 31
0.0
 70
   160
  1
<>
 71
     2
 42
104.7749999999997
  3
SLDDIMSTYLE2
100
AcDbAlignedDimension
 13
53.27499999999974
 23
12.05154903924512
 33
0.0
 14
-51.50000000000001
 24
10.795
 34
0.0
 50
0.0000000000000039
100
AcDbRotatedDimension
1001
PE_URL
1000

1001
ACAD
1000
DSTYLE
1002
{
1070
   171
1070
     8
1070
   273
1070
     7
1070
    41
1040
4.0
1070
   140
1040
4.0
1002
}
  0
DIMENSION
  5
10F
330
1F
100
AcDbEntity
  8
치수문자_일반주서
100
AcDbDimension
  2
_D_3
 10
98.69088641559354
 20
12.68926615341664
 30
0.0
 11
98.69088641559348
 21
29.56426615341664
 31
0.0
 70
   160
  1
%%c<>
 71
     2
 42
25.37853230683295
 52
-270.0
  3
SLDDIMSTYLE2
100
AcDbAlignedDimension
 13
53.27500000000003
 23
-12.68926615341648
 33
0.0
 14
53.27500000000003
 24
12.68926615341647
 34
0.0
 50
90.0000000000002
100
AcDbRotatedDimension
1001
PE_URL
1000

1001
ACAD
1000
DSTYLE
1002
{
1070
   171
1070
     8
1070
   273
1070
     7
1070
    41
1040
4.0
1070
   140
1040
4.0
1002
}
  0
LINE
  5
122
330
1F
100
AcDbEntity
  8
참조1
100
AcDbLine
 10
74.97227809435464
 20
7.439999999999995
 30
0.0
 11
74.97227809435464
 21
-7.440000000000009
 31
0.0
  0
LINE
  5
123
330
1F
100
AcDbEntity
  8
참조1
100
AcDbLine
 10
87.67227809435464
 20
5.439999999999995
 30
0.0
 11
74.97227809435464
 21
5.439999999999995
 31
0.0
  0
SOLID
  5
124
330
1F
100
AcDbEntity
  8
참조1
100
AcDbTrace
 10
74.97227809435464
 20
5.439999999999995
 30
0.0
 11
81.32227809435463
 21
4.423999999999995
 31
0.0
 12
81.32227809435463
 22
6.455999999999995
 32
0.0
 13
81.32227809435463
 23
6.455999999999995
 33
0.0
  0
LINE
  5
125
330
1F
100
AcDbEntity
  8
참조1
100
AcDbLine
 10
87.67227809435464
 20
-5.440000000000009
 30
0.0
 11
74.97227809435464
 21
-5.440000000000009
 31
0.0
  0
SOLID
  5
126
330
1F
100
AcDbEntity
  8
참조1
100
AcDbTrace
 10
74.97227809435464
 20
-5.440000000000009
 30
0.0
 11
81.32227809435463
 21
-6.456000000000009
 31
0.0
 12
81.32227809435463
 22
-4.424000000000009
 32
0.0
 13
81.32227809435463
 23
-4.424000000000009
 33
0.0
  0
MTEXT
  5
127
330
1F
100
AcDbEntity
  8
참조1
100
AcDbMText
 10
84.35662822698063
 20
11.01029177718832
 30
0.0
 40
3.5
 41
0.0
 71
     1
 72
     1
  1
A
  7
SLDTEXTSTYLE0
 73
     1
 44
1.0
  0
MTEXT
  5
128
330
1F
100
AcDbEntity
  8
참조1
100
AcDbMText
 10
84.35662822698063
 20
0.1302917771883188
 30
0.0
 40
3.5
 41
0.0
 71
     1
 72
     1
  1
A
  7
SLDTEXTSTYLE0
 73
     1
 44
1.0
  0
INSERT
  5
12F
330
1F
100
AcDbEntity
  8
해칭선
100
AcDbBlockReference
  2
SW_DOWELSYMBOL_0
 10
0.0
 20
0.0
 30
0.0
  0
LINE
  5
215
330
1F
100
AcDbEntity
  8
외형선
  6
Continuous
370
    15
100
AcDbLine
 10
-29.08132499999991
 20
10.795
 30
0.0
 11
-15.97492500000002
 21
10.795
 31
0.0
1001
PE_URL
1000

  0
LINE
  5
216
330
1F
100
AcDbEntity
  8
외형선
  6
Continuous
370
    15
100
AcDbLine
 10
-29.08132499999991
 20
10.79500000000001
 30
0.0
 11
-30.98632499999989
 21
12.7
 31
0.0
1001
PE_URL
1000

  0
LINE
  5
217
330
1F
100
AcDbEntity
  8
외형선
  6
Continuous
370
    15
100
AcDbLine
 10
-15.97492500000002
 20
10.79500000000001
 30
0.0
 11
-14.06992499999999
 21
12.7
 31
0.0
1001
PE_URL
1000

  0
LINE
  5
218
330
1F
100
AcDbEntity
  8
외형선
  6
Continuous
370
    15
100
AcDbLine
 10
-51.50000000000001
 20
10.795
 30
0.0
 11
-38.79999999999999
 21
10.795
 31
0.0
1001
PE_URL
1000

  0
LINE
  5
219
330
1F
100
AcDbEntity
  8
외형선
  6
Continuous
370
    15
100
AcDbLine
 10
-38.79999999999999
 20
10.79500000000001
 30
0.0
 11
-36.89500000000002
 21
12.7
 31
0.0
1001
PE_URL
1000

  0
LINE
  5
21A
330
1F
100
AcDbEntity
  8
외형선
  6
Continuous
370
    15
100
AcDbLine
 10
-30.98632499999987
 20
12.69999999999999
 30
0.0
 11
-36.89500000000002
 21
12.69999999999999
 31
0.0
  0
ENDSEC
  0
SECTION
  2
OBJECTS
  0
DICTIONARY
  5
C
330
0
100
AcDbDictionary
281
     1
  3
ACAD_DETAILVIEWSTYLE
350
1B8
  3
ACAD_GROUP
350
D
  3
ACAD_IMAGE_VARS
350
23E
  3
ACAD_LAYOUT
350
1A
  3
ACAD_MLINESTYLE
350
17
  3
ACAD_PLOTSETTINGS
350
19
  3
ACAD_PLOTSTYLENAME
350
E
  3
ACAD_SCALELIST
350
47
  3
ACAD_SECTIONVIEWSTYLE
350
1B9
  3
AcDbVariableDictionary
350
1B3
  3
APPDATA
350
151
  3
DWGPROPS
350
23F
  0
DICTIONARY
  5
18A
330
2
100
AcDbDictionary
280
     1
281
     1
  3
ACAD_LAYERSTATES
360
18B
  0
DICTIONARY
  5
1B8
102
{ACAD_REACTORS
330
C
102
}
330
C
100
AcDbDictionary
281
     1
  0
DICTIONARY
  5
D
102
{ACAD_REACTORS
330
C
102
}
330
C
100
AcDbDictionary
281
     1
  0
RASTERVARIABLES
  5
23E
102
{ACAD_REACTORS
330
C
102
}
330
C
100
AcDbRasterVariables
 90
        0
 70
     1
 71
     1
 72
     1
  0
DICTIONARY
  5
1A
102
{ACAD_REACTORS
330
C
102
}
330
C
100
AcDbDictionary
281
     1
  3
Layout1
350
1E
  3
Layout2
350
26
  3
Model
350
22
  0
DICTIONARY
  5
17
102
{ACAD_REACTORS
330
C
102
}
330
C
100
AcDbDictionary
281
     1
  3
Standard
350
18
  0
DICTIONARY
  5
19
102
{ACAD_REACTORS
330
C
102
}
330
C
100
AcDbDictionary
281
     1
  0
ACDBDICTIONARYWDFLT
  5
E
102
{ACAD_REACTORS
330
C
102
}
330
C
100
AcDbDictionary
281
     1
  3
Normal
350
F
100
AcDbDictionaryWithDefault
340
F
  0
DICTIONARY
  5
47
102
{ACAD_REACTORS
330
C
102
}
330
C
100
AcDbDictionary
281
     1
  3
A0
350
48
  3
A1
350
49
  3
A2
350
4A
  3
A3
350
4B
  3
A4
350
4C
  3
A5
350
4D
  3
A6
350
4E
  3
A7
350
4F
  3
A8
350
50
  3
A9
350
51
  3
B0
350
52
  3
B1
350
53
  3
B2
350
54
  3
B3
350
55
  3
B4
350
56
  3
B5
350
57
  3
B6
350
58
  3
B7
350
59
  3
B8
350
5A
  3
B9
350
5B
  3
C0
350
5C
  3
C1
350
5D
  3
C2
350
5E
  3
C3
350
5F
  3
C4
350
60
  3
C5
350
61
  3
C6
350
62
  3
C7
350
63
  3
C8
350
64
  3
C9
350
65
  3
D0
350
66
  3
D1
350
67
  3
D2
350
68
  0
DICTIONARY
  5
1B9
102
{ACAD_REACTORS
330
C
102
}
330
C
100
AcDbDictionary
281
     1
  0
DICTIONARY
  5
1B3
102
{ACAD_REACTORS
330
C
102
}
330
C
100
AcDbDictionary
281
     1
  0
DICTIONARY
  5
151
102
{ACAD_REACTORS
330
C
102
}
330
C
100
AcDbDictionary
281
     1
  0
XRECORD
  5
23F
102
{ACAD_REACTORS
330
C
102
}
330
C
100
AcDbXrecord
280
     1
  1
DWGPROPS COOKIE
  2

  3

  4

  6

  7

  8
12016016
  9

300
=
301
=
302
=
303
=
304
=
305
=
306
=
307
=
308
=
309
=
 40
0.0
 41
2458311.084449167
 42
2458323.078800984
  1

 90
        0
  0
DICTIONARY
  5
18B
102
{ACAD_REACTORS
330
18A
102
}
330
18A
100
AcDbDictionary
281
     1
  0
LAYOUT
  5
1E
102
{ACAD_REACTORS
330
1A
102
}
330
1A
100
AcDbPlotSettings
  1

  2
none_device
  4

  6

 40
0.0
 41
0.0
 42
0.0
 43
0.0
 44
0.0
 45
0.0
 46
0.0
 47
0.0
 48
0.0
 49
0.0
140
0.0
141
0.0
142
1.0
143
1.0
 70
   688
 72
     1
 73
     0
 74
     5
  7

 75
    16
147
1.0
148
0.0
149
0.0
100
AcDbLayout
  1
Layout1
 70
     1
 71
     1
 10
0.0
 20
0.0
 11
420.0
 21
297.0
 12
0.0
 22
0.0
 32
0.0
 14
1.000000000000000E+20
 24
1.000000000000000E+20
 34
1.000000000000000E+20
 15
-1.000000000000000E+20
 25
-1.000000000000000E+20
 35
-1.000000000000000E+20
146
0.0
 13
0.0
 23
0.0
 33
0.0
 16
1.0
 26
0.0
 36
0.0
 17
0.0
 27
1.0
 37
0.0
 76
     0
330
1B
  0
LAYOUT
  5
26
102
{ACAD_REACTORS
330
1A
102
}
330
1A
100
AcDbPlotSettings
  1

  2
none_device
  4

  6

 40
0.0
 41
0.0
 42
0.0
 43
0.0
 44
0.0
 45
0.0
 46
0.0
 47
0.0
 48
0.0
 49
0.0
140
0.0
141
0.0
142
1.0
143
1.0
 70
   688
 72
     1
 73
     0
 74
     5
  7

 75
    16
147
1.0
148
0.0
149
0.0
100
AcDbLayout
  1
Layout2
 70
     1
 71
     2
 10
0.0
 20
0.0
 11
0.0
 21
0.0
 12
0.0
 22
0.0
 32
0.0
 14
0.0
 24
0.0
 34
0.0
 15
0.0
 25
0.0
 35
0.0
146
0.0
 13
0.0
 23
0.0
 33
0.0
 16
1.0
 26
0.0
 36
0.0
 17
0.0
 27
1.0
 37
0.0
 76
     0
330
23
  0
LAYOUT
  5
22
102
{ACAD_REACTORS
330
1A
102
}
330
1A
100
AcDbPlotSettings
  1

  2
none_device
  4
ANSI_A_(11.00_x_8.50_Inches)
  6

 40
6.35
 41
19.05
 42
6.35000508
 43
19.05000254
 44
279.4
 45
215.9
 46
111.9561005549141
 47
43.17679658125441
 48
0.0
 49
0.0
140
0.0
141
0.0
142
0.0474689590334285
143
1.0
 70
  1696
 72
     0
 73
     0
 74
     0
  7

 75
     0
147
0.0235690232323232
148
0.0
149
0.0
100
AcDbLayout
  1
Model
 70
     1
 71
     0
 10
0.0
 20
0.0
 11
420.0
 21
297.0
 12
0.0
 22
0.0
 32
0.0
 14
-71.37500000000011
 24
-49.97180738881175
 34
0.0
 15
99.35755308226027
 25
47.57499999999999
 35
0.0
146
0.0
 13
0.0
 23
0.0
 33
0.0
 16
1.0
 26
0.0
 36
0.0
 17
0.0
 27
1.0
 37
0.0
 76
     0
330
1F
331
29
  0
MLINESTYLE
  5
18
102
{ACAD_REACTORS
330
17
102
}
330
17
100
AcDbMlineStyle
  2
Standard
 70
     0
  3

 62
   256
 51
90.0
 52
90.0
 71
     2
 49
0.5
 62
   256
  6
BYLAYER
 49
-0.5
 62
   256
  6
BYLAYER
  0
ACDBPLACEHOLDER
  5
F
102
{ACAD_REACTORS
330
E
102
}
330
E
  0
SCALE
  5
48
102
{ACAD_REACTORS
330
47
102
}
330
47
100
AcDbScale
 70
     0
300
1:1
140
1.0
141
1.0
290
     1
  0
SCALE
  5
49
102
{ACAD_REACTORS
330
47
102
}
330
47
100
AcDbScale
 70
     0
300
1:2
140
1.0
141
2.0
290
     0
  0
SCALE
  5
4A
102
{ACAD_REACTORS
330
47
102
}
330
47
100
AcDbScale
 70
     0
300
1:4
140
1.0
141
4.0
290
     0
  0
SCALE
  5
4B
102
{ACAD_REACTORS
330
47
102
}
330
47
100
AcDbScale
 70
     0
300
1:5
140
1.0
141
5.0
290
     0
  0
SCALE
  5
4C
102
{ACAD_REACTORS
330
47
102
}
330
47
100
AcDbScale
 70
     0
300
1:8
140
1.0
141
8.0
290
     0
  0
SCALE
  5
4D
102
{ACAD_REACTORS
330
47
102
}
330
47
100
AcDbScale
 70
     0
300
1:10
140
1.0
141
10.0
290
     0
  0
SCALE
  5
4E
102
{ACAD_REACTORS
330
47
102
}
330
47
100
AcDbScale
 70
     0
300
1:16
140
1.0
141
16.0
290
     0
  0
SCALE
  5
4F
102
{ACAD_REACTORS
330
47
102
}
330
47
100
AcDbScale
 70
     0
300
1:20
140
1.0
141
20.0
290
     0
  0
SCALE
  5
50
102
{ACAD_REACTORS
330
47
102
}
330
47
100
AcDbScale
 70
     0
300
1:30
140
1.0
141
30.0
290
     0
  0
SCALE
  5
51
102
{ACAD_REACTORS
330
47
102
}
330
47
100
AcDbScale
 70
     0
300
1:40
140
1.0
141
40.0
290
     0
  0
SCALE
  5
52
102
{ACAD_REACTORS
330
47
102
}
330
47
100
AcDbScale
 70
     0
300
1:50
140
1.0
141
50.0
290
     0
  0
SCALE
  5
53
102
{ACAD_REACTORS
330
47
102
}
330
47
100
AcDbScale
 70
     0
300
1:100
140
1.0
141
100.0
290
     0
  0
SCALE
  5
54
102
{ACAD_REACTORS
330
47
102
}
330
47
100
AcDbScale
 70
     0
300
2:1
140
2.0
141
1.0
290
     0
  0
SCALE
  5
55
102
{ACAD_REACTORS
330
47
102
}
330
47
100
AcDbScale
 70
     0
300
4:1
140
4.0
141
1.0
290
     0
  0
SCALE
  5
56
102
{ACAD_REACTORS
330
47
102
}
330
47
100
AcDbScale
 70
     0
300
8:1
140
8.0
141
1.0
290
     0
  0
SCALE
  5
57
102
{ACAD_REACTORS
330
47
102
}
330
47
100
AcDbScale
 70
     0
300
10:1
140
10.0
141
1.0
290
     0
  0
SCALE
  5
58
102
{ACAD_REACTORS
330
47
102
}
330
47
100
AcDbScale
 70
     0
300
100:1
140
100.0
141
1.0
290
     0
  0
SCALE
  5
59
102
{ACAD_REACTORS
330
47
102
}
330
47
100
AcDbScale
 70
     0
300
1/128" = 1'-0"
140
0.0078125
141
12.0
290
     0
  0
SCALE
  5
5A
102
{ACAD_REACTORS
330
47
102
}
330
47
100
AcDbScale
 70
     0
300
1/64" = 1'-0"
140
0.015625
141
12.0
290
     0
  0
SCALE
  5
5B
102
{ACAD_REACTORS
330
47
102
}
330
47
100
AcDbScale
 70
     0
300
1/32" = 1'-0"
140
0.03125
141
12.0
290
     0
  0
SCALE
  5
5C
102
{ACAD_REACTORS
330
47
102
}
330
47
100
AcDbScale
 70
     0
300
1/16" = 1'-0"
140
0.0625
141
12.0
290
     0
  0
SCALE
  5
5D
102
{ACAD_REACTORS
330
47
102
}
330
47
100
AcDbScale
 70
     0
300
3/32" = 1'-0"
140
0.09375
141
12.0
290
     0
  0
SCALE
  5
5E
102
{ACAD_REACTORS
330
47
102
}
330
47
100
AcDbScale
 70
     0
300
1/8" = 1'-0"
140
0.125
141
12.0
290
     0
  0
SCALE
  5
5F
102
{ACAD_REACTORS
330
47
102
}
330
47
100
AcDbScale
 70
     0
300
3/16" = 1'-0"
140
0.1875
141
12.0
290
     0
  0
SCALE
  5
60
102
{ACAD_REACTORS
330
47
102
}
330
47
100
AcDbScale
 70
     0
300
1/4" = 1'-0"
140
0.25
141
12.0
290
     0
  0
SCALE
  5
61
102
{ACAD_REACTORS
330
47
102
}
330
47
100
AcDbScale
 70
     0
300
3/8" = 1'-0"
140
0.375
141
12.0
290
     0
  0
SCALE
  5
62
102
{ACAD_REACTORS
330
47
102
}
330
47
100
AcDbScale
 70
     0
300
1/2" = 1'-0"
140
0.5
141
12.0
290
     0
  0
SCALE
  5
63
102
{ACAD_REACTORS
330
47
102
}
330
47
100
AcDbScale
 70
     0
300
3/4" = 1'-0"
140
0.75
141
12.0
290
     0
  0
SCALE
  5
64
102
{ACAD_REACTORS
330
47
102
}
330
47
100
AcDbScale
 70
     0
300
1" = 1'-0"
140
1.0
141
12.0
290
     0
  0
SCALE
  5
65
102
{ACAD_REACTORS
330
47
102
}
330
47
100
AcDbScale
 70
     0
300
1-1/2" = 1'-0"
140
1.5
141
12.0
290
     0
  0
SCALE
  5
66
102
{ACAD_REACTORS
330
47
102
}
330
47
100
AcDbScale
 70
     0
300
3" = 1'-0"
140
3.0
141
12.0
290
     0
  0
SCALE
  5
67
102
{ACAD_REACTORS
330
47
102
}
330
47
100
AcDbScale
 70
     0
300
6" = 1'-0"
140
6.0
141
12.0
290
     0
  0
SCALE
  5
68
102
{ACAD_REACTORS
330
47
102
}
330
47
100
AcDbScale
 70
     0
300
1'-0" = 1'-0"
140
12.0
141
12.0
290
     0
  0
ENDSEC
  0
EOF
