  0
SECTION
  2
HEADER
  9
$ACADVER
  1
AC1015
  9
$ACADMAINTVER
 70
     6
  9
$DWGCODEPAGE
  3
ANSI_949
  9
$INSBASE
 10
0.0
 20
0.0
 30
0.0
  9
$EXTMIN
 10
-71.37500000000018
 20
-49.97180738881175
 30
0.0
  9
$EXTMAX
 10
87.67227809435461
 20
55.62499999999993
 30
0.0
  9
$LIMMIN
 10
0.0
 20
0.0
  9
$LIMMAX
 10
420.0
 20
297.0
  9
$ORTHOMODE
 70
     1
  9
$REGENMODE
 70
     1
  9
$FILLMODE
 70
     1
  9
$QTEXTMODE
 70
     0
  9
$MIRRTEXT
 70
     1
  9
$LTSCALE
 40
1.0
  9
$ATTMODE
 70
     1
  9
$TEXTSIZE
 40
3.5
  9
$TRACEWID
 40
1.0
  9
$TEXTSTYLE
  7
Standard
  9
$CLAYER
  8
0
  9
$CELTYPE
  6
ByLayer
  9
$CECOLOR
 62
   256
  9
$CELTSCALE
 40
1.0
  9
$DISPSILH
 70
     0
  9
$DIMSCALE
 40
1.0
  9
$DIMASZ
 40
3.302
  9
$DIMEXO
 40
1.0
  9
$DIMDLI
 40
3.75
  9
$DIMRND
 40
0.0
  9
$DIMDLE
 40
0.0
  9
$DIMEXE
 40
1.0
  9
$DIMTP
 40
0.0
  9
$DIMTM
 40
0.0
  9
$DIMTXT
 40
3.5
  9
$DIMCEN
 40
2.5
  9
$DIMTSZ
 40
0.0
  9
$DIMTOL
 70
     0
  9
$DIMLIM
 70
     0
  9
$DIMTIH
 70
     1
  9
$DIMTOH
 70
     1
  9
$DIMSE1
 70
     0
  9
$DIMSE2
 70
     0
  9
$DIMTAD
 70
     1
  9
$DIMZIN
 70
     0
  9
$DIMBLK
  1

  9
$DIMASO
 70
     1
  9
$DIMSHO
 70
     1
  9
$DIMPOST
  1

  9
$DIMAPOST
  1

  9
$DIMALT
 70
     0
  9
$DIMALTD
 70
     3
  9
$DIMALTF
 40
0.0393700787401575
  9
$DIMLFAC
 40
1.0
  9
$DIMTOFL
 70
     1
  9
$DIMTVP
 40
0.0
  9
$DIMTIX
 70
     0
  9
$DIMSOXD
 70
     0
  9
$DIMSAH
 70
     0
  9
$DIMBLK1
  1

  9
$DIMBLK2
  1

  9
$DIMSTYLE
  2
ISO-25
  9
$DIMCLRD
 70
     0
  9
$DIMCLRE
 70
     0
  9
$DIMCLRT
 70
     0
  9
$DIMTFAC
 40
1.0
  9
$DIMGAP
 40
1.524
  9
$DIMJUST
 70
     0
  9
$DIMSD1
 70
     0
  9
$DIMSD2
 70
     0
  9
$DIMTOLJ
 70
     0
  9
$DIMTZIN
 70
     0
  9
$DIMALTZ
 70
     0
  9
$DIMALTTZ
 70
     0
  9
$DIMUPT
 70
     0
  9
$DIMDEC
 70
     2
  9
$DIMTDEC
 70
     2
  9
$DIMALTU
 70
     2
  9
$DIMALTTD
 70
     3
  9
$DIMTXSTY
  7
Standard
  9
$DIMAUNIT
 70
     0
  9
$DIMADEC
 70
     2
  9
$DIMALTRND
 40
0.0
  9
$DIMAZIN
 70
     0
  9
$DIMDSEP
 70
    44
  9
$DIMATFIT
 70
     3
  9
$DIMFRAC
 70
     0
  9
$DIMLDRBLK
  1

  9
$DIMLUNIT
 70
     2
  9
$DIMLWD
 70
    -2
  9
$DIMLWE
 70
    -2
  9
$DIMTMOVE
 70
     0
  9
$LUNITS
 70
     2
  9
$LUPREC
 70
     2
  9
$SKETCHINC
 40
1.0
  9
$FILLETRAD
 40
10.0
  9
$AUNITS
 70
     0
  9
$AUPREC
 70
     2
  9
$MENU
  1
.
  9
$ELEVATION
 40
0.0
  9
$PELEVATION
 40
0.0
  9
$THICKNESS
 40
0.0
  9
$LIMCHECK
 70
     0
  9
$CHAMFERA
 40
0.0
  9
$CHAMFERB
 40
0.0
  9
$CHAMFERC
 40
0.0
  9
$CHAMFERD
 40
0.0
  9
$SKPOLY
 70
     0
  9
$TDCREATE
 40
2458311.459660961
  9
$TDUCREATE
 40
2458311.084660961
  9
$TDUPDATE
 40
2458323.453578276
  9
$TDUUPDATE
 40
2458323.078578276
  9
$TDINDWG
 40
0.0021836806
  9
$TDUSRTIMER
 40
2458323.078540012
  9
$USRTIMER
 70
     1
  9
$ANGBASE
 50
0.0
  9
$ANGDIR
 70
     0
  9
$PDMODE
 70
     0
  9
$PDSIZE
 40
-1.0
  9
$PLINEWID
 40
0.0
  9
$SPLFRAME
 70
     0
  9
$SPLINETYPE
 70
     6
  9
$SPLINESEGS
 70
     8
  9
$HANDSEED
  5
236
  9
$SURFTAB1
 70
     6
  9
$SURFTAB2
 70
     6
  9
$SURFTYPE
 70
     6
  9
$SURFU
 70
     6
  9
$SURFV
 70
     6
  9
$UCSBASE
  2

  9
$UCSNAME
  2

  9
$UCSORG
 10
0.0
 20
0.0
 30
0.0
  9
$UCSXDIR
 10
1.0
 20
0.0
 30
0.0
  9
$UCSYDIR
 10
0.0
 20
1.0
 30
0.0
  9
$UCSORTHOREF
  2

  9
$UCSORTHOVIEW
 70
     0
  9
$UCSORGTOP
 10
0.0
 20
0.0
 30
0.0
  9
$UCSORGBOTTOM
 10
0.0
 20
0.0
 30
0.0
  9
$UCSORGLEFT
 10
0.0
 20
0.0
 30
0.0
  9
$UCSORGRIGHT
 10
0.0
 20
0.0
 30
0.0
  9
$UCSORGFRONT
 10
0.0
 20
0.0
 30
0.0
  9
$UCSORGBACK
 10
0.0
 20
0.0
 30
0.0
  9
$PUCSBASE
  2

  9
$PUCSNAME
  2

  9
$PUCSORG
 10
0.0
 20
0.0
 30
0.0
  9
$PUCSXDIR
 10
1.0
 20
0.0
 30
0.0
  9
$PUCSYDIR
 10
0.0
 20
1.0
 30
0.0
  9
$PUCSORTHOREF
  2

  9
$PUCSORTHOVIEW
 70
     0
  9
$PUCSORGTOP
 10
0.0
 20
0.0
 30
0.0
  9
$PUCSORGBOTTOM
 10
0.0
 20
0.0
 30
0.0
  9
$PUCSORGLEFT
 10
0.0
 20
0.0
 30
0.0
  9
$PUCSORGRIGHT
 10
0.0
 20
0.0
 30
0.0
  9
$PUCSORGFRONT
 10
0.0
 20
0.0
 30
0.0
  9
$PUCSORGBACK
 10
0.0
 20
0.0
 30
0.0
  9
$USERI1
 70
     0
  9
$USERI2
 70
     0
  9
$USERI3
 70
     0
  9
$USERI4
 70
     0
  9
$USERI5
 70
     0
  9
$USERR1
 40
0.0
  9
$USERR2
 40
0.0
  9
$USERR3
 40
0.0
  9
$USERR4
 40
0.0
  9
$USERR5
 40
0.0
  9
$WORLDVIEW
 70
     1
  9
$SHADEDGE
 70
     3
  9
$SHADEDIF
 70
    70
  9
$TILEMODE
 70
     1
  9
$MAXACTVP
 70
    64
  9
$PINSBASE
 10
0.0
 20
0.0
 30
0.0
  9
$PLIMCHECK
 70
     0
  9
$PEXTMIN
 10
1.000000000000000E+20
 20
1.000000000000000E+20
 30
1.000000000000000E+20
  9
$PEXTMAX
 10
-1.000000000000000E+20
 20
-1.000000000000000E+20
 30
-1.000000000000000E+20
  9
$PLIMMIN
 10
0.0
 20
0.0
  9
$PLIMMAX
 10
0.0
 20
0.0
  9
$UNITMODE
 70
     0
  9
$VISRETAIN
 70
     1
  9
$PLINEGEN
 70
     0
  9
$PSLTSCALE
 70
     1
  9
$TREEDEPTH
 70
  3020
  9
$CMLSTYLE
  2
Standard
  9
$CMLJUST
 70
     0
  9
$CMLSCALE
 40
20.0
  9
$PROXYGRAPHICS
 70
     1
  9
$MEASUREMENT
 70
     1
  9
$CELWEIGHT
370
    -1
  9
$ENDCAPS
280
     0
  9
$JOINSTYLE
280
     0
  9
$LWDISPLAY
290
     1
  9
$INSUNITS
 70
     4
  9
$HYPERLINKBASE
  1

  9
$STYLESHEET
  1

  9
$XEDIT
290
     1
  9
$CEPSNTYPE
380
     0
  9
$PSTYLEMODE
290
     1
  9
$FINGERPRINTGUID
  2
{76AC6FBE-5A56-494E-B39C-ABC23870468C}
  9
$VERSIONGUID
  2
{FAEB1C32-E019-11D5-929B-00C0DF256EC4}
  9
$EXTNAMES
290
     1
  9
$PSVPSCALE
 40
0.0
  9
$OLESTARTUP
290
     0
  0
ENDSEC
  0
SECTION
  2
CLASSES
  0
CLASS
  1
ACDBDICTIONARYWDFLT
  2
AcDbDictionaryWithDefault
  3
ObjectDBX Classes
 90
        0
280
     0
281
     0
  0
CLASS
  1
VISUALSTYLE
  2
AcDbVisualStyle
  3
ObjectDBX Classes
 90
     4095
280
     0
281
     0
  0
CLASS
  1
MATERIAL
  2
AcDbMaterial
  3
ObjectDBX Classes
 90
     1153
280
     0
281
     0
  0
CLASS
  1
SCALE
  2
AcDbScale
  3
ObjectDBX Classes
 90
     1153
280
     0
281
     0
  0
CLASS
  1
SUN
  2
AcDbSun
  3
SCENEOE
 90
     1153
280
     0
281
     0
  0
CLASS
  1
ACDBPLACEHOLDER
  2
AcDbPlaceHolder
  3
ObjectDBX Classes
 90
        0
280
     0
281
     0
  0
CLASS
  1
LAYOUT
  2
AcDbLayout
  3
ObjectDBX Classes
 90
        0
280
     0
281
     0
  0
CLASS
  1
TABLESTYLE
  2
AcDbTableStyle
  3
ObjectDBX Classes
 90
     4095
280
     0
281
     0
  0
CLASS
  1
MLEADERSTYLE
  2
AcDbMLeaderStyle
  3
ACDB_MLEADERSTYLE_CLASS
 90
     4095
280
     0
281
     0
  0
CLASS
  1
DICTIONARYVAR
  2
AcDbDictionaryVar
  3
ObjectDBX Classes
 90
        0
280
     0
281
     0
  0
CLASS
  1
RASTERVARIABLES
  2
AcDbRasterVariables
  3
ISM
 90
        0
280
     0
281
     0
  0
ENDSEC
  0
SECTION
  2
TABLES
  0
TABLE
  2
VPORT
  5
8
330
0
100
AcDbSymbolTable
 70
     1
  0
VPORT
  5
29
330
8
100
AcDbSymbolTableRecord
100
AcDbViewportTableRecord
  2
*Active
 70
     0
 10
0.0
 20
0.0
 11
1.0
 21
1.0
 12
8.148639047177213
 22
2.826596305594094
 13
0.0
 23
0.0
 14
10.0
 24
10.0
 15
10.0
 25
10.0
 16
0.0
 26
0.0
 36
1.0
 17
0.0
 27
0.0
 37
0.0
 40
107.7087435365879
 41
1.782762691853601
 42
50.0
 43
0.0
 44
0.0
 50
0.0
 51
0.0
 71
    16
 72
  2000
 73
     1
 74
     3
 75
     0
 76
     0
 77
     0
 78
     0
281
     0
 65
     1
110
0.0
120
0.0
130
0.0
111
1.0
121
0.0
131
0.0
112
0.0
122
1.0
132
0.0
 79
     0
146
0.0
  0
ENDTAB
  0
TABLE
  2
LTYPE
  5
5
330
0
100
AcDbSymbolTable
 70
     6
  0
LTYPE
  5
14
330
5
100
AcDbSymbolTableRecord
100
AcDbLinetypeTableRecord
  2
ByBlock
 70
     0
  3

 72
    65
 73
     0
 40
0.0
  0
LTYPE
  5
15
330
5
100
AcDbSymbolTableRecord
100
AcDbLinetypeTableRecord
  2
ByLayer
 70
     0
  3

 72
    65
 73
     0
 40
0.0
  0
LTYPE
  5
16
330
5
100
AcDbSymbolTableRecord
100
AcDbLinetypeTableRecord
  2
Continuous
 70
     0
  3
Solid line
 72
    65
 73
     0
 40
0.0
  0
LTYPE
  5
6A
330
5
100
AcDbSymbolTableRecord
100
AcDbLinetypeTableRecord
  2
HIDDEN
 70
     0
  3
Hidden __ __ __ __ __ __ __ __ __ __ __ __ __ __
 72
    65
 73
     2
 40
1.905
 49
1.27
 74
     0
 49
-0.635
 74
     0
  0
LTYPE
  5
6B
330
5
100
AcDbSymbolTableRecord
100
AcDbLinetypeTableRecord
  2
PHANTOM
 70
     0
  3
Phantom ______  __  __  ______  __  __  ______
 72
    65
 73
     6
 40
12.7
 49
6.35
 74
     0
 49
-1.27
 74
     0
 49
1.27
 74
     0
 49
-1.27
 74
     0
 49
1.27
 74
     0
 49
-1.27
 74
     0
  0
LTYPE
  5
6C
330
5
100
AcDbSymbolTableRecord
100
AcDbLinetypeTableRecord
  2
CENTER
 70
     0
  3
Center ____ _ ____ _ ____ _ ____ _ ____ _ ____
 72
    65
 73
     4
 40
10.16
 49
6.35
 74
     0
 49
-1.27
 74
     0
 49
1.27
 74
     0
 49
-1.27
 74
     0
  0
LTYPE
  5
6D
330
5
100
AcDbSymbolTableRecord
100
AcDbLinetypeTableRecord
  2
CENTERX2
 70
     0
  3
Center (2x) ________  __  ________  __  _____
 72
    65
 73
     4
 40
20.32
 49
12.7
 74
     0
 49
-2.54
 74
     0
 49
2.54
 74
     0
 49
-2.54
 74
     0
  0
LTYPE
  5
6E
330
5
100
AcDbSymbolTableRecord
100
AcDbLinetypeTableRecord
  2
DOT2
 70
     0
  3
Dot (.5x) ........................................
 72
    65
 73
     2
 40
0.635
 49
0.0
 74
     0
 49
-0.635
 74
     0
  0
ENDTAB
  0
TABLE
  2
LAYER
  5
2
102
{ACAD_XDICTIONARY
360
183
102
}
330
0
100
AcDbSymbolTable
 70
    18
  0
LAYER
  5
10
330
2
100
AcDbSymbolTableRecord
100
AcDbLayerTableRecord
  2
0
 70
     0
 62
     7
  6
Continuous
370
    -3
390
F
  0
LAYER
  5
6F
330
2
100
AcDbSymbolTableRecord
100
AcDbLayerTableRecord
  2
FORMAT
 70
     0
 62
     2
  6
Continuous
370
    -3
390
F
  0
LAYER
  5
70
330
2
100
AcDbSymbolTableRecord
100
AcDbLayerTableRecord
  2
외형선
 70
     0
 62
     4
  6
Continuous
370
    30
390
F
  0
LAYER
  5
71
330
2
100
AcDbSymbolTableRecord
100
AcDbLayerTableRecord
  2
숨은선
 70
     0
 62
     2
  6
HIDDEN
370
    15
390
F
  0
LAYER
  5
72
330
2
100
AcDbSymbolTableRecord
100
AcDbLayerTableRecord
  2
중심선
 70
     0
 62
     1
  6
CENTERX2
370
    -3
390
F
  0
LAYER
  5
73
330
2
100
AcDbSymbolTableRecord
100
AcDbLayerTableRecord
  2
파단선
 70
     0
 62
     4
  6
Continuous
370
    -3
390
F
  0
LAYER
  5
74
330
2
100
AcDbSymbolTableRecord
100
AcDbLayerTableRecord
  2
해칭선
 70
     0
 62
   100
  6
Continuous
370
    -3
390
F
  0
LAYER
  5
75
330
2
100
AcDbSymbolTableRecord
100
AcDbLayerTableRecord
  2
가는실선
 70
     0
 62
     4
  6
Continuous
370
    -3
390
F
  0
LAYER
  5
76
330
2
100
AcDbSymbolTableRecord
100
AcDbLayerTableRecord
  2
치수_보조선
 70
     0
 62
     4
  6
Continuous
370
    -3
390
F
  0
LAYER
  5
77
330
2
100
AcDbSymbolTableRecord
100
AcDbLayerTableRecord
  2
치수문자_일반주서
 70
     0
 62
     7
  6
Continuous
370
    15
390
F
  0
LAYER
  5
78
330
2
100
AcDbSymbolTableRecord
100
AcDbLayerTableRecord
  2
개별주서
 70
     0
 62
   100
  6
Continuous
370
    30
390
F
  0
LAYER
  5
79
330
2
100
AcDbSymbolTableRecord
100
AcDbLayerTableRecord
  2
중간선
 70
     0
 62
     2
  6
Continuous
370
    15
390
F
  0
LAYER
  5
7A
330
2
100
AcDbSymbolTableRecord
100
AcDbLayerTableRecord
  2
윤곽선
 70
     0
 62
     3
  6
Continuous
370
    40
390
F
  0
LAYER
  5
7B
330
2
100
AcDbSymbolTableRecord
100
AcDbLayerTableRecord
  2
중심마크
 70
     0
 62
   100
  6
Continuous
370
    30
390
F
  0
LAYER
  5
7C
330
2
100
AcDbSymbolTableRecord
100
AcDbLayerTableRecord
  2
가상선
 70
     0
 62
     4
  6
PHANTOM
370
    -3
390
F
  0
LAYER
  5
7D
330
2
100
AcDbSymbolTableRecord
100
AcDbLayerTableRecord
  2
특수지정선
 70
     0
 62
     5
  6
CENTERX2
370
    60
390
F
  0
LAYER
  5
7E
330
2
100
AcDbSymbolTableRecord
100
AcDbLayerTableRecord
  2
참조1
 70
     0
 62
    -4
  6
Continuous
370
    -3
390
F
  0
LAYER
  5
14F
330
2
100
AcDbSymbolTableRecord
100
AcDbLayerTableRecord
  2
Defpoints
 70
     0
 62
     7
  6
Continuous
290
     0
370
    -3
390
F
  0
ENDTAB
  0
TABLE
  2
STYLE
  5
3
330
0
100
AcDbSymbolTable
 70
     2
  0
STYLE
  5
11
330
3
100
AcDbSymbolTableRecord
100
AcDbTextStyleTableRecord
  2
Standard
 70
     0
 40
0.0
 41
1.0
 50
0.0
 71
     0
 42
3.5
  3
txt
  4

  0
STYLE
  5
94
330
3
100
AcDbSymbolTableRecord
100
AcDbTextStyleTableRecord
  2
SLDTEXTSTYLE0
 70
     0
 40
0.0
 41
0.75
 50
0.0
 71
     0
 42
3.5
  3
TXT
  4

  0
ENDTAB
  0
TABLE
  2
VIEW
  5
6
330
0
100
AcDbSymbolTable
 70
     0
  0
ENDTAB
  0
TABLE
  2
UCS
  5
7
330
0
100
AcDbSymbolTable
 70
     0
  0
ENDTAB
  0
TABLE
  2
APPID
  5
9
330
0
100
AcDbSymbolTable
 70
     4
  0
APPID
  5
12
330
9
100
AcDbSymbolTableRecord
100
AcDbRegAppTableRecord
  2
ACAD
 70
     0
  0
APPID
  5
156
330
9
100
AcDbSymbolTableRecord
100
AcDbRegAppTableRecord
  2
PE_URL
 70
     0
  0
APPID
  5
1AE
330
9
100
AcDbSymbolTableRecord
100
AcDbRegAppTableRecord
  2
ACAD_DSTYLE_DIMFLIPARROW_SYMBOL
 70
     0
  0
APPID
  5
1AF
330
9
100
AcDbSymbolTableRecord
100
AcDbRegAppTableRecord
  2
ACAD_DSTYLE_DIMFLIPARROW_WHICH_SYMBOL
 70
     0
  0
ENDTAB
  0
TABLE
  2
DIMSTYLE
  5
A
330
0
100
AcDbSymbolTable
 70
     3
100
AcDbDimStyleTable
  0
DIMSTYLE
105
27
330
A
100
AcDbSymbolTableRecord
100
AcDbDimStyleTableRecord
  2
ISO-25
 70
     0
 41
2.5
 42
0.625
 43
3.75
 44
1.25
 73
     0
 74
     0
 77
     1
 78
     8
140
2.5
141
2.5
143
0.03937007874016
147
0.625
171
     3
172
     1
178
     0
271
     2
272
     2
274
     3
278
    44
283
     0
284
     8
340
11
  0
DIMSTYLE
105
D2
330
A
100
AcDbSymbolTableRecord
100
AcDbDimStyleTableRecord
  2
SLDDIMSTYLE0
 70
     0
 41
3.302
 44
0.0
 45
0.000000001
 73
     0
 74
     0
 77
     1
 78
    12
 79
     3
140
3.5
143
0.0393700787401575
147
0.875
148
0.000000001
170
     1
173
     1
178
     0
271
     2
272
     2
276
     2
284
    12
340
94
  0
DIMSTYLE
105
154
102
{ACAD_REACTORS
330
E4
330
F8
330
10B
330
D1
102
}
330
A
100
AcDbSymbolTableRecord
100
AcDbDimStyleTableRecord
  2
SLDDIMSTYLE2
 70
     0
 41
3.302
 44
0.0
 45
0.000000001
 73
     0
 74
     0
 77
     1
 78
     4
 79
     1
140
3.5
143
0.0393700787401575
147
0.875
148
0.000000001
170
     1
173
     1
178
     0
271
     2
272
     2
276
     2
284
    12
340
94
  0
ENDTAB
  0
TABLE
  2
BLOCK_RECORD
  5
1
330
0
100
AcDbSymbolTable
 70
     9
  0
BLOCK_RECORD
  5
1F
330
1
100
AcDbSymbolTableRecord
100
AcDbBlockTableRecord
  2
*Model_Space
340
22
  0
BLOCK_RECORD
  5
1B
330
1
100
AcDbSymbolTableRecord
100
AcDbBlockTableRecord
  2
*Paper_Space
340
1E
  0
BLOCK_RECORD
  5
23
330
1
100
AcDbSymbolTableRecord
100
AcDbBlockTableRecord
  2
*Paper_Space0
340
26
  0
BLOCK_RECORD
  5
7F
330
1
100
AcDbSymbolTableRecord
100
AcDbBlockTableRecord
  2
블럭10
340
0
102
{BLKREFS
331
CA
102
}
  0
BLOCK_RECORD
  5
D3
330
1
100
AcDbSymbolTableRecord
100
AcDbBlockTableRecord
  2
_D
340
0
  0
BLOCK_RECORD
  5
E5
330
1
100
AcDbSymbolTableRecord
100
AcDbBlockTableRecord
  2
_D_1
340
0
  0
BLOCK_RECORD
  5
F9
330
1
100
AcDbSymbolTableRecord
100
AcDbBlockTableRecord
  2
_D_2
340
0
  0
BLOCK_RECORD
  5
10C
330
1
100
AcDbSymbolTableRecord
100
AcDbBlockTableRecord
  2
_D_3
340
0
  0
BLOCK_RECORD
  5
125
330
1
100
AcDbSymbolTableRecord
100
AcDbBlockTableRecord
  2
SW_DOWELSYMBOL_0
340
0
102
{BLKREFS
331
12B
102
}
  0
BLOCK_RECORD
  5
187
330
1
100
AcDbSymbolTableRecord
100
AcDbBlockTableRecord
  2
*D7
340
0
  0
BLOCK_RECORD
  5
196
330
1
100
AcDbSymbolTableRecord
100
AcDbBlockTableRecord
  2
*D8
340
0
  0
ENDTAB
  0
ENDSEC
  0
SECTION
  2
BLOCKS
  0
BLOCK
  5
20
330
1F
100
AcDbEntity
  8
0
100
AcDbBlockBegin
  2
*Model_Space
 70
     0
 10
0.0
 20
0.0
 30
0.0
  3
*Model_Space
  1
*Model_Space
  0
ENDBLK
  5
21
330
1F
100
AcDbEntity
  8
0
100
AcDbBlockEnd
  0
BLOCK
  5
1C
330
1B
100
AcDbEntity
 67
     1
  8
0
100
AcDbBlockBegin
  2
*Paper_Space
 70
     0
 10
0.0
 20
0.0
 30
0.0
  3
*Paper_Space
  1
*Paper_Space
  0
ENDBLK
  5
1D
330
1B
100
AcDbEntity
 67
     1
  8
0
100
AcDbBlockEnd
  0
BLOCK
  5
24
330
23
100
AcDbEntity
  8
0
100
AcDbBlockBegin
  2
*Paper_Space0
 70
     0
 10
0.0
 20
0.0
 30
0.0
  3
*Paper_Space0
  1
*Paper_Space0
  0
ENDBLK
  5
25
330
23
100
AcDbEntity
  8
0
100
AcDbBlockEnd
  0
BLOCK
  5
80
330
7F
100
AcDbEntity
  8
0
100
AcDbBlockBegin
  2
블럭10
 70
     2
 10
0.0
 20
0.0
 30
0.0
  3
블럭10
  1
블럭10
  0
ELLIPSE
  5
82
330
7F
100
AcDbEntity
  8
중심선
100
AcDbEllipse
 10
20.54032771741204
 20
12.0471743016438
 30
0.0
 11
6.600054785286829
 21
-1.261213355974178E-13
 31
0.0
210
0.0
220
0.0
230
1.0
 40
0.636358354079598
 41
0.9219305317359503
 42
6.513795318482858
  0
ELLIPSE
  5
83
330
7F
100
AcDbEntity
  8
중심선
100
AcDbEllipse
 10
20.54032771746488
 20
12.04717430159265
 30
0.0
 11
3.960054785062283
 21
1.540847449632565E-10
 31
0.0
210
0.0
220
0.0
230
1.0
 40
0.3939339440162632
 41
1.131841032648279
 42
5.62031148352944
  0
LINE
  5
84
330
7F
100
AcDbEntity
  8
중심선
100
AcDbLine
 10
2.268634060543552
 20
16.24717430164393
 30
0.0
 11
5.714909304380834
 21
16.24717430164393
 31
0.0
  0
LINE
  5
85
330
7F
100
AcDbEntity
  8
중심선
100
AcDbLine
 10
5.245725140726316
 20
7.84717430164391
 30
0.0
 11
8.692000384563599
 21
7.84717430164391
 31
0.0
  0
LINE
  5
86
330
7F
100
AcDbEntity
  8
중심선
100
AcDbLine
 10
15.74043728645272
 20
16.24717430164393
 30
0.0
 11
8.692000384563599
 21
7.84717430164391
 31
0.0
  0
LINE
  5
87
330
7F
100
AcDbEntity
  8
중심선
100
AcDbLine
 10
0.1404042013395286
 20
13.71084872107135
 30
0.0
 11
3.58671253028996
 21
13.71088815037384
 31
0.0
  0
LINE
  5
88
330
7F
100
AcDbEntity
  8
중심선
100
AcDbLine
 10
2.750260043222114
 20
10.84717430164391
 30
0.0
 11
6.196535287059397
 21
10.84717430164391
 31
0.0
  0
LINE
  5
89
330
7F
100
AcDbEntity
  8
중심선
100
AcDbLine
 10
12.29416204261559
 20
16.24717430164393
 30
0.0
 11
5.245725140726316
 21
7.84717430164391
 31
0.0
  0
LINE
  5
8A
330
7F
100
AcDbEntity
  8
중심선
100
AcDbLine
 10
10.72767329541681
 20
16.24717430164393
 30
0.0
 11
6.196535287059397
 21
10.84717430164391
 31
0.0
  0
LINE
  5
8B
330
7F
100
AcDbEntity
  8
중심선
100
AcDbLine
 10
7.28139805157953
 20
16.24717430164393
 30
0.0
 11
2.750260043222114
 21
10.84717430164391
 31
0.0
  0
LINE
  5
8C
330
7F
100
AcDbEntity
  8
중심선
100
AcDbLine
 10
5.714909304380834
 20
16.24717430164393
 30
0.0
 11
3.58671253028996
 21
13.71088815037384
 31
0.0
  0
LINE
  5
8D
330
7F
100
AcDbEntity
  8
중심선
100
AcDbLine
 10
2.268634060543552
 20
16.24717430164393
 30
0.0
 11
0.1404042013395286
 21
13.71084872107135
 31
0.0
  0
LINE
  5
8E
330
7F
100
AcDbEntity
  8
중심선
100
AcDbLine
 10
7.28139805157953
 20
16.24717430164393
 30
0.0
 11
10.72767329541681
 21
16.24717430164393
 31
0.0
  0
LINE
  5
8F
330
7F
100
AcDbEntity
  8
중심선
100
AcDbLine
 10
12.29416204261559
 20
16.24717430164393
 30
0.0
 11
15.74043728645272
 21
16.24717430164393
 31
0.0
  0
LINE
  5
90
330
7F
100
AcDbEntity
  8
중심선
100
AcDbLine
 10
19.22036997980202
 20
11.08717430171403
 30
0.0
 11
23.66174974927406
 21
11.08717430171406
 31
0.0
  0
LINE
  5
91
330
7F
100
AcDbEntity
  8
중심선
100
AcDbLine
 10
19.22039502424796
 20
13.00717430171391
 30
0.0
 11
19.22036997980202
 21
11.08717430171403
 31
0.0
  0
LINE
  5
92
330
7F
100
AcDbEntity
  8
중심선
100
AcDbLine
 10
19.22039502424796
 20
13.00717430171391
 30
0.0
 11
26.96566020931264
 21
13.00717430171391
 31
0.0
  0
LINE
  5
93
330
7F
100
AcDbEntity
  8
중심선
100
AcDbLine
 10
22.22332737316547
 20
13.45928029700563
 30
0.0
 11
24.52862924686651
 21
15.39360700705356
 31
0.0
  0
ATTDEF
  5
95
330
7F
100
AcDbEntity
  8
FORMAT
 62
     2
100
AcDbText
 10
4.408487351596664
 20
2.075366912832191
 30
0.0
 40
4.233333333333333
  1
E1030116
 41
0.75
  7
SLDTEXTSTYLE0
 11
4.408487351596664
 21
-0.0412997538344756
 31
0.0
100
AcDbAttributeDefinition
  3

  2
AUTOATTR0
 70
     0
 74
     1
  0
ENDBLK
  5
81
330
7F
100
AcDbEntity
  8
0
100
AcDbBlockEnd
  0
BLOCK
  5
D4
330
D3
100
AcDbEntity
  8
0
100
AcDbBlockBegin
  2
_D
 70
     0
 10
0.0
 20
0.0
 30
0.0
  3
_D
  1
_D
  0
LINE
  5
D6
330
D3
100
AcDbEntity
  8
치수문자_일반주서
 62
     0
370
    -2
100
AcDbLine
 10
-36.95750000000005
 20
15.87499999999998
 30
0.0
 11
-66.50000000000003
 21
15.87499999999987
 31
0.0
  0
LINE
  5
D7
330
D3
100
AcDbEntity
  8
치수문자_일반주서
 62
     0
370
    -2
100
AcDbLine
 10
-50.56250000000001
 20
-15.87500000000001
 30
0.0
 11
-66.49999999999991
 21
-15.87500000000006
 31
0.0
  0
LINE
  5
D8
330
D3
100
AcDbEntity
  8
치수문자_일반주서
 62
     0
370
    -2
100
AcDbLine
 10
-66.50000000000003
 20
15.87499999999987
 30
0.0
 11
-66.50000000000018
 21
55.62499999999994
 31
0.0
  0
LINE
  5
D9
330
D3
100
AcDbEntity
  8
치수문자_일반주서
 62
     0
370
    -2
100
AcDbLine
 10
-66.50000000000003
 20
15.87499999999987
 30
0.0
 11
-66.49999999999991
 21
-15.87500000000006
 31
0.0
  0
LINE
  5
DA
330
D3
100
AcDbEntity
  8
치수문자_일반주서
 62
     0
370
    -2
100
AcDbLine
 10
-66.50000000000004
 20
19.87499999999987
 30
0.0
 11
-66.50000000000006
 21
23.87499999999987
 31
0.0
  0
LINE
  5
DB
330
D3
100
AcDbEntity
  8
치수문자_일반주서
 62
     0
370
    -2
100
AcDbLine
 10
-66.4999999999999
 20
-19.87500000000006
 30
0.0
 11
-66.49999999999989
 21
-23.87500000000006
 31
0.0
  0
SOLID
  5
DC
330
D3
100
AcDbEntity
  8
치수문자_일반주서
 62
     0
100
AcDbTrace
 10
-67.16666666666671
 20
19.87499999999986
 30
0.0
 11
-65.83333333333337
 21
19.87499999999987
 31
0.0
 12
-66.50000000000003
 22
15.87499999999987
 32
0.0
 13
-66.50000000000003
 23
15.87499999999987
 33
0.0
  0
SOLID
  5
DD
330
D3
100
AcDbEntity
  8
치수문자_일반주서
 62
     0
100
AcDbTrace
 10
-65.83333333333323
 20
-19.87500000000006
 30
0.0
 11
-67.16666666666657
 21
-19.87500000000007
 31
0.0
 12
-66.49999999999991
 22
-15.87500000000006
 32
0.0
 13
-66.49999999999991
 23
-15.87500000000006
 33
0.0
  0
MTEXT
  5
DE
330
D3
100
AcDbEntity
  8
치수문자_일반주서
 62
     0
100
AcDbMText
 10
-71.37500000000011
 20
37.74999999999992
 30
0.0
 40
4.0
 41
0.0
 71
     2
 72
     1
  1
\A1;%%c31.75 [1 1/4]
  7
SLDTEXTSTYLE0
 11
-3.580687802255630E-15
 21
1.0
 31
0.0
 73
     1
 44
1.0
  0
POINT
  5
1A6
330
D3
100
AcDbEntity
  8
Defpoints
 62
     0
100
AcDbPoint
 10
-36.89500000000005
 20
15.87499999999998
 30
0.0
  0
POINT
  5
1A9
330
D3
100
AcDbEntity
  8
Defpoints
 62
     0
100
AcDbPoint
 10
-50.50000000000001
 20
-15.87500000000001
 30
0.0
  0
POINT
  5
1AA
330
D3
100
AcDbEntity
  8
Defpoints
 62
     0
100
AcDbPoint
 10
-66.49999999999991
 20
-15.87500000000007
 30
0.0
  0
ENDBLK
  5
D5
330
D3
100
AcDbEntity
  8
0
100
AcDbBlockEnd
  0
BLOCK
  5
E6
330
E5
100
AcDbEntity
  8
0
100
AcDbBlockBegin
  2
_D_1
 70
     0
 10
0.0
 20
0.0
 30
0.0
  3
_D_1
  1
_D_1
  0
LINE
  5
E8
330
E5
100
AcDbEntity
  8
치수문자_일반주서
 62
     0
370
    -2
100
AcDbLine
 10
53.27499999999999
 20
15.92408269177058
 30
0.0
 11
53.27499999999999
 21
30.87499999999998
 31
0.0
  0
LINE
  5
E9
330
E5
100
AcDbEntity
  8
치수문자_일반주서
 62
     0
370
    -2
100
AcDbLine
 10
11.99999999999998
 20
12.73166838106827
 30
0.0
 11
11.99999999999998
 21
30.87499999999998
 31
0.0
  0
LINE
  5
EA
330
E5
100
AcDbEntity
  8
치수문자_일반주서
 62
     0
370
    -2
100
AcDbLine
 10
49.27499999999999
 20
30.87499999999998
 30
0.0
 11
15.99999999999998
 21
30.87499999999998
 31
0.0
  0
SOLID
  5
EB
330
E5
100
AcDbEntity
  8
치수문자_일반주서
 62
     0
100
AcDbTrace
 10
49.27499999999999
 20
30.20833333333331
 30
0.0
 11
49.27499999999999
 21
31.54166666666664
 31
0.0
 12
53.27499999999999
 22
30.87499999999998
 32
0.0
 13
53.27499999999999
 23
30.87499999999998
 33
0.0
  0
SOLID
  5
EC
330
E5
100
AcDbEntity
  8
치수문자_일반주서
 62
     0
100
AcDbTrace
 10
15.99999999999998
 20
31.54166666666664
 30
0.0
 11
15.99999999999998
 21
30.20833333333331
 31
0.0
 12
11.99999999999998
 22
30.87499999999998
 32
0.0
 13
11.99999999999998
 23
30.87499999999998
 33
0.0
  0
MTEXT
  5
ED
330
E5
100
AcDbEntity
  8
치수문자_일반주서
 62
     0
100
AcDbMText
 10
32.63749999999998
 20
35.74999999999997
 30
0.0
 40
4.0
 41
0.0
 71
     2
 72
     1
  1
\A1;41.28 [1 5/8]
  7
SLDTEXTSTYLE0
 73
     1
 44
1.0
  0
POINT
  5
EE
330
E5
100
AcDbEntity
  8
Defpoints
 62
     0
100
AcDbPoint
 10
53.27499999999999
 20
15.86158269177058
 30
0.0
  0
POINT
  5
EF
330
E5
100
AcDbEntity
  8
Defpoints
 62
     0
100
AcDbPoint
 10
11.99999999999998
 20
12.66916838106827
 30
0.0
  0
POINT
  5
F0
330
E5
100
AcDbEntity
  8
Defpoints
 62
     0
100
AcDbPoint
 10
11.99999999999998
 20
30.87499999999998
 30
0.0
  0
ENDBLK
  5
E7
330
E5
100
AcDbEntity
  8
0
100
AcDbBlockEnd
  0
BLOCK
  5
FA
330
F9
100
AcDbEntity
  8
0
100
AcDbBlockBegin
  2
_D_2
 70
     0
 10
0.0
 20
0.0
 30
0.0
  3
_D_2
  1
_D_2
  0
LINE
  5
FC
330
F9
100
AcDbEntity
  8
치수문자_일반주서
 62
     0
370
    -2
100
AcDbLine
 10
53.2749999999997
 20
15.12693629905641
 30
0.0
 11
53.27499999999971
 21
45.87499999999999
 31
0.0
  0
LINE
  5
FD
330
F9
100
AcDbEntity
  8
치수문자_일반주서
 62
     0
370
    -2
100
AcDbLine
 10
-51.50000000000004
 20
14.03249999999999
 30
0.0
 11
-51.50000000000004
 21
45.87499999999999
 31
0.0
  0
LINE
  5
FE
330
F9
100
AcDbEntity
  8
치수문자_일반주서
 62
     0
370
    -2
100
AcDbLine
 10
49.27499999999971
 20
45.87499999999999
 30
0.0
 11
-47.50000000000004
 21
45.87499999999999
 31
0.0
  0
SOLID
  5
FF
330
F9
100
AcDbEntity
  8
치수문자_일반주서
 62
     0
100
AcDbTrace
 10
49.27499999999971
 20
45.20833333333332
 30
0.0
 11
49.27499999999971
 21
46.54166666666665
 31
0.0
 12
53.27499999999971
 22
45.87499999999999
 32
0.0
 13
53.27499999999971
 23
45.87499999999999
 33
0.0
  0
SOLID
  5
100
330
F9
100
AcDbEntity
  8
치수문자_일반주서
 62
     0
100
AcDbTrace
 10
-47.50000000000004
 20
46.54166666666665
 30
0.0
 11
-47.50000000000004
 21
45.20833333333332
 31
0.0
 12
-51.50000000000004
 22
45.87499999999999
 32
0.0
 13
-51.50000000000004
 23
45.87499999999999
 33
0.0
  0
MTEXT
  5
101
330
F9
100
AcDbEntity
  8
치수문자_일반주서
 62
     0
100
AcDbMText
 10
0.8874999999998225
 20
50.74999999999999
 30
0.0
 40
4.0
 41
0.0
 71
     2
 72
     1
  1
\A1;104.78 [4 1/8]
  7
SLDTEXTSTYLE0
 73
     1
 44
1.0
  0
POINT
  5
102
330
F9
100
AcDbEntity
  8
Defpoints
 62
     0
100
AcDbPoint
 10
53.2749999999997
 20
15.06443629905641
 30
0.0
  0
POINT
  5
103
330
F9
100
AcDbEntity
  8
Defpoints
 62
     0
100
AcDbPoint
 10
-51.50000000000004
 20
13.96999999999999
 30
0.0
  0
POINT
  5
104
330
F9
100
AcDbEntity
  8
Defpoints
 62
     0
100
AcDbPoint
 10
-51.50000000000004
 20
45.87499999999999
 30
0.0
  0
ENDBLK
  5
FB
330
F9
100
AcDbEntity
  8
0
100
AcDbBlockEnd
  0
BLOCK
  5
10D
330
10C
100
AcDbEntity
  8
0
100
AcDbBlockBegin
  2
_D_3
 70
     0
 10
0.0
 20
0.0
 30
0.0
  3
_D_3
  1
_D_3
  0
LINE
  5
10F
330
10C
100
AcDbEntity
  8
치수문자_일반주서
 62
     0
370
    -2
100
AcDbLine
 10
53.33749999999999
 20
-15.86158269177059
 30
0.0
 11
68.27500000000012
 21
-15.86158269177054
 31
0.0
  0
LINE
  5
110
330
10C
100
AcDbEntity
  8
치수문자_일반주서
 62
     0
370
    -2
100
AcDbLine
 10
53.33749999999999
 20
15.86158269177058
 30
0.0
 11
68.275
 21
15.86158269177064
 31
0.0
  0
LINE
  5
111
330
10C
100
AcDbEntity
  8
치수문자_일반주서
 62
     0
370
    -2
100
AcDbLine
 10
68.275
 20
15.86158269177064
 30
0.0
 11
68.27499999999985
 21
55.61158269177064
 31
0.0
  0
LINE
  5
112
330
10C
100
AcDbEntity
  8
치수문자_일반주서
 62
     0
370
    -2
100
AcDbLine
 10
68.27500000000012
 20
-15.86158269177054
 30
0.0
 11
68.275
 21
15.86158269177064
 31
0.0
  0
LINE
  5
113
330
10C
100
AcDbEntity
  8
치수문자_일반주서
 62
     0
370
    -2
100
AcDbLine
 10
68.27500000000013
 20
-19.86158269177054
 30
0.0
 11
68.27500000000015
 21
-23.86158269177054
 31
0.0
  0
LINE
  5
114
330
10C
100
AcDbEntity
  8
치수문자_일반주서
 62
     0
370
    -2
100
AcDbLine
 10
68.27499999999999
 20
19.86158269177064
 30
0.0
 11
68.27499999999998
 21
23.86158269177064
 31
0.0
  0
SOLID
  5
115
330
10C
100
AcDbEntity
  8
치수문자_일반주서
 62
     0
100
AcDbTrace
 10
68.9416666666668
 20
-19.86158269177053
 30
0.0
 11
67.60833333333346
 21
-19.86158269177054
 31
0.0
 12
68.27500000000012
 22
-15.86158269177054
 32
0.0
 13
68.27500000000012
 23
-15.86158269177054
 33
0.0
  0
SOLID
  5
116
330
10C
100
AcDbEntity
  8
치수문자_일반주서
 62
     0
100
AcDbTrace
 10
67.60833333333332
 20
19.86158269177064
 30
0.0
 11
68.94166666666666
 21
19.86158269177065
 31
0.0
 12
68.275
 22
15.86158269177064
 32
0.0
 13
68.275
 23
15.86158269177064
 33
0.0
  0
MTEXT
  5
117
330
10C
100
AcDbEntity
  8
치수문자_일반주서
 62
     0
100
AcDbMText
 10
63.39999999999992
 20
37.73658269177063
 30
0.0
 40
4.0
 41
0.0
 71
     2
 72
     1
  1
\A1;%%c31.72 [1 1/4]
  7
SLDTEXTSTYLE0
 11
-3.583716705035992E-15
 21
1.0
 31
0.0
 73
     1
 44
1.0
  0
POINT
  5
118
330
10C
100
AcDbEntity
  8
Defpoints
 62
     0
100
AcDbPoint
 10
53.27499999999999
 20
-15.86158269177059
 30
0.0
  0
POINT
  5
1A7
330
10C
100
AcDbEntity
  8
Defpoints
 62
     0
100
AcDbPoint
 10
53.27499999999999
 20
15.86158269177058
 30
0.0
  0
POINT
  5
1AC
330
10C
100
AcDbEntity
  8
Defpoints
 62
     0
100
AcDbPoint
 10
68.27499999999999
 20
15.86158269177064
 30
0.0
  0
ENDBLK
  5
10E
330
10C
100
AcDbEntity
  8
0
100
AcDbBlockEnd
  0
BLOCK
  5
126
330
125
100
AcDbEntity
  8
0
100
AcDbBlockBegin
  2
SW_DOWELSYMBOL_0
 70
     0
 10
0.0
 20
0.0
 30
0.0
  3
SW_DOWELSYMBOL_0
  1
SW_DOWELSYMBOL_0
  0
CIRCLE
  5
128
330
125
100
AcDbEntity
  8
해칭선
 62
     0
100
AcDbCircle
 10
0.0
 20
0.0
 30
0.0
 40
2.999999999999994
  0
HATCH
  5
129
330
125
100
AcDbEntity
  8
0
  6
Continuous
 62
     0
370
     0
100
AcDbHatch
 10
0.0
 20
0.0
 30
0.0
210
0.0
220
0.0
230
1.0
  2
SOLID
 70
     1
 71
     0
 91
        1
 92
        0
 93
        3
 72
     2
 10
0.0
 20
0.0
 40
2.999999999999994
 50
0.0
 51
90.0
 73
     1
 72
     1
 10
0.0
 20
2.999999999999994
 11
0.0
 21
0.0
 72
     1
 10
0.0
 20
0.0
 11
2.999999999999994
 21
0.0
 97
        0
 75
     0
 76
     1
 98
        1
 10
0.0
 20
0.0
  0
HATCH
  5
12A
330
125
100
AcDbEntity
  8
0
  6
Continuous
 62
     0
370
     0
100
AcDbHatch
 10
0.0
 20
0.0
 30
0.0
210
0.0
220
0.0
230
1.0
  2
SOLID
 70
     1
 71
     0
 91
        1
 92
        0
 93
        3
 72
     2
 10
0.0
 20
0.0
 40
2.999999999999994
 50
180.0
 51
270.0000000000007
 73
     1
 72
     1
 10
0.0
 20
-2.999999999999994
 11
0.0
 21
0.0
 72
     1
 10
0.0
 20
0.0
 11
-2.999999999999994
 21
0.0
 97
        0
 75
     0
 76
     1
 98
        1
 10
0.0
 20
0.0
  0
ENDBLK
  5
127
330
125
100
AcDbEntity
  8
0
100
AcDbBlockEnd
  0
BLOCK
  5
188
330
187
100
AcDbEntity
  8
0
100
AcDbBlockBegin
  2
*D7
 70
     1
 10
0.0
 20
0.0
 30
0.0
  3
*D7
  1
*D7
  0
LINE
  5
18A
330
187
100
AcDbEntity
  8
치수문자_일반주서
 62
     0
370
    -2
100
AcDbLine
 10
41.27499999999937
 20
8.062158316654148
 30
0.0
 11
41.27499999999937
 21
17.45615475947209
 31
0.0
  0
LINE
  5
18B
330
187
100
AcDbEntity
  8
치수문자_일반주서
 62
     0
370
    -2
100
AcDbLine
 10
0.0
 20
0.0625
 30
0.0
 11
0.0
 21
17.45615475947209
 31
0.0
  0
LINE
  5
18C
330
187
100
AcDbEntity
  8
치수문자_일반주서
 62
     0
370
    -2
100
AcDbLine
 10
37.27499999999937
 20
17.45615475947209
 30
0.0
 11
4.0
 21
17.45615475947209
 31
0.0
  0
SOLID
  5
18D
330
187
100
AcDbEntity
  8
치수문자_일반주서
 62
     0
100
AcDbTrace
 10
37.27499999999937
 20
16.78948809280542
 30
0.0
 11
37.27499999999937
 21
18.12282142613876
 31
0.0
 12
41.27499999999937
 22
17.45615475947209
 32
0.0
 13
41.27499999999937
 23
17.45615475947209
 33
0.0
  0
SOLID
  5
18E
330
187
100
AcDbEntity
  8
치수문자_일반주서
 62
     0
100
AcDbTrace
 10
4.0
 20
18.12282142613876
 30
0.0
 11
4.0
 21
16.78948809280542
 31
0.0
 12
0.0
 22
17.45615475947209
 32
0.0
 13
0.0
 23
17.45615475947209
 33
0.0
  0
MTEXT
  5
18F
330
187
100
AcDbEntity
  8
치수문자_일반주서
 62
     0
100
AcDbMText
 10
20.63749999999969
 20
22.33115475947209
 30
0.0
 40
4.0
 41
0.0
 71
     2
 72
     1
  1
\A1;41.28 [1 5/8]
  7
SLDTEXTSTYLE0
 73
     1
 44
1.0
  0
POINT
  5
190
330
187
100
AcDbEntity
  8
Defpoints
 62
     0
100
AcDbPoint
 10
41.27499999999937
 20
7.999658316654148
 30
0.0
  0
POINT
  5
191
330
187
100
AcDbEntity
  8
Defpoints
 62
     0
100
AcDbPoint
 10
0.0
 20
0.0
 30
0.0
  0
POINT
  5
192
330
187
100
AcDbEntity
  8
Defpoints
 62
     0
100
AcDbPoint
 10
0.0
 20
17.45615475947209
 30
0.0
  0
ENDBLK
  5
189
330
187
100
AcDbEntity
  8
0
100
AcDbBlockEnd
  0
BLOCK
  5
197
330
196
100
AcDbEntity
  8
0
100
AcDbBlockBegin
  2
*D8
 70
     1
 10
0.0
 20
0.0
 30
0.0
  3
*D8
  1
*D8
  0
LINE
  5
199
330
196
100
AcDbEntity
  8
치수문자_일반주서
 62
     0
370
    -2
100
AcDbLine
 10
175.840576578449
 20
8.794269006622784
 30
0.0
 11
175.840576578449
 21
18.18826544944072
 31
0.0
  0
LINE
  5
19A
330
196
100
AcDbEntity
  8
치수문자_일반주서
 62
     0
370
    -2
100
AcDbLine
 10
134.5655765784497
 20
0.7946106899686356
 30
0.0
 11
134.5655765784497
 21
18.18826544944072
 31
0.0
  0
LINE
  5
19B
330
196
100
AcDbEntity
  8
치수문자_일반주서
 62
     0
370
    -2
100
AcDbLine
 10
171.840576578449
 20
18.18826544944072
 30
0.0
 11
138.5655765784497
 21
18.18826544944072
 31
0.0
  0
SOLID
  5
19C
330
196
100
AcDbEntity
  8
치수문자_일반주서
 62
     0
100
AcDbTrace
 10
171.840576578449
 20
17.52159878277406
 30
0.0
 11
171.840576578449
 21
18.85493211610739
 31
0.0
 12
175.840576578449
 22
18.18826544944072
 32
0.0
 13
175.840576578449
 23
18.18826544944072
 33
0.0
  0
SOLID
  5
19D
330
196
100
AcDbEntity
  8
치수문자_일반주서
 62
     0
100
AcDbTrace
 10
138.5655765784497
 20
18.85493211610739
 30
0.0
 11
138.5655765784497
 21
17.52159878277406
 31
0.0
 12
134.5655765784497
 22
18.18826544944072
 32
0.0
 13
134.5655765784497
 23
18.18826544944072
 33
0.0
  0
MTEXT
  5
19E
330
196
100
AcDbEntity
  8
치수문자_일반주서
 62
     0
100
AcDbMText
 10
155.2030765784493
 20
23.06326544944072
 30
0.0
 40
4.0
 41
0.0
 71
     2
 72
     1
  1
\A1;41.28 [1 5/8]
  7
SLDTEXTSTYLE0
 73
     1
 44
1.0
  0
POINT
  5
19F
330
196
100
AcDbEntity
  8
Defpoints
 62
     0
100
AcDbPoint
 10
175.840576578449
 20
8.731769006622784
 30
0.0
  0
POINT
  5
1A0
330
196
100
AcDbEntity
  8
Defpoints
 62
     0
100
AcDbPoint
 10
134.5655765784497
 20
0.7321106899686356
 30
0.0
  0
POINT
  5
1A1
330
196
100
AcDbEntity
  8
Defpoints
 62
     0
100
AcDbPoint
 10
134.5655765784497
 20
18.18826544944072
 30
0.0
  0
ENDBLK
  5
198
330
196
100
AcDbEntity
  8
0
100
AcDbBlockEnd
  0
ENDSEC
  0
SECTION
  2
ENTITIES
  0
LINE
  5
96
330
1F
100
AcDbEntity
  8
외형선
  6
Continuous
370
    15
100
AcDbLine
 10
8.950114661573792
 20
15.87499999999999
 30
0.0
 11
-14.06992500000002
 21
15.87499999999999
 31
0.0
  0
LINE
  5
97
330
1F
100
AcDbEntity
  8
외형선
  6
Continuous
370
    15
100
AcDbLine
 10
-50.50000000000003
 20
-15.87500000000002
 30
0.0
 11
8.950114661573792
 21
-15.87500000000001
 31
0.0
  0
LINE
  5
99
330
1F
100
AcDbEntity
  8
외형선
  6
Continuous
370
    15
100
AcDbLine
 10
-51.50000000000004
 20
-14.87499999999999
 30
0.0
 11
-50.50000000000003
 21
-15.87499999999999
 31
0.0
  0
SPLINE
  5
9A
330
1F
100
AcDbEntity
  8
외형선
  6
Continuous
370
    15
100
AcDbSpline
210
0.0
220
0.0
230
1.0
 70
     8
 71
     3
 72
     9
 73
     5
 74
     0
 42
0.000000001
 43
0.00000001
 40
0.0
 40
0.0
 40
0.0
 40
0.0
 40
0.4903866493474611
 40
1.0
 40
1.0
 40
1.0
 40
1.0
 10
11.99999999999998
 20
4.134259972676661
 30
0.0
 10
11.49247547719014
 20
4.376778403961493
 30
0.0
 10
10.45752780174835
 20
4.871323742027982
 30
0.0
 10
9.459064812356115
 20
5.380651328894599
 30
0.0
 10
8.950234742829384
 20
5.640211467017466
 30
0.0
  0
SPLINE
  5
9B
330
1F
100
AcDbEntity
  8
외형선
  6
Continuous
370
    15
100
AcDbSpline
210
0.0
220
0.0
230
1.0
 70
     8
 71
     3
 72
     9
 73
     5
 74
     0
 42
0.000000001
 43
0.00000001
 40
0.0
 40
0.0
 40
0.0
 40
0.0
 40
0.5001818432808779
 40
1.0
 40
1.0
 40
1.0
 40
1.0
 10
12.38374586537939
 20
3.956814301585672
 30
0.0
 10
12.319798919591
 20
3.986306792966829
 30
0.0
 10
12.19195152439379
 20
4.045270331482553
 30
0.0
 10
12.06396832620486
 20
4.104603951893647
 30
0.0
 10
11.99999999999506
 20
4.134259972678993
 30
0.0
  0
SPLINE
  5
9C
330
1F
100
AcDbEntity
  8
0
  6
Continuous
 62
     1
370
    15
100
AcDbSpline
210
0.0
220
0.0
230
1.0
 70
     8
 71
     3
 72
    40
 73
    36
 74
     0
 42
0.000000001
 43
0.00000001
 40
0.0
 40
0.0
 40
0.0
 40
0.0
 40
0.0217757545706119
 40
0.0419422325515995
 40
0.0608245965467189
 40
0.0788594110544661
 40
0.1093450785143758
 40
0.1371756228416927
 40
0.1621358262096227
 40
0.1831675595130348
 40
0.2011692465613412
 40
0.226013413262183
 40
0.2557870666925537
 40
0.2875900868574645
 40
0.3286342598107716
 40
0.3688695437868729
 40
0.4138633506317771
 40
0.464523030971911
 40
0.5174757678989422
 40
0.5678862329551415
 40
0.6212450605593552
 40
0.6718254098450679
 40
0.7141282901539086
 40
0.7404691426709872
 40
0.77043872997475
 40
0.7981910008269718
 40
0.8227923037284841
 40
0.8349858033510402
 40
0.8473596693203159
 40
0.8599488705183669
 40
0.8753828049624139
 40
0.8970605950823964
 40
0.9250729119173647
 40
0.9594103681804557
 40
1.0
 40
1.0
 40
1.0
 40
1.0
 10
47.37656995859876
 20
10.85774599182225
 30
0.0
 10
47.20665996744647
 20
10.84297583028416
 30
0.0
 10
46.87939671056871
 20
10.81452705492504
 30
0.0
 10
46.35795464487062
 20
10.77036980903265
 30
0.0
 10
45.8389713621391
 20
10.73032086003255
 30
0.0
 10
45.19691428153708
 20
10.68673359814638
 30
0.0
 10
44.46360984423605
 20
10.64372333093614
 30
0.0
 10
43.66491221855073
 20
10.59882699354992
 30
0.0
 10
42.9608727176244
 20
10.5613768349271
 30
0.0
 10
42.33541976376333
 20
10.53201388190175
 30
0.0
 10
41.79483851500984
 20
10.51486795346215
 30
0.0
 10
41.20205121423026
 20
10.49627390119517
 30
0.0
 10
40.39458909682612
 20
10.47399794552858
 30
0.0
 10
39.44111746383073
 20
10.45599299632634
 30
0.0
 10
38.38794858002298
 20
10.44583910496509
 30
0.0
 10
37.21136870107237
 20
10.44694002064992
 30
0.0
 10
35.94678482564768
 20
10.46208646635712
 30
0.0
 10
34.56485923760595
 20
10.49577398155103
 30
0.0
 10
33.13209183983576
 20
10.54962240383031
 30
0.0
 10
31.67416893158824
 20
10.62377397194214
 30
0.0
 10
30.2372875423431
 20
10.71575077147993
 30
0.0
 10
28.87693184434012
 20
10.82017059665627
 30
0.0
 10
27.76687318674059
 20
10.91811388089585
 30
0.0
 10
26.84906727175893
 20
11.00691456958639
 30
0.0
 10
26.06666617518237
 20
11.08767835340855
 30
0.0
 10
25.30539654804405
 20
11.17142205586311
 30
0.0
 10
24.72085911767444
 20
11.2389094758531
 30
0.0
 10
24.26374254318846
 20
11.29375625425699
 30
0.0
 10
23.91480123674643
 20
11.33673801631546
 30
0.0
 10
23.53179381640215
 20
11.38509854877925
 30
0.0
 10
23.06178928973414
 20
11.44585254948399
 30
0.0
 10
22.45273026552106
 20
11.52709898366343
 30
0.0
 10
21.66993247719531
 20
11.63572310626643
 30
0.0
 10
20.7139279849851
 20
11.77416782611873
 30
0.0
 10
20.01913958942776
 20
11.88181958118038
 30
0.0
 10
19.64275761743571
 20
11.94013687622673
 30
0.0
1001
PE_URL
1000

  0
SPLINE
  5
9D
330
1F
100
AcDbEntity
  8
0
  6
Continuous
 62
     1
370
    15
100
AcDbSpline
210
0.0
220
0.0
230
1.0
 70
     8
 71
     3
 72
    22
 73
    18
 74
     0
 42
0.000000001
 43
0.00000001
 40
0.0
 40
0.0
 40
0.0
 40
0.0
 40
0.0960560185595614
 40
0.1773161627944096
 40
0.2436077625250683
 40
0.2949086025857232
 40
0.3453077032511273
 40
0.3883766797985033
 40
0.4305189081583705
 40
0.4731026551741666
 40
0.5198843031375594
 40
0.5711772392595864
 40
0.6491093757434568
 40
0.7164864676796021
 40
0.7938566597598309
 40
0.9104746142762016
 40
1.0
 40
1.0
 40
1.0
 40
1.0
 10
19.64275761743571
 20
-11.94013687622675
 30
0.0
 10
20.0191427690133
 20
-11.88181905461711
 30
0.0
 10
20.71393703397806
 20
-11.77416632753745
 30
0.0
 10
21.66990493370865
 20
-11.63572766767503
 30
0.0
 10
22.45280523120601
 20
-11.52708656878207
 30
0.0
 10
23.11640988469185
 20
-11.43857311442127
 30
0.0
 10
23.69685708571108
 20
-11.3638825390582
 30
0.0
 10
24.23744041091055
 20
-11.29674037364942
 30
0.0
 10
24.73832903224812
 20
-11.23691172402649
 30
0.0
 10
25.24191301213369
 20
-11.17891074210248
 30
0.0
 10
25.78981520413006
 20
-11.11794130895437
 30
0.0
 10
26.47991002179518
 20
-11.04445473167834
 30
0.0
 10
27.25339633767113
 20
-10.9669520852594
 30
0.0
 10
28.1297868557497
 20
-10.88550183913033
 30
0.0
 10
29.1571772105604
 20
-10.79822030622103
 30
0.0
 10
30.27209318049959
 20
-10.71295873544513
 30
0.0
 10
31.08277211802546
 20
-10.66400392398197
 30
0.0
 10
31.43483949257953
 20
-10.64274348270763
 30
0.0
1001
PE_URL
1000

  0
LINE
  5
9E
330
1F
100
AcDbEntity
  8
외형선
  6
Continuous
370
    15
100
AcDbLine
 10
11.99999999999998
 20
-0.531413860000843
 30
0.0
 11
11.99999999999998
 21
-0.773854537312723
 31
0.0
  0
SPLINE
  5
9F
330
1F
100
AcDbEntity
  8
외형선
  6
Continuous
370
    15
100
AcDbSpline
210
0.0
220
0.0
230
1.0
 70
     8
 71
     3
 72
     8
 73
     4
 74
     0
 42
0.000000001
 43
0.00000001
 40
0.0
 40
0.0
 40
0.0
 40
0.0
 40
1.0
 40
1.0
 40
1.0
 40
1.0
 10
11.99999999999998
 20
-0.7738545373127204
 30
0.0
 10
10.98133888534263
 20
-0.3635730375112808
 30
0.0
 10
9.967803163460168
 20
0.0476081297797407
 30
0.0
 10
8.950143594181668
 20
0.4584033079639208
 30
0.0
  0
SPLINE
  5
A0
330
1F
100
AcDbEntity
  8
외형선
  6
Continuous
370
    15
100
AcDbSpline
210
0.0
220
0.0
230
1.0
 70
     8
 71
     3
 72
     8
 73
     4
 74
     0
 42
0.000000001
 43
0.00000001
 40
0.0
 40
0.0
 40
0.0
 40
0.0
 40
1.0
 40
1.0
 40
1.0
 40
1.0
 10
11.99999999999998
 20
-0.453607832853424
 30
0.0
 10
10.9813292316488
 20
0.1337006300884258
 30
0.0
 10
9.967783934930504
 20
0.72095423506895
 30
0.0
 10
8.95011466157382
 20
1.306318063091481
 30
0.0
  0
SPLINE
  5
A1
330
1F
100
AcDbEntity
  8
외형선
  6
Continuous
370
    15
100
AcDbSpline
210
0.0
220
0.0
230
1.0
 70
     8
 71
     3
 72
     8
 73
     4
 74
     0
 42
0.000000001
 43
0.00000001
 40
0.0
 40
0.0
 40
0.0
 40
0.0
 40
1.0
 40
1.0
 40
1.0
 40
1.0
 10
11.99999999999998
 20
3.946614535943976
 30
0.0
 10
10.9813692981298
 20
4.515694312632333
 30
0.0
 10
9.967863740587312
 20
5.07571828610923
 30
0.0
 10
8.950234742829384
 20
5.624945641700863
 30
0.0
  0
LINE
  5
A2
330
1F
100
AcDbEntity
  8
외형선
  6
Continuous
370
    15
100
AcDbLine
 10
11.99999999999998
 20
3.946614535943977
 30
0.0
 11
11.99999999999998
 21
-0.453607832853424
 31
0.0
  0
LINE
  5
A3
330
1F
100
AcDbEntity
  8
외형선
  6
Continuous
370
    15
100
AcDbLine
 10
8.950114661573792
 20
-15.87500000000001
 30
0.0
 11
8.95011466157382
 21
1.306323653781238
 31
0.0
  0
LINE
  5
A4
330
1F
100
AcDbEntity
  8
외형선
  6
Continuous
370
    15
100
AcDbLine
 10
8.950114661573803
 20
5.625581853763656
 30
0.0
 11
8.950114661573792
 21
15.87499999999999
 31
0.0
  0
LINE
  5
A5
330
1F
100
AcDbEntity
  8
외형선
  6
Continuous
370
    15
100
AcDbLine
 10
-50.50000000000003
 20
13.96999999999999
 30
0.0
 11
-50.50000000000003
 21
-15.87500000000002
 31
0.0
  0
LINE
  5
A6
330
1F
100
AcDbEntity
  8
외형선
  6
Continuous
370
    15
100
AcDbLine
 10
-51.50000000000004
 20
13.96999999999999
 30
0.0
 11
-51.50000000000004
 21
-14.87499999999999
 31
0.0
  0
SPLINE
  5
A7
330
1F
100
AcDbEntity
  8
외형선
  6
Continuous
370
    15
100
AcDbSpline
210
0.0
220
0.0
230
1.0
 70
    24
 71
     3
 72
    11
 73
     7
 74
     0
 42
0.000000001
 43
0.00000001
 40
0.0
 40
0.0
 40
0.0
 40
0.0
 40
0.0823041583770279
 40
0.330386082657111
 40
0.8244444445770203
 40
1.0
 40
1.0
 40
1.0
 40
1.0
 10
11.99999999999998
 20
4.132058598373477
 30
0.0
 10
11.99999999999998
 20
4.131579337312886
 30
0.0
 10
11.99999999999998
 20
4.129655483312052
 30
0.0
 10
11.99999999999998
 20
4.098156775640733
 30
0.0
 10
11.99999999999998
 20
4.037020422010131
 30
0.0
 10
11.99999999999998
 20
3.965393320621189
 30
0.0
 10
11.99999999999998
 20
3.946614535948414
 30
0.0
  0
SPLINE
  5
A8
330
1F
100
AcDbEntity
  8
외형선
  6
Continuous
370
    15
100
AcDbSpline
210
0.0
220
0.0
230
1.0
 70
     8
 71
     3
 72
    18
 73
    14
 74
     0
 42
0.000000001
 43
0.00000001
 40
0.0
 40
0.0
 40
0.0
 40
0.0
 40
0.2500000000000011
 40
0.2500000000000011
 40
0.3750000000000014
 40
0.3750000000000014
 40
0.5000000000000018
 40
0.5000000000000018
 40
0.6250000000000021
 40
0.6250000000000021
 40
0.7500000000000024
 40
0.7500000000000024
 40
1.0
 40
1.0
 40
1.0
 40
1.0
 10
9.240443605409281
 20
12.85281526042544
 30
0.0
 10
9.211749162055293
 20
12.87474752867475
 30
0.0
 10
9.181380623332297
 20
12.89917087722595
 30
0.0
 10
9.129872150137533
 20
12.94460497285957
 30
0.0
 10
9.111902042776665
 20
12.96108359199656
 30
0.0
 10
9.074624334595683
 20
12.99739076663109
 30
0.0
 10
9.054656025873049
 20
13.01795987891659
 30
0.0
 10
9.018127799572339
 20
13.05907604296366
 30
0.0
 10
9.002406010425139
 20
13.0787206739778
 30
0.0
 10
8.978738848597295
 20
13.11165182831303
 30
0.0
 10
8.97062484787874
 20
13.1249608250891
 30
0.0
 10
8.953311223241617
 20
13.15760595786656
 30
0.0
 10
8.9501146615738
 20
13.1710382016687
 30
0.0
 10
8.950114661573803
 20
13.18078706480132
 30
0.0
  0
SPLINE
  5
A9
330
1F
100
AcDbEntity
  8
외형선
  6
Continuous
370
    15
100
AcDbSpline
210
0.0
220
0.0
230
1.0
 70
     8
 71
     3
 72
    16
 73
    12
 74
     0
 42
0.000000001
 43
0.00000001
 40
0.0
 40
0.0
 40
0.0
 40
0.0
 40
0.1885062659111649
 40
0.3660870867624697
 40
0.5291463940981855
 40
0.6676019494618727
 40
0.7815277951775346
 40
0.8710511475346278
 40
0.9364332364261764
 40
0.9783782694745654
 40
1.0
 40
1.0
 40
1.0
 40
1.0
 10
9.240444208024309
 20
12.85279760998533
 30
0.0
 10
9.253863050535527
 20
12.84261001228657
 30
0.0
 10
9.279923006361985
 20
12.82282526961705
 30
0.0
 10
9.318472816536882
 20
12.79451982039121
 30
0.0
 10
9.35404612211729
 20
12.76909797185614
 30
0.0
 10
9.385696464823774
 20
12.74722882413202
 30
0.0
 10
9.412733775609254
 20
12.72948169385895
 30
0.0
 10
9.434929945796181
 20
12.71553907840126
 30
0.0
 10
9.452796605927837
 20
12.70597196536258
 30
0.0
 10
9.46529728967766
 20
12.6991762698417
 30
0.0
 10
9.473956745848737
 20
12.69749184459616
 30
0.0
 10
9.476902191193153
 20
12.69691890070692
 30
0.0
  0
SPLINE
  5
AA
330
1F
100
AcDbEntity
  8
외형선
  6
Continuous
370
    15
100
AcDbSpline
210
0.0
220
0.0
230
1.0
 70
     8
 71
     3
 72
     8
 73
     4
 74
     0
 42
0.000000001
 43
0.00000001
 40
0.0
 40
0.0
 40
0.0
 40
0.0
 40
1.0
 40
1.0
 40
1.0
 40
1.0
 10
11.99999999999998
 20
12.66916838106827
 30
0.0
 10
11.15721520505426
 20
12.69624933865679
 30
0.0
 10
10.31774547622831
 20
12.70548594146396
 30
0.0
 10
9.476923014082049
 20
12.69689787256458
 30
0.0
  0
SPLINE
  5
AB
330
1F
100
AcDbEntity
  8
외형선
  6
Continuous
370
    15
100
AcDbSpline
210
0.0
220
0.0
230
1.0
 70
    24
 71
     3
 72
    17
 73
    13
 74
     0
 42
0.000000001
 43
0.00000001
 40
0.0
 40
0.0
 40
0.0
 40
0.0
 40
0.1313580261013513
 40
0.2627160522027026
 40
0.3590253798081519
 40
0.455334707413601
 40
0.5544420293605489
 40
0.6535493513074967
 40
0.7406183468884215
 40
0.8276873424693466
 40
0.916804288052325
 40
1.0
 40
1.0
 40
1.0
 40
1.0
 10
11.99999999999998
 20
12.66916838106827
 30
0.0
 10
11.99999999999998
 20
12.52596852133816
 30
0.0
 10
11.99999999999998
 20
12.23956880187789
 30
0.0
 10
11.99999999999998
 20
11.59905215273747
 30
0.0
 10
11.99999999999998
 20
10.88663460064065
 30
0.0
 10
11.99999999999998
 20
10.13578412132074
 30
0.0
 10
11.99999999999998
 20
9.273352987290762
 30
0.0
 10
11.99999999999998
 20
8.341553286000533
 30
0.0
 10
11.99999999999998
 20
7.368369768598388
 30
0.0
 10
11.99999999999998
 20
6.362407772971221
 30
0.0
 10
11.99999999999998
 20
5.313601434760462
 30
0.0
 10
11.99999999999998
 20
4.570757910675475
 30
0.0
 10
11.99999999999998
 20
4.212099430575273
 30
0.0
  0
SPLINE
  5
AC
330
1F
100
AcDbEntity
  8
외형선
  6
Continuous
370
    15
100
AcDbSpline
210
0.0
220
0.0
230
1.0
 70
     8
 71
     3
 72
     8
 73
     4
 74
     0
 42
0.000000001
 43
0.00000001
 40
0.0
 40
0.0
 40
0.0
 40
0.0
 40
1.0
 40
1.0
 40
1.0
 40
1.0
 10
11.99999999999998
 20
-12.6691683810683
 30
0.0
 10
10.98134386316289
 20
-12.70190056110335
 30
0.0
 10
9.96781307843758
 20
-12.70857290700128
 30
0.0
 10
8.9501585129597
 20
-12.6891901636213
 30
0.0
  0
SPLINE
  5
AD
330
1F
100
AcDbEntity
  8
외형선
  6
Continuous
370
    15
100
AcDbSpline
210
0.0
220
0.0
230
1.0
 70
    24
 71
     3
 72
    14
 73
    10
 74
     0
 42
0.000000001
 43
0.00000001
 40
0.0
 40
0.0
 40
0.0
 40
0.0
 40
0.25
 40
0.25
 40
0.5
 40
0.5
 40
0.75
 40
0.75
 40
1.0
 40
1.0
 40
1.0
 40
1.0
 10
11.99999999999998
 20
-0.7738545373127202
 30
0.0
 10
11.99999999999998
 20
-2.123710599937889
 30
0.0
 10
11.99999999999998
 20
-3.468575573474515
 30
0.0
 10
11.99999999999998
 20
-6.01065417580585
 30
0.0
 10
11.99999999999998
 20
-7.206344885641229
 30
0.0
 10
11.99999999999998
 20
-9.320485110779535
 30
0.0
 10
11.99999999999998
 20
-10.23780812378206
 30
0.0
 10
11.99999999999998
 20
-11.71921585877856
 30
0.0
 10
11.99999999999998
 20
-12.28326743127755
 30
0.0
 10
11.99999999999998
 20
-12.6691683810683
 30
0.0
  0
SPLINE
  5
AE
330
1F
100
AcDbEntity
  8
0
  6
Continuous
 62
     1
370
    15
100
AcDbSpline
210
0.0
220
0.0
230
1.0
 70
     8
 71
     3
 72
    38
 73
    34
 74
     0
 42
0.000000001
 43
0.00000001
 40
0.0
 40
0.0
 40
0.0
 40
0.0
 40
0.0625
 40
0.0625
 40
0.125
 40
0.125
 40
0.1875
 40
0.1875
 40
0.25
 40
0.25
 40
0.3125
 40
0.3125
 40
0.375
 40
0.375
 40
0.4375
 40
0.4375
 40
0.5
 40
0.5
 40
0.5625
 40
0.5625
 40
0.625
 40
0.625
 40
0.6875
 40
0.6875
 40
0.75
 40
0.75
 40
0.8125
 40
0.8125
 40
0.875
 40
0.875
 40
0.9375
 40
0.9375
 40
1.0
 40
1.0
 40
1.0
 40
1.0
 10
53.27499999999999
 20
-15.06443629905642
 30
0.0
 10
52.41776263338674
 20
-14.90798802517943
 30
0.0
 10
51.55577631930719
 20
-14.72914877701337
 30
0.0
 10
49.8336470946452
 20
-14.32885073568493
 30
0.0
 10
48.97667544374622
 20
-14.10770797068634
 30
0.0
 10
47.25721874368466
 20
-13.62427134917736
 30
0.0
 10
46.39458300502783
 20
-13.36189792834097
 30
0.0
 10
44.67486642431703
 20
-12.79929302814879
 30
0.0
 10
43.81806502821625
 20
-12.49915675637176
 30
0.0
 10
42.09602653962205
 20
-11.86211512888645
 30
0.0
 10
41.23395502574235
 20
-11.52554247874622
 30
0.0
 10
39.51905247842745
 20
-10.8208686736364
 30
0.0
 10
38.65757613531151
 20
-10.45159052593955
 30
0.0
 10
36.93536807852139
 20
-9.683520035486417
 30
0.0
 10
36.07820227062253
 20
-9.285301542167547
 30
0.0
 10
34.35901729361849
 20
-8.462086001649563
 30
0.0
 10
33.49638754310004
 20
-8.036951608132018
 30
0.0
 10
31.77642293012651
 20
-7.165221939428299
 30
0.0
 10
30.91976788270582
 20
-6.718780783726063
 30
0.0
 10
29.19783203202811
 20
-5.806007123680946
 30
0.0
 10
28.33568129340839
 20
-5.340198911153857
 30
0.0
 10
26.62036266982902
 20
-4.395938467446554
 30
0.0
 10
25.75937249901274
 20
-3.916057463384921
 30
0.0
 10
24.03709751585097
 20
-2.946143264615846
 30
0.0
 10
23.17971365321654
 20
-2.456857470995448
 30
0.0
 10
21.46081223542875
 20
-1.471741380636901
 30
0.0
 10
20.59819446104816
 20
-0.975693027351896
 30
0.0
 10
18.87799366990522
 20
0.0168491329689311
 30
0.0
 10
18.02146106167978
 20
0.5131372818047458
 30
0.0
 10
16.29963974840215
 20
1.504436490163049
 30
0.0
 10
15.43741576193826
 20
1.99885135317156
 30
0.0
 10
13.72169280945928
 20
2.978716381229696
 30
0.0
 10
12.8611650011123
 20
3.465506332917058
 30
0.0
 10
11.99999999999506
 20
3.946614535946723
 30
0.0
1001
PE_URL
1000

  0
SPLINE
  5
AF
330
1F
100
AcDbEntity
  8
외형선
  6
Continuous
370
    15
100
AcDbSpline
210
0.0
220
0.0
230
1.0
 70
    24
 71
     3
 72
    12
 73
     8
 74
     0
 42
0.000000001
 43
0.00000001
 40
0.0
 40
0.0
 40
0.0
 40
0.0
 40
0.0864847977554923
 40
0.3334174136468478
 40
0.5791958706366193
 40
0.8252577544266632
 40
1.0
 40
1.0
 40
1.0
 40
1.0
 10
11.99999999999998
 20
4.13217563518998
 30
0.0
 10
11.99999999999998
 20
4.13167958268435
 30
0.0
 10
11.99999999999998
 20
4.129767194059383
 30
0.0
 10
11.99999999999998
 20
4.1075815301313
 30
0.0
 10
11.99999999999998
 20
4.065320096429828
 30
0.0
 10
11.99999999999998
 20
4.010593567145631
 30
0.0
 10
11.99999999999998
 20
3.965386944028634
 30
0.0
 10
11.99999999999998
 20
3.946614535948414
 30
0.0
  0
SPLINE
  5
B0
330
1F
100
AcDbEntity
  8
0
  6
Continuous
 62
     1
370
    15
100
AcDbSpline
210
0.0
220
0.0
230
1.0
 70
     8
 71
     3
 72
    18
 73
    14
 74
     0
 42
0.000000001
 43
0.00000001
 40
0.0
 40
0.0
 40
0.0
 40
0.0
 40
0.0903267882083789
 40
0.1806282504029302
 40
0.2709146836707946
 40
0.3611964223111803
 40
0.4514838122574272
 40
0.5417871854385117
 40
0.6352487652278694
 40
0.7287155488162168
 40
0.8221647361705074
 40
0.915601025957086
 40
0.9999999999999999
 40
0.9999999999999999
 40
0.9999999999999999
 40
0.9999999999999999
 10
53.27499999999998
 20
-12.52493469684543
 30
0.0
 10
52.04332002596035
 20
-12.27831192792403
 30
0.0
 10
49.58030541888872
 20
-11.78513553868908
 30
0.0
 10
45.88637289005025
 20
-10.77240934560407
 30
0.0
 10
42.19313045120474
 20
-9.581841482961512
 30
0.0
 10
38.50011297958152
 20
-8.214304178896153
 30
0.0
 10
34.80682763076014
 20
-6.699883867940704
 30
0.0
 10
31.0700930939328
 20
-5.045401927308149
 30
0.0
 10
27.28982050980819
 20
-3.277117069402988
 30
0.0
 10
23.46661451294447
 20
-1.425151803550868
 30
0.0
 10
19.64390685206855
 20
0.4526623506136675
 30
0.0
 10
15.94490502579512
 20
2.267896443612265
 30
0.0
 10
13.52013046538776
 20
3.41569558030089
 30
0.0
 10
12.36935484992854
 20
3.96043045153961
 30
0.0
1001
PE_URL
1000

  0
LINE
  5
B1
330
1F
100
AcDbEntity
  8
0
  6
Continuous
 62
     1
370
    15
100
AcDbLine
 10
53.2749999999997
 20
-15.06443629905642
 30
0.0
 11
53.27499999999998
 21
-12.52493469684543
 31
0.0
1001
PE_URL
1000

  0
SPLINE
  5
B2
330
1F
100
AcDbEntity
  8
0
  6
Continuous
 62
     1
370
    15
100
AcDbSpline
210
0.0
220
0.0
230
1.0
 70
     8
 71
     3
 72
    38
 73
    34
 74
     0
 42
0.000000001
 43
0.00000001
 40
0.0
 40
0.0
 40
0.0
 40
0.0
 40
0.0625
 40
0.0625
 40
0.1250000000000001
 40
0.1250000000000001
 40
0.1875000000000001
 40
0.1875000000000001
 40
0.2500000000000002
 40
0.2500000000000002
 40
0.3125000000000002
 40
0.3125000000000002
 40
0.3750000000000002
 40
0.3750000000000002
 40
0.4375000000000003
 40
0.4375000000000003
 40
0.5000000000000003
 40
0.5000000000000003
 40
0.5625000000000003
 40
0.5625000000000003
 40
0.6250000000000004
 40
0.6250000000000004
 40
0.6875000000000003
 40
0.6875000000000003
 40
0.7500000000000002
 40
0.7500000000000002
 40
0.8125000000000002
 40
0.8125000000000002
 40
0.8750000000000001
 40
0.8750000000000001
 40
0.9375000000000001
 40
0.9375000000000001
 40
1.0
 40
1.0
 40
1.0
 40
1.0
 10
53.27499999999999
 20
-15.86158269177059
 30
0.0
 10
52.41776263338686
 20
-15.8411966091053
 30
0.0
 10
51.55577631930745
 20
-15.7975008307175
 30
0.0
 10
49.8336470946457
 20
-15.66385936964616
 30
0.0
 10
48.97667544374684
 20
-15.5740707997908
 30
0.0
 10
47.25721874368556
 20
-15.34894237089481
 30
0.0
 10
46.39458300502886
 20
-15.21352270466057
 30
0.0
 10
44.67486642431831
 20
-14.89875056750911
 30
0.0
 10
43.81806502821762
 20
-14.71948935093969
 30
0.0
 10
42.09602653962369
 20
-14.31772462704789
 30
0.0
 10
41.23395502574414
 20
-14.09539741573426
 30
0.0
 10
39.51905247842946
 20
-13.61095416859755
 30
0.0
 10
38.65757613531367
 20
-13.34803196568251
 30
0.0
 10
36.93536807852379
 20
-12.78382316762466
 30
0.0
 10
36.07820227062506
 20
-12.48298122884914
 30
0.0
 10
34.3590172936213
 20
-11.84505005411514
 30
0.0
 10
33.49638754310297
 20
-11.50783024903033
 30
0.0
 10
31.77642293012968
 20
-10.80131130201383
 30
0.0
 10
30.9197678827091
 20
-10.43216227898895
 30
0.0
 10
29.19783203203166
 20
-9.663111695695472
 30
0.0
 10
28.33568129341208
 20
-9.263627807745555
 30
0.0
 10
26.62036266983292
 20
-8.440111700574956
 30
0.0
 10
25.7593724990168
 20
-8.01483775538619
 30
0.0
 10
24.03709751585527
 20
-7.141944947667228
 30
0.0
 10
23.17971365322096
 20
-6.695014039147594
 30
0.0
 10
21.46081223543344
 20
-5.782138756257862
 30
0.0
 10
20.59819446105298
 20
-5.315973059304051
 30
0.0
 10
18.87799366991027
 20
-4.370317305908084
 30
0.0
 10
18.02146106168497
 20
-3.891045841002869
 30
0.0
 10
16.29963974840761
 20
-2.920869900410285
 30
0.0
 10
15.43741576194384
 20
-2.430526246826572
 30
0.0
 10
13.72169280946507
 20
-1.445815085926018
 30
0.0
 10
12.86116500111826
 20
-0.9501072994718108
 30
0.0
 10
12.00000000000115
 20
-0.4536078328541016
 30
0.0
1001
PE_URL
1000

  0
LINE
  5
B3
330
1F
100
AcDbEntity
  8
0
  6
Continuous
 62
     1
370
    15
100
AcDbLine
 10
53.27499999999999
 20
-15.86158269177059
 30
0.0
 11
53.27499999999992
 21
-15.06443629905639
 31
0.0
1001
PE_URL
1000

  0
LINE
  5
B4
330
1F
100
AcDbEntity
  8
0
  6
Continuous
 62
     1
370
    15
100
AcDbLine
 10
13.8311664298141
 20
-1.506245162217036
 30
0.0
 11
11.99999999999998
 21
-0.7738545373127221
 31
0.0
1001
PE_URL
1000

  0
LINE
  5
B5
330
1F
100
AcDbEntity
  8
외형선
  6
Continuous
370
    15
100
AcDbLine
 10
11.99999999999998
 20
-0.5314138600008429
 30
0.0
 11
11.99999999999998
 21
-0.773854537312723
 31
0.0
  0
SPLINE
  5
B6
330
1F
100
AcDbEntity
  8
0
  6
Continuous
 62
     1
370
    15
100
AcDbSpline
210
0.0
220
0.0
230
1.0
 70
     8
 71
     3
 72
    36
 73
    32
 74
     0
 42
0.000000001
 43
0.00000001
 40
0.0
 40
0.0
 40
0.0
 40
0.0
 40
0.0625000000000002
 40
0.0625000000000002
 40
0.1250000000000003
 40
0.1250000000000003
 40
0.1875000000000004
 40
0.1875000000000004
 40
0.2500000000000006
 40
0.2500000000000006
 40
0.3125000000000006
 40
0.3125000000000006
 40
0.3750000000000004
 40
0.3750000000000004
 40
0.4375000000000004
 40
0.4375000000000004
 40
0.5000000000000003
 40
0.5000000000000003
 40
0.5625000000000002
 40
0.5625000000000002
 40
0.6250000000000002
 40
0.6250000000000002
 40
0.6875000000000002
 40
0.6875000000000002
 40
0.7500000000000002
 40
0.7500000000000002
 40
0.8125000000000003
 40
0.8125000000000003
 40
0.8750000000000002
 40
0.8750000000000002
 40
1.0
 40
1.0
 40
1.0
 40
1.0
 10
50.45444026693717
 20
1.300194242658483
 30
0.0
 10
49.6524049132403
 20
1.668419517005406
 30
0.0
 10
48.85433660034963
 20
2.034382667191198
 30
0.0
 10
47.2520818229579
 20
2.761134261171182
 30
0.0
 10
46.44855233646535
 20
3.121813167138384
 30
0.0
 10
44.84588554664137
 20
3.833647297043511
 30
0.0
 10
44.04800074424308
 20
4.18463138177855
 30
0.0
 10
42.44417507035388
 20
4.87622882064148
 30
0.0
 10
41.64079396403236
 20
5.216453655471946
 30
0.0
 10
40.040285956034
 20
5.881888931591705
 30
0.0
 10
39.24092346386415
 20
6.207425596973102
 30
0.0
 10
37.636283580395
 20
6.842653979369157
 30
0.0
 10
36.83343150594146
 20
7.15200406887972
 30
0.0
 10
35.23583375304349
 20
7.75071661750623
 30
0.0
 10
34.43333469195647
 20
8.041048362022636
 30
0.0
 10
32.82863856735481
 20
8.600430570327187
 30
0.0
 10
32.02891546434203
 20
8.86921161743506
 30
0.0
 10
30.42879182284548
 20
9.383627468065495
 30
0.0
 10
29.62546516634855
 20
9.629551337067277
 30
0.0
 10
28.0214708576122
 20
10.09595872474545
 30
0.0
 10
27.22347175146032
 20
10.3162236773901
 30
0.0
 10
25.62107760316838
 20
10.73053843829437
 30
0.0
 10
24.81754606679259
 20
10.92446977110778
 30
0.0
 10
23.21501052619762
 20
11.28365836004006
 30
0.0
 10
22.41707439623063
 20
11.4488824329822
 30
0.0
 10
20.81316417682977
 20
11.75031387538992
 30
0.0
 10
20.009808650343
 20
11.88630769771036
 30
0.0
 10
18.40948653582144
 20
12.12736265674516
 30
0.0
 10
17.60995226241945
 20
12.23258665881152
 30
0.0
 10
15.20294805658193
 20
12.5014671003543
 30
0.0
 10
13.60467070668464
 20
12.61760596606995
 30
0.0
 10
11.99999999999998
 20
12.66916838106827
 30
0.0
1001
PE_URL
1000

  0
SPLINE
  5
B7
330
1F
100
AcDbEntity
  8
0
  6
Continuous
 62
     1
370
    15
100
AcDbSpline
210
0.0
220
0.0
230
1.0
 70
     8
 71
     3
 72
     8
 73
     4
 74
     0
 42
0.000000001
 43
0.00000001
 40
0.0
 40
0.0
 40
0.0
 40
0.0
 40
1.0
 40
1.0
 40
1.0
 40
1.0
 10
50.45444026693717
 20
1.300194242658492
 30
0.0
 10
50.43740442188095
 20
0.29210958606229
 30
0.0
 10
50.31160082360076
 20
-0.6903983468759765
 30
0.0
 10
50.09788798355624
 20
-1.6522344325347
 30
0.0
1001
PE_URL
1000

  0
SPLINE
  5
B8
330
1F
100
AcDbEntity
  8
0
  6
Continuous
 62
     1
370
    15
100
AcDbSpline
210
0.0
220
0.0
230
1.0
 70
     8
 71
     3
 72
     8
 73
     4
 74
     0
 42
0.000000001
 43
0.00000001
 40
0.0
 40
0.0
 40
0.0
 40
0.0
 40
1.0
 40
1.0
 40
1.0
 40
1.0
 10
53.27499999999999
 20
-4.242481768220618
 30
0.0
 10
52.2067805040063
 20
-3.402687243110376
 30
0.0
 10
51.14775622848764
 20
-2.539237859000444
 30
0.0
 10
50.09788798355627
 20
-1.652234432534698
 30
0.0
1001
PE_URL
1000

  0
SPLINE
  5
B9
330
1F
100
AcDbEntity
  8
0
  6
Continuous
 62
     1
370
    15
100
AcDbSpline
210
0.0
220
0.0
230
1.0
 70
    24
 71
     3
 72
    14
 73
    10
 74
     0
 42
0.000000001
 43
0.00000001
 40
0.0
 40
0.0
 40
0.0
 40
0.0
 40
0.25
 40
0.25
 40
0.5
 40
0.5
 40
0.75
 40
0.75
 40
1.0
 40
1.0
 40
1.0
 40
1.0
 10
53.27499999999998
 20
-12.52493469684543
 30
0.0
 10
53.27499999999998
 20
-12.04486774864043
 30
0.0
 10
53.27499999999999
 20
-11.50271046987283
 30
0.0
 10
53.27499999999999
 20
-10.30352123776153
 30
0.0
 10
53.27499999999998
 20
-9.646511261890662
 30
0.0
 10
53.27499999999998
 20
-8.236264171641587
 30
0.0
 10
53.27499999999999
 20
-7.483105696757514
 30
0.0
 10
53.27499999999999
 20
-5.907098256972268
 30
0.0
 10
53.27499999999998
 20
-5.084368713330337
 30
0.0
 10
53.27499999999999
 20
-4.242481768221126
 30
0.0
1001
PE_URL
1000

  0
SPLINE
  5
BA
330
1F
100
AcDbEntity
  8
외형선
  6
Continuous
370
    15
100
AcDbSpline
210
0.0
220
0.0
230
1.0
 70
    24
 71
     3
 72
    17
 73
    13
 74
     0
 42
0.000000001
 43
0.00000001
 40
0.0
 40
0.0
 40
0.0
 40
0.0
 40
0.1305123694726852
 40
0.2627180348991967
 40
0.3590271035105814
 40
0.4553361721219662
 40
0.5544432275505119
 40
0.6535502829790576
 40
0.7406190444149251
 40
0.8276878058507925
 40
0.9168045117813872
 40
1.0
 40
1.0
 40
1.0
 40
1.0
 10
11.99999999999998
 20
12.66916838106827
 30
0.0
 10
11.99999999999998
 20
12.52719636435632
 30
0.0
 10
11.99999999999998
 20
12.24141035501532
 30
0.0
 10
11.99999999999998
 20
11.60081709327883
 30
0.0
 10
11.99999999999998
 20
10.8866576774552
 30
0.0
 10
11.99999999999998
 20
10.13577773567578
 30
0.0
 10
11.99999999999998
 20
9.273354726452332
 30
0.0
 10
11.99999999999998
 20
8.341552882596755
 30
0.0
 10
11.99999999999998
 20
7.368369870626036
 30
0.0
 10
11.99999999999998
 20
6.362407744985266
 30
0.0
 10
11.99999999999998
 20
5.313601441280123
 30
0.0
 10
11.99999999999998
 20
4.570757912798331
 30
0.0
 10
11.99999999999998
 20
4.212099430575272
 30
0.0
  0
SPLINE
  5
BB
330
1F
100
AcDbEntity
  8
0
  6
Continuous
 62
     1
370
    15
100
AcDbSpline
210
0.0
220
0.0
230
1.0
 70
    24
 71
     3
 72
    10
 73
     6
 74
     0
 42
0.000000001
 43
0.00000001
 40
0.0
 40
0.0
 40
0.0
 40
0.0
 40
0.5
 40
0.5
 40
1.0
 40
1.0
 40
1.0
 40
1.0
 10
48.27499999999998
 20
4.691538593597882
 30
0.0
 10
48.27499999999998
 20
5.728628384846481
 30
0.0
 10
48.27499999999998
 20
6.684238768094209
 30
0.0
 10
48.27499999999997
 20
8.336748412245072
 30
0.0
 10
48.27499999999998
 20
9.032833253919843
 30
0.0
 10
48.27499999999997
 20
9.570389447124654
 30
0.0
1001
PE_URL
1000

  0
SPLINE
  5
BC
330
1F
100
AcDbEntity
  8
0
  6
Continuous
 62
     1
370
    15
100
AcDbSpline
210
0.0
220
0.0
230
1.0
 70
     8
 71
     3
 72
     9
 73
     5
 74
     0
 42
0.000000001
 43
0.00000001
 40
0.0
 40
0.0
 40
0.0
 40
0.0
 40
0.7508101600994198
 40
1.0
 40
1.0
 40
1.0
 40
1.0
 10
53.27499999999998
 20
11.1125
 30
0.0
 10
51.79757216666181
 20
11.10006483285508
 30
0.0
 10
49.82979400934104
 20
11.08350250084927
 30
0.0
 10
47.8620126027038
 20
10.87753635542235
 30
0.0
 10
47.37166146902452
 20
10.82621168461849
 30
0.0
1001
PE_URL
1000

  0
SPLINE
  5
BD
330
1F
100
AcDbEntity
  8
0
  6
Continuous
 62
     1
370
    15
100
AcDbSpline
210
0.0
220
0.0
230
1.0
 70
     8
 71
     3
 72
     8
 73
     4
 74
     0
 42
0.000000001
 43
0.00000001
 40
0.0
 40
0.0
 40
0.0
 40
0.0
 40
1.0
 40
1.0
 40
1.0
 40
1.0
 10
53.27499999999998
 20
11.1125
 30
0.0
 10
51.59759376193909
 20
10.65780123202016
 30
0.0
 10
49.93065831685223
 20
10.14524943066147
 30
0.0
 10
48.27499999999998
 20
9.570389447124658
 30
0.0
1001
PE_URL
1000

  0
SPLINE
  5
BE
330
1F
100
AcDbEntity
  8
0
  6
Continuous
 62
     1
370
    15
100
AcDbSpline
210
0.0
220
0.0
230
1.0
 70
     8
 71
     3
 72
     8
 73
     4
 74
     0
 42
0.000000001
 43
0.00000001
 40
0.0
 40
0.0
 40
0.0
 40
0.0
 40
1.0
 40
1.0
 40
1.0
 40
1.0
 10
48.27499999999997
 20
4.691538593597883
 30
0.0
 10
49.11756567488967
 20
3.688219129697074
 30
0.0
 10
49.85114495484242
 20
2.565545540272579
 30
0.0
 10
50.45444026693717
 20
1.300194242658487
 30
0.0
1001
PE_URL
1000

  0
LINE
  5
BF
330
1F
100
AcDbEntity
  8
0
  6
Continuous
 62
     1
370
    15
100
AcDbLine
 10
50.18910413707086
 20
1.813099250365633
 30
0.0
 11
53.27499999999998
 21
-0.0000000000000008
 31
0.0
1001
PE_URL
1000

  0
LINE
  5
C0
330
1F
100
AcDbEntity
  8
0
  6
Continuous
 62
     1
370
    15
100
AcDbLine
 10
53.27499999999998
 20
-0.0000000000000008
 30
0.0
 11
53.27499999999998
 21
-4.242481768220615
 31
0.0
1001
PE_URL
1000

  0
SPLINE
  5
C1
330
1F
100
AcDbEntity
  8
0
  6
Continuous
 62
     1
370
    15
100
AcDbSpline
210
0.0
220
0.0
230
1.0
 70
     8
 71
     3
 72
     9
 73
     5
 74
     0
 42
0.000000001
 43
0.00000001
 40
0.0
 40
0.0
 40
0.0
 40
0.0
 40
0.4999585031463497
 40
1.0
 40
1.0
 40
1.0
 40
1.0
 10
19.64277186797167
 20
-11.94010539720296
 30
0.0
 10
18.36907163958128
 20
-12.12151241177188
 30
0.0
 10
15.82145974704475
 20
-12.48435655469028
 30
0.0
 10
13.27389039309
 20
-12.60756103054356
 30
0.0
 10
11.99999999999998
 20
-12.6691683810683
 30
0.0
1001
PE_URL
1000

  0
SPLINE
  5
C2
330
1F
100
AcDbEntity
  8
외형선
  6
Continuous
370
    15
100
AcDbSpline
210
0.0
220
0.0
230
1.0
 70
    24
 71
     3
 72
    14
 73
    10
 74
     0
 42
0.000000001
 43
0.00000001
 40
0.0
 40
0.0
 40
0.0
 40
0.0
 40
0.25
 40
0.25
 40
0.5
 40
0.5
 40
0.75
 40
0.75
 40
1.0
 40
1.0
 40
1.0
 40
1.0
 10
11.99999999999998
 20
-0.7738545373127202
 30
0.0
 10
11.99999999999998
 20
-2.123710599937889
 30
0.0
 10
11.99999999999998
 20
-3.468575573474515
 30
0.0
 10
11.99999999999998
 20
-6.01065417580585
 30
0.0
 10
11.99999999999998
 20
-7.206344885641229
 30
0.0
 10
11.99999999999998
 20
-9.320485110779535
 30
0.0
 10
11.99999999999998
 20
-10.23780812378206
 30
0.0
 10
11.99999999999998
 20
-11.71921585877856
 30
0.0
 10
11.99999999999998
 20
-12.28326743127755
 30
0.0
 10
11.99999999999998
 20
-12.6691683810683
 30
0.0
  0
LINE
  5
C3
330
1F
100
AcDbEntity
  8
0
  6
Continuous
 62
     1
370
    15
100
AcDbLine
 10
53.27499999999998
 20
-0.0000000000000008
 30
0.0
 11
53.27499999999998
 21
11.1125
 31
0.0
1001
PE_URL
1000

  0
SPLINE
  5
C4
330
1F
100
AcDbEntity
  8
0
  6
Continuous
 62
     1
370
    15
100
AcDbSpline
210
0.0
220
0.0
230
1.0
 70
     8
 71
     3
 72
    14
 73
    10
 74
     0
 42
0.000000001
 43
0.00000001
 40
0.0
 40
0.0
 40
0.0
 40
0.0
 40
0.0172882994504629
 40
0.1685396672884386
 40
0.3348246893023613
 40
0.5010886591792486
 40
0.6673561637519678
 40
0.8336517794480779
 40
1.0
 40
1.0
 40
1.0
 40
1.0
 10
31.43422564291997
 20
10.64247014629767
 30
0.0
 10
31.56009012478773
 20
10.69878078076087
 30
0.0
 10
32.78711409890437
 20
11.24774024461206
 30
0.0
 10
35.22498504172479
 20
12.18809185131732
 30
0.0
 10
38.74701633418258
 20
13.41107464457003
 30
0.0
 10
42.3783723623929
 20
14.42239960443325
 30
0.0
 10
46.00980006450565
 20
15.18181601770059
 30
0.0
 10
49.64194725780727
 20
15.69532960260982
 30
0.0
 10
52.06385475109411
 20
15.80615915312647
 30
0.0
 10
53.275
 20
15.86158269177058
 30
0.0
1001
PE_URL
1000

  0
SPLINE
  5
C5
330
1F
100
AcDbEntity
  8
0
  6
Continuous
 62
     1
370
    15
100
AcDbSpline
210
0.0
220
0.0
230
1.0
 70
    24
 71
     3
 72
    14
 73
    10
 74
     0
 42
0.000000001
 43
0.00000001
 40
0.0
 40
0.0
 40
0.0
 40
0.0
 40
0.25
 40
0.25
 40
0.5
 40
0.5
 40
0.75
 40
0.75
 40
1.0
 40
1.0
 40
1.0
 40
1.0
 10
53.27499999999998
 20
11.1125
 30
0.0
 10
53.27499999999998
 20
11.44930603840804
 30
0.0
 10
53.27499999999999
 20
11.81258118427561
 30
0.0
 10
53.27499999999999
 20
12.57771108481402
 30
0.0
 10
53.27499999999998
 20
12.97948956501249
 30
0.0
 10
53.27499999999999
 20
13.80064530850654
 30
0.0
 10
53.27499999999999
 20
14.21988443375762
 30
0.0
 10
53.27499999999999
 20
15.05166832183918
 30
0.0
 10
53.27499999999999
 20
15.46406174255947
 30
0.0
 10
53.27499999999999
 20
15.86158269177058
 30
0.0
1001
PE_URL
1000

  0
LINE
  5
C6
330
1F
100
AcDbEntity
  8
중심선
 62
     1
100
AcDbLine
 10
-58.50000000000006
 20
-0.0000000000000105
 30
0.0
 11
60.27499999999998
 21
0.0000000000000072
 31
0.0
  0
LINE
  5
C7
330
1F
100
AcDbEntity
  8
참조1
100
AcDbLine
 10
0.8874999999999629
 20
-0.0000000000000107
 30
0.0
 11
0.8874999999999682
 21
-40.00000000000001
 31
0.0
  0
LINE
  5
C8
330
1F
100
AcDbEntity
  8
참조1
100
AcDbLine
 10
0.8874999999999682
 20
-40.00000000000001
 30
0.0
 11
-23.00006253529966
 21
-40.00000000000001
 31
0.0
  0
CIRCLE
  5
C9
330
1F
100
AcDbEntity
  8
해칭선
100
AcDbCircle
 10
0.0
 20
0.0
 30
0.0
 40
2.999999999999993
  0
INSERT
  5
CA
330
1F
100
AcDbEntity
  8
0
  6
Continuous
 62
     7
100
AcDbBlockReference
 66
     1
  2
블럭10
 10
-13.05277293212524
 20
-52.04717430164393
 30
0.0
  0
ATTRIB
  5
CB
330
CA
100
AcDbEntity
  8
FORMAT
 62
     2
100
AcDbText
 10
-22.23406822086652
 20
-49.97180738881174
 30
0.0
 40
4.233333333333333
  1
E2030116 [ 2 FLUTE ]
 41
0.75
  7
SLDTEXTSTYLE0
 11
-22.23406822086652
 21
-52.08847405547841
 31
0.0
100
AcDbAttribute
  2
AUTOATTR0
 70
     0
 74
     1
  0
SEQEND
  5
CC
330
CA
100
AcDbEntity
  8
0
  6
Continuous
 62
     7
  0
HATCH
  5
CD
330
1F
100
AcDbEntity
  8
중심선
100
AcDbHatch
 10
0.0
 20
0.0
 30
0.0
210
0.0
220
0.0
230
1.0
  2
SOLID
 70
     1
 71
     0
 91
        1
 92
        0
 93
        4
 72
     1
 10
-7.337863627744381
 20
-35.8
 11
-10.78413887158167
 21
-35.8
 72
     1
 10
-10.78413887158167
 20
-35.8
 11
-12.91236873078569
 21
-38.33632558057261
 72
     1
 10
-12.91236873078569
 20
-38.33632558057261
 11
-9.466060401835263
 21
-38.33628615127012
 72
     1
 10
-9.466060401835263
 20
-38.33628615127012
 11
-7.337863627744381
 21
-35.8
 97
        0
 75
     0
 76
     1
 98
        1
 10
-2.849261314031184
 20
-0.0010749287238999
  0
HATCH
  5
CE
330
1F
100
AcDbEntity
  8
중심선
100
AcDbHatch
 10
0.0
 20
0.0
 30
0.0
210
0.0
220
0.0
230
1.0
  2
SOLID
 70
     1
 71
     0
 91
        1
 92
        0
 93
        4
 72
     1
 10
-2.32509963670838
 20
-35.79999999999999
 11
-5.771374880545721
 21
-35.80000000000004
 72
     1
 10
-5.771374880545721
 20
-35.80000000000004
 11
-10.3025128889031
 21
-41.20000000000002
 72
     1
 10
-10.3025128889031
 20
-41.20000000000002
 11
-6.856237645065821
 21
-41.20000000000002
 72
     1
 10
-6.856237645065821
 20
-41.20000000000002
 11
-2.325099636708378
 21
-35.79999999999999
 97
        0
 75
     0
 76
     1
 98
        1
 10
-2.849261314031184
 20
-0.0010749287238999
  0
HATCH
  5
CF
330
1F
100
AcDbEntity
  8
중심선
100
AcDbHatch
 10
0.0
 20
0.0
 30
0.0
210
0.0
220
0.0
230
1.0
  2
SOLID
 70
     1
 71
     0
 91
        1
 92
        0
 93
        4
 72
     1
 10
2.687664354327461
 20
-35.79999999999999
 11
-0.7586108895096553
 21
-35.8
 72
     1
 10
-0.7586108895096553
 20
-35.8
 11
-7.807047791398901
 21
-44.20000000000002
 72
     1
 10
-7.807047791398901
 20
-44.20000000000002
 11
-4.360772547561622
 21
-44.20000000000002
 72
     1
 10
-4.360772547561622
 20
-44.20000000000002
 11
2.687664354327461
 21
-35.79999999999999
 97
        0
 75
     0
 76
     1
 98
        1
 10
-2.849261314031184
 20
-0.0010749287238999
  0
HATCH
  5
D0
330
1F
100
AcDbEntity
  8
중심선
100
AcDbHatch
 10
0.0
 20
0.0
 30
0.0
210
0.0
220
0.0
230
1.0
  2
SOLID
 70
     1
 71
     0
 91
        1
 92
        0
 93
        6
 72
     3
 10
7.487554785339659
 20
-40.00000000005128
 11
3.960054785062283
 21
1.540882976769353E-10
 40
0.3939339440162628
 50
17.09539180608439
 51
320.0019657685081
 73
     0
 72
     1
 10
9.170554441040256
 20
-38.58789400463831
 11
11.47585631474129
 21
-36.65356729459042
 72
     3
 10
7.487554785286813
 20
-40.00000000000016
 11
6.600054785286829
 21
-1.278976924368180E-13
 40
0.636358354079598
 50
39.99873849337382
 51
368.4976242363724
 73
     1
 72
     1
 10
13.91288727718742
 20
-39.03999999993002
 11
6.167622092122736
 21
-39.03999999993002
 72
     1
 10
6.167622092122736
 20
-39.03999999993002
 11
6.167597047676802
 21
-40.95999999992992
 72
     1
 10
6.167597047676802
 20
-40.95999999992992
 11
10.60897681714884
 21
-40.95999999992988
 97
        0
 75
     0
 76
     1
 98
        1
 10
-2.849261314031184
 20
-0.0010749287238999
  0
DIMENSION
  5
D1
330
1F
100
AcDbEntity
  8
치수문자_일반주서
100
AcDbDimension
  2
_D
 10
-66.49999999999991
 20
-15.87500000000006
 30
0.0
 11
-66.50000000000011
 21
37.74999999999994
 31
0.0
 70
   160
  1
%%c<>
 71
     2
 42
31.74999999999994
 52
-270.0
  3
SLDDIMSTYLE2
100
AcDbAlignedDimension
 13
-36.89500000000005
 23
15.87499999999998
 33
0.0
 14
-50.50000000000001
 24
-15.87500000000001
 34
0.0
 50
90.0000000000002
100
AcDbRotatedDimension
1001
PE_URL
1000

1001
ACAD
1000
DSTYLE
1002
{
1070
   171
1070
     8
1070
   273
1070
     7
1070
    41
1040
4.0
1070
   140
1040
4.0
1002
}
1001
ACAD_DSTYLE_DIMFLIPARROW_SYMBOL
1070
   385
1070
     0
1001
ACAD_DSTYLE_DIMFLIPARROW_WHICH_SYMBOL
1070
   386
1070
     3
  0
DIMENSION
  5
E4
330
1F
100
AcDbEntity
  8
치수문자_일반주서
100
AcDbDimension
  2
_D_1
 10
11.99999999999998
 20
30.87499999999998
 30
0.0
 11
32.63749999999998
 21
30.87499999999998
 31
0.0
 70
   160
  1
<>
 71
     2
 42
41.27500000000001
  3
SLDDIMSTYLE2
100
AcDbAlignedDimension
 13
53.27499999999999
 23
15.86158269177058
 33
0.0
 14
11.99999999999998
 24
12.66916838106827
 34
0.0
 50
0.0000000000000099
100
AcDbRotatedDimension
1001
PE_URL
1000

1001
ACAD
1000
DSTYLE
1002
{
1070
   171
1070
     8
1070
   273
1070
     7
1070
    41
1040
4.0
1070
   140
1040
4.0
1002
}
  0
DIMENSION
  5
F8
330
1F
100
AcDbEntity
  8
치수문자_일반주서
100
AcDbDimension
  2
_D_2
 10
-51.50000000000004
 20
45.87499999999999
 30
0.0
 11
0.8874999999998225
 21
45.87499999999999
 31
0.0
 70
   160
  1
<>
 71
     2
 42
104.7749999999997
  3
SLDDIMSTYLE2
100
AcDbAlignedDimension
 13
53.2749999999997
 23
15.06443629905641
 33
0.0
 14
-51.50000000000004
 24
13.96999999999999
 34
0.0
 50
0.0000000000000039
100
AcDbRotatedDimension
1001
PE_URL
1000

1001
ACAD
1000
DSTYLE
1002
{
1070
   171
1070
     8
1070
   273
1070
     7
1070
    41
1040
4.0
1070
   140
1040
4.0
1002
}
  0
DIMENSION
  5
10B
330
1F
100
AcDbEntity
  8
치수문자_일반주서
100
AcDbDimension
  2
_D_3
 10
68.275
 20
15.86158269177064
 30
0.0
 11
68.27499999999992
 21
37.73658269177064
 31
0.0
 70
   160
  1
%%c<>
 71
     2
 42
31.72316538354118
 52
-270.0
  3
SLDDIMSTYLE2
100
AcDbAlignedDimension
 13
53.27499999999999
 23
-15.86158269177059
 33
0.0
 14
53.27499999999999
 24
15.86158269177058
 34
0.0
 50
90.0000000000002
100
AcDbRotatedDimension
1001
PE_URL
1000

1001
ACAD
1000
DSTYLE
1002
{
1070
   171
1070
     8
1070
   273
1070
     7
1070
    41
1040
4.0
1070
   140
1040
4.0
1002
}
1001
ACAD_DSTYLE_DIMFLIPARROW_SYMBOL
1070
   385
1070
     0
1001
ACAD_DSTYLE_DIMFLIPARROW_WHICH_SYMBOL
1070
   386
1070
     3
  0
LINE
  5
11E
330
1F
100
AcDbEntity
  8
참조1
100
AcDbLine
 10
74.9722780943546
 20
7.439999999999996
 30
0.0
 11
74.9722780943546
 21
-7.440000000000008
 31
0.0
  0
LINE
  5
11F
330
1F
100
AcDbEntity
  8
참조1
100
AcDbLine
 10
87.67227809435461
 20
5.439999999999996
 30
0.0
 11
74.9722780943546
 21
5.439999999999996
 31
0.0
  0
SOLID
  5
120
330
1F
100
AcDbEntity
  8
참조1
100
AcDbTrace
 10
74.9722780943546
 20
5.439999999999996
 30
0.0
 11
81.3222780943546
 21
4.423999999999996
 31
0.0
 12
81.3222780943546
 22
6.455999999999996
 32
0.0
 13
81.3222780943546
 23
6.455999999999996
 33
0.0
  0
LINE
  5
121
330
1F
100
AcDbEntity
  8
참조1
100
AcDbLine
 10
87.67227809435461
 20
-5.440000000000008
 30
0.0
 11
74.9722780943546
 21
-5.440000000000008
 31
0.0
  0
SOLID
  5
122
330
1F
100
AcDbEntity
  8
참조1
100
AcDbTrace
 10
74.9722780943546
 20
-5.440000000000008
 30
0.0
 11
81.3222780943546
 21
-6.456000000000008
 31
0.0
 12
81.3222780943546
 22
-4.424000000000008
 32
0.0
 13
81.3222780943546
 23
-4.424000000000008
 33
0.0
  0
MTEXT
  5
123
330
1F
100
AcDbEntity
  8
참조1
100
AcDbMText
 10
84.3566282269806
 20
11.01029177718832
 30
0.0
 40
3.5
 41
0.0
 71
     1
 72
     1
  1
A
  7
SLDTEXTSTYLE0
 73
     1
 44
1.0
  0
MTEXT
  5
124
330
1F
100
AcDbEntity
  8
참조1
100
AcDbMText
 10
84.3566282269806
 20
0.1302917771883193
 30
0.0
 40
3.5
 41
0.0
 71
     1
 72
     1
  1
A
  7
SLDTEXTSTYLE0
 73
     1
 44
1.0
  0
INSERT
  5
12B
330
1F
100
AcDbEntity
  8
해칭선
100
AcDbBlockReference
  2
SW_DOWELSYMBOL_0
 10
0.0
 20
0.0
 30
0.0
  0
LINE
  5
20B
330
1F
100
AcDbEntity
  8
외형선
  6
Continuous
370
    15
100
AcDbLine
 10
-29.08132499999995
 20
13.96999999999999
 30
0.0
 11
-15.97492500000006
 21
13.96999999999999
 31
0.0
1001
PE_URL
1000

  0
LINE
  5
20C
330
1F
100
AcDbEntity
  8
외형선
  6
Continuous
370
    15
100
AcDbLine
 10
-29.08132499999995
 20
13.97
 30
0.0
 11
-30.98632499999992
 21
15.87499999999999
 31
0.0
1001
PE_URL
1000

  0
LINE
  5
20D
330
1F
100
AcDbEntity
  8
외형선
  6
Continuous
370
    15
100
AcDbLine
 10
-15.97492500000006
 20
13.97
 30
0.0
 11
-14.06992500000003
 21
15.87499999999999
 31
0.0
1001
PE_URL
1000

  0
LINE
  5
20E
330
1F
100
AcDbEntity
  8
외형선
  6
Continuous
370
    15
100
AcDbLine
 10
-51.50000000000004
 20
13.96999999999999
 30
0.0
 11
-38.80000000000003
 21
13.96999999999999
 31
0.0
1001
PE_URL
1000

  0
LINE
  5
20F
330
1F
100
AcDbEntity
  8
외형선
  6
Continuous
370
    15
100
AcDbLine
 10
-38.80000000000003
 20
13.97
 30
0.0
 11
-36.89500000000005
 21
15.87499999999998
 31
0.0
1001
PE_URL
1000

  0
LINE
  5
210
330
1F
100
AcDbEntity
  8
외형선
  6
Continuous
370
    15
100
AcDbLine
 10
-30.98632499999991
 20
15.87499999999999
 30
0.0
 11
-36.89500000000005
 21
15.87499999999999
 31
0.0
  0
ENDSEC
  0
SECTION
  2
OBJECTS
  0
DICTIONARY
  5
C
330
0
100
AcDbDictionary
281
     1
  3
ACAD_DETAILVIEWSTYLE
350
1D6
  3
ACAD_GROUP
350
D
  3
ACAD_IMAGE_VARS
350
234
  3
ACAD_LAYOUT
350
1A
  3
ACAD_MLINESTYLE
350
17
  3
ACAD_PLOTSETTINGS
350
19
  3
ACAD_PLOTSTYLENAME
350
E
  3
ACAD_SCALELIST
350
47
  3
ACAD_SECTIONVIEWSTYLE
350
1D7
  3
AcDbVariableDictionary
350
1D1
  3
APPDATA
350
14D
  3
DWGPROPS
350
235
  0
DICTIONARY
  5
183
330
2
100
AcDbDictionary
280
     1
281
     1
  3
ACAD_LAYERSTATES
360
184
  0
DICTIONARY
  5
1D6
102
{ACAD_REACTORS
330
C
102
}
330
C
100
AcDbDictionary
281
     1
  0
DICTIONARY
  5
D
102
{ACAD_REACTORS
330
C
102
}
330
C
100
AcDbDictionary
281
     1
  0
RASTERVARIABLES
  5
234
102
{ACAD_REACTORS
330
C
102
}
330
C
100
AcDbRasterVariables
 90
        0
 70
     1
 71
     1
 72
     1
  0
DICTIONARY
  5
1A
102
{ACAD_REACTORS
330
C
102
}
330
C
100
AcDbDictionary
281
     1
  3
Layout1
350
1E
  3
Layout2
350
26
  3
Model
350
22
  0
DICTIONARY
  5
17
102
{ACAD_REACTORS
330
C
102
}
330
C
100
AcDbDictionary
281
     1
  3
Standard
350
18
  0
DICTIONARY
  5
19
102
{ACAD_REACTORS
330
C
102
}
330
C
100
AcDbDictionary
281
     1
  0
ACDBDICTIONARYWDFLT
  5
E
102
{ACAD_REACTORS
330
C
102
}
330
C
100
AcDbDictionary
281
     1
  3
Normal
350
F
100
AcDbDictionaryWithDefault
340
F
  0
DICTIONARY
  5
47
102
{ACAD_REACTORS
330
C
102
}
330
C
100
AcDbDictionary
281
     1
  3
A0
350
48
  3
A1
350
49
  3
A2
350
4A
  3
A3
350
4B
  3
A4
350
4C
  3
A5
350
4D
  3
A6
350
4E
  3
A7
350
4F
  3
A8
350
50
  3
A9
350
51
  3
B0
350
52
  3
B1
350
53
  3
B2
350
54
  3
B3
350
55
  3
B4
350
56
  3
B5
350
57
  3
B6
350
58
  3
B7
350
59
  3
B8
350
5A
  3
B9
350
5B
  3
C0
350
5C
  3
C1
350
5D
  3
C2
350
5E
  3
C3
350
5F
  3
C4
350
60
  3
C5
350
61
  3
C6
350
62
  3
C7
350
63
  3
C8
350
64
  3
C9
350
65
  3
D0
350
66
  3
D1
350
67
  3
D2
350
68
  0
DICTIONARY
  5
1D7
102
{ACAD_REACTORS
330
C
102
}
330
C
100
AcDbDictionary
281
     1
  0
DICTIONARY
  5
1D1
102
{ACAD_REACTORS
330
C
102
}
330
C
100
AcDbDictionary
281
     1
  0
DICTIONARY
  5
14D
102
{ACAD_REACTORS
330
C
102
}
330
C
100
AcDbDictionary
281
     1
  0
XRECORD
  5
235
102
{ACAD_REACTORS
330
C
102
}
330
C
100
AcDbXrecord
280
     1
  1
DWGPROPS COOKIE
  2

  3

  4

  6

  7

  8
12016016
  9

300
=
301
=
302
=
303
=
304
=
305
=
306
=
307
=
308
=
309
=
 40
0.0
 41
2458311.084660961
 42
2458323.078578276
  1

 90
        0
  0
DICTIONARY
  5
184
102
{ACAD_REACTORS
330
183
102
}
330
183
100
AcDbDictionary
281
     1
  0
LAYOUT
  5
1E
102
{ACAD_REACTORS
330
1A
102
}
330
1A
100
AcDbPlotSettings
  1

  2
none_device
  4

  6

 40
0.0
 41
0.0
 42
0.0
 43
0.0
 44
0.0
 45
0.0
 46
0.0
 47
0.0
 48
0.0
 49
0.0
140
0.0
141
0.0
142
1.0
143
1.0
 70
   688
 72
     1
 73
     0
 74
     5
  7

 75
    16
147
1.0
148
0.0
149
0.0
100
AcDbLayout
  1
Layout1
 70
     1
 71
     1
 10
0.0
 20
0.0
 11
420.0
 21
297.0
 12
0.0
 22
0.0
 32
0.0
 14
1.000000000000000E+20
 24
1.000000000000000E+20
 34
1.000000000000000E+20
 15
-1.000000000000000E+20
 25
-1.000000000000000E+20
 35
-1.000000000000000E+20
146
0.0
 13
0.0
 23
0.0
 33
0.0
 16
1.0
 26
0.0
 36
0.0
 17
0.0
 27
1.0
 37
0.0
 76
     0
330
1B
  0
LAYOUT
  5
26
102
{ACAD_REACTORS
330
1A
102
}
330
1A
100
AcDbPlotSettings
  1

  2
none_device
  4

  6

 40
0.0
 41
0.0
 42
0.0
 43
0.0
 44
0.0
 45
0.0
 46
0.0
 47
0.0
 48
0.0
 49
0.0
140
0.0
141
0.0
142
1.0
143
1.0
 70
   688
 72
     1
 73
     0
 74
     5
  7

 75
    16
147
1.0
148
0.0
149
0.0
100
AcDbLayout
  1
Layout2
 70
     1
 71
     2
 10
0.0
 20
0.0
 11
0.0
 21
0.0
 12
0.0
 22
0.0
 32
0.0
 14
0.0
 24
0.0
 34
0.0
 15
0.0
 25
0.0
 35
0.0
146
0.0
 13
0.0
 23
0.0
 33
0.0
 16
1.0
 26
0.0
 36
0.0
 17
0.0
 27
1.0
 37
0.0
 76
     0
330
23
  0
LAYOUT
  5
22
102
{ACAD_REACTORS
330
1A
102
}
330
1A
100
AcDbPlotSettings
  1

  2
none_device
  4
ANSI_A_(11.00_x_8.50_Inches)
  6

 40
6.35
 41
19.05
 42
6.35000508
 43
19.05000254
 44
279.4
 45
215.9
 46
115.0105427618709
 47
34.44669527120157
 48
0.0
 49
0.0
140
0.0
141
0.0
142
0.0406917368828658
143
1.0
 70
  1696
 72
     0
 73
     0
 74
     0
  7

 75
     0
147
0.0235690232323232
148
0.0
149
0.0
100
AcDbLayout
  1
Model
 70
     1
 71
     0
 10
0.0
 20
0.0
 11
420.0
 21
297.0
 12
0.0
 22
0.0
 32
0.0
 14
-71.37500000000018
 24
-49.97180738881175
 34
0.0
 15
87.67227809435461
 25
55.62499999999993
 35
0.0
146
0.0
 13
0.0
 23
0.0
 33
0.0
 16
1.0
 26
0.0
 36
0.0
 17
0.0
 27
1.0
 37
0.0
 76
     0
330
1F
331
29
  0
MLINESTYLE
  5
18
102
{ACAD_REACTORS
330
17
102
}
330
17
100
AcDbMlineStyle
  2
Standard
 70
     0
  3

 62
   256
 51
90.0
 52
90.0
 71
     2
 49
0.5
 62
   256
  6
BYLAYER
 49
-0.5
 62
   256
  6
BYLAYER
  0
ACDBPLACEHOLDER
  5
F
102
{ACAD_REACTORS
330
E
102
}
330
E
  0
SCALE
  5
48
102
{ACAD_REACTORS
330
47
102
}
330
47
100
AcDbScale
 70
     0
300
1:1
140
1.0
141
1.0
290
     1
  0
SCALE
  5
49
102
{ACAD_REACTORS
330
47
102
}
330
47
100
AcDbScale
 70
     0
300
1:2
140
1.0
141
2.0
290
     0
  0
SCALE
  5
4A
102
{ACAD_REACTORS
330
47
102
}
330
47
100
AcDbScale
 70
     0
300
1:4
140
1.0
141
4.0
290
     0
  0
SCALE
  5
4B
102
{ACAD_REACTORS
330
47
102
}
330
47
100
AcDbScale
 70
     0
300
1:5
140
1.0
141
5.0
290
     0
  0
SCALE
  5
4C
102
{ACAD_REACTORS
330
47
102
}
330
47
100
AcDbScale
 70
     0
300
1:8
140
1.0
141
8.0
290
     0
  0
SCALE
  5
4D
102
{ACAD_REACTORS
330
47
102
}
330
47
100
AcDbScale
 70
     0
300
1:10
140
1.0
141
10.0
290
     0
  0
SCALE
  5
4E
102
{ACAD_REACTORS
330
47
102
}
330
47
100
AcDbScale
 70
     0
300
1:16
140
1.0
141
16.0
290
     0
  0
SCALE
  5
4F
102
{ACAD_REACTORS
330
47
102
}
330
47
100
AcDbScale
 70
     0
300
1:20
140
1.0
141
20.0
290
     0
  0
SCALE
  5
50
102
{ACAD_REACTORS
330
47
102
}
330
47
100
AcDbScale
 70
     0
300
1:30
140
1.0
141
30.0
290
     0
  0
SCALE
  5
51
102
{ACAD_REACTORS
330
47
102
}
330
47
100
AcDbScale
 70
     0
300
1:40
140
1.0
141
40.0
290
     0
  0
SCALE
  5
52
102
{ACAD_REACTORS
330
47
102
}
330
47
100
AcDbScale
 70
     0
300
1:50
140
1.0
141
50.0
290
     0
  0
SCALE
  5
53
102
{ACAD_REACTORS
330
47
102
}
330
47
100
AcDbScale
 70
     0
300
1:100
140
1.0
141
100.0
290
     0
  0
SCALE
  5
54
102
{ACAD_REACTORS
330
47
102
}
330
47
100
AcDbScale
 70
     0
300
2:1
140
2.0
141
1.0
290
     0
  0
SCALE
  5
55
102
{ACAD_REACTORS
330
47
102
}
330
47
100
AcDbScale
 70
     0
300
4:1
140
4.0
141
1.0
290
     0
  0
SCALE
  5
56
102
{ACAD_REACTORS
330
47
102
}
330
47
100
AcDbScale
 70
     0
300
8:1
140
8.0
141
1.0
290
     0
  0
SCALE
  5
57
102
{ACAD_REACTORS
330
47
102
}
330
47
100
AcDbScale
 70
     0
300
10:1
140
10.0
141
1.0
290
     0
  0
SCALE
  5
58
102
{ACAD_REACTORS
330
47
102
}
330
47
100
AcDbScale
 70
     0
300
100:1
140
100.0
141
1.0
290
     0
  0
SCALE
  5
59
102
{ACAD_REACTORS
330
47
102
}
330
47
100
AcDbScale
 70
     0
300
1/128" = 1'-0"
140
0.0078125
141
12.0
290
     0
  0
SCALE
  5
5A
102
{ACAD_REACTORS
330
47
102
}
330
47
100
AcDbScale
 70
     0
300
1/64" = 1'-0"
140
0.015625
141
12.0
290
     0
  0
SCALE
  5
5B
102
{ACAD_REACTORS
330
47
102
}
330
47
100
AcDbScale
 70
     0
300
1/32" = 1'-0"
140
0.03125
141
12.0
290
     0
  0
SCALE
  5
5C
102
{ACAD_REACTORS
330
47
102
}
330
47
100
AcDbScale
 70
     0
300
1/16" = 1'-0"
140
0.0625
141
12.0
290
     0
  0
SCALE
  5
5D
102
{ACAD_REACTORS
330
47
102
}
330
47
100
AcDbScale
 70
     0
300
3/32" = 1'-0"
140
0.09375
141
12.0
290
     0
  0
SCALE
  5
5E
102
{ACAD_REACTORS
330
47
102
}
330
47
100
AcDbScale
 70
     0
300
1/8" = 1'-0"
140
0.125
141
12.0
290
     0
  0
SCALE
  5
5F
102
{ACAD_REACTORS
330
47
102
}
330
47
100
AcDbScale
 70
     0
300
3/16" = 1'-0"
140
0.1875
141
12.0
290
     0
  0
SCALE
  5
60
102
{ACAD_REACTORS
330
47
102
}
330
47
100
AcDbScale
 70
     0
300
1/4" = 1'-0"
140
0.25
141
12.0
290
     0
  0
SCALE
  5
61
102
{ACAD_REACTORS
330
47
102
}
330
47
100
AcDbScale
 70
     0
300
3/8" = 1'-0"
140
0.375
141
12.0
290
     0
  0
SCALE
  5
62
102
{ACAD_REACTORS
330
47
102
}
330
47
100
AcDbScale
 70
     0
300
1/2" = 1'-0"
140
0.5
141
12.0
290
     0
  0
SCALE
  5
63
102
{ACAD_REACTORS
330
47
102
}
330
47
100
AcDbScale
 70
     0
300
3/4" = 1'-0"
140
0.75
141
12.0
290
     0
  0
SCALE
  5
64
102
{ACAD_REACTORS
330
47
102
}
330
47
100
AcDbScale
 70
     0
300
1" = 1'-0"
140
1.0
141
12.0
290
     0
  0
SCALE
  5
65
102
{ACAD_REACTORS
330
47
102
}
330
47
100
AcDbScale
 70
     0
300
1-1/2" = 1'-0"
140
1.5
141
12.0
290
     0
  0
SCALE
  5
66
102
{ACAD_REACTORS
330
47
102
}
330
47
100
AcDbScale
 70
     0
300
3" = 1'-0"
140
3.0
141
12.0
290
     0
  0
SCALE
  5
67
102
{ACAD_REACTORS
330
47
102
}
330
47
100
AcDbScale
 70
     0
300
6" = 1'-0"
140
6.0
141
12.0
290
     0
  0
SCALE
  5
68
102
{ACAD_REACTORS
330
47
102
}
330
47
100
AcDbScale
 70
     0
300
1'-0" = 1'-0"
140
12.0
141
12.0
290
     0
  0
ENDSEC
  0
EOF
