  0
SECTION
  2
HEADER
  9
$ACADVER
  1
AC1015
  9
$ACADMAINTVER
 70
     6
  9
$DWGCODEPAGE
  3
ANSI_949
  9
$INSBASE
 10
0.0
 20
0.0
 30
0.0
  9
$EXTMIN
 10
-78.325114661574
 20
-49.97180738881174
 30
0.0
  9
$EXTMAX
 10
89.45089415377173
 20
58.69774096094771
 30
0.0
  9
$LIMMIN
 10
0.0
 20
0.0
  9
$LIMMAX
 10
420.0
 20
297.0
  9
$ORTHOMODE
 70
     1
  9
$REGENMODE
 70
     1
  9
$FILLMODE
 70
     1
  9
$QTEXTMODE
 70
     0
  9
$MIRRTEXT
 70
     1
  9
$LTSCALE
 40
1.0
  9
$ATTMODE
 70
     1
  9
$TEXTSIZE
 40
3.5
  9
$TRACEWID
 40
1.0
  9
$TEXTSTYLE
  7
Standard
  9
$CLAYER
  8
0
  9
$CELTYPE
  6
ByLayer
  9
$CECOLOR
 62
   256
  9
$CELTSCALE
 40
1.0
  9
$DISPSILH
 70
     0
  9
$DIMSCALE
 40
1.0
  9
$DIMASZ
 40
3.302
  9
$DIMEXO
 40
1.0
  9
$DIMDLI
 40
3.75
  9
$DIMRND
 40
0.0
  9
$DIMDLE
 40
0.0
  9
$DIMEXE
 40
1.0
  9
$DIMTP
 40
0.0
  9
$DIMTM
 40
0.0
  9
$DIMTXT
 40
3.5
  9
$DIMCEN
 40
2.5
  9
$DIMTSZ
 40
0.0
  9
$DIMTOL
 70
     0
  9
$DIMLIM
 70
     0
  9
$DIMTIH
 70
     1
  9
$DIMTOH
 70
     1
  9
$DIMSE1
 70
     0
  9
$DIMSE2
 70
     0
  9
$DIMTAD
 70
     1
  9
$DIMZIN
 70
     0
  9
$DIMBLK
  1

  9
$DIMASO
 70
     1
  9
$DIMSHO
 70
     1
  9
$DIMPOST
  1

  9
$DIMAPOST
  1

  9
$DIMALT
 70
     0
  9
$DIMALTD
 70
     3
  9
$DIMALTF
 40
0.0393700787401575
  9
$DIMLFAC
 40
1.0
  9
$DIMTOFL
 70
     1
  9
$DIMTVP
 40
0.0
  9
$DIMTIX
 70
     0
  9
$DIMSOXD
 70
     0
  9
$DIMSAH
 70
     0
  9
$DIMBLK1
  1

  9
$DIMBLK2
  1

  9
$DIMSTYLE
  2
ISO-25
  9
$DIMCLRD
 70
     0
  9
$DIMCLRE
 70
     0
  9
$DIMCLRT
 70
     0
  9
$DIMTFAC
 40
1.0
  9
$DIMGAP
 40
1.524
  9
$DIMJUST
 70
     0
  9
$DIMSD1
 70
     0
  9
$DIMSD2
 70
     0
  9
$DIMTOLJ
 70
     0
  9
$DIMTZIN
 70
     0
  9
$DIMALTZ
 70
     0
  9
$DIMALTTZ
 70
     0
  9
$DIMUPT
 70
     0
  9
$DIMDEC
 70
     2
  9
$DIMTDEC
 70
     2
  9
$DIMALTU
 70
     2
  9
$DIMALTTD
 70
     3
  9
$DIMTXSTY
  7
Standard
  9
$DIMAUNIT
 70
     0
  9
$DIMADEC
 70
     2
  9
$DIMALTRND
 40
0.0
  9
$DIMAZIN
 70
     0
  9
$DIMDSEP
 70
    44
  9
$DIMATFIT
 70
     3
  9
$DIMFRAC
 70
     0
  9
$DIMLDRBLK
  1

  9
$DIMLUNIT
 70
     2
  9
$DIMLWD
 70
    -2
  9
$DIMLWE
 70
    -2
  9
$DIMTMOVE
 70
     0
  9
$LUNITS
 70
     2
  9
$LUPREC
 70
     2
  9
$SKETCHINC
 40
1.0
  9
$FILLETRAD
 40
10.0
  9
$AUNITS
 70
     0
  9
$AUPREC
 70
     2
  9
$MENU
  1
.
  9
$ELEVATION
 40
0.0
  9
$PELEVATION
 40
0.0
  9
$THICKNESS
 40
0.0
  9
$LIMCHECK
 70
     0
  9
$CHAMFERA
 40
0.0
  9
$CHAMFERB
 40
0.0
  9
$CHAMFERC
 40
0.0
  9
$CHAMFERD
 40
0.0
  9
$SKPOLY
 70
     0
  9
$TDCREATE
 40
2458311.563731505
  9
$TDUCREATE
 40
2458311.188731505
  9
$TDUPDATE
 40
2458323.453480625
  9
$TDUUPDATE
 40
2458323.078480625
  9
$TDINDWG
 40
0.0020157755
  9
$TDUSRTIMER
 40
2458323.078444676
  9
$USRTIMER
 70
     1
  9
$ANGBASE
 50
0.0
  9
$ANGDIR
 70
     0
  9
$PDMODE
 70
     0
  9
$PDSIZE
 40
-1.0
  9
$PLINEWID
 40
0.0
  9
$SPLFRAME
 70
     0
  9
$SPLINETYPE
 70
     6
  9
$SPLINESEGS
 70
     8
  9
$HANDSEED
  5
26F
  9
$SURFTAB1
 70
     6
  9
$SURFTAB2
 70
     6
  9
$SURFTYPE
 70
     6
  9
$SURFU
 70
     6
  9
$SURFV
 70
     6
  9
$UCSBASE
  2

  9
$UCSNAME
  2

  9
$UCSORG
 10
0.0
 20
0.0
 30
0.0
  9
$UCSXDIR
 10
1.0
 20
0.0
 30
0.0
  9
$UCSYDIR
 10
0.0
 20
1.0
 30
0.0
  9
$UCSORTHOREF
  2

  9
$UCSORTHOVIEW
 70
     0
  9
$UCSORGTOP
 10
0.0
 20
0.0
 30
0.0
  9
$UCSORGBOTTOM
 10
0.0
 20
0.0
 30
0.0
  9
$UCSORGLEFT
 10
0.0
 20
0.0
 30
0.0
  9
$UCSORGRIGHT
 10
0.0
 20
0.0
 30
0.0
  9
$UCSORGFRONT
 10
0.0
 20
0.0
 30
0.0
  9
$UCSORGBACK
 10
0.0
 20
0.0
 30
0.0
  9
$PUCSBASE
  2

  9
$PUCSNAME
  2

  9
$PUCSORG
 10
0.0
 20
0.0
 30
0.0
  9
$PUCSXDIR
 10
1.0
 20
0.0
 30
0.0
  9
$PUCSYDIR
 10
0.0
 20
1.0
 30
0.0
  9
$PUCSORTHOREF
  2

  9
$PUCSORTHOVIEW
 70
     0
  9
$PUCSORGTOP
 10
0.0
 20
0.0
 30
0.0
  9
$PUCSORGBOTTOM
 10
0.0
 20
0.0
 30
0.0
  9
$PUCSORGLEFT
 10
0.0
 20
0.0
 30
0.0
  9
$PUCSORGRIGHT
 10
0.0
 20
0.0
 30
0.0
  9
$PUCSORGFRONT
 10
0.0
 20
0.0
 30
0.0
  9
$PUCSORGBACK
 10
0.0
 20
0.0
 30
0.0
  9
$USERI1
 70
     0
  9
$USERI2
 70
     0
  9
$USERI3
 70
     0
  9
$USERI4
 70
     0
  9
$USERI5
 70
     0
  9
$USERR1
 40
0.0
  9
$USERR2
 40
0.0
  9
$USERR3
 40
0.0
  9
$USERR4
 40
0.0
  9
$USERR5
 40
0.0
  9
$WORLDVIEW
 70
     1
  9
$SHADEDGE
 70
     3
  9
$SHADEDIF
 70
    70
  9
$TILEMODE
 70
     1
  9
$MAXACTVP
 70
    64
  9
$PINSBASE
 10
0.0
 20
0.0
 30
0.0
  9
$PLIMCHECK
 70
     0
  9
$PEXTMIN
 10
1.000000000000000E+20
 20
1.000000000000000E+20
 30
1.000000000000000E+20
  9
$PEXTMAX
 10
-1.000000000000000E+20
 20
-1.000000000000000E+20
 30
-1.000000000000000E+20
  9
$PLIMMIN
 10
0.0
 20
0.0
  9
$PLIMMAX
 10
0.0
 20
0.0
  9
$UNITMODE
 70
     0
  9
$VISRETAIN
 70
     1
  9
$PLINEGEN
 70
     0
  9
$PSLTSCALE
 70
     1
  9
$TREEDEPTH
 70
  3020
  9
$CMLSTYLE
  2
Standard
  9
$CMLJUST
 70
     0
  9
$CMLSCALE
 40
20.0
  9
$PROXYGRAPHICS
 70
     1
  9
$MEASUREMENT
 70
     1
  9
$CELWEIGHT
370
    -1
  9
$ENDCAPS
280
     0
  9
$JOINSTYLE
280
     0
  9
$LWDISPLAY
290
     1
  9
$INSUNITS
 70
     4
  9
$HYPERLINKBASE
  1

  9
$STYLESHEET
  1

  9
$XEDIT
290
     1
  9
$CEPSNTYPE
380
     0
  9
$PSTYLEMODE
290
     1
  9
$FINGERPRINTGUID
  2
{E8E848E0-EFDA-480E-8B0B-44788A8A8978}
  9
$VERSIONGUID
  2
{FAEB1C32-E019-11D5-929B-00C0DF256EC4}
  9
$EXTNAMES
290
     1
  9
$PSVPSCALE
 40
0.0
  9
$OLESTARTUP
290
     0
  0
ENDSEC
  0
SECTION
  2
CLASSES
  0
CLASS
  1
ACDBDICTIONARYWDFLT
  2
AcDbDictionaryWithDefault
  3
ObjectDBX Classes
 90
        0
280
     0
281
     0
  0
CLASS
  1
VISUALSTYLE
  2
AcDbVisualStyle
  3
ObjectDBX Classes
 90
     4095
280
     0
281
     0
  0
CLASS
  1
MATERIAL
  2
AcDbMaterial
  3
ObjectDBX Classes
 90
     1153
280
     0
281
     0
  0
CLASS
  1
SCALE
  2
AcDbScale
  3
ObjectDBX Classes
 90
     1153
280
     0
281
     0
  0
CLASS
  1
SUN
  2
AcDbSun
  3
SCENEOE
 90
     1153
280
     0
281
     0
  0
CLASS
  1
ACDBPLACEHOLDER
  2
AcDbPlaceHolder
  3
ObjectDBX Classes
 90
        0
280
     0
281
     0
  0
CLASS
  1
LAYOUT
  2
AcDbLayout
  3
ObjectDBX Classes
 90
        0
280
     0
281
     0
  0
CLASS
  1
TABLESTYLE
  2
AcDbTableStyle
  3
ObjectDBX Classes
 90
     4095
280
     0
281
     0
  0
CLASS
  1
MLEADERSTYLE
  2
AcDbMLeaderStyle
  3
ACDB_MLEADERSTYLE_CLASS
 90
     4095
280
     0
281
     0
  0
CLASS
  1
DICTIONARYVAR
  2
AcDbDictionaryVar
  3
ObjectDBX Classes
 90
        0
280
     0
281
     0
  0
CLASS
  1
RASTERVARIABLES
  2
AcDbRasterVariables
  3
ISM
 90
        0
280
     0
281
     0
  0
ENDSEC
  0
SECTION
  2
TABLES
  0
TABLE
  2
VPORT
  5
8
330
0
100
AcDbSymbolTable
 70
     1
  0
VPORT
  5
29
330
8
100
AcDbSymbolTableRecord
100
AcDbViewportTableRecord
  2
*Active
 70
     0
 10
0.0
 20
0.0
 11
1.0
 21
1.0
 12
5.562889746098861
 22
4.362966786067986
 13
0.0
 23
0.0
 14
10.0
 24
10.0
 15
10.0
 25
10.0
 16
0.0
 26
0.0
 36
1.0
 17
0.0
 27
0.0
 37
0.0
 40
110.8429393167546
 41
1.782762691853601
 42
50.0
 43
0.0
 44
0.0
 50
0.0
 51
0.0
 71
    16
 72
  2000
 73
     1
 74
     3
 75
     0
 76
     0
 77
     0
 78
     0
281
     0
 65
     1
110
0.0
120
0.0
130
0.0
111
1.0
121
0.0
131
0.0
112
0.0
122
1.0
132
0.0
 79
     0
146
0.0
  0
ENDTAB
  0
TABLE
  2
LTYPE
  5
5
330
0
100
AcDbSymbolTable
 70
     6
  0
LTYPE
  5
14
330
5
100
AcDbSymbolTableRecord
100
AcDbLinetypeTableRecord
  2
ByBlock
 70
     0
  3

 72
    65
 73
     0
 40
0.0
  0
LTYPE
  5
15
330
5
100
AcDbSymbolTableRecord
100
AcDbLinetypeTableRecord
  2
ByLayer
 70
     0
  3

 72
    65
 73
     0
 40
0.0
  0
LTYPE
  5
16
330
5
100
AcDbSymbolTableRecord
100
AcDbLinetypeTableRecord
  2
Continuous
 70
     0
  3
Solid line
 72
    65
 73
     0
 40
0.0
  0
LTYPE
  5
6A
330
5
100
AcDbSymbolTableRecord
100
AcDbLinetypeTableRecord
  2
HIDDEN
 70
     0
  3
Hidden __ __ __ __ __ __ __ __ __ __ __ __ __ __
 72
    65
 73
     2
 40
1.905
 49
1.27
 74
     0
 49
-0.635
 74
     0
  0
LTYPE
  5
6B
330
5
100
AcDbSymbolTableRecord
100
AcDbLinetypeTableRecord
  2
PHANTOM
 70
     0
  3
Phantom ______  __  __  ______  __  __  ______
 72
    65
 73
     6
 40
12.7
 49
6.35
 74
     0
 49
-1.27
 74
     0
 49
1.27
 74
     0
 49
-1.27
 74
     0
 49
1.27
 74
     0
 49
-1.27
 74
     0
  0
LTYPE
  5
6C
330
5
100
AcDbSymbolTableRecord
100
AcDbLinetypeTableRecord
  2
CENTER
 70
     0
  3
Center ____ _ ____ _ ____ _ ____ _ ____ _ ____
 72
    65
 73
     4
 40
10.16
 49
6.35
 74
     0
 49
-1.27
 74
     0
 49
1.27
 74
     0
 49
-1.27
 74
     0
  0
LTYPE
  5
6D
330
5
100
AcDbSymbolTableRecord
100
AcDbLinetypeTableRecord
  2
CENTERX2
 70
     0
  3
Center (2x) ________  __  ________  __  _____
 72
    65
 73
     4
 40
20.32
 49
12.7
 74
     0
 49
-2.54
 74
     0
 49
2.54
 74
     0
 49
-2.54
 74
     0
  0
LTYPE
  5
6E
330
5
100
AcDbSymbolTableRecord
100
AcDbLinetypeTableRecord
  2
DOT2
 70
     0
  3
Dot (.5x) ........................................
 72
    65
 73
     2
 40
0.635
 49
0.0
 74
     0
 49
-0.635
 74
     0
  0
ENDTAB
  0
TABLE
  2
LAYER
  5
2
102
{ACAD_XDICTIONARY
360
17D
102
}
330
0
100
AcDbSymbolTable
 70
    18
  0
LAYER
  5
10
330
2
100
AcDbSymbolTableRecord
100
AcDbLayerTableRecord
  2
0
 70
     0
 62
     7
  6
Continuous
370
    -3
390
F
  0
LAYER
  5
6F
330
2
100
AcDbSymbolTableRecord
100
AcDbLayerTableRecord
  2
FORMAT
 70
     0
 62
     2
  6
Continuous
370
    -3
390
F
  0
LAYER
  5
70
330
2
100
AcDbSymbolTableRecord
100
AcDbLayerTableRecord
  2
외형선
 70
     0
 62
     4
  6
Continuous
370
    30
390
F
  0
LAYER
  5
71
330
2
100
AcDbSymbolTableRecord
100
AcDbLayerTableRecord
  2
숨은선
 70
     0
 62
     2
  6
HIDDEN
370
    15
390
F
  0
LAYER
  5
72
330
2
100
AcDbSymbolTableRecord
100
AcDbLayerTableRecord
  2
중심선
 70
     0
 62
     1
  6
CENTERX2
370
    -3
390
F
  0
LAYER
  5
73
330
2
100
AcDbSymbolTableRecord
100
AcDbLayerTableRecord
  2
파단선
 70
     0
 62
     4
  6
Continuous
370
    -3
390
F
  0
LAYER
  5
74
330
2
100
AcDbSymbolTableRecord
100
AcDbLayerTableRecord
  2
해칭선
 70
     0
 62
   100
  6
Continuous
370
    -3
390
F
  0
LAYER
  5
75
330
2
100
AcDbSymbolTableRecord
100
AcDbLayerTableRecord
  2
가는실선
 70
     0
 62
     4
  6
Continuous
370
    -3
390
F
  0
LAYER
  5
76
330
2
100
AcDbSymbolTableRecord
100
AcDbLayerTableRecord
  2
치수_보조선
 70
     0
 62
     4
  6
Continuous
370
    -3
390
F
  0
LAYER
  5
77
330
2
100
AcDbSymbolTableRecord
100
AcDbLayerTableRecord
  2
치수문자_일반주서
 70
     0
 62
     7
  6
Continuous
370
    15
390
F
  0
LAYER
  5
78
330
2
100
AcDbSymbolTableRecord
100
AcDbLayerTableRecord
  2
개별주서
 70
     0
 62
   100
  6
Continuous
370
    30
390
F
  0
LAYER
  5
79
330
2
100
AcDbSymbolTableRecord
100
AcDbLayerTableRecord
  2
중간선
 70
     0
 62
     2
  6
Continuous
370
    15
390
F
  0
LAYER
  5
7A
330
2
100
AcDbSymbolTableRecord
100
AcDbLayerTableRecord
  2
윤곽선
 70
     0
 62
     3
  6
Continuous
370
    40
390
F
  0
LAYER
  5
7B
330
2
100
AcDbSymbolTableRecord
100
AcDbLayerTableRecord
  2
중심마크
 70
     0
 62
   100
  6
Continuous
370
    30
390
F
  0
LAYER
  5
7C
330
2
100
AcDbSymbolTableRecord
100
AcDbLayerTableRecord
  2
가상선
 70
     0
 62
     4
  6
PHANTOM
370
    -3
390
F
  0
LAYER
  5
7D
330
2
100
AcDbSymbolTableRecord
100
AcDbLayerTableRecord
  2
특수지정선
 70
     0
 62
     5
  6
CENTERX2
370
    60
390
F
  0
LAYER
  5
7E
330
2
100
AcDbSymbolTableRecord
100
AcDbLayerTableRecord
  2
참조1
 70
     0
 62
    -4
  6
Continuous
370
    -3
390
F
  0
LAYER
  5
19F
330
2
100
AcDbSymbolTableRecord
100
AcDbLayerTableRecord
  2
Defpoints
 70
     0
 62
     7
  6
Continuous
290
     0
370
    -3
390
F
  0
ENDTAB
  0
TABLE
  2
STYLE
  5
3
330
0
100
AcDbSymbolTable
 70
     2
  0
STYLE
  5
11
330
3
100
AcDbSymbolTableRecord
100
AcDbTextStyleTableRecord
  2
Standard
 70
     0
 40
0.0
 41
1.0
 50
0.0
 71
     0
 42
3.5
  3
txt
  4

  0
STYLE
  5
94
330
3
100
AcDbSymbolTableRecord
100
AcDbTextStyleTableRecord
  2
SLDTEXTSTYLE0
 70
     0
 40
0.0
 41
0.75
 50
0.0
 71
     0
 42
3.5
  3
TXT
  4

  0
ENDTAB
  0
TABLE
  2
VIEW
  5
6
330
0
100
AcDbSymbolTable
 70
     0
  0
ENDTAB
  0
TABLE
  2
UCS
  5
7
330
0
100
AcDbSymbolTable
 70
     0
  0
ENDTAB
  0
TABLE
  2
APPID
  5
9
330
0
100
AcDbSymbolTable
 70
     4
  0
APPID
  5
12
330
9
100
AcDbSymbolTableRecord
100
AcDbRegAppTableRecord
  2
ACAD
 70
     0
  0
APPID
  5
13B
330
9
100
AcDbSymbolTableRecord
100
AcDbRegAppTableRecord
  2
PE_URL
 70
     0
  0
APPID
  5
249
330
9
100
AcDbSymbolTableRecord
100
AcDbRegAppTableRecord
  2
ACAD_DSTYLE_DIMFLIPARROW_SYMBOL
 70
     0
  0
APPID
  5
24A
330
9
100
AcDbSymbolTableRecord
100
AcDbRegAppTableRecord
  2
ACAD_DSTYLE_DIMFLIPARROW_WHICH_SYMBOL
 70
     0
  0
ENDTAB
  0
TABLE
  2
DIMSTYLE
  5
A
330
0
100
AcDbSymbolTable
 70
     4
100
AcDbDimStyleTable
  0
DIMSTYLE
105
27
330
A
100
AcDbSymbolTableRecord
100
AcDbDimStyleTableRecord
  2
ISO-25
 70
     0
 41
2.5
 42
0.625
 43
3.75
 44
1.25
 73
     0
 74
     0
 77
     1
 78
     8
140
2.5
141
2.5
143
0.03937007874016
147
0.625
171
     3
172
     1
178
     0
271
     2
272
     2
274
     3
278
    44
283
     0
284
     8
340
11
  0
DIMSTYLE
105
BB
330
A
100
AcDbSymbolTableRecord
100
AcDbDimStyleTableRecord
  2
SLDDIMSTYLE0
 70
     0
 41
3.302
 44
0.0
 45
0.000000001
 73
     0
 74
     0
 77
     1
 78
     4
 79
     1
140
3.5
147
0.875
172
     1
173
     1
178
     0
271
     2
272
     2
276
     2
284
    12
289
     0
340
94
  0
DIMSTYLE
105
C9
330
A
100
AcDbSymbolTableRecord
100
AcDbDimStyleTableRecord
  2
SLDDIMSTYLE1
 70
     0
 41
3.302
 44
0.0
 45
0.000000001
 73
     0
 74
     0
 77
     1
 78
     4
 79
     1
140
3.5
143
0.0393700787401575
147
0.875
148
0.000000001
170
     1
172
     1
173
     1
178
     0
271
     2
272
     2
276
     2
284
    12
289
     0
340
94
  0
DIMSTYLE
105
DF
102
{ACAD_REACTORS
330
F2
330
C8
330
BA
330
1F9
102
}
330
A
100
AcDbSymbolTableRecord
100
AcDbDimStyleTableRecord
  2
SLDDIMSTYLE2
 70
     0
 41
3.302
 44
0.0
 45
0.000000001
 73
     0
 74
     0
 77
     1
 78
     4
 79
     1
140
3.5
143
0.0393700787401575
147
0.875
148
0.000000001
170
     1
173
     1
178
     0
271
     2
272
     2
276
     2
284
    12
340
94
  0
ENDTAB
  0
TABLE
  2
BLOCK_RECORD
  5
1
330
0
100
AcDbSymbolTable
 70
    10
  0
BLOCK_RECORD
  5
1F
330
1
100
AcDbSymbolTableRecord
100
AcDbBlockTableRecord
  2
*Model_Space
340
22
  0
BLOCK_RECORD
  5
1B
330
1
100
AcDbSymbolTableRecord
100
AcDbBlockTableRecord
  2
*Paper_Space
340
1E
  0
BLOCK_RECORD
  5
23
330
1
100
AcDbSymbolTableRecord
100
AcDbBlockTableRecord
  2
*Paper_Space0
340
26
  0
BLOCK_RECORD
  5
7F
330
1
100
AcDbSymbolTableRecord
100
AcDbBlockTableRecord
  2
블럭10
340
0
102
{BLKREFS
331
B3
102
}
  0
BLOCK_RECORD
  5
BC
330
1
100
AcDbSymbolTableRecord
100
AcDbBlockTableRecord
  2
_D
340
0
  0
BLOCK_RECORD
  5
CA
330
1
100
AcDbSymbolTableRecord
100
AcDbBlockTableRecord
  2
_D_1
340
0
  0
BLOCK_RECORD
  5
E0
330
1
100
AcDbSymbolTableRecord
100
AcDbBlockTableRecord
  2
_D_2
340
0
  0
BLOCK_RECORD
  5
F3
330
1
100
AcDbSymbolTableRecord
100
AcDbBlockTableRecord
  2
_D_3
340
0
  0
BLOCK_RECORD
  5
10C
330
1
100
AcDbSymbolTableRecord
100
AcDbBlockTableRecord
  2
SW_DOWELSYMBOL_0
340
0
102
{BLKREFS
331
19E
102
}
  0
BLOCK_RECORD
  5
1D5
330
1
100
AcDbSymbolTableRecord
100
AcDbBlockTableRecord
  2
*D7
340
0
  0
BLOCK_RECORD
  5
1E3
330
1
100
AcDbSymbolTableRecord
100
AcDbBlockTableRecord
  2
*D8
340
0
  0
BLOCK_RECORD
  5
1FA
330
1
100
AcDbSymbolTableRecord
100
AcDbBlockTableRecord
  2
*D9
340
0
  0
ENDTAB
  0
ENDSEC
  0
SECTION
  2
BLOCKS
  0
BLOCK
  5
20
330
1F
100
AcDbEntity
  8
0
100
AcDbBlockBegin
  2
*Model_Space
 70
     0
 10
0.0
 20
0.0
 30
0.0
  3
*Model_Space
  1
*Model_Space
  0
ENDBLK
  5
21
330
1F
100
AcDbEntity
  8
0
100
AcDbBlockEnd
  0
BLOCK
  5
1C
330
1B
100
AcDbEntity
 67
     1
  8
0
100
AcDbBlockBegin
  2
*Paper_Space
 70
     0
 10
0.0
 20
0.0
 30
0.0
  3
*Paper_Space
  1
*Paper_Space
  0
ENDBLK
  5
1D
330
1B
100
AcDbEntity
 67
     1
  8
0
100
AcDbBlockEnd
  0
BLOCK
  5
24
330
23
100
AcDbEntity
  8
0
100
AcDbBlockBegin
  2
*Paper_Space0
 70
     0
 10
0.0
 20
0.0
 30
0.0
  3
*Paper_Space0
  1
*Paper_Space0
  0
ENDBLK
  5
25
330
23
100
AcDbEntity
  8
0
100
AcDbBlockEnd
  0
BLOCK
  5
80
330
7F
100
AcDbEntity
  8
0
100
AcDbBlockBegin
  2
블럭10
 70
     2
 10
0.0
 20
0.0
 30
0.0
  3
블럭10
  1
블럭10
  0
ELLIPSE
  5
82
330
7F
100
AcDbEntity
  8
중심선
100
AcDbEllipse
 10
20.54032771741204
 20
12.0471743016438
 30
0.0
 11
6.600054785286829
 21
-1.261213355974178E-13
 31
0.0
210
0.0
220
0.0
230
1.0
 40
0.636358354079598
 41
0.9219305317359503
 42
6.513795318482858
  0
ELLIPSE
  5
83
330
7F
100
AcDbEntity
  8
중심선
100
AcDbEllipse
 10
20.54032771746488
 20
12.04717430159265
 30
0.0
 11
3.960054785062283
 21
1.540847449632565E-10
 31
0.0
210
0.0
220
0.0
230
1.0
 40
0.3939339440162632
 41
1.131841032648279
 42
5.62031148352944
  0
LINE
  5
84
330
7F
100
AcDbEntity
  8
중심선
100
AcDbLine
 10
2.268634060543552
 20
16.24717430164393
 30
0.0
 11
5.714909304380834
 21
16.24717430164393
 31
0.0
  0
LINE
  5
85
330
7F
100
AcDbEntity
  8
중심선
100
AcDbLine
 10
5.245725140726316
 20
7.84717430164391
 30
0.0
 11
8.692000384563599
 21
7.84717430164391
 31
0.0
  0
LINE
  5
86
330
7F
100
AcDbEntity
  8
중심선
100
AcDbLine
 10
15.74043728645272
 20
16.24717430164393
 30
0.0
 11
8.692000384563599
 21
7.84717430164391
 31
0.0
  0
LINE
  5
87
330
7F
100
AcDbEntity
  8
중심선
100
AcDbLine
 10
0.1404042013395286
 20
13.71084872107135
 30
0.0
 11
3.58671253028996
 21
13.71088815037384
 31
0.0
  0
LINE
  5
88
330
7F
100
AcDbEntity
  8
중심선
100
AcDbLine
 10
2.750260043222114
 20
10.84717430164391
 30
0.0
 11
6.196535287059397
 21
10.84717430164391
 31
0.0
  0
LINE
  5
89
330
7F
100
AcDbEntity
  8
중심선
100
AcDbLine
 10
12.29416204261559
 20
16.24717430164393
 30
0.0
 11
5.245725140726316
 21
7.84717430164391
 31
0.0
  0
LINE
  5
8A
330
7F
100
AcDbEntity
  8
중심선
100
AcDbLine
 10
10.72767329541681
 20
16.24717430164393
 30
0.0
 11
6.196535287059397
 21
10.84717430164391
 31
0.0
  0
LINE
  5
8B
330
7F
100
AcDbEntity
  8
중심선
100
AcDbLine
 10
7.28139805157953
 20
16.24717430164393
 30
0.0
 11
2.750260043222114
 21
10.84717430164391
 31
0.0
  0
LINE
  5
8C
330
7F
100
AcDbEntity
  8
중심선
100
AcDbLine
 10
5.714909304380834
 20
16.24717430164393
 30
0.0
 11
3.58671253028996
 21
13.71088815037384
 31
0.0
  0
LINE
  5
8D
330
7F
100
AcDbEntity
  8
중심선
100
AcDbLine
 10
2.268634060543552
 20
16.24717430164393
 30
0.0
 11
0.1404042013395286
 21
13.71084872107135
 31
0.0
  0
LINE
  5
8E
330
7F
100
AcDbEntity
  8
중심선
100
AcDbLine
 10
7.28139805157953
 20
16.24717430164393
 30
0.0
 11
10.72767329541681
 21
16.24717430164393
 31
0.0
  0
LINE
  5
8F
330
7F
100
AcDbEntity
  8
중심선
100
AcDbLine
 10
12.29416204261559
 20
16.24717430164393
 30
0.0
 11
15.74043728645272
 21
16.24717430164393
 31
0.0
  0
LINE
  5
90
330
7F
100
AcDbEntity
  8
중심선
100
AcDbLine
 10
19.22036997980202
 20
11.08717430171403
 30
0.0
 11
23.66174974927406
 21
11.08717430171406
 31
0.0
  0
LINE
  5
91
330
7F
100
AcDbEntity
  8
중심선
100
AcDbLine
 10
19.22039502424796
 20
13.00717430171391
 30
0.0
 11
19.22036997980202
 21
11.08717430171403
 31
0.0
  0
LINE
  5
92
330
7F
100
AcDbEntity
  8
중심선
100
AcDbLine
 10
19.22039502424796
 20
13.00717430171391
 30
0.0
 11
26.96566020931264
 21
13.00717430171391
 31
0.0
  0
LINE
  5
93
330
7F
100
AcDbEntity
  8
중심선
100
AcDbLine
 10
22.22332737316547
 20
13.45928029700563
 30
0.0
 11
24.52862924686651
 21
15.39360700705356
 31
0.0
  0
ATTDEF
  5
95
330
7F
100
AcDbEntity
  8
FORMAT
 62
     2
100
AcDbText
 10
4.408487351596664
 20
2.075366912832191
 30
0.0
 40
4.233333333333333
  1
E1030124
 41
0.75
  7
SLDTEXTSTYLE0
 11
4.408487351596664
 21
-0.0412997538344756
 31
0.0
100
AcDbAttributeDefinition
  3

  2
AUTOATTR0
 70
     0
 74
     1
  0
ENDBLK
  5
81
330
7F
100
AcDbEntity
  8
0
100
AcDbBlockEnd
  0
BLOCK
  5
BD
330
BC
100
AcDbEntity
  8
0
100
AcDbBlockBegin
  2
_D
 70
     0
 10
0.0
 20
0.0
 30
0.0
  3
_D
  1
_D
  0
LINE
  5
BF
330
BC
100
AcDbEntity
  8
치수문자_일반주서
 62
     0
370
    -2
100
AcDbLine
 10
-43.90761466157387
 20
15.87499999999999
 30
0.0
 11
-73.45011466157385
 21
15.87499999999988
 31
0.0
  0
LINE
  5
C0
330
BC
100
AcDbEntity
  8
치수문자_일반주서
 62
     0
370
    -2
100
AcDbLine
 10
-57.51261466157385
 20
-15.87500000000001
 30
0.0
 11
-73.45011466157374
 21
-15.87500000000006
 31
0.0
  0
LINE
  5
C1
330
BC
100
AcDbEntity
  8
치수문자_일반주서
 62
     0
370
    -2
100
AcDbLine
 10
-73.45011466157385
 20
15.87499999999988
 30
0.0
 11
-73.450114661574
 21
55.62499999999993
 31
0.0
  0
LINE
  5
C2
330
BC
100
AcDbEntity
  8
치수문자_일반주서
 62
     0
370
    -2
100
AcDbLine
 10
-73.45011466157385
 20
15.87499999999988
 30
0.0
 11
-73.45011466157374
 21
-15.87500000000006
 31
0.0
  0
LINE
  5
C3
330
BC
100
AcDbEntity
  8
치수문자_일반주서
 62
     0
370
    -2
100
AcDbLine
 10
-73.45011466157386
 20
19.87499999999988
 30
0.0
 11
-73.45011466157388
 21
23.87499999999988
 31
0.0
  0
LINE
  5
C4
330
BC
100
AcDbEntity
  8
치수문자_일반주서
 62
     0
370
    -2
100
AcDbLine
 10
-73.45011466157372
 20
-19.87500000000006
 30
0.0
 11
-73.4501146615737
 21
-23.87500000000006
 31
0.0
  0
SOLID
  5
C5
330
BC
100
AcDbEntity
  8
치수문자_일반주서
 62
     0
100
AcDbTrace
 10
-74.11678132824053
 20
19.87499999999988
 30
0.0
 11
-72.78344799490719
 21
19.87499999999989
 31
0.0
 12
-73.45011466157385
 22
15.87499999999988
 32
0.0
 13
-73.45011466157385
 23
15.87499999999988
 33
0.0
  0
SOLID
  5
C6
330
BC
100
AcDbEntity
  8
치수문자_일반주서
 62
     0
100
AcDbTrace
 10
-72.78344799490705
 20
-19.87500000000006
 30
0.0
 11
-74.11678132824039
 21
-19.87500000000007
 31
0.0
 12
-73.45011466157374
 22
-15.87500000000006
 32
0.0
 13
-73.45011466157374
 23
-15.87500000000006
 33
0.0
  0
MTEXT
  5
C7
330
BC
100
AcDbEntity
  8
치수문자_일반주서
 62
     0
100
AcDbMText
 10
-78.32511466157393
 20
37.74999999999991
 30
0.0
 40
4.0
 41
0.0
 71
     2
 72
     1
  1
\A1;%%c31.75 [1 1/4]
  7
SLDTEXTSTYLE0
 11
-3.580687802255628E-15
 21
1.0
 31
0.0
 73
     1
 44
1.0
  0
POINT
  5
20A
330
BC
100
AcDbEntity
  8
Defpoints
 62
     0
100
AcDbPoint
 10
-43.84511466157387
 20
15.87499999999999
 30
0.0
  0
POINT
  5
20B
330
BC
100
AcDbEntity
  8
Defpoints
 62
     0
100
AcDbPoint
 10
-57.45011466157385
 20
-15.87500000000001
 30
0.0
  0
POINT
  5
20C
330
BC
100
AcDbEntity
  8
Defpoints
 62
     0
100
AcDbPoint
 10
-73.45011466157374
 20
-15.87500000000007
 30
0.0
  0
ENDBLK
  5
BE
330
BC
100
AcDbEntity
  8
0
100
AcDbBlockEnd
  0
BLOCK
  5
CB
330
CA
100
AcDbEntity
  8
0
100
AcDbBlockBegin
  2
_D_1
 70
     0
 10
0.0
 20
0.0
 30
0.0
  3
_D_1
  1
_D_1
  0
LINE
  5
CD
330
CA
100
AcDbEntity
  8
치수문자_일반주서
 62
     0
370
    -2
100
AcDbLine
 10
46.32488533842613
 20
17.51024096094766
 30
0.0
 11
46.32488533842613
 21
30.875
 31
0.0
  0
LINE
  5
CE
330
CA
100
AcDbEntity
  8
치수문자_일반주서
 62
     0
370
    -2
100
AcDbLine
 10
5.049885338426132
 20
5.535349324069398
 30
0.0
 11
5.049885338426133
 21
30.875
 31
0.0
  0
LINE
  5
CF
330
CA
100
AcDbEntity
  8
치수문자_일반주서
 62
     0
370
    -2
100
AcDbLine
 10
42.32488533842613
 20
30.875
 30
0.0
 11
9.049885338426133
 21
30.875
 31
0.0
  0
SOLID
  5
D0
330
CA
100
AcDbEntity
  8
치수문자_일반주서
 62
     0
100
AcDbTrace
 10
42.32488533842613
 20
30.20833333333334
 30
0.0
 11
42.32488533842613
 21
31.54166666666667
 31
0.0
 12
46.32488533842613
 22
30.875
 32
0.0
 13
46.32488533842613
 23
30.875
 33
0.0
  0
SOLID
  5
D1
330
CA
100
AcDbEntity
  8
치수문자_일반주서
 62
     0
100
AcDbTrace
 10
9.049885338426133
 20
31.54166666666667
 30
0.0
 11
9.049885338426133
 21
30.20833333333334
 31
0.0
 12
5.049885338426133
 22
30.875
 32
0.0
 13
5.049885338426133
 23
30.875
 33
0.0
  0
MTEXT
  5
D2
330
CA
100
AcDbEntity
  8
치수문자_일반주서
 62
     0
100
AcDbMText
 10
25.68738533842613
 20
35.75
 30
0.0
 40
4.0
 41
0.0
 71
     2
 72
     1
  1
\A1;41.28 [1 5/8]
  7
SLDTEXTSTYLE0
 73
     1
 44
1.0
  0
POINT
  5
D3
330
CA
100
AcDbEntity
  8
Defpoints
 62
     0
100
AcDbPoint
 10
46.32488533842613
 20
17.44774096094766
 30
0.0
  0
POINT
  5
D4
330
CA
100
AcDbEntity
  8
Defpoints
 62
     0
100
AcDbPoint
 10
5.049885338426132
 20
5.472849324069398
 30
0.0
  0
POINT
  5
D5
330
CA
100
AcDbEntity
  8
Defpoints
 62
     0
100
AcDbPoint
 10
5.049885338426132
 20
30.875
 30
0.0
  0
ENDBLK
  5
CC
330
CA
100
AcDbEntity
  8
0
100
AcDbBlockEnd
  0
BLOCK
  5
E1
330
E0
100
AcDbEntity
  8
0
100
AcDbBlockBegin
  2
_D_2
 70
     0
 10
0.0
 20
0.0
 30
0.0
  3
_D_2
  1
_D_2
  0
LINE
  5
E3
330
E0
100
AcDbEntity
  8
치수문자_일반주서
 62
     0
370
    -2
100
AcDbLine
 10
45.01557883212693
 20
17.51131588967155
 30
0.0
 11
45.01557883212693
 21
30.3105321911699
 31
0.0
  0
LINE
  5
E4
330
E0
100
AcDbEntity
  8
치수문자_일반주서
 62
     0
370
    -2
100
AcDbLine
 10
-59.75942116787306
 20
14.93857492872387
 30
0.0
 11
-59.75942116787306
 21
30.3105321911699
 31
0.0
  0
LINE
  5
E5
330
E0
100
AcDbEntity
  8
치수문자_일반주서
 62
     0
370
    -2
100
AcDbLine
 10
41.01557883212693
 20
30.3105321911699
 30
0.0
 11
-55.75942116787306
 21
30.3105321911699
 31
0.0
  0
SOLID
  5
E6
330
E0
100
AcDbEntity
  8
치수문자_일반주서
 62
     0
100
AcDbTrace
 10
41.01557883212693
 20
29.64386552450323
 30
0.0
 11
41.01557883212693
 21
30.97719885783657
 31
0.0
 12
45.01557883212693
 22
30.3105321911699
 32
0.0
 13
45.01557883212693
 23
30.3105321911699
 33
0.0
  0
SOLID
  5
E7
330
E0
100
AcDbEntity
  8
치수문자_일반주서
 62
     0
100
AcDbTrace
 10
-55.75942116787306
 20
30.97719885783657
 30
0.0
 11
-55.75942116787306
 21
29.64386552450323
 31
0.0
 12
-59.75942116787306
 22
30.3105321911699
 32
0.0
 13
-59.75942116787306
 23
30.3105321911699
 33
0.0
  0
MTEXT
  5
E8
330
E0
100
AcDbEntity
  8
치수문자_일반주서
 62
     0
100
AcDbMText
 10
-8.959421167873067
 20
35.1855321911699
 30
0.0
 40
4.0
 41
0.0
 71
     2
 72
     1
  1
\A1;104.78 [4 1/8]
  7
SLDTEXTSTYLE0
 73
     1
 44
1.0
  0
POINT
  5
E9
330
E0
100
AcDbEntity
  8
Defpoints
 62
     0
100
AcDbPoint
 10
45.01557883212693
 20
17.44881588967155
 30
0.0
  0
POINT
  5
EA
330
E0
100
AcDbEntity
  8
Defpoints
 62
     0
100
AcDbPoint
 10
-59.75942116787306
 20
14.87607492872387
 30
0.0
  0
POINT
  5
EB
330
E0
100
AcDbEntity
  8
Defpoints
 62
     0
100
AcDbPoint
 10
-59.75942116787306
 20
30.3105321911699
 30
0.0
  0
ENDBLK
  5
E2
330
E0
100
AcDbEntity
  8
0
100
AcDbBlockEnd
  0
BLOCK
  5
F4
330
F3
100
AcDbEntity
  8
0
100
AcDbBlockBegin
  2
_D_3
 70
     0
 10
0.0
 20
0.0
 30
0.0
  3
_D_3
  1
_D_3
  0
LINE
  5
F6
330
F3
100
AcDbEntity
  8
치수문자_일반주서
 62
     0
370
    -2
100
AcDbLine
 10
46.38738533842614
 20
-17.44774096094765
 30
0.0
 11
61.32488533842621
 21
-17.4477409609476
 31
0.0
  0
LINE
  5
F7
330
F3
100
AcDbEntity
  8
치수문자_일반주서
 62
     0
370
    -2
100
AcDbLine
 10
46.38738533842614
 20
17.44774096094766
 30
0.0
 11
61.32488533842609
 21
17.44774096094771
 31
0.0
  0
LINE
  5
F8
330
F3
100
AcDbEntity
  8
치수문자_일반주서
 62
     0
370
    -2
100
AcDbLine
 10
61.32488533842609
 20
17.44774096094771
 30
0.0
 11
61.32488533842595
 21
58.69774096094771
 31
0.0
  0
LINE
  5
F9
330
F3
100
AcDbEntity
  8
치수문자_일반주서
 62
     0
370
    -2
100
AcDbLine
 10
61.32488533842621
 20
-17.4477409609476
 30
0.0
 11
61.32488533842609
 21
17.44774096094771
 31
0.0
  0
LINE
  5
FA
330
F3
100
AcDbEntity
  8
치수문자_일반주서
 62
     0
370
    -2
100
AcDbLine
 10
61.32488533842623
 20
-21.4477409609476
 30
0.0
 11
61.32488533842624
 21
-25.4477409609476
 31
0.0
  0
LINE
  5
FB
330
F3
100
AcDbEntity
  8
치수문자_일반주서
 62
     0
370
    -2
100
AcDbLine
 10
61.32488533842608
 20
21.44774096094771
 30
0.0
 11
61.32488533842606
 21
25.44774096094771
 31
0.0
  0
SOLID
  5
FC
330
F3
100
AcDbEntity
  8
치수문자_일반주서
 62
     0
100
AcDbTrace
 10
61.99155200509289
 20
-21.44774096094759
 30
0.0
 11
60.65821867175956
 21
-21.4477409609476
 31
0.0
 12
61.32488533842621
 22
-17.4477409609476
 32
0.0
 13
61.32488533842621
 23
-17.4477409609476
 33
0.0
  0
SOLID
  5
FD
330
F3
100
AcDbEntity
  8
치수문자_일반주서
 62
     0
100
AcDbTrace
 10
60.65821867175941
 20
21.44774096094771
 30
0.0
 11
61.99155200509274
 21
21.44774096094772
 31
0.0
 12
61.32488533842609
 22
17.44774096094771
 32
0.0
 13
61.32488533842609
 23
17.44774096094771
 33
0.0
  0
MTEXT
  5
FE
330
F3
100
AcDbEntity
  8
치수문자_일반주서
 62
     0
100
AcDbMText
 10
56.44988533842601
 20
40.0727409609477
 30
0.0
 40
4.0
 41
0.0
 71
     2
 72
     1
  1
\A1;%%c34.90 [1 3/8]
  7
SLDTEXTSTYLE0
 11
-3.461544544637036E-15
 21
1.0
 31
0.0
 73
     1
 44
1.0
  0
POINT
  5
FF
330
F3
100
AcDbEntity
  8
Defpoints
 62
     0
100
AcDbPoint
 10
46.32488533842614
 20
-17.44774096094765
 30
0.0
  0
POINT
  5
20D
330
F3
100
AcDbEntity
  8
Defpoints
 62
     0
100
AcDbPoint
 10
46.32488533842614
 20
17.44774096094766
 30
0.0
  0
POINT
  5
20E
330
F3
100
AcDbEntity
  8
Defpoints
 62
     0
100
AcDbPoint
 10
61.32488533842609
 20
17.44774096094772
 30
0.0
  0
ENDBLK
  5
F5
330
F3
100
AcDbEntity
  8
0
100
AcDbBlockEnd
  0
BLOCK
  5
10D
330
10C
100
AcDbEntity
  8
0
100
AcDbBlockBegin
  2
SW_DOWELSYMBOL_0
 70
     0
 10
0.0
 20
0.0
 30
0.0
  3
SW_DOWELSYMBOL_0
  1
SW_DOWELSYMBOL_0
  0
CIRCLE
  5
10F
330
10C
100
AcDbEntity
  8
해칭선
 62
     0
100
AcDbCircle
 10
0.0
 20
0.0
 30
0.0
 40
3.000000000000001
  0
HATCH
  5
110
330
10C
100
AcDbEntity
  8
0
  6
Continuous
 62
     0
370
     0
100
AcDbHatch
 10
0.0
 20
0.0
 30
0.0
210
0.0
220
0.0
230
1.0
  2
SOLID
 70
     1
 71
     0
 91
        1
 92
        0
 93
        3
 72
     2
 10
0.0
 20
0.0
 40
3.000000000000001
 50
0.0
 51
90.0
 73
     1
 72
     1
 10
0.0
 20
3.000000000000001
 11
0.0
 21
0.0
 72
     1
 10
0.0
 20
0.0
 11
3.000000000000001
 21
0.0
 97
        0
 75
     0
 76
     1
 98
        1
 10
0.0
 20
0.0
  0
HATCH
  5
111
330
10C
100
AcDbEntity
  8
0
  6
Continuous
 62
     0
370
     0
100
AcDbHatch
 10
0.0
 20
0.0
 30
0.0
210
0.0
220
0.0
230
1.0
  2
SOLID
 70
     1
 71
     0
 91
        1
 92
        0
 93
        3
 72
     2
 10
0.0
 20
0.0
 40
3.000000000000001
 50
180.0
 51
270.0000000000007
 73
     1
 72
     1
 10
0.0
 20
-3.000000000000001
 11
0.0
 21
0.0
 72
     1
 10
0.0
 20
0.0
 11
-3.000000000000001
 21
0.0
 97
        0
 75
     0
 76
     1
 98
        1
 10
0.0
 20
0.0
  0
ENDBLK
  5
10E
330
10C
100
AcDbEntity
  8
0
100
AcDbBlockEnd
  0
BLOCK
  5
1D6
330
1D5
100
AcDbEntity
  8
0
100
AcDbBlockBegin
  2
*D7
 70
     1
 10
0.0
 20
0.0
 30
0.0
  3
*D7
  1
*D7
  0
LINE
  5
1D8
330
1D5
100
AcDbEntity
  8
치수문자_일반주서
 62
     0
370
    -2
100
AcDbLine
 10
41.27500000000001
 20
3.25491431070231
 30
0.0
 11
41.27500000000001
 21
18.2058316189317
 31
0.0
  0
LINE
  5
1D9
330
1D5
100
AcDbEntity
  8
치수문자_일반주서
 62
     0
370
    -2
100
AcDbLine
 10
0.0
 20
0.0625
 30
0.0
 11
0.0
 21
18.2058316189317
 31
0.0
  0
LINE
  5
1DA
330
1D5
100
AcDbEntity
  8
치수문자_일반주서
 62
     0
370
    -2
100
AcDbLine
 10
37.27500000000001
 20
18.2058316189317
 30
0.0
 11
4.0
 21
18.2058316189317
 31
0.0
  0
SOLID
  5
1DB
330
1D5
100
AcDbEntity
  8
치수문자_일반주서
 62
     0
100
AcDbTrace
 10
37.27500000000001
 20
17.53916495226503
 30
0.0
 11
37.27500000000001
 21
18.87249828559836
 31
0.0
 12
41.27500000000001
 22
18.2058316189317
 32
0.0
 13
41.27500000000001
 23
18.2058316189317
 33
0.0
  0
SOLID
  5
1DC
330
1D5
100
AcDbEntity
  8
치수문자_일반주서
 62
     0
100
AcDbTrace
 10
4.0
 20
18.87249828559836
 30
0.0
 11
4.0
 21
17.53916495226503
 31
0.0
 12
0.0
 22
18.2058316189317
 32
0.0
 13
0.0
 23
18.2058316189317
 33
0.0
  0
MTEXT
  5
1DD
330
1D5
100
AcDbEntity
  8
치수문자_일반주서
 62
     0
100
AcDbMText
 10
20.6375
 20
23.0808316189317
 30
0.0
 40
4.0
 41
0.0
 71
     2
 72
     1
  1
\A1;41.28 [1 5/8]
  7
SLDTEXTSTYLE0
 73
     1
 44
1.0
  0
POINT
  5
1DE
330
1D5
100
AcDbEntity
  8
Defpoints
 62
     0
100
AcDbPoint
 10
41.27500000000001
 20
3.19241431070231
 30
0.0
  0
POINT
  5
1DF
330
1D5
100
AcDbEntity
  8
Defpoints
 62
     0
100
AcDbPoint
 10
0.0
 20
0.0
 30
0.0
  0
POINT
  5
1E0
330
1D5
100
AcDbEntity
  8
Defpoints
 62
     0
100
AcDbPoint
 10
0.0
 20
18.2058316189317
 30
0.0
  0
ENDBLK
  5
1D7
330
1D5
100
AcDbEntity
  8
0
100
AcDbBlockEnd
  0
BLOCK
  5
1E4
330
1E3
100
AcDbEntity
  8
0
100
AcDbBlockBegin
  2
*D8
 70
     1
 10
0.0
 20
0.0
 30
0.0
  3
*D8
  1
*D8
  0
LINE
  5
1E6
330
1E3
100
AcDbEntity
  8
치수문자_일반주서
 62
     0
370
    -2
100
AcDbLine
 10
126.1356570548781
 20
-9.582728949376518
 30
0.0
 11
126.1356570548781
 21
5.368188358852869
 31
0.0
  0
LINE
  5
1E7
330
1E3
100
AcDbEntity
  8
치수문자_일반주서
 62
     0
370
    -2
100
AcDbLine
 10
84.86065705487806
 20
-12.77514326007883
 30
0.0
 11
84.86065705487806
 21
5.368188358852869
 31
0.0
  0
LINE
  5
1E8
330
1E3
100
AcDbEntity
  8
치수문자_일반주서
 62
     0
370
    -2
100
AcDbLine
 10
122.1356570548781
 20
5.368188358852869
 30
0.0
 11
88.86065705487806
 21
5.368188358852869
 31
0.0
  0
SOLID
  5
1E9
330
1E3
100
AcDbEntity
  8
치수문자_일반주서
 62
     0
100
AcDbTrace
 10
122.1356570548781
 20
4.701521692186202
 30
0.0
 11
122.1356570548781
 21
6.034855025519536
 31
0.0
 12
126.1356570548781
 22
5.368188358852869
 32
0.0
 13
126.1356570548781
 23
5.368188358852869
 33
0.0
  0
SOLID
  5
1EA
330
1E3
100
AcDbEntity
  8
치수문자_일반주서
 62
     0
100
AcDbTrace
 10
88.86065705487806
 20
6.034855025519536
 30
0.0
 11
88.86065705487806
 21
4.701521692186202
 31
0.0
 12
84.86065705487806
 22
5.368188358852869
 32
0.0
 13
84.86065705487806
 23
5.368188358852869
 33
0.0
  0
MTEXT
  5
1EB
330
1E3
100
AcDbEntity
  8
치수문자_일반주서
 62
     0
100
AcDbMText
 10
105.4981570548781
 20
10.24318835885287
 30
0.0
 40
4.0
 41
0.0
 71
     2
 72
     1
  1
\A1;41.28 [1 5/8]
  7
SLDTEXTSTYLE0
 73
     1
 44
1.0
  0
POINT
  5
1EC
330
1E3
100
AcDbEntity
  8
Defpoints
 62
     0
100
AcDbPoint
 10
126.1356570548781
 20
-9.645228949376518
 30
0.0
  0
POINT
  5
1ED
330
1E3
100
AcDbEntity
  8
Defpoints
 62
     0
100
AcDbPoint
 10
84.86065705487806
 20
-12.83764326007883
 30
0.0
  0
POINT
  5
1EE
330
1E3
100
AcDbEntity
  8
Defpoints
 62
     0
100
AcDbPoint
 10
84.86065705487806
 20
5.368188358852869
 30
0.0
  0
ENDBLK
  5
1E5
330
1E3
100
AcDbEntity
  8
0
100
AcDbBlockEnd
  0
BLOCK
  5
1FB
330
1FA
100
AcDbEntity
  8
0
100
AcDbBlockBegin
  2
*D9
 70
     1
 10
0.0
 20
0.0
 30
0.0
  3
*D9
  1
*D9
  0
LINE
  5
1FD
330
1FA
100
AcDbEntity
  8
치수문자_일반주서
 62
     0
370
    -2
100
AcDbLine
 10
46.32488533842613
 20
17.57274096094766
 30
0.0
 11
46.32488533842613
 21
45.87500000000001
 31
0.0
  0
LINE
  5
1FE
330
1FA
100
AcDbEntity
  8
치수문자_일반주서
 62
     0
370
    -2
100
AcDbLine
 10
-58.45011466157386
 20
14.0325
 30
0.0
 11
-58.45011466157386
 21
45.87500000000001
 31
0.0
  0
LINE
  5
1FF
330
1FA
100
AcDbEntity
  8
치수문자_일반주서
 62
     0
370
    -2
100
AcDbLine
 10
42.32488533842613
 20
45.87500000000001
 30
0.0
 11
-54.45011466157386
 21
45.87500000000001
 31
0.0
  0
SOLID
  5
200
330
1FA
100
AcDbEntity
  8
치수문자_일반주서
 62
     0
100
AcDbTrace
 10
42.32488533842613
 20
45.20833333333334
 30
0.0
 11
42.32488533842613
 21
46.54166666666667
 31
0.0
 12
46.32488533842613
 22
45.87500000000001
 32
0.0
 13
46.32488533842613
 23
45.87500000000001
 33
0.0
  0
SOLID
  5
201
330
1FA
100
AcDbEntity
  8
치수문자_일반주서
 62
     0
100
AcDbTrace
 10
-54.45011466157386
 20
46.54166666666667
 30
0.0
 11
-54.45011466157386
 21
45.20833333333334
 31
0.0
 12
-58.45011466157386
 22
45.87500000000001
 32
0.0
 13
-58.45011466157386
 23
45.87500000000001
 33
0.0
  0
MTEXT
  5
202
330
1FA
100
AcDbEntity
  8
치수문자_일반주서
 62
     0
100
AcDbMText
 10
-6.062614661573868
 20
50.75000000000001
 30
0.0
 40
4.0
 41
0.0
 71
     2
 72
     1
  1
\A1;104.78 [4 1/8]
  7
SLDTEXTSTYLE0
 73
     1
 44
1.0
  0
POINT
  5
203
330
1FA
100
AcDbEntity
  8
Defpoints
 62
     0
100
AcDbPoint
 10
46.32488533842613
 20
17.51024096094766
 30
0.0
  0
POINT
  5
204
330
1FA
100
AcDbEntity
  8
Defpoints
 62
     0
100
AcDbPoint
 10
-58.45011466157386
 20
13.97
 30
0.0
  0
POINT
  5
205
330
1FA
100
AcDbEntity
  8
Defpoints
 62
     0
100
AcDbPoint
 10
-58.45011466157386
 20
45.87500000000001
 30
0.0
  0
ENDBLK
  5
1FC
330
1FA
100
AcDbEntity
  8
0
100
AcDbBlockEnd
  0
ENDSEC
  0
SECTION
  2
ENTITIES
  0
SPLINE
  5
96
330
1F
100
AcDbEntity
  8
0
  6
Continuous
 62
     1
370
    15
100
AcDbSpline
210
0.0
220
0.0
230
1.0
 70
     8
 71
     3
 72
    65
 73
    61
 74
     0
 42
0.000000001
 43
0.00000001
 40
0.0
 40
0.0
 40
0.0
 40
0.0
 40
0.0104336265057745
 40
0.0196775937890845
 40
0.027899171829845
 40
0.0353493137570069
 40
0.0423743629233445
 40
0.0526407737183672
 40
0.0635758180265702
 40
0.0746342501600719
 40
0.0858077819939451
 40
0.1216447031317367
 40
0.1434483653128809
 40
0.1651895471589074
 40
0.1869774394043308
 40
0.2038107551622441
 40
0.2199926782939868
 40
0.2337251633299832
 40
0.2451180355911698
 40
0.2558507067763967
 40
0.2706257607799474
 40
0.2888909403386997
 40
0.3060923756852105
 40
0.328208531804372
 40
0.3457789272702159
 40
0.359972217132644
 40
0.3725591657045739
 40
0.3887833645381306
 40
0.4090795044296783
 40
0.4353474724020311
 40
0.4619288649052685
 40
0.4878666600609737
 40
0.5093977050048433
 40
0.5390790834367591
 40
0.5679514065513217
 40
0.5992036724315695
 40
0.6336658240378007
 40
0.6567202668836346
 40
0.6793209430577848
 40
0.7014093658467698
 40
0.7215966846076864
 40
0.7381853795750398
 40
0.7491747695658096
 40
0.7651878358903089
 40
0.7855736908171643
 40
0.804660695512565
 40
0.8212508341663569
 40
0.8351544429913818
 40
0.8467442717982079
 40
0.8560873245195519
 40
0.8642286282608646
 40
0.8738410875415952
 40
0.8859102086494554
 40
0.9004493423056878
 40
0.9174573323946104
 40
0.9343585554601193
 40
0.9527209438356959
 40
0.9688876494881425
 40
0.9841601723508373
 40
1.0
 40
1.0
 40
1.0
 40
1.0
 10
39.83628015641221
 20
11.94352085851371
 30
0.0
 10
39.79138887593839
 20
11.93927669004898
 30
0.0
 10
39.70672489248579
 20
11.93127228017528
 30
0.0
 10
39.54764811177792
 20
11.91321966376622
 30
0.0
 10
39.37281109882977
 20
11.89385853310145
 30
0.0
 10
39.17903925519006
 20
11.87421433307458
 30
0.0
 10
38.93449466931902
 20
11.85255602750473
 30
0.0
 10
38.62668133748269
 20
11.83082381433069
 30
0.0
 10
38.2843356489032
 20
11.80989046951823
 30
0.0
 10
37.92913217808253
 20
11.78738867748882
 30
0.0
 10
37.30777805461882
 20
11.74878046725058
 30
0.0
 10
36.569529757196
 20
11.70442981701211
 30
0.0
 10
35.71948518734332
 20
11.65667039562476
 30
0.0
 10
35.01585731544594
 20
11.6195839609735
 30
0.0
 10
34.38160233060503
 20
11.5917203371704
 30
0.0
 10
33.8416893551225
 20
11.57211385058469
 30
0.0
 10
33.39637747724497
 20
11.55733765747046
 30
0.0
 10
32.9867616593565
 20
11.54452868235887
 30
0.0
 10
32.61778826109003
 20
11.53407732060805
 30
0.0
 10
32.23257829323971
 20
11.52430209403474
 30
0.0
 10
31.77699061994212
 20
11.51427905618247
 30
0.0
 10
31.25343104415476
 20
11.50503890187789
 30
0.0
 10
30.65375149589471
 20
11.49725619196328
 30
0.0
 10
30.06146032094193
 20
11.49262994601654
 30
0.0
 10
29.50078965223934
 20
11.49117493479033
 30
0.0
 10
29.03930986473043
 20
11.49190550292865
 30
0.0
 10
28.59173582815073
 20
11.49419329453693
 30
0.0
 10
28.08056314410999
 20
11.49875497425493
 30
0.0
 10
27.42685171995059
 20
11.50773518053887
 30
0.0
 10
26.66522526822861
 20
11.52284667716889
 30
0.0
 10
25.84488520012474
 20
11.5447906506958
 30
0.0
 10
25.07389456042766
 20
11.57070574734928
 30
0.0
 10
24.27085247358028
 20
11.6026764407095
 30
0.0
 10
23.43752279474477
 20
11.64148304037949
 30
0.0
 10
22.50242249655333
 20
11.69204679718537
 30
0.0
 10
21.51783070326056
 20
11.7528020740375
 30
0.0
 10
20.5910286629248
 20
11.81772973610292
 30
0.0
 10
19.75268017423774
 20
11.88259075224065
 30
0.0
 10
19.04705747139938
 20
11.94136005171484
 30
0.0
 10
18.37419731510421
 20
12.00110293518458
 30
0.0
 10
17.76478205993489
 20
12.0582860342041
 30
0.0
 10
17.2683011624133
 20
12.1070590885143
 30
0.0
 10
16.81440992091056
 20
12.15315764304024
 30
0.0
 10
16.32165425431415
 20
12.20480261002021
 30
0.0
 10
15.74419555972478
 20
12.2678604000212
 30
0.0
 10
15.16337969661996
 20
12.3340284112272
 30
0.0
 10
14.65179110061528
 20
12.39451816991375
 30
0.0
 10
14.22365751329346
 20
12.44652571375391
 30
0.0
 10
13.86560117686479
 20
12.49099962731398
 30
0.0
 10
13.5601063301725
 20
12.52980834459242
 30
0.0
 10
13.27078363210993
 20
12.56728670056316
 30
0.0
 10
12.95327323223534
 20
12.60885048683626
 30
0.0
 10
12.56847514234757
 20
12.65959516808718
 30
0.0
 10
12.10604761597634
 20
12.72097344949711
 30
0.0
 10
11.59491175449153
 20
12.78879616338692
 30
0.0
 10
11.03911482564977
 20
12.8636958423463
 30
0.0
 10
10.48953071616224
 20
12.9427132333575
 30
0.0
 10
9.98825261261066
 20
13.02175471095401
 30
0.0
 10
9.581858610614427
 20
13.09208400205273
 30
0.0
 10
9.415753189801018
 20
13.1199554672177
 30
0.0
 10
9.331186090434056
 20
13.1341453049278
 30
0.0
1001
PE_URL
1000

  0
SPLINE
  5
97
330
1F
100
AcDbEntity
  8
0
  6
Continuous
 62
     1
370
    15
100
AcDbSpline
210
0.0
220
0.0
230
1.0
 70
     8
 71
     3
 72
    33
 73
    29
 74
     0
 42
0.000000001
 43
0.00000001
 40
0.0
 40
0.0
 40
0.0
 40
0.0
 40
0.0372811446290249
 40
0.0732270618640721
 40
0.111277557422059
 40
0.1421022804677971
 40
0.1765427657006167
 40
0.2141925124619441
 40
0.2483163295061588
 40
0.2776245528103674
 40
0.302130078314772
 40
0.3218612835217765
 40
0.3436172737300006
 40
0.3704601225974898
 40
0.4042226341760171
 40
0.445108971138278
 40
0.4830670663158047
 40
0.5257248342952294
 40
0.5660972515037398
 40
0.5968922391623249
 40
0.618647867475829
 40
0.6473325043907571
 40
0.6807167385344178
 40
0.7183498412933872
 40
0.7978684951301185
 40
0.8793482036283712
 40
0.9549446336837154
 40
1.0
 40
1.0
 40
1.0
 40
1.0
 10
9.331186090434056
 20
-13.13414530492778
 30
0.0
 10
9.415754826872512
 20
-13.11995522474868
 30
0.0
 10
9.581863463197054
 20
-13.09208328332973
 30
0.0
 10
9.988233558380218
 20
-13.02175753310348
 30
0.0
 10
10.43659857973496
 20
-12.95106023762652
 30
0.0
 10
10.90123324897347
 20
-12.88332103153083
 30
0.0
 10
11.36820466270953
 20
-12.81900589264055
 30
0.0
 10
11.84464362559029
 20
-12.75575305399153
 30
0.0
 10
12.29919311475488
 20
-12.69528348939436
 30
0.0
 10
12.69545218950635
 20
-12.64282993288192
 30
0.0
 10
13.02766311025579
 20
-12.59909129607298
 30
0.0
 10
13.32630842416069
 20
-12.56005643381195
 30
0.0
 10
13.63612206848609
 20
-12.52003267911178
 30
0.0
 10
14.00144467639526
 20
-12.47395517204895
 30
0.0
 10
14.43980137652982
 20
-12.42008101847335
 30
0.0
 10
14.93129623479519
 20
-12.3612104191397
 30
0.0
 10
15.46513496427661
 20
-12.29940852218185
 30
0.0
 10
15.99914773206652
 20
-12.23976716683708
 30
0.0
 10
16.50235058703838
 20
-12.1857081004029
 30
0.0
 10
16.91294162451817
 20
-12.143090942861
 30
0.0
 10
17.27237663547616
 20
-12.10674941148723
 30
0.0
 10
17.64252238775973
 20
-12.07028079825807
 30
0.0
 10
18.08185096775286
 20
-12.02838420751145
 30
0.0
 10
18.74378324531074
 20
-11.9676578394022
 30
0.0
 10
19.62129961150239
 20
-11.89228341413821
 30
0.0
 10
20.67364325972787
 20
-11.81153067843358
 30
0.0
 10
21.56955095666675
 20
-11.74934669611566
 30
0.0
 10
22.10326517985733
 20
-11.717611005031
 30
0.0
 10
22.3025717012455
 20
-11.70575984963903
 30
0.0
1001
PE_URL
1000

  0
SPLINE
  5
98
330
1F
100
AcDbEntity
  8
0
  6
Continuous
 62
     1
370
    15
100
AcDbSpline
210
0.0
220
0.0
230
1.0
 70
     8
 71
     3
 72
    38
 73
    34
 74
     0
 42
0.000000001
 43
0.00000001
 40
0.0
 40
0.0
 40
0.0
 40
0.0
 40
0.0625
 40
0.0625
 40
0.125
 40
0.125
 40
0.1875
 40
0.1875
 40
0.25
 40
0.25
 40
0.3125000000000001
 40
0.3125000000000001
 40
0.375
 40
0.375
 40
0.4375
 40
0.4375
 40
0.5
 40
0.5
 40
0.5625
 40
0.5625
 40
0.6250000000000001
 40
0.6250000000000001
 40
0.6875000000000001
 40
0.6875000000000001
 40
0.75
 40
0.75
 40
0.8125
 40
0.8125
 40
0.875
 40
0.875
 40
0.9375
 40
0.9375
 40
1.0
 40
1.0
 40
1.0
 40
1.0
 10
46.32488533842613
 20
-16.57087992896204
 30
0.0
 10
45.46737262982627
 20
-16.41441140055265
 30
0.0
 10
44.60574811369668
 20
-16.23760235567669
 30
0.0
 10
42.88364815675279
 20
-15.84506606869256
 30
0.0
 10
42.02573188057828
 20
-15.62958040256584
 30
0.0
 10
40.30722926853747
 20
-15.16107420510167
 30
0.0
 10
39.44501467348896
 20
-14.90786164456175
 30
0.0
 10
37.72405293009923
 20
-14.36622474898912
 30
0.0
 10
36.86742564905035
 20
-14.0780800845703
 30
0.0
 10
35.14657614121532
 20
-13.46752730092318
 30
0.0
 10
34.28434313592626
 20
-13.14530188506935
 30
0.0
 10
32.56565531327772
 20
-12.47050469547141
 30
0.0
 10
31.70789494852761
 20
-12.11780055010778
 30
0.0
 10
29.98583400505028
 20
-11.38296064324042
 30
0.0
 10
29.12415429895597
 20
-11.00116461428033
 30
0.0
 10
27.40887110308295
 20
-10.21308482066754
 30
0.0
 10
26.54755806707835
 20
-9.805624319391551
 30
0.0
 10
24.82542381557101
 20
-8.96796045512277
 30
0.0
 10
23.96734159806508
 20
-8.53822706741692
 30
0.0
 10
22.24902888271593
 20
-7.658777091675995
 30
0.0
 10
21.38683506798303
 20
-7.208703595487187
 30
0.0
 10
19.6657657975485
 20
-6.292734910749728
 30
0.0
 10
18.80912847484085
 20
-5.827264061277925
 30
0.0
 10
17.08839591004605
 20
-4.88198589337167
 30
0.0
 10
16.22614686476049
 20
-4.402496978770827
 30
0.0
 10
14.50727851927574
 20
-3.435056660303932
 30
0.0
 10
13.64966403462188
 20
-2.946930987636662
 30
0.0
 10
11.92764682315787
 20
-1.963431428982182
 30
0.0
 10
11.06591429226549
 20
-1.468560913234412
 30
0.0
 10
9.350377974502875
 20
-0.477983457314007
 30
0.0
 10
8.489366419660449
 20
0.0191087601020431
 30
0.0
 10
6.76720259280606
 20
1.01207066809123
 30
0.0
 10
5.908944405574264
 20
1.507382337910863
 30
0.0
 10
5.049885338422403
 20
2.000423427876287
 30
0.0
1001
PE_URL
1000

  0
SPLINE
  5
99
330
1F
100
AcDbEntity
  8
외형선
  6
Continuous
370
    15
100
AcDbSpline
210
0.0
220
0.0
230
1.0
 70
    24
 71
     3
 72
     8
 73
     4
 74
     0
 42
0.000000001
 43
0.00000001
 40
0.0
 40
0.0
 40
0.0
 40
0.0
 40
1.0
 40
1.0
 40
1.0
 40
1.0
 10
5.049885338426134
 20
2.586003176581425
 30
0.0
 10
5.049885338426134
 20
2.464529104552767
 30
0.0
 10
5.049885338426134
 20
2.268408457578162
 30
0.0
 10
5.049885338426134
 20
2.000423427877598
 30
0.0
  0
SPLINE
  5
9A
330
1F
100
AcDbEntity
  8
0
  6
Continuous
 62
     1
370
    15
100
AcDbSpline
210
0.0
220
0.0
230
1.0
 70
     8
 71
     3
 72
    38
 73
    34
 74
     0
 42
0.000000001
 43
0.00000001
 40
0.0
 40
0.0
 40
0.0
 40
0.0
 40
0.0624999999999998
 40
0.0624999999999998
 40
0.1249999999999997
 40
0.1249999999999997
 40
0.1874999999999995
 40
0.1874999999999995
 40
0.2499999999999993
 40
0.2499999999999993
 40
0.3124999999999994
 40
0.3124999999999994
 40
0.3749999999999994
 40
0.3749999999999994
 40
0.4374999999999995
 40
0.4374999999999995
 40
0.4999999999999996
 40
0.4999999999999996
 40
0.5624999999999996
 40
0.5624999999999996
 40
0.6249999999999997
 40
0.6249999999999997
 40
0.6874999999999997
 40
0.6874999999999997
 40
0.7499999999999998
 40
0.7499999999999998
 40
0.8124999999999998
 40
0.8124999999999998
 40
0.8749999999999999
 40
0.8749999999999999
 40
0.9374999999999999
 40
0.9374999999999999
 40
1.0
 40
1.0
 40
1.0
 40
1.0
 10
46.32488533842613
 20
-13.77742816652997
 30
0.0
 10
45.46737262982635
 20
-13.62055798890501
 30
0.0
 10
44.60574811369683
 20
-13.4467334698606
 30
0.0
 10
42.88364815675311
 20
-13.06693387402499
 30
0.0
 10
42.02573188057865
 20
-12.86118604334236
 30
0.0
 10
40.30722926853801
 20
-12.41884337743024
 30
0.0
 10
39.44501467348959
 20
-12.18207267751396
 30
0.0
 10
37.72405293009999
 20
-11.67986998950478
 30
0.0
 10
36.8674256490512
 20
-11.41469096729419
 30
0.0
 10
35.14657614121633
 20
-10.85653529913967
 30
0.0
 10
34.28434313592737
 20
-10.56373130428324
 30
0.0
 10
32.56565531327895
 20
-9.95389418922154
 30
0.0
 10
31.70789494852892
 20
-9.63673750394749
 30
0.0
 10
29.98583400505175
 20
-8.979014468346753
 30
0.0
 10
29.12415429895753
 20
-8.638755811458916
 30
0.0
 10
27.40887110308465
 20
-7.939233576917287
 30
0.0
 10
26.54755806708015
 20
-7.578925222479437
 30
0.0
 10
24.82542381557296
 20
-6.840848641526723
 30
0.0
 10
23.9673415980671
 20
-6.463491866111396
 30
0.0
 10
22.24902888271811
 20
-5.693733705456054
 30
0.0
 10
21.38683506798528
 20
-5.301022697075896
 30
0.0
 10
19.66576579755091
 20
-4.504194616024116
 30
0.0
 10
18.80912847484334
 20
-4.100442945062645
 30
0.0
 10
17.0883959100487
 20
-3.282816032486139
 30
0.0
 10
16.22614686476322
 20
-2.869219824407503
 30
0.0
 10
14.50727851927861
 20
-2.036976935820966
 30
0.0
 10
13.64966403462484
 20
-1.618177490817334
 30
0.0
 10
11.92764682316099
 20
-0.776567487587771
 30
0.0
 10
11.06591429226869
 20
-0.3541904805423808
 30
0.0
 10
9.35037797450621
 20
0.4891024785718642
 30
0.0
 10
8.489366419663876
 20
0.9111981624814719
 30
0.0
 10
6.767202592809642
 20
1.752178718755178
 30
0.0
 10
5.908944405577915
 20
2.170592885588783
 30
0.0
 10
5.049885338426147
 20
2.586003176581418
 30
0.0
1001
PE_URL
1000

  0
LINE
  5
9B
330
1F
100
AcDbEntity
  8
0
  6
Continuous
 62
     1
370
    15
100
AcDbLine
 10
46.32488533842585
 20
-16.57087992896204
 30
0.0
 11
46.32488533842613
 21
-13.77742816652997
 31
0.0
1001
PE_URL
1000

  0
SPLINE
  5
9C
330
1F
100
AcDbEntity
  8
0
  6
Continuous
 62
     1
370
    15
100
AcDbSpline
210
0.0
220
0.0
230
1.0
 70
     8
 71
     3
 72
    38
 73
    34
 74
     0
 42
0.000000001
 43
0.00000001
 40
0.0
 40
0.0
 40
0.0
 40
0.0
 40
0.0625
 40
0.0625
 40
0.125
 40
0.125
 40
0.1875
 40
0.1875
 40
0.25
 40
0.25
 40
0.3125
 40
0.3125
 40
0.375
 40
0.375
 40
0.4375
 40
0.4375
 40
0.5
 40
0.5
 40
0.5625
 40
0.5625
 40
0.625
 40
0.625
 40
0.6875
 40
0.6875
 40
0.75
 40
0.75
 40
0.8125
 40
0.8125
 40
0.875
 40
0.875
 40
0.9375
 40
0.9375
 40
1.0
 40
1.0
 40
1.0
 40
1.0
 10
5.049885338426134
 20
-2.868439214036245
 30
0.0
 10
5.908944405577919
 20
-3.358006020675052
 30
0.0
 10
6.767202592809651
 20
-3.843947009550162
 30
0.0
 10
8.489366419663881
 20
-4.806388892244766
 30
0.0
 10
9.350377974506213
 20
-5.282338645315575
 30
0.0
 10
11.06591429226869
 20
-6.219116661955598
 30
0.0
 10
11.92764682316099
 20
-6.68125267437143
 30
0.0
 10
13.64966403462484
 20
-7.587926996518144
 30
0.0
 10
14.50727851927861
 20
-8.032016362681505
 30
0.0
 10
16.22614686476322
 20
-8.900299426833689
 30
0.0
 10
17.08839591004871
 20
-9.324634171627041
 30
0.0
 10
18.80912847484333
 20
-10.14904220905296
 30
0.0
 10
19.66576579755092
 20
-10.54885736536946
 30
0.0
 10
21.38683506798529
 20
-11.32316075626236
 30
0.0
 10
22.24902888271811
 20
-11.69727010097352
 30
0.0
 10
23.9673415980671
 20
-12.41537230041814
 30
0.0
 10
24.82542381557296
 20
-12.75967150887958
 30
0.0
 10
26.54755806708015
 20
-13.41727822356419
 30
0.0
 10
27.40887110308465
 20
-13.73020248914518
 30
0.0
 10
29.12415429895754
 20
-14.32120209400036
 30
0.0
 10
29.98583400505176
 20
-14.60015843164686
 30
0.0
 10
31.70789494852892
 20
-15.12180851000317
 30
0.0
 10
32.56565531327896
 20
-15.3642805615452
 30
0.0
 10
34.28434313592737
 20
-15.81174007340454
 30
0.0
 10
35.14657614121634
 20
-16.01679408928827
 30
0.0
 10
36.86742564905121
 20
-16.38726781677316
 30
0.0
 10
37.72405293010001
 20
-16.5526070021899
 30
0.0
 10
39.4450146734896
 20
-16.84326550544516
 30
0.0
 10
40.30722926853801
 20
-16.96840054861293
 30
0.0
 10
42.02573188057865
 20
-17.17697714949323
 30
0.0
 10
42.8836481567531
 20
-17.26053352791703
 30
0.0
 10
44.60574811369683
 20
-17.38577710879181
 30
0.0
 10
45.46737262982636
 20
-17.42735223900381
 30
0.0
 10
46.32488533842614
 20
-17.44774096094763
 30
0.0
1001
PE_URL
1000

  0
LINE
  5
9D
330
1F
100
AcDbEntity
  8
외형선
  6
Continuous
370
    15
100
AcDbLine
 10
5.049885338426136
 20
-2.868439214036243
 30
0.0
 11
5.049885338426136
 21
2.000423427880408
 31
0.0
  0
LINE
  5
9E
330
1F
100
AcDbEntity
  8
0
  6
Continuous
 62
     1
370
    15
100
AcDbLine
 10
46.32488533842614
 20
-17.44774096094765
 30
0.0
 11
46.32488533842579
 21
-16.57087992896202
 31
0.0
1001
PE_URL
1000

  0
SPLINE
  5
9F
330
1F
100
AcDbEntity
  8
0
  6
Continuous
 62
     1
370
    15
100
AcDbSpline
210
0.0
220
0.0
230
1.0
 70
     8
 71
     3
 72
    38
 73
    34
 74
     0
 42
0.000000001
 43
0.00000001
 40
0.0
 40
0.0
 40
0.0
 40
0.0
 40
0.0625
 40
0.0625
 40
0.125
 40
0.125
 40
0.1875
 40
0.1875
 40
0.25
 40
0.25
 40
0.3125
 40
0.3125
 40
0.375
 40
0.375
 40
0.4375
 40
0.4375
 40
0.5
 40
0.5
 40
0.5625
 40
0.5625
 40
0.625
 40
0.625
 40
0.6875
 40
0.6875
 40
0.75
 40
0.75
 40
0.8125
 40
0.8125
 40
0.875
 40
0.875
 40
0.9375
 40
0.9375
 40
1.0
 40
1.0
 40
1.0
 40
1.0
 10
45.0833375920482
 20
0.5736352614417878
 30
0.0
 10
44.24885426652563
 20
0.9586014380959684
 30
0.0
 10
43.41262387807821
 20
1.343179702637436
 30
0.0
 10
41.74524170072776
 20
2.107620110623383
 30
0.0
 10
40.91374149437011
 20
2.487540579022696
 30
0.0
 10
39.24375036232007
 20
3.241901398886193
 30
0.0
 10
38.40783073302054
 20
3.615944285426075
 30
0.0
 10
36.7427054974069
 20
4.353944419087313
 30
0.0
 10
35.90914334778185
 20
4.718550841967735
 30
0.0
 10
34.23875718131546
 20
5.436635060217772
 30
0.0
 10
33.40444944685517
 20
5.789747360854008
 30
0.0
 10
31.73999746474264
 20
6.481407008976837
 30
0.0
 10
30.90420721781836
 20
6.820730030354978
 30
0.0
 10
29.23405595998693
 20
7.482833747972067
 30
0.0
 10
28.40216331681353
 20
7.805306196377809
 30
0.0
 10
26.73529563036437
 20
8.432138167768187
 30
0.0
 10
25.89911426926492
 20
8.736626604914406
 30
0.0
 10
24.22982756787906
 20
9.324598546011275
 30
0.0
 10
23.39895999189823
 20
9.607850181700076
 30
0.0
 10
21.73030212733646
 20
10.15259349388151
 30
0.0
 10
20.8940458638229
 20
10.41388325238969
 30
0.0
 10
19.22625228052796
 20
10.91163221511285
 30
0.0
 10
18.3950184619417
 20
11.14809548823379
 30
0.0
 10
16.72519819131993
 20
11.59574946406309
 30
0.0
 10
15.88918333173392
 20
11.80667282530718
 30
0.0
 10
14.22350955394955
 20
12.20061661326102
 30
0.0
 10
13.39051864237434
 20
12.38392262285937
 30
0.0
 10
11.72016519759396
 20
12.72216846700345
 30
0.0
 10
10.88514208464717
 20
12.87693040949455
 30
0.0
 10
9.221303358566043
 20
13.15642412251908
 30
0.0
 10
8.385641149661481
 20
13.28153362124086
 30
0.0
 10
6.715384432645129
 20
13.50108035640622
 30
0.0
 10
5.883080969687488
 20
13.5954491363206
 30
0.0
 10
5.049885338426139
 20
13.67426650302473
 30
0.0
1001
PE_URL
1000

  0
SPLINE
  5
A0
330
1F
100
AcDbEntity
  8
0
  6
Continuous
 62
     1
370
    15
100
AcDbSpline
210
0.0
220
0.0
230
1.0
 70
     8
 71
     3
 72
     8
 73
     4
 74
     0
 42
0.000000001
 43
0.00000001
 40
0.0
 40
0.0
 40
0.0
 40
0.0
 40
1.0
 40
1.0
 40
1.0
 40
1.0
 10
46.32488533842613
 20
-4.666729945042669
 30
0.0
 10
45.65372973168127
 20
-4.139092664741608
 30
0.0
 10
44.98567629329199
 20
-3.602741090073755
 30
0.0
 10
44.32068115188646
 20
-3.057798460014042
 30
0.0
1001
PE_URL
1000

  0
SPLINE
  5
A1
330
1F
100
AcDbEntity
  8
0
  6
Continuous
 62
     1
370
    15
100
AcDbSpline
210
0.0
220
0.0
230
1.0
 70
    24
 71
     3
 72
    14
 73
    10
 74
     0
 42
0.000000001
 43
0.00000001
 40
0.0
 40
0.0
 40
0.0
 40
0.0
 40
0.2500000000000001
 40
0.2500000000000001
 40
0.5
 40
0.5
 40
0.7499999999999999
 40
0.7499999999999999
 40
1.0
 40
1.0
 40
1.0
 40
1.0
 10
46.32488533842613
 20
-13.77742816652996
 30
0.0
 10
46.32488533842613
 20
-13.24935452350445
 30
0.0
 10
46.32488533842614
 20
-12.6529815168601
 30
0.0
 10
46.32488533842614
 20
-11.33387336153768
 30
0.0
 10
46.32488533842613
 20
-10.61116238807971
 30
0.0
 10
46.32488533842611
 20
-9.059890588805734
 30
0.0
 10
46.32488533842613
 20
-8.23141626643325
 30
0.0
 10
46.32488533842614
 20
-6.497808082669478
 30
0.0
 10
46.32488533842614
 20
-5.592805584663363
 30
0.0
 10
46.32488533842611
 20
-4.666729945043227
 30
0.0
1001
PE_URL
1000

  0
SPLINE
  5
A2
330
1F
100
AcDbEntity
  8
0
  6
Continuous
 62
     1
370
    15
100
AcDbSpline
210
0.0
220
0.0
230
1.0
 70
     8
 71
     3
 72
     8
 73
     4
 74
     0
 42
0.000000001
 43
0.00000001
 40
0.0
 40
0.0
 40
0.0
 40
0.0
 40
1.0
 40
1.0
 40
1.0
 40
1.0
 10
45.08333759204819
 20
0.5736352614417997
 30
0.0
 10
44.96254317305083
 20
-0.693295788777631
 30
0.0
 10
44.69513706036999
 20
-1.898194022908768
 30
0.0
 10
44.32068115188645
 20
-3.057798460014027
 30
0.0
1001
PE_URL
1000

  0
SPLINE
  5
A3
330
1F
100
AcDbEntity
  8
외형선
  6
Continuous
370
    15
100
AcDbSpline
210
0.0
220
0.0
230
1.0
 70
    24
 71
     3
 72
    14
 73
    10
 74
     0
 42
0.000000001
 43
0.00000001
 40
0.0
 40
0.0
 40
0.0
 40
0.0
 40
0.25
 40
0.25
 40
0.5
 40
0.5
 40
0.75
 40
0.75
 40
1.0
 40
1.0
 40
1.0
 40
1.0
 10
5.049885338426134
 20
13.67426650302474
 30
0.0
 10
5.049885338426134
 20
13.24811946257553
 30
0.0
 10
5.049885338426134
 20
12.67600270899131
 30
0.0
 10
5.049885338426134
 20
11.24974388296438
 30
0.0
 10
5.049885338426134
 20
10.39568219519118
 30
0.0
 10
5.049885338426134
 20
8.45773345309857
 30
0.0
 10
5.049885338426134
 20
7.374406019547302
 30
0.0
 10
5.049885338426136
 20
5.063366746192913
 30
0.0
 10
5.049885338426134
 20
3.836432004151947
 30
0.0
 10
5.049885338426134
 20
2.58600317658143
 30
0.0
  0
SPLINE
  5
A4
330
1F
100
AcDbEntity
  8
0
  6
Continuous
 62
     1
370
    15
100
AcDbSpline
210
0.0
220
0.0
230
1.0
 70
    24
 71
     3
 72
    10
 73
     6
 74
     0
 42
0.000000001
 43
0.00000001
 40
0.0
 40
0.0
 40
0.0
 40
0.0
 40
0.4999999999999998
 40
0.4999999999999998
 40
1.0
 40
1.0
 40
1.0
 40
1.0
 10
41.32488533842613
 20
6.273390904201042
 30
0.0
 10
41.32488533842614
 20
7.2194677625902
 30
0.0
 10
41.32488533842614
 20
8.081680603247008
 30
0.0
 10
41.32488533842611
 20
9.57398883815253
 30
0.0
 10
41.32488533842614
 20
10.203696389994
 30
0.0
 10
41.32488533842613
 20
10.69918179754863
 30
0.0
1001
PE_URL
1000

  0
SPLINE
  5
A5
330
1F
100
AcDbEntity
  8
0
  6
Continuous
 62
     1
370
    15
100
AcDbSpline
210
0.0
220
0.0
230
1.0
 70
     8
 71
     3
 72
    10
 73
     6
 74
     0
 42
0.000000001
 43
0.00000001
 40
0.0
 40
0.0
 40
0.0
 40
0.0
 40
0.4880746391050733
 40
0.9757668664227981
 40
1.0
 40
1.0
 40
1.0
 40
1.0
 10
46.32488533842613
 20
12.22375000000001
 30
0.0
 10
45.26916935052491
 20
12.20814762246936
 30
0.0
 10
43.1585645396795
 20
12.17695509204052
 30
0.0
 10
40.99591261597261
 20
12.06259965287021
 30
0.0
 10
39.88868115975168
 20
11.94596382987665
 30
0.0
 10
39.83626787877538
 20
11.94044261195233
 30
0.0
1001
PE_URL
1000

  0
SPLINE
  5
A6
330
1F
100
AcDbEntity
  8
0
  6
Continuous
 62
     1
370
    15
100
AcDbSpline
210
0.0
220
0.0
230
1.0
 70
     8
 71
     3
 72
     8
 73
     4
 74
     0
 42
0.000000001
 43
0.00000001
 40
0.0
 40
0.0
 40
0.0
 40
0.0
 40
1.0
 40
1.0
 40
1.0
 40
1.0
 10
46.32488533842613
 20
12.22375000000001
 30
0.0
 10
44.64858866657248
 20
11.76938035645064
 30
0.0
 10
42.98173566745491
 20
11.26223232239131
 30
0.0
 10
41.32488533842613
 20
10.69918179754867
 30
0.0
1001
PE_URL
1000

  0
SPLINE
  5
A7
330
1F
100
AcDbEntity
  8
0
  6
Continuous
 62
     1
370
    15
100
AcDbSpline
210
0.0
220
0.0
230
1.0
 70
     8
 71
     3
 72
    12
 73
     8
 74
     0
 42
0.000000001
 43
0.00000001
 40
0.0
 40
0.0
 40
0.0
 40
0.0
 40
0.5
 40
0.5
 40
0.75
 40
0.75
 40
1.0
 40
1.0
 40
1.0
 40
1.0
 10
41.32488533842614
 20
6.27339090420105
 30
0.0
 10
42.0959017824354
 20
5.497780354833262
 30
0.0
 10
42.80138278341546
 20
4.641381540170944
 30
0.0
 10
43.7491137918323
 20
3.220577093687111
 30
0.0
 10
44.0464791443417
 20
2.724114439187727
 30
0.0
 10
44.60022540062374
 20
1.680665896279916
 30
0.0
 10
44.85497874212574
 20
1.136234791338667
 30
0.0
 10
45.08333759204817
 20
0.573635261441806
 30
0.0
1001
PE_URL
1000

  0
LINE
  5
A8
330
1F
100
AcDbEntity
  8
0
  6
Continuous
 62
     1
370
    15
100
AcDbLine
 10
44.99340475945141
 20
0.7823032749148098
 30
0.0
 11
46.32488533842613
 21
0.0000000000000103
 31
0.0
1001
PE_URL
1000

  0
LINE
  5
A9
330
1F
100
AcDbEntity
  8
0
  6
Continuous
 62
     1
370
    15
100
AcDbLine
 10
46.32488533842613
 20
0.0000000000000103
 30
0.0
 11
46.32488533842613
 21
-4.666729945042665
 31
0.0
1001
PE_URL
1000

  0
SPLINE
  5
AA
330
1F
100
AcDbEntity
  8
0
  6
Continuous
 62
     1
370
    15
100
AcDbSpline
210
0.0
220
0.0
230
1.0
 70
     8
 71
     3
 72
     9
 73
     5
 74
     0
 42
0.000000001
 43
0.00000001
 40
0.0
 40
0.0
 40
0.0
 40
0.0
 40
0.2561985033671117
 40
1.0
 40
1.0
 40
1.0
 40
1.0
 10
9.332105314406263
 20
-13.11749375644455
 30
0.0
 10
8.966418666045614
 20
-13.1798035376208
 30
0.0
 10
7.539061973658345
 20
-13.42301253516506
 30
0.0
 10
6.111619320329646
 20
-13.56709657703841
 30
0.0
 10
5.049885338426139
 20
-13.67426650302472
 30
0.0
1001
PE_URL
1000

  0
SPLINE
  5
AB
330
1F
100
AcDbEntity
  8
외형선
  6
Continuous
370
    15
100
AcDbSpline
210
0.0
220
0.0
230
1.0
 70
    24
 71
     3
 72
    19
 73
    15
 74
     0
 42
0.000000001
 43
0.00000001
 40
0.0
 40
0.0
 40
0.0
 40
0.0
 40
0.0601676081337111
 40
0.1445939507462632
 40
0.2314730612762812
 40
0.3183521718062992
 40
0.4027785144188513
 40
0.4872048570314035
 40
0.5740839675614213
 40
0.6609630780914393
 40
0.7445340734226613
 40
0.8281050687538833
 40
0.9140525343769417
 40
1.0
 40
1.0
 40
1.0
 40
1.0
 10
5.049885338426134
 20
-2.912408393726718
 30
0.0
 10
5.049885338426134
 20
-3.254453086296551
 30
0.0
 10
5.049885338426134
 20
-4.076450087083969
 30
0.0
 10
5.049885338426136
 20
-5.319834978087867
 30
0.0
 10
5.049885338426136
 20
-6.638144634755759
 30
0.0
 10
5.049885338426136
 20
-7.867966054994569
 30
0.0
 10
5.049885338426136
 20
-8.992604012995185
 30
0.0
 10
5.049885338426136
 20
-10.01762848746989
 30
0.0
 10
5.049885338426136
 20
-10.94236411808052
 30
0.0
 10
5.049885338426136
 20
-11.74686082211426
 30
0.0
 10
5.049885338426136
 20
-12.42147928126015
 30
0.0
 10
5.049885338426136
 20
-12.97034062893322
 30
0.0
 10
5.049885338426136
 20
-13.40538110893541
 30
0.0
 10
5.049885338426136
 20
-13.58463803832828
 30
0.0
 10
5.049885338426136
 20
-13.67426650302472
 30
0.0
  0
LINE
  5
AC
330
1F
100
AcDbEntity
  8
0
  6
Continuous
 62
     1
370
    15
100
AcDbLine
 10
46.32488533842613
 20
0.0000000000000103
 30
0.0
 11
46.32488533842613
 21
12.22375000000001
 31
0.0
1001
PE_URL
1000

  0
SPLINE
  5
AD
330
1F
100
AcDbEntity
  8
0
  6
Continuous
 62
     1
370
    15
100
AcDbSpline
210
0.0
220
0.0
230
1.0
 70
    24
 71
     3
 72
    14
 73
    10
 74
     0
 42
0.000000001
 43
0.00000001
 40
0.0
 40
0.0
 40
0.0
 40
0.0
 40
0.25
 40
0.25
 40
0.5
 40
0.5
 40
0.75
 40
0.75
 40
1.0
 40
1.0
 40
1.0
 40
1.0
 10
46.32488533842613
 20
12.22375
 30
0.0
 10
46.32488533842614
 20
12.59423664224886
 30
0.0
 10
46.32488533842614
 20
12.99383930270319
 30
0.0
 10
46.32488533842614
 20
13.83548219329544
 30
0.0
 10
46.32488533842613
 20
14.27743852151376
 30
0.0
 10
46.32488533842614
 20
15.18070983935721
 30
0.0
 10
46.32488533842614
 20
15.64187287713341
 30
0.0
 10
46.32488533842614
 20
16.5568351540231
 30
0.0
 10
46.32488533842611
 20
17.01046791681544
 30
0.0
 10
46.32488533842613
 20
17.44774096094766
 30
0.0
1001
PE_URL
1000

  0
SPLINE
  5
AE
330
1F
100
AcDbEntity
  8
0
  6
Continuous
 62
     1
370
    15
100
AcDbSpline
210
0.0
220
0.0
230
1.0
 70
     8
 71
     3
 72
    17
 73
    13
 74
     0
 42
0.000000001
 43
0.00000001
 40
0.0
 40
0.0
 40
0.0
 40
0.0
 40
0.0577009303968104
 40
0.1631526556571382
 40
0.2660337820274312
 40
0.3690867118690184
 40
0.4723988435643008
 40
0.5758849703491319
 40
0.6814462827606145
 40
0.7871933163070786
 40
0.8935017027680133
 40
1.0
 40
1.0
 40
1.0
 40
1.0
 10
22.30223466004714
 20
11.70569174455807
 30
0.0
 10
22.76428577592981
 20
11.905054595635
 30
0.0
 10
24.07076153095105
 20
12.46876437239065
 30
0.0
 10
26.20124130630529
 20
13.2956996478771
 30
0.0
 10
28.69407235039922
 20
14.18828831664019
 30
0.0
 10
31.17121632719616
 20
14.97460563706411
 30
0.0
 10
33.65134770303256
 20
15.66451896786261
 30
0.0
 10
36.15369197940821
 20
16.25164756477852
 30
0.0
 10
38.67335120375466
 20
16.73312601584235
 30
0.0
 10
41.21764082559631
 20
17.09743995600246
 30
0.0
 10
43.76781796985541
 20
17.35109763238028
 30
0.0
 10
45.47202259926235
 20
17.41550735813494
 30
0.0
 10
46.32488533842613
 20
17.44774096094766
 30
0.0
1001
PE_URL
1000

  0
LINE
  5
AF
330
1F
100
AcDbEntity
  8
중심선
 62
     1
100
AcDbLine
 10
-65.45011466157386
 20
-0.000000000000001
 30
0.0
 11
53.32488533842613
 21
0.0000000000000118
 31
0.0
  0
LINE
  5
B0
330
1F
100
AcDbEntity
  8
참조1
100
AcDbLine
 10
0.2873853384261293
 20
0.0000000000000012
 30
0.0
 11
0.2873853384261345
 21
-40.0
 31
0.0
  0
LINE
  5
B1
330
1F
100
AcDbEntity
  8
참조1
100
AcDbLine
 10
0.2873853384261345
 20
-40.0
 30
0.0
 11
-21.22144647588254
 21
-39.99999999999999
 31
0.0
  0
INSERT
  5
B3
330
1F
100
AcDbEntity
  8
0
  6
Continuous
 62
     7
100
AcDbBlockReference
 66
     1
  2
블럭10
 10
-13.65288759369908
 20
-52.04717430164393
 30
0.0
  0
ATTRIB
  5
B4
330
B3
100
AcDbEntity
  8
FORMAT
 62
     2
100
AcDbText
 10
-22.83418288244036
 20
-49.97180738881174
 30
0.0
 40
4.233333333333333
  1
E2030124 [ 2 FLUTE ]
 41
0.75
  7
SLDTEXTSTYLE0
 11
-22.83418288244036
 21
-52.08847405547841
 31
0.0
100
AcDbAttribute
  2
AUTOATTR0
 70
     0
 74
     1
  0
SEQEND
  5
B5
330
B3
100
AcDbEntity
  8
0
  6
Continuous
 62
     7
  0
HATCH
  5
B6
330
1F
100
AcDbEntity
  8
중심선
100
AcDbHatch
 10
0.0
 20
0.0
 30
0.0
210
0.0
220
0.0
230
1.0
  2
SOLID
 70
     1
 71
     0
 91
        1
 92
        0
 93
        4
 72
     1
 10
-7.937978289318234
 20
-35.79999999999999
 11
-11.38425353315552
 21
-35.79999999999999
 72
     1
 10
-11.38425353315552
 20
-35.79999999999999
 11
-13.51248339235954
 21
-38.33632558057259
 72
     1
 10
-13.51248339235954
 20
-38.33632558057259
 11
-10.06617506340911
 21
-38.3362861512701
 72
     1
 10
-10.06617506340911
 20
-38.3362861512701
 11
-7.937978289318234
 21
-35.79999999999999
 97
        0
 75
     0
 76
     1
 98
        1
 10
1.309306506299194
 20
-0.001074928723888
  0
HATCH
  5
B7
330
1F
100
AcDbEntity
  8
중심선
100
AcDbHatch
 10
0.0
 20
0.0
 30
0.0
210
0.0
220
0.0
230
1.0
  2
SOLID
 70
     1
 71
     0
 91
        1
 92
        0
 93
        4
 72
     1
 10
-2.925214298282254
 20
-35.79999999999999
 11
-6.371489542119537
 21
-35.79999999999999
 72
     1
 10
-6.371489542119537
 20
-35.79999999999999
 11
-10.90262755047695
 21
-41.20000000000001
 72
     1
 10
-10.90262755047695
 20
-41.20000000000001
 11
-7.456352306639671
 21
-41.20000000000001
 72
     1
 10
-7.456352306639671
 20
-41.20000000000001
 11
-2.925214298282254
 21
-35.79999999999999
 97
        0
 75
     0
 76
     1
 98
        1
 10
1.309306506299194
 20
-0.001074928723888
  0
HATCH
  5
B8
330
1F
100
AcDbEntity
  8
중심선
100
AcDbHatch
 10
0.0
 20
0.0
 30
0.0
210
0.0
220
0.0
230
1.0
  2
SOLID
 70
     1
 71
     0
 91
        1
 92
        0
 93
        4
 72
     1
 10
2.087549692753613
 20
-35.79999999999999
 11
-1.358725551083475
 21
-35.79999999999999
 72
     1
 10
-1.358725551083475
 20
-35.79999999999999
 11
-8.407162452972752
 21
-44.20000000000001
 72
     1
 10
-8.407162452972752
 20
-44.20000000000001
 11
-4.960887209135469
 21
-44.20000000000001
 72
     1
 10
-4.960887209135469
 20
-44.20000000000001
 11
2.087549692753614
 21
-35.79999999999999
 97
        0
 75
     0
 76
     1
 98
        1
 10
1.309306506299194
 20
-0.001074928723888
  0
HATCH
  5
B9
330
1F
100
AcDbEntity
  8
중심선
100
AcDbHatch
 10
0.0
 20
0.0
 30
0.0
210
0.0
220
0.0
230
1.0
  2
SOLID
 70
     1
 71
     0
 91
        1
 92
        0
 93
        6
 72
     3
 10
6.887440123765812
 20
-40.00000000005127
 11
3.960054785062284
 21
1.540882976769353E-10
 40
0.3939339440162627
 50
17.09539180608436
 51
320.0019657685086
 73
     0
 72
     1
 10
8.570439779466408
 20
-38.58789400463832
 11
10.87574165316747
 21
-36.65356729459037
 72
     3
 10
6.887440123712966
 20
-40.00000000000014
 11
6.60005478528683
 21
-1.278976924368180E-13
 40
0.636358354079598
 50
39.99873849337385
 51
368.4976242363724
 73
     1
 72
     1
 10
13.31277261561358
 20
-39.03999999993002
 11
5.567507430548888
 21
-39.03999999993002
 72
     1
 10
5.567507430548888
 20
-39.03999999993002
 11
5.567482386102954
 21
-40.95999999992991
 72
     1
 10
5.567482386102954
 20
-40.95999999992991
 11
10.00886215557499
 21
-40.95999999992988
 97
        0
 75
     0
 76
     1
 98
        1
 10
1.309306506299194
 20
-0.001074928723888
  0
DIMENSION
  5
BA
330
1F
100
AcDbEntity
  8
치수문자_일반주서
100
AcDbDimension
  2
_D
 10
-73.45011466157374
 20
-15.87500000000006
 30
0.0
 11
-73.45011466157393
 21
37.74999999999993
 31
0.0
 70
   160
  1
%%c<>
 71
     2
 42
31.74999999999995
 52
-270.0
  3
SLDDIMSTYLE2
100
AcDbAlignedDimension
 13
-43.84511466157387
 23
15.87499999999999
 33
0.0
 14
-57.45011466157385
 24
-15.87500000000001
 34
0.0
 50
90.0000000000002
100
AcDbRotatedDimension
1001
PE_URL
1000

1001
ACAD
1000
DSTYLE
1002
{
1070
   171
1070
     8
1070
   273
1070
     7
1070
    41
1040
4.0
1070
   140
1040
4.0
1002
}
1001
ACAD_DSTYLE_DIMFLIPARROW_SYMBOL
1070
   385
1070
     0
1001
ACAD_DSTYLE_DIMFLIPARROW_WHICH_SYMBOL
1070
   386
1070
     3
  0
DIMENSION
  5
C8
330
1F
100
AcDbEntity
  8
치수문자_일반주서
100
AcDbDimension
  2
_D_1
 10
5.049885338426133
 20
30.875
 30
0.0
 11
25.68738533842613
 21
30.875
 31
0.0
 70
   160
  1
<>
 71
     2
 42
41.275
  3
SLDDIMSTYLE2
100
AcDbAlignedDimension
 13
46.32488533842613
 23
17.44774096094766
 33
0.0
 14
5.049885338426132
 24
5.472849324069398
 34
0.0
100
AcDbRotatedDimension
1001
PE_URL
1000

1001
ACAD
1000
DSTYLE
1002
{
1070
   171
1070
     8
1070
   273
1070
     7
1070
    41
1040
4.0
1070
   140
1040
4.0
1002
}
  0
DIMENSION
  5
F2
330
1F
100
AcDbEntity
  8
치수문자_일반주서
100
AcDbDimension
  2
_D_3
 10
61.32488533842609
 20
17.44774096094771
 30
0.0
 11
61.32488533842601
 21
40.07274096094771
 31
0.0
 70
   160
  1
%%c<>
 71
     2
 42
34.89548192189531
 52
-270.0
  3
SLDDIMSTYLE2
100
AcDbAlignedDimension
 13
46.32488533842614
 23
-17.44774096094765
 33
0.0
 14
46.32488533842614
 24
17.44774096094766
 34
0.0
 50
90.0000000000002
100
AcDbRotatedDimension
1001
PE_URL
1000

1001
ACAD
1000
DSTYLE
1002
{
1070
   171
1070
     8
1070
   273
1070
     7
1070
    41
1040
4.0
1070
   140
1040
4.0
1002
}
1001
ACAD_DSTYLE_DIMFLIPARROW_SYMBOL
1070
   385
1070
     0
1001
ACAD_DSTYLE_DIMFLIPARROW_WHICH_SYMBOL
1070
   386
1070
     3
  0
LINE
  5
105
330
1F
100
AcDbEntity
  8
참조1
100
AcDbLine
 10
76.75089415377172
 20
7.440000000000007
 30
0.0
 11
76.75089415377172
 21
-7.439999999999997
 31
0.0
  0
LINE
  5
106
330
1F
100
AcDbEntity
  8
참조1
100
AcDbLine
 10
89.45089415377173
 20
5.440000000000007
 30
0.0
 11
76.75089415377172
 21
5.440000000000007
 31
0.0
  0
SOLID
  5
107
330
1F
100
AcDbEntity
  8
참조1
100
AcDbTrace
 10
76.75089415377172
 20
5.440000000000007
 30
0.0
 11
83.10089415377172
 21
4.424000000000007
 31
0.0
 12
83.10089415377172
 22
6.456000000000008
 32
0.0
 13
83.10089415377172
 23
6.456000000000008
 33
0.0
  0
LINE
  5
108
330
1F
100
AcDbEntity
  8
참조1
100
AcDbLine
 10
89.45089415377173
 20
-5.439999999999997
 30
0.0
 11
76.75089415377172
 21
-5.439999999999997
 31
0.0
  0
SOLID
  5
109
330
1F
100
AcDbEntity
  8
참조1
100
AcDbTrace
 10
76.75089415377172
 20
-5.439999999999997
 30
0.0
 11
83.10089415377172
 21
-6.455999999999997
 31
0.0
 12
83.10089415377172
 22
-4.423999999999997
 32
0.0
 13
83.10089415377172
 23
-4.423999999999997
 33
0.0
  0
MTEXT
  5
10A
330
1F
100
AcDbEntity
  8
참조1
100
AcDbMText
 10
86.13524428639771
 20
11.01029177718834
 30
0.0
 40
3.5
 41
0.0
 71
     1
 72
     1
  1
A
  7
SLDTEXTSTYLE0
 73
     1
 44
1.0
  0
MTEXT
  5
10B
330
1F
100
AcDbEntity
  8
참조1
100
AcDbMText
 10
86.13524428639771
 20
0.1302917771883321
 30
0.0
 40
3.5
 41
0.0
 71
     1
 72
     1
  1
A
  7
SLDTEXTSTYLE0
 73
     1
 44
1.0
  0
LINE
  5
182
330
1F
100
AcDbEntity
  8
외형선
  6
Continuous
370
    15
100
AcDbLine
 10
1.999999999999972
 20
15.875
 30
0.0
 11
-21.02003966157385
 21
15.875
 31
0.0
  0
LINE
  5
183
330
1F
100
AcDbEntity
  8
외형선
  6
Continuous
370
    15
100
AcDbLine
 10
-57.45011466157385
 20
-15.87500000000001
 30
0.0
 11
1.999999999999972
 21
-15.875
 31
0.0
  0
LINE
  5
185
330
1F
100
AcDbEntity
  8
외형선
  6
Continuous
370
    15
100
AcDbLine
 10
-58.45011466157386
 20
-14.87499999999999
 30
0.0
 11
-57.45011466157385
 21
-15.87499999999999
 31
0.0
  0
SPLINE
  5
186
330
1F
100
AcDbEntity
  8
외형선
  6
Continuous
370
    15
100
AcDbSpline
210
0.0
220
0.0
230
1.0
 70
     8
 71
     3
 72
     9
 73
     5
 74
     0
 42
0.000000001
 43
0.00000001
 40
0.0
 40
0.0
 40
0.0
 40
0.0
 40
0.4903866493474611
 40
1.0
 40
1.0
 40
1.0
 40
1.0
 10
5.049885338426147
 20
2.586003176581418
 30
0.0
 10
4.542360815616309
 20
2.828521607866247
 30
0.0
 10
3.507413140174525
 20
3.323066945932734
 30
0.0
 10
2.508950150782287
 20
3.832394532799352
 30
0.0
 10
2.000120081255556
 20
4.091954670922217
 30
0.0
  0
LINE
  5
188
330
1F
100
AcDbEntity
  8
외형선
  6
Continuous
370
    15
100
AcDbLine
 10
5.049885338426165
 20
-0.5314138600008391
 30
0.0
 11
5.049885338426165
 21
-0.7738545373127153
 31
0.0
  0
SPLINE
  5
189
330
1F
100
AcDbEntity
  8
외형선
  6
Continuous
370
    15
100
AcDbSpline
210
0.0
220
0.0
230
1.0
 70
     8
 71
     3
 72
     8
 73
     4
 74
     0
 42
0.000000001
 43
0.00000001
 40
0.0
 40
0.0
 40
0.0
 40
0.0
 40
1.0
 40
1.0
 40
1.0
 40
1.0
 10
5.049885338426158
 20
-0.7738545373127153
 30
0.0
 10
4.03122422376881
 20
-0.3635730375112729
 30
0.0
 10
3.017688501886347
 20
0.0476081297797464
 30
0.0
 10
2.000028932607847
 20
0.458403307963934
 30
0.0
  0
SPLINE
  5
18A
330
1F
100
AcDbEntity
  8
외형선
  6
Continuous
370
    15
100
AcDbSpline
210
0.0
220
0.0
230
1.0
 70
     8
 71
     3
 72
     8
 73
     4
 74
     0
 42
0.000000001
 43
0.00000001
 40
0.0
 40
0.0
 40
0.0
 40
0.0
 40
1.0
 40
1.0
 40
1.0
 40
1.0
 10
5.049885338426156
 20
-2.888039153811742
 30
0.0
 10
4.031214570074985
 20
-2.300730690869893
 30
0.0
 10
3.017669273356686
 20
-1.713477085889369
 30
0.0
 10
1.999999999999998
 20
-1.128113257866839
 30
0.0
  0
SPLINE
  5
18B
330
1F
100
AcDbEntity
  8
외형선
  6
Continuous
370
    15
100
AcDbSpline
210
0.0
220
0.0
230
1.0
 70
     8
 71
     3
 72
     8
 73
     4
 74
     0
 42
0.000000001
 43
0.00000001
 40
0.0
 40
0.0
 40
0.0
 40
0.0
 40
1.0
 40
1.0
 40
1.0
 40
1.0
 10
5.049885338422403
 20
2.000423427876287
 30
0.0
 10
4.03125463655223
 20
2.569503204564642
 30
0.0
 10
3.017749079009735
 20
3.129527178041537
 30
0.0
 10
2.000120081251811
 20
3.678754533633173
 30
0.0
  0
LINE
  5
18C
330
1F
100
AcDbEntity
  8
외형선
  6
Continuous
370
    15
100
AcDbLine
 10
5.049885338426158
 20
3.946614535943986
 30
0.0
 11
5.049885338426158
 21
-0.4536078328534145
 31
0.0
  0
LINE
  5
18D
330
1F
100
AcDbEntity
  8
외형선
  6
Continuous
370
    15
100
AcDbLine
 10
1.999999999999972
 20
-15.875
 30
0.0
 11
2.0
 21
3.696107139967789
 31
0.0
  0
LINE
  5
18E
330
1F
100
AcDbEntity
  8
외형선
  6
Continuous
370
    15
100
AcDbLine
 10
1.999999999999986
 20
4.080318367679377
 30
0.0
 11
1.999999999999972
 21
15.875
 31
0.0
  0
LINE
  5
18F
330
1F
100
AcDbEntity
  8
외형선
  6
Continuous
370
    15
100
AcDbLine
 10
-57.45011466157385
 20
13.97
 30
0.0
 11
-57.45011466157385
 21
-15.87500000000001
 31
0.0
  0
LINE
  5
190
330
1F
100
AcDbEntity
  8
외형선
  6
Continuous
370
    15
100
AcDbLine
 10
-58.45011466157386
 20
13.97
 30
0.0
 11
-58.45011466157386
 21
-14.87499999999998
 31
0.0
  0
SPLINE
  5
191
330
1F
100
AcDbEntity
  8
외형선
  6
Continuous
370
    15
100
AcDbSpline
210
0.0
220
0.0
230
1.0
 70
    24
 71
     3
 72
    11
 73
     7
 74
     0
 42
0.000000001
 43
0.00000001
 40
0.0
 40
0.0
 40
0.0
 40
0.0
 40
0.0823041583770279
 40
0.330386082657111
 40
0.8244444445770203
 40
1.0
 40
1.0
 40
1.0
 40
1.0
 10
5.049885338426158
 20
4.132058598373483
 30
0.0
 10
5.049885338426158
 20
4.131579337312893
 30
0.0
 10
5.049885338426165
 20
4.129655483312064
 30
0.0
 10
5.049885338426158
 20
4.098156775640746
 30
0.0
 10
5.049885338426165
 20
4.037020422010137
 30
0.0
 10
5.049885338426158
 20
3.965393320621196
 30
0.0
 10
5.049885338426158
 20
3.946614535948427
 30
0.0
  0
SPLINE
  5
192
330
1F
100
AcDbEntity
  8
외형선
  6
Continuous
370
    15
100
AcDbSpline
210
0.0
220
0.0
230
1.0
 70
     8
 71
     3
 72
    18
 73
    14
 74
     0
 42
0.000000001
 43
0.00000001
 40
0.0
 40
0.0
 40
0.0
 40
0.0
 40
0.2500000000000011
 40
0.2500000000000011
 40
0.3750000000000014
 40
0.3750000000000014
 40
0.5000000000000018
 40
0.5000000000000018
 40
0.6250000000000021
 40
0.6250000000000021
 40
0.7500000000000024
 40
0.7500000000000024
 40
1.0
 40
1.0
 40
1.0
 40
1.0
 10
2.290328943835438
 20
13.85791338238191
 30
0.0
 10
2.261634500481454
 20
13.87984565063122
 30
0.0
 10
2.231265961758457
 20
13.90426899918241
 30
0.0
 10
2.179757488563692
 20
13.94970309481604
 30
0.0
 10
2.161787381202825
 20
13.96618171395303
 30
0.0
 10
2.124509673021838
 20
14.00248888858756
 30
0.0
 10
2.104541364299206
 20
14.02305800087305
 30
0.0
 10
2.068013137998496
 20
14.06417416492013
 30
0.0
 10
2.052291348851296
 20
14.08381879593427
 30
0.0
 10
2.028624187023451
 20
14.11674995026949
 30
0.0
 10
2.020510186304901
 20
14.13005894704557
 30
0.0
 10
2.003196561667775
 20
14.16270407982303
 30
0.0
 10
1.999999999999955
 20
14.17613632362517
 30
0.0
 10
1.999999999999962
 20
14.18588518675779
 30
0.0
  0
SPLINE
  5
193
330
1F
100
AcDbEntity
  8
외형선
  6
Continuous
370
    15
100
AcDbSpline
210
0.0
220
0.0
230
1.0
 70
     8
 71
     3
 72
    16
 73
    12
 74
     0
 42
0.000000001
 43
0.00000001
 40
0.0
 40
0.0
 40
0.0
 40
0.0
 40
0.1885062659111649
 40
0.3660870867624697
 40
0.5291463940981855
 40
0.6676019494618727
 40
0.7815277951775346
 40
0.8710511475346278
 40
0.9364332364261764
 40
0.9783782694745654
 40
1.0
 40
1.0
 40
1.0
 40
1.0
 10
2.29032954645047
 20
13.85789573194179
 30
0.0
 10
2.303748388961684
 20
13.84770813424304
 30
0.0
 10
2.329808344788138
 20
13.82792339157352
 30
0.0
 10
2.368358154963038
 20
13.79961794234768
 30
0.0
 10
2.403931460543451
 20
13.7741960938126
 30
0.0
 10
2.435581803249929
 20
13.75232694608849
 30
0.0
 10
2.46261911403541
 20
13.73457981581541
 30
0.0
 10
2.48481528422234
 20
13.72063720035773
 30
0.0
 10
2.502681944353992
 20
13.71107008731905
 30
0.0
 10
2.515182628103813
 20
13.70427439179817
 30
0.0
 10
2.523842084274894
 20
13.70258996655263
 30
0.0
 10
2.52678752961931
 20
13.70201702266338
 30
0.0
  0
SPLINE
  5
194
330
1F
100
AcDbEntity
  8
외형선
  6
Continuous
370
    15
100
AcDbSpline
210
0.0
220
0.0
230
1.0
 70
     8
 71
     3
 72
     8
 73
     4
 74
     0
 42
0.000000001
 43
0.00000001
 40
0.0
 40
0.0
 40
0.0
 40
0.0
 40
1.0
 40
1.0
 40
1.0
 40
1.0
 10
5.049885338426134
 20
13.67426650302474
 30
0.0
 10
4.207100543480412
 20
13.70134746061326
 30
0.0
 10
3.367630814654466
 20
13.71058406342043
 30
0.0
 10
2.526808352508209
 20
13.70199599452105
 30
0.0
  0
SPLINE
  5
195
330
1F
100
AcDbEntity
  8
외형선
  6
Continuous
370
    15
100
AcDbSpline
210
0.0
220
0.0
230
1.0
 70
    24
 71
     3
 72
    17
 73
    13
 74
     0
 42
0.000000001
 43
0.00000001
 40
0.0
 40
0.0
 40
0.0
 40
0.0
 40
0.1313580261013513
 40
0.2627160522027026
 40
0.3590253798081519
 40
0.455334707413601
 40
0.5544420293605489
 40
0.6535493513074967
 40
0.7406183468884215
 40
0.8276873424693466
 40
0.916804288052325
 40
1.0
 40
1.0
 40
1.0
 40
1.0
 10
5.049885338426158
 20
12.66916838106828
 30
0.0
 10
5.049885338426158
 20
12.52596852133816
 30
0.0
 10
5.049885338426158
 20
12.23956880187789
 30
0.0
 10
5.049885338426165
 20
11.59905215273749
 30
0.0
 10
5.049885338426158
 20
10.88663460064066
 30
0.0
 10
5.049885338426165
 20
10.13578412132075
 30
0.0
 10
5.049885338426158
 20
9.273352987290771
 30
0.0
 10
5.049885338426158
 20
8.34155328600054
 30
0.0
 10
5.049885338426158
 20
7.368369768598395
 30
0.0
 10
5.049885338426165
 20
6.362407772971228
 30
0.0
 10
5.049885338426165
 20
5.313601434760471
 30
0.0
 10
5.049885338426165
 20
4.570757910675482
 30
0.0
 10
5.049885338426165
 20
4.212099430575279
 30
0.0
  0
SPLINE
  5
196
330
1F
100
AcDbEntity
  8
외형선
  6
Continuous
370
    15
100
AcDbSpline
210
0.0
220
0.0
230
1.0
 70
     8
 71
     3
 72
     8
 73
     4
 74
     0
 42
0.000000001
 43
0.00000001
 40
0.0
 40
0.0
 40
0.0
 40
0.0
 40
1.0
 40
1.0
 40
1.0
 40
1.0
 10
5.049885338426139
 20
-13.67426650302472
 30
0.0
 10
4.031229201589059
 20
-13.70699868305977
 30
0.0
 10
3.01769841686374
 20
-13.71367102895771
 30
0.0
 10
2.000043851385864
 20
-13.69428828557773
 30
0.0
  0
SPLINE
  5
197
330
1F
100
AcDbEntity
  8
외형선
  6
Continuous
370
    15
100
AcDbSpline
210
0.0
220
0.0
230
1.0
 70
    24
 71
     3
 72
    14
 73
    10
 74
     0
 42
0.000000001
 43
0.00000001
 40
0.0
 40
0.0
 40
0.0
 40
0.0
 40
0.25
 40
0.25
 40
0.5
 40
0.5
 40
0.75
 40
0.75
 40
1.0
 40
1.0
 40
1.0
 40
1.0
 10
5.049885338426158
 20
-0.7738545373127153
 30
0.0
 10
5.049885338426158
 20
-2.12371059993788
 30
0.0
 10
5.049885338426158
 20
-3.46857557347451
 30
0.0
 10
5.049885338426158
 20
-6.01065417580584
 30
0.0
 10
5.049885338426158
 20
-7.206344885641222
 30
0.0
 10
5.049885338426158
 20
-9.32048511077953
 30
0.0
 10
5.049885338426158
 20
-10.23780812378205
 30
0.0
 10
5.049885338426158
 20
-11.71921585877855
 30
0.0
 10
5.049885338426158
 20
-12.28326743127754
 30
0.0
 10
5.049885338426158
 20
-12.66916838106829
 30
0.0
  0
SPLINE
  5
198
330
1F
100
AcDbEntity
  8
외형선
  6
Continuous
370
    15
100
AcDbSpline
210
0.0
220
0.0
230
1.0
 70
    24
 71
     3
 72
    12
 73
     8
 74
     0
 42
0.000000001
 43
0.00000001
 40
0.0
 40
0.0
 40
0.0
 40
0.0
 40
0.0864847977554923
 40
0.3334174136468478
 40
0.5791958706366193
 40
0.8252577544266632
 40
1.0
 40
1.0
 40
1.0
 40
1.0
 10
5.049885338426158
 20
4.132175635189988
 30
0.0
 10
5.049885338426158
 20
4.131679582684356
 30
0.0
 10
5.049885338426158
 20
4.12976719405939
 30
0.0
 10
5.049885338426158
 20
4.107581530131313
 30
0.0
 10
5.049885338426158
 20
4.065320096429836
 30
0.0
 10
5.049885338426158
 20
4.010593567145641
 30
0.0
 10
5.049885338426158
 20
3.965386944028644
 30
0.0
 10
5.049885338426158
 20
3.946614535948427
 30
0.0
  0
LINE
  5
19A
330
1F
100
AcDbEntity
  8
외형선
  6
Continuous
370
    15
100
AcDbLine
 10
5.049885338426158
 20
-0.531413860000832
 30
0.0
 11
5.049885338426158
 21
-0.7738545373127153
 31
0.0
  0
SPLINE
  5
19B
330
1F
100
AcDbEntity
  8
외형선
  6
Continuous
370
    15
100
AcDbSpline
210
0.0
220
0.0
230
1.0
 70
    24
 71
     3
 72
    17
 73
    13
 74
     0
 42
0.000000001
 43
0.00000001
 40
0.0
 40
0.0
 40
0.0
 40
0.0
 40
0.1305123694726852
 40
0.2627180348991967
 40
0.3590271035105814
 40
0.4553361721219662
 40
0.5544432275505119
 40
0.6535502829790576
 40
0.7406190444149251
 40
0.8276878058507925
 40
0.9168045117813872
 40
1.0
 40
1.0
 40
1.0
 40
1.0
 10
5.049885338426158
 20
12.66916838106828
 30
0.0
 10
5.049885338426158
 20
12.52719636435634
 30
0.0
 10
5.049885338426158
 20
12.24141035501533
 30
0.0
 10
5.049885338426158
 20
11.60081709327884
 30
0.0
 10
5.049885338426158
 20
10.8866576774552
 30
0.0
 10
5.049885338426158
 20
10.13577773567579
 30
0.0
 10
5.049885338426158
 20
9.27335472645234
 30
0.0
 10
5.049885338426158
 20
8.341552882596766
 30
0.0
 10
5.049885338426158
 20
7.368369870626044
 30
0.0
 10
5.049885338426158
 20
6.362407744985273
 30
0.0
 10
5.049885338426158
 20
5.313601441280131
 30
0.0
 10
5.049885338426158
 20
4.570757912798339
 30
0.0
 10
5.049885338426158
 20
4.212099430575279
 30
0.0
  0
SPLINE
  5
19C
330
1F
100
AcDbEntity
  8
외형선
  6
Continuous
370
    15
100
AcDbSpline
210
0.0
220
0.0
230
1.0
 70
    24
 71
     3
 72
    14
 73
    10
 74
     0
 42
0.000000001
 43
0.00000001
 40
0.0
 40
0.0
 40
0.0
 40
0.0
 40
0.25
 40
0.25
 40
0.5
 40
0.5
 40
0.75
 40
0.75
 40
1.0
 40
1.0
 40
1.0
 40
1.0
 10
5.049885338426158
 20
-0.7738545373127153
 30
0.0
 10
5.049885338426158
 20
-2.12371059993788
 30
0.0
 10
5.049885338426158
 20
-3.46857557347451
 30
0.0
 10
5.049885338426158
 20
-6.01065417580584
 30
0.0
 10
5.049885338426158
 20
-7.206344885641222
 30
0.0
 10
5.049885338426158
 20
-9.32048511077953
 30
0.0
 10
5.049885338426158
 20
-10.23780812378205
 30
0.0
 10
5.049885338426158
 20
-11.71921585877855
 30
0.0
 10
5.049885338426158
 20
-12.28326743127754
 30
0.0
 10
5.049885338426158
 20
-12.66916838106829
 30
0.0
  0
CIRCLE
  5
19D
330
1F
100
AcDbEntity
  8
해칭선
100
AcDbCircle
 10
0.0
 20
0.0
 30
0.0
 40
2.999999999999993
  0
INSERT
  5
19E
330
1F
100
AcDbEntity
  8
해칭선
100
AcDbBlockReference
  2
SW_DOWELSYMBOL_0
 10
0.0
 20
0.0
 30
0.0
  0
DIMENSION
  5
1F9
330
1F
100
AcDbEntity
  8
치수문자_일반주서
100
AcDbDimension
  2
*D9
 10
-58.45011466157386
 20
45.87500000000001
 30
0.0
 11
-6.062614661573868
 21
45.87500000000001
 31
0.0
 70
   160
  1
<>
 71
     2
 42
104.775
  3
SLDDIMSTYLE2
100
AcDbAlignedDimension
 13
46.32488533842613
 23
17.51024096094766
 33
0.0
 14
-58.45011466157386
 24
13.97
 34
0.0
100
AcDbRotatedDimension
1001
PE_URL
1000

1001
ACAD
1000
DSTYLE
1002
{
1070
   171
1070
     8
1070
   273
1070
     7
1070
    41
1040
4.0
1070
   140
1040
4.0
1002
}
  0
LINE
  5
242
330
1F
100
AcDbEntity
  8
외형선
  6
Continuous
370
    15
100
AcDbLine
 10
-36.03143966157377
 20
13.97
 30
0.0
 11
-22.92503966157388
 21
13.97
 31
0.0
1001
PE_URL
1000

  0
LINE
  5
243
330
1F
100
AcDbEntity
  8
외형선
  6
Continuous
370
    15
100
AcDbLine
 10
-36.03143966157377
 20
13.97000000000001
 30
0.0
 11
-37.93643966157374
 21
15.875
 31
0.0
1001
PE_URL
1000

  0
LINE
  5
244
330
1F
100
AcDbEntity
  8
외형선
  6
Continuous
370
    15
100
AcDbLine
 10
-22.92503966157388
 20
13.97000000000001
 30
0.0
 11
-21.02003966157385
 21
15.875
 31
0.0
1001
PE_URL
1000

  0
LINE
  5
245
330
1F
100
AcDbEntity
  8
외형선
  6
Continuous
370
    15
100
AcDbLine
 10
-58.45011466157386
 20
13.97
 30
0.0
 11
-45.75011466157385
 21
13.97
 31
0.0
1001
PE_URL
1000

  0
LINE
  5
246
330
1F
100
AcDbEntity
  8
외형선
  6
Continuous
370
    15
100
AcDbLine
 10
-45.75011466157385
 20
13.97000000000001
 30
0.0
 11
-43.84511466157387
 21
15.87499999999999
 31
0.0
1001
PE_URL
1000

  0
LINE
  5
247
330
1F
100
AcDbEntity
  8
외형선
  6
Continuous
370
    15
100
AcDbLine
 10
-37.93643966157373
 20
15.875
 30
0.0
 11
-43.84511466157387
 21
15.87499999999999
 31
0.0
  0
ENDSEC
  0
SECTION
  2
OBJECTS
  0
DICTIONARY
  5
C
330
0
100
AcDbDictionary
281
     1
  3
ACAD_DETAILVIEWSTYLE
350
1F7
  3
ACAD_GROUP
350
D
  3
ACAD_IMAGE_VARS
350
26D
  3
ACAD_LAYOUT
350
1A
  3
ACAD_MLINESTYLE
350
17
  3
ACAD_PLOTSETTINGS
350
19
  3
ACAD_PLOTSTYLENAME
350
E
  3
ACAD_SCALELIST
350
47
  3
ACAD_SECTIONVIEWSTYLE
350
1F8
  3
AcDbVariableDictionary
350
1F2
  3
APPDATA
350
134
  3
DWGPROPS
350
26E
  0
DICTIONARY
  5
17D
330
2
100
AcDbDictionary
280
     1
281
     1
  3
ACAD_LAYERSTATES
360
17E
  0
DICTIONARY
  5
1F7
102
{ACAD_REACTORS
330
C
102
}
330
C
100
AcDbDictionary
281
     1
  0
DICTIONARY
  5
D
102
{ACAD_REACTORS
330
C
102
}
330
C
100
AcDbDictionary
281
     1
  0
RASTERVARIABLES
  5
26D
102
{ACAD_REACTORS
330
C
102
}
330
C
100
AcDbRasterVariables
 90
        0
 70
     1
 71
     1
 72
     1
  0
DICTIONARY
  5
1A
102
{ACAD_REACTORS
330
C
102
}
330
C
100
AcDbDictionary
281
     1
  3
Layout1
350
1E
  3
Layout2
350
26
  3
Model
350
22
  0
DICTIONARY
  5
17
102
{ACAD_REACTORS
330
C
102
}
330
C
100
AcDbDictionary
281
     1
  3
Standard
350
18
  0
DICTIONARY
  5
19
102
{ACAD_REACTORS
330
C
102
}
330
C
100
AcDbDictionary
281
     1
  0
ACDBDICTIONARYWDFLT
  5
E
102
{ACAD_REACTORS
330
C
102
}
330
C
100
AcDbDictionary
281
     1
  3
Normal
350
F
100
AcDbDictionaryWithDefault
340
F
  0
DICTIONARY
  5
47
102
{ACAD_REACTORS
330
C
102
}
330
C
100
AcDbDictionary
281
     1
  3
A0
350
48
  3
A1
350
49
  3
A2
350
4A
  3
A3
350
4B
  3
A4
350
4C
  3
A5
350
4D
  3
A6
350
4E
  3
A7
350
4F
  3
A8
350
50
  3
A9
350
51
  3
B0
350
52
  3
B1
350
53
  3
B2
350
54
  3
B3
350
55
  3
B4
350
56
  3
B5
350
57
  3
B6
350
58
  3
B7
350
59
  3
B8
350
5A
  3
B9
350
5B
  3
C0
350
5C
  3
C1
350
5D
  3
C2
350
5E
  3
C3
350
5F
  3
C4
350
60
  3
C5
350
61
  3
C6
350
62
  3
C7
350
63
  3
C8
350
64
  3
C9
350
65
  3
D0
350
66
  3
D1
350
67
  3
D2
350
68
  0
DICTIONARY
  5
1F8
102
{ACAD_REACTORS
330
C
102
}
330
C
100
AcDbDictionary
281
     1
  0
DICTIONARY
  5
1F2
102
{ACAD_REACTORS
330
C
102
}
330
C
100
AcDbDictionary
281
     1
  0
DICTIONARY
  5
134
102
{ACAD_REACTORS
330
C
102
}
330
C
100
AcDbDictionary
281
     1
  0
XRECORD
  5
26E
102
{ACAD_REACTORS
330
C
102
}
330
C
100
AcDbXrecord
280
     1
  1
DWGPROPS COOKIE
  2

  3

  4

  6

  7

  8
12016016
  9

300
=
301
=
302
=
303
=
304
=
305
=
306
=
307
=
308
=
309
=
 40
0.0
 41
2458311.188731505
 42
2458323.078480625
  1

 90
        0
  0
DICTIONARY
  5
17E
102
{ACAD_REACTORS
330
17D
102
}
330
17D
100
AcDbDictionary
281
     1
  0
LAYOUT
  5
1E
102
{ACAD_REACTORS
330
1A
102
}
330
1A
100
AcDbPlotSettings
  1

  2
none_device
  4

  6

 40
0.0
 41
0.0
 42
0.0
 43
0.0
 44
0.0
 45
0.0
 46
0.0
 47
0.0
 48
0.0
 49
0.0
140
0.0
141
0.0
142
1.0
143
1.0
 70
   688
 72
     1
 73
     0
 74
     5
  7

 75
    16
147
1.0
148
0.0
149
0.0
100
AcDbLayout
  1
Layout1
 70
     1
 71
     1
 10
0.0
 20
0.0
 11
420.0
 21
297.0
 12
0.0
 22
0.0
 32
0.0
 14
1.000000000000000E+20
 24
1.000000000000000E+20
 34
1.000000000000000E+20
 15
-1.000000000000000E+20
 25
-1.000000000000000E+20
 35
-1.000000000000000E+20
146
0.0
 13
0.0
 23
0.0
 33
0.0
 16
1.0
 26
0.0
 36
0.0
 17
0.0
 27
1.0
 37
0.0
 76
     0
330
1B
  0
LAYOUT
  5
26
102
{ACAD_REACTORS
330
1A
102
}
330
1A
100
AcDbPlotSettings
  1

  2
none_device
  4

  6

 40
0.0
 41
0.0
 42
0.0
 43
0.0
 44
0.0
 45
0.0
 46
0.0
 47
0.0
 48
0.0
 49
0.0
140
0.0
141
0.0
142
1.0
143
1.0
 70
   688
 72
     1
 73
     0
 74
     5
  7

 75
    16
147
1.0
148
0.0
149
0.0
100
AcDbLayout
  1
Layout2
 70
     1
 71
     2
 10
0.0
 20
0.0
 11
0.0
 21
0.0
 12
0.0
 22
0.0
 32
0.0
 14
0.0
 24
0.0
 34
0.0
 15
0.0
 25
0.0
 35
0.0
146
0.0
 13
0.0
 23
0.0
 33
0.0
 16
1.0
 26
0.0
 36
0.0
 17
0.0
 27
1.0
 37
0.0
 76
     0
330
23
  0
LAYOUT
  5
22
102
{ACAD_REACTORS
330
1A
102
}
330
1A
100
AcDbPlotSettings
  1

  2
none_device
  4
ANSI_A_(11.00_x_8.50_Inches)
  6

 40
6.35
 41
19.05
 42
6.35000508
 43
19.05000254
 44
279.4
 45
215.9
 46
111.5354592427306
 47
79.46089414116082
 48
0.0
 49
0.0
140
0.0
141
0.0
142
0.0715194751484015
143
1.0
 70
  1696
 72
     0
 73
     0
 74
     0
  7

 75
     0
147
0.0235690232323232
148
0.0
149
0.0
100
AcDbLayout
  1
Model
 70
     1
 71
     0
 10
0.0
 20
0.0
 11
420.0
 21
297.0
 12
0.0
 22
0.0
 32
0.0
 14
-78.325114661574
 24
-49.97180738881174
 34
0.0
 15
89.45089415377173
 25
58.69774096094771
 35
0.0
146
0.0
 13
0.0
 23
0.0
 33
0.0
 16
1.0
 26
0.0
 36
0.0
 17
0.0
 27
1.0
 37
0.0
 76
     0
330
1F
331
29
  0
MLINESTYLE
  5
18
102
{ACAD_REACTORS
330
17
102
}
330
17
100
AcDbMlineStyle
  2
Standard
 70
     0
  3

 62
   256
 51
90.0
 52
90.0
 71
     2
 49
0.5
 62
   256
  6
BYLAYER
 49
-0.5
 62
   256
  6
BYLAYER
  0
ACDBPLACEHOLDER
  5
F
102
{ACAD_REACTORS
330
E
102
}
330
E
  0
SCALE
  5
48
102
{ACAD_REACTORS
330
47
102
}
330
47
100
AcDbScale
 70
     0
300
1:1
140
1.0
141
1.0
290
     1
  0
SCALE
  5
49
102
{ACAD_REACTORS
330
47
102
}
330
47
100
AcDbScale
 70
     0
300
1:2
140
1.0
141
2.0
290
     0
  0
SCALE
  5
4A
102
{ACAD_REACTORS
330
47
102
}
330
47
100
AcDbScale
 70
     0
300
1:4
140
1.0
141
4.0
290
     0
  0
SCALE
  5
4B
102
{ACAD_REACTORS
330
47
102
}
330
47
100
AcDbScale
 70
     0
300
1:5
140
1.0
141
5.0
290
     0
  0
SCALE
  5
4C
102
{ACAD_REACTORS
330
47
102
}
330
47
100
AcDbScale
 70
     0
300
1:8
140
1.0
141
8.0
290
     0
  0
SCALE
  5
4D
102
{ACAD_REACTORS
330
47
102
}
330
47
100
AcDbScale
 70
     0
300
1:10
140
1.0
141
10.0
290
     0
  0
SCALE
  5
4E
102
{ACAD_REACTORS
330
47
102
}
330
47
100
AcDbScale
 70
     0
300
1:16
140
1.0
141
16.0
290
     0
  0
SCALE
  5
4F
102
{ACAD_REACTORS
330
47
102
}
330
47
100
AcDbScale
 70
     0
300
1:20
140
1.0
141
20.0
290
     0
  0
SCALE
  5
50
102
{ACAD_REACTORS
330
47
102
}
330
47
100
AcDbScale
 70
     0
300
1:30
140
1.0
141
30.0
290
     0
  0
SCALE
  5
51
102
{ACAD_REACTORS
330
47
102
}
330
47
100
AcDbScale
 70
     0
300
1:40
140
1.0
141
40.0
290
     0
  0
SCALE
  5
52
102
{ACAD_REACTORS
330
47
102
}
330
47
100
AcDbScale
 70
     0
300
1:50
140
1.0
141
50.0
290
     0
  0
SCALE
  5
53
102
{ACAD_REACTORS
330
47
102
}
330
47
100
AcDbScale
 70
     0
300
1:100
140
1.0
141
100.0
290
     0
  0
SCALE
  5
54
102
{ACAD_REACTORS
330
47
102
}
330
47
100
AcDbScale
 70
     0
300
2:1
140
2.0
141
1.0
290
     0
  0
SCALE
  5
55
102
{ACAD_REACTORS
330
47
102
}
330
47
100
AcDbScale
 70
     0
300
4:1
140
4.0
141
1.0
290
     0
  0
SCALE
  5
56
102
{ACAD_REACTORS
330
47
102
}
330
47
100
AcDbScale
 70
     0
300
8:1
140
8.0
141
1.0
290
     0
  0
SCALE
  5
57
102
{ACAD_REACTORS
330
47
102
}
330
47
100
AcDbScale
 70
     0
300
10:1
140
10.0
141
1.0
290
     0
  0
SCALE
  5
58
102
{ACAD_REACTORS
330
47
102
}
330
47
100
AcDbScale
 70
     0
300
100:1
140
100.0
141
1.0
290
     0
  0
SCALE
  5
59
102
{ACAD_REACTORS
330
47
102
}
330
47
100
AcDbScale
 70
     0
300
1/128" = 1'-0"
140
0.0078125
141
12.0
290
     0
  0
SCALE
  5
5A
102
{ACAD_REACTORS
330
47
102
}
330
47
100
AcDbScale
 70
     0
300
1/64" = 1'-0"
140
0.015625
141
12.0
290
     0
  0
SCALE
  5
5B
102
{ACAD_REACTORS
330
47
102
}
330
47
100
AcDbScale
 70
     0
300
1/32" = 1'-0"
140
0.03125
141
12.0
290
     0
  0
SCALE
  5
5C
102
{ACAD_REACTORS
330
47
102
}
330
47
100
AcDbScale
 70
     0
300
1/16" = 1'-0"
140
0.0625
141
12.0
290
     0
  0
SCALE
  5
5D
102
{ACAD_REACTORS
330
47
102
}
330
47
100
AcDbScale
 70
     0
300
3/32" = 1'-0"
140
0.09375
141
12.0
290
     0
  0
SCALE
  5
5E
102
{ACAD_REACTORS
330
47
102
}
330
47
100
AcDbScale
 70
     0
300
1/8" = 1'-0"
140
0.125
141
12.0
290
     0
  0
SCALE
  5
5F
102
{ACAD_REACTORS
330
47
102
}
330
47
100
AcDbScale
 70
     0
300
3/16" = 1'-0"
140
0.1875
141
12.0
290
     0
  0
SCALE
  5
60
102
{ACAD_REACTORS
330
47
102
}
330
47
100
AcDbScale
 70
     0
300
1/4" = 1'-0"
140
0.25
141
12.0
290
     0
  0
SCALE
  5
61
102
{ACAD_REACTORS
330
47
102
}
330
47
100
AcDbScale
 70
     0
300
3/8" = 1'-0"
140
0.375
141
12.0
290
     0
  0
SCALE
  5
62
102
{ACAD_REACTORS
330
47
102
}
330
47
100
AcDbScale
 70
     0
300
1/2" = 1'-0"
140
0.5
141
12.0
290
     0
  0
SCALE
  5
63
102
{ACAD_REACTORS
330
47
102
}
330
47
100
AcDbScale
 70
     0
300
3/4" = 1'-0"
140
0.75
141
12.0
290
     0
  0
SCALE
  5
64
102
{ACAD_REACTORS
330
47
102
}
330
47
100
AcDbScale
 70
     0
300
1" = 1'-0"
140
1.0
141
12.0
290
     0
  0
SCALE
  5
65
102
{ACAD_REACTORS
330
47
102
}
330
47
100
AcDbScale
 70
     0
300
1-1/2" = 1'-0"
140
1.5
141
12.0
290
     0
  0
SCALE
  5
66
102
{ACAD_REACTORS
330
47
102
}
330
47
100
AcDbScale
 70
     0
300
3" = 1'-0"
140
3.0
141
12.0
290
     0
  0
SCALE
  5
67
102
{ACAD_REACTORS
330
47
102
}
330
47
100
AcDbScale
 70
     0
300
6" = 1'-0"
140
6.0
141
12.0
290
     0
  0
SCALE
  5
68
102
{ACAD_REACTORS
330
47
102
}
330
47
100
AcDbScale
 70
     0
300
1'-0" = 1'-0"
140
12.0
141
12.0
290
     0
  0
ENDSEC
  0
EOF
