  0
SECTION
  2
HEADER
  9
$ACADVER
  1
AC1015
  9
$ACADMAINTVER
 70
     6
  9
$DWGCODEPAGE
  3
ANSI_949
  9
$INSBASE
 10
0.0
 20
0.0
 30
0.0
  9
$EXTMIN
 10
-78.32511466157398
 20
-49.97180738881174
 30
0.0
  9
$EXTMAX
 10
89.45089415377174
 20
59.28389923012477
 30
0.0
  9
$LIMMIN
 10
0.0
 20
0.0
  9
$LIMMAX
 10
420.0
 20
297.0
  9
$ORTHOMODE
 70
     1
  9
$REGENMODE
 70
     1
  9
$FILLMODE
 70
     1
  9
$QTEXTMODE
 70
     0
  9
$MIRRTEXT
 70
     1
  9
$LTSCALE
 40
1.0
  9
$ATTMODE
 70
     1
  9
$TEXTSIZE
 40
3.5
  9
$TRACEWID
 40
1.0
  9
$TEXTSTYLE
  7
Standard
  9
$CLAYER
  8
0
  9
$CELTYPE
  6
ByLayer
  9
$CECOLOR
 62
   256
  9
$CELTSCALE
 40
1.0
  9
$DISPSILH
 70
     0
  9
$DIMSCALE
 40
1.0
  9
$DIMASZ
 40
3.302
  9
$DIMEXO
 40
1.0
  9
$DIMDLI
 40
3.75
  9
$DIMRND
 40
0.0
  9
$DIMDLE
 40
0.0
  9
$DIMEXE
 40
1.0
  9
$DIMTP
 40
0.0
  9
$DIMTM
 40
0.0
  9
$DIMTXT
 40
3.5
  9
$DIMCEN
 40
2.5
  9
$DIMTSZ
 40
0.0
  9
$DIMTOL
 70
     0
  9
$DIMLIM
 70
     0
  9
$DIMTIH
 70
     1
  9
$DIMTOH
 70
     1
  9
$DIMSE1
 70
     0
  9
$DIMSE2
 70
     0
  9
$DIMTAD
 70
     1
  9
$DIMZIN
 70
     0
  9
$DIMBLK
  1

  9
$DIMASO
 70
     1
  9
$DIMSHO
 70
     1
  9
$DIMPOST
  1

  9
$DIMAPOST
  1

  9
$DIMALT
 70
     0
  9
$DIMALTD
 70
     3
  9
$DIMALTF
 40
0.0393700787401575
  9
$DIMLFAC
 40
1.0
  9
$DIMTOFL
 70
     1
  9
$DIMTVP
 40
0.0
  9
$DIMTIX
 70
     0
  9
$DIMSOXD
 70
     0
  9
$DIMSAH
 70
     0
  9
$DIMBLK1
  1

  9
$DIMBLK2
  1

  9
$DIMSTYLE
  2
ISO-25
  9
$DIMCLRD
 70
     0
  9
$DIMCLRE
 70
     0
  9
$DIMCLRT
 70
     0
  9
$DIMTFAC
 40
1.0
  9
$DIMGAP
 40
1.524
  9
$DIMJUST
 70
     0
  9
$DIMSD1
 70
     0
  9
$DIMSD2
 70
     0
  9
$DIMTOLJ
 70
     0
  9
$DIMTZIN
 70
     0
  9
$DIMALTZ
 70
     0
  9
$DIMALTTZ
 70
     0
  9
$DIMUPT
 70
     0
  9
$DIMDEC
 70
     2
  9
$DIMTDEC
 70
     2
  9
$DIMALTU
 70
     2
  9
$DIMALTTD
 70
     3
  9
$DIMTXSTY
  7
Standard
  9
$DIMAUNIT
 70
     0
  9
$DIMADEC
 70
     2
  9
$DIMALTRND
 40
0.0
  9
$DIMAZIN
 70
     0
  9
$DIMDSEP
 70
    44
  9
$DIMATFIT
 70
     3
  9
$DIMFRAC
 70
     0
  9
$DIMLDRBLK
  1

  9
$DIMLUNIT
 70
     2
  9
$DIMLWD
 70
    -2
  9
$DIMLWE
 70
    -2
  9
$DIMTMOVE
 70
     0
  9
$LUNITS
 70
     2
  9
$LUPREC
 70
     2
  9
$SKETCHINC
 40
1.0
  9
$FILLETRAD
 40
10.0
  9
$AUNITS
 70
     0
  9
$AUPREC
 70
     2
  9
$MENU
  1
.
  9
$ELEVATION
 40
0.0
  9
$PELEVATION
 40
0.0
  9
$THICKNESS
 40
0.0
  9
$LIMCHECK
 70
     0
  9
$CHAMFERA
 40
0.0
  9
$CHAMFERB
 40
0.0
  9
$CHAMFERC
 40
0.0
  9
$CHAMFERD
 40
0.0
  9
$SKPOLY
 70
     0
  9
$TDCREATE
 40
2458311.564154711
  9
$TDUCREATE
 40
2458311.189154711
  9
$TDUPDATE
 40
2458323.453390209
  9
$TDUUPDATE
 40
2458323.078390209
  9
$TDINDWG
 40
0.001350706
  9
$TDUSRTIMER
 40
2458323.078353796
  9
$USRTIMER
 70
     1
  9
$ANGBASE
 50
0.0
  9
$ANGDIR
 70
     0
  9
$PDMODE
 70
     0
  9
$PDSIZE
 40
-1.0
  9
$PLINEWID
 40
0.0
  9
$SPLFRAME
 70
     0
  9
$SPLINETYPE
 70
     6
  9
$SPLINESEGS
 70
     8
  9
$HANDSEED
  5
28E
  9
$SURFTAB1
 70
     6
  9
$SURFTAB2
 70
     6
  9
$SURFTYPE
 70
     6
  9
$SURFU
 70
     6
  9
$SURFV
 70
     6
  9
$UCSBASE
  2

  9
$UCSNAME
  2

  9
$UCSORG
 10
0.0
 20
0.0
 30
0.0
  9
$UCSXDIR
 10
1.0
 20
0.0
 30
0.0
  9
$UCSYDIR
 10
0.0
 20
1.0
 30
0.0
  9
$UCSORTHOREF
  2

  9
$UCSORTHOVIEW
 70
     0
  9
$UCSORGTOP
 10
0.0
 20
0.0
 30
0.0
  9
$UCSORGBOTTOM
 10
0.0
 20
0.0
 30
0.0
  9
$UCSORGLEFT
 10
0.0
 20
0.0
 30
0.0
  9
$UCSORGRIGHT
 10
0.0
 20
0.0
 30
0.0
  9
$UCSORGFRONT
 10
0.0
 20
0.0
 30
0.0
  9
$UCSORGBACK
 10
0.0
 20
0.0
 30
0.0
  9
$PUCSBASE
  2

  9
$PUCSNAME
  2

  9
$PUCSORG
 10
0.0
 20
0.0
 30
0.0
  9
$PUCSXDIR
 10
1.0
 20
0.0
 30
0.0
  9
$PUCSYDIR
 10
0.0
 20
1.0
 30
0.0
  9
$PUCSORTHOREF
  2

  9
$PUCSORTHOVIEW
 70
     0
  9
$PUCSORGTOP
 10
0.0
 20
0.0
 30
0.0
  9
$PUCSORGBOTTOM
 10
0.0
 20
0.0
 30
0.0
  9
$PUCSORGLEFT
 10
0.0
 20
0.0
 30
0.0
  9
$PUCSORGRIGHT
 10
0.0
 20
0.0
 30
0.0
  9
$PUCSORGFRONT
 10
0.0
 20
0.0
 30
0.0
  9
$PUCSORGBACK
 10
0.0
 20
0.0
 30
0.0
  9
$USERI1
 70
     0
  9
$USERI2
 70
     0
  9
$USERI3
 70
     0
  9
$USERI4
 70
     0
  9
$USERI5
 70
     0
  9
$USERR1
 40
0.0
  9
$USERR2
 40
0.0
  9
$USERR3
 40
0.0
  9
$USERR4
 40
0.0
  9
$USERR5
 40
0.0
  9
$WORLDVIEW
 70
     1
  9
$SHADEDGE
 70
     3
  9
$SHADEDIF
 70
    70
  9
$TILEMODE
 70
     1
  9
$MAXACTVP
 70
    64
  9
$PINSBASE
 10
0.0
 20
0.0
 30
0.0
  9
$PLIMCHECK
 70
     0
  9
$PEXTMIN
 10
1.000000000000000E+20
 20
1.000000000000000E+20
 30
1.000000000000000E+20
  9
$PEXTMAX
 10
-1.000000000000000E+20
 20
-1.000000000000000E+20
 30
-1.000000000000000E+20
  9
$PLIMMIN
 10
0.0
 20
0.0
  9
$PLIMMAX
 10
0.0
 20
0.0
  9
$UNITMODE
 70
     0
  9
$VISRETAIN
 70
     1
  9
$PLINEGEN
 70
     0
  9
$PSLTSCALE
 70
     1
  9
$TREEDEPTH
 70
  3020
  9
$CMLSTYLE
  2
Standard
  9
$CMLJUST
 70
     0
  9
$CMLSCALE
 40
20.0
  9
$PROXYGRAPHICS
 70
     1
  9
$MEASUREMENT
 70
     1
  9
$CELWEIGHT
370
    -1
  9
$ENDCAPS
280
     0
  9
$JOINSTYLE
280
     0
  9
$LWDISPLAY
290
     1
  9
$INSUNITS
 70
     4
  9
$HYPERLINKBASE
  1

  9
$STYLESHEET
  1

  9
$XEDIT
290
     1
  9
$CEPSNTYPE
380
     0
  9
$PSTYLEMODE
290
     1
  9
$FINGERPRINTGUID
  2
{6911AA64-4543-4895-8BEB-F09C82303074}
  9
$VERSIONGUID
  2
{FAEB1C32-E019-11D5-929B-00C0DF256EC4}
  9
$EXTNAMES
290
     1
  9
$PSVPSCALE
 40
0.0
  9
$OLESTARTUP
290
     0
  0
ENDSEC
  0
SECTION
  2
CLASSES
  0
CLASS
  1
ACDBDICTIONARYWDFLT
  2
AcDbDictionaryWithDefault
  3
ObjectDBX Classes
 90
        0
280
     0
281
     0
  0
CLASS
  1
VISUALSTYLE
  2
AcDbVisualStyle
  3
ObjectDBX Classes
 90
     4095
280
     0
281
     0
  0
CLASS
  1
MATERIAL
  2
AcDbMaterial
  3
ObjectDBX Classes
 90
     1153
280
     0
281
     0
  0
CLASS
  1
SCALE
  2
AcDbScale
  3
ObjectDBX Classes
 90
     1153
280
     0
281
     0
  0
CLASS
  1
SUN
  2
AcDbSun
  3
SCENEOE
 90
     1153
280
     0
281
     0
  0
CLASS
  1
ACDBPLACEHOLDER
  2
AcDbPlaceHolder
  3
ObjectDBX Classes
 90
        0
280
     0
281
     0
  0
CLASS
  1
LAYOUT
  2
AcDbLayout
  3
ObjectDBX Classes
 90
        0
280
     0
281
     0
  0
CLASS
  1
TABLESTYLE
  2
AcDbTableStyle
  3
ObjectDBX Classes
 90
     4095
280
     0
281
     0
  0
CLASS
  1
MLEADERSTYLE
  2
AcDbMLeaderStyle
  3
ACDB_MLEADERSTYLE_CLASS
 90
     4095
280
     0
281
     0
  0
CLASS
  1
DICTIONARYVAR
  2
AcDbDictionaryVar
  3
ObjectDBX Classes
 90
        0
280
     0
281
     0
  0
CLASS
  1
RASTERVARIABLES
  2
AcDbRasterVariables
  3
ISM
 90
        0
280
     0
281
     0
  0
ENDSEC
  0
SECTION
  2
TABLES
  0
TABLE
  2
VPORT
  5
8
330
0
100
AcDbSymbolTable
 70
     1
  0
VPORT
  5
29
330
8
100
AcDbSymbolTableRecord
100
AcDbViewportTableRecord
  2
*Active
 70
     0
 10
0.0
 20
0.0
 11
1.0
 21
1.0
 12
5.56288974609889
 22
4.656045920656517
 13
0.0
 23
0.0
 14
10.0
 24
10.0
 15
10.0
 25
10.0
 16
0.0
 26
0.0
 36
1.0
 17
0.0
 27
0.0
 37
0.0
 40
111.4408207513152
 41
1.782762691853601
 42
50.0
 43
0.0
 44
0.0
 50
0.0
 51
0.0
 71
    16
 72
  2000
 73
     1
 74
     3
 75
     0
 76
     0
 77
     0
 78
     0
281
     0
 65
     1
110
0.0
120
0.0
130
0.0
111
1.0
121
0.0
131
0.0
112
0.0
122
1.0
132
0.0
 79
     0
146
0.0
  0
ENDTAB
  0
TABLE
  2
LTYPE
  5
5
330
0
100
AcDbSymbolTable
 70
     6
  0
LTYPE
  5
14
330
5
100
AcDbSymbolTableRecord
100
AcDbLinetypeTableRecord
  2
ByBlock
 70
     0
  3

 72
    65
 73
     0
 40
0.0
  0
LTYPE
  5
15
330
5
100
AcDbSymbolTableRecord
100
AcDbLinetypeTableRecord
  2
ByLayer
 70
     0
  3

 72
    65
 73
     0
 40
0.0
  0
LTYPE
  5
16
330
5
100
AcDbSymbolTableRecord
100
AcDbLinetypeTableRecord
  2
Continuous
 70
     0
  3
Solid line
 72
    65
 73
     0
 40
0.0
  0
LTYPE
  5
6A
330
5
100
AcDbSymbolTableRecord
100
AcDbLinetypeTableRecord
  2
HIDDEN
 70
     0
  3
Hidden __ __ __ __ __ __ __ __ __ __ __ __ __ __
 72
    65
 73
     2
 40
1.905
 49
1.27
 74
     0
 49
-0.635
 74
     0
  0
LTYPE
  5
6B
330
5
100
AcDbSymbolTableRecord
100
AcDbLinetypeTableRecord
  2
PHANTOM
 70
     0
  3
Phantom ______  __  __  ______  __  __  ______
 72
    65
 73
     6
 40
12.7
 49
6.35
 74
     0
 49
-1.27
 74
     0
 49
1.27
 74
     0
 49
-1.27
 74
     0
 49
1.27
 74
     0
 49
-1.27
 74
     0
  0
LTYPE
  5
6C
330
5
100
AcDbSymbolTableRecord
100
AcDbLinetypeTableRecord
  2
CENTER
 70
     0
  3
Center ____ _ ____ _ ____ _ ____ _ ____ _ ____
 72
    65
 73
     4
 40
10.16
 49
6.35
 74
     0
 49
-1.27
 74
     0
 49
1.27
 74
     0
 49
-1.27
 74
     0
  0
LTYPE
  5
6D
330
5
100
AcDbSymbolTableRecord
100
AcDbLinetypeTableRecord
  2
CENTERX2
 70
     0
  3
Center (2x) ________  __  ________  __  _____
 72
    65
 73
     4
 40
20.32
 49
12.7
 74
     0
 49
-2.54
 74
     0
 49
2.54
 74
     0
 49
-2.54
 74
     0
  0
LTYPE
  5
6E
330
5
100
AcDbSymbolTableRecord
100
AcDbLinetypeTableRecord
  2
DOT2
 70
     0
  3
Dot (.5x) ........................................
 72
    65
 73
     2
 40
0.635
 49
0.0
 74
     0
 49
-0.635
 74
     0
  0
ENDTAB
  0
TABLE
  2
LAYER
  5
2
102
{ACAD_XDICTIONARY
360
186
102
}
330
0
100
AcDbSymbolTable
 70
    18
  0
LAYER
  5
10
330
2
100
AcDbSymbolTableRecord
100
AcDbLayerTableRecord
  2
0
 70
     0
 62
     7
  6
Continuous
370
    -3
390
F
  0
LAYER
  5
6F
330
2
100
AcDbSymbolTableRecord
100
AcDbLayerTableRecord
  2
FORMAT
 70
     0
 62
     2
  6
Continuous
370
    -3
390
F
  0
LAYER
  5
70
330
2
100
AcDbSymbolTableRecord
100
AcDbLayerTableRecord
  2
외형선
 70
     0
 62
     4
  6
Continuous
370
    30
390
F
  0
LAYER
  5
71
330
2
100
AcDbSymbolTableRecord
100
AcDbLayerTableRecord
  2
숨은선
 70
     0
 62
     2
  6
HIDDEN
370
    15
390
F
  0
LAYER
  5
72
330
2
100
AcDbSymbolTableRecord
100
AcDbLayerTableRecord
  2
중심선
 70
     0
 62
     1
  6
CENTERX2
370
    -3
390
F
  0
LAYER
  5
73
330
2
100
AcDbSymbolTableRecord
100
AcDbLayerTableRecord
  2
파단선
 70
     0
 62
     4
  6
Continuous
370
    -3
390
F
  0
LAYER
  5
74
330
2
100
AcDbSymbolTableRecord
100
AcDbLayerTableRecord
  2
해칭선
 70
     0
 62
   100
  6
Continuous
370
    -3
390
F
  0
LAYER
  5
75
330
2
100
AcDbSymbolTableRecord
100
AcDbLayerTableRecord
  2
가는실선
 70
     0
 62
     4
  6
Continuous
370
    -3
390
F
  0
LAYER
  5
76
330
2
100
AcDbSymbolTableRecord
100
AcDbLayerTableRecord
  2
치수_보조선
 70
     0
 62
     4
  6
Continuous
370
    -3
390
F
  0
LAYER
  5
77
330
2
100
AcDbSymbolTableRecord
100
AcDbLayerTableRecord
  2
치수문자_일반주서
 70
     0
 62
     7
  6
Continuous
370
    15
390
F
  0
LAYER
  5
78
330
2
100
AcDbSymbolTableRecord
100
AcDbLayerTableRecord
  2
개별주서
 70
     0
 62
   100
  6
Continuous
370
    30
390
F
  0
LAYER
  5
79
330
2
100
AcDbSymbolTableRecord
100
AcDbLayerTableRecord
  2
중간선
 70
     0
 62
     2
  6
Continuous
370
    15
390
F
  0
LAYER
  5
7A
330
2
100
AcDbSymbolTableRecord
100
AcDbLayerTableRecord
  2
윤곽선
 70
     0
 62
     3
  6
Continuous
370
    40
390
F
  0
LAYER
  5
7B
330
2
100
AcDbSymbolTableRecord
100
AcDbLayerTableRecord
  2
중심마크
 70
     0
 62
   100
  6
Continuous
370
    30
390
F
  0
LAYER
  5
7C
330
2
100
AcDbSymbolTableRecord
100
AcDbLayerTableRecord
  2
가상선
 70
     0
 62
     4
  6
PHANTOM
370
    -3
390
F
  0
LAYER
  5
7D
330
2
100
AcDbSymbolTableRecord
100
AcDbLayerTableRecord
  2
특수지정선
 70
     0
 62
     5
  6
CENTERX2
370
    60
390
F
  0
LAYER
  5
7E
330
2
100
AcDbSymbolTableRecord
100
AcDbLayerTableRecord
  2
참조1
 70
     0
 62
    -4
  6
Continuous
370
    -3
390
F
  0
LAYER
  5
201
330
2
100
AcDbSymbolTableRecord
100
AcDbLayerTableRecord
  2
Defpoints
 70
     0
 62
     7
  6
Continuous
290
     0
370
    -3
390
F
  0
ENDTAB
  0
TABLE
  2
STYLE
  5
3
330
0
100
AcDbSymbolTable
 70
     2
  0
STYLE
  5
11
330
3
100
AcDbSymbolTableRecord
100
AcDbTextStyleTableRecord
  2
Standard
 70
     0
 40
0.0
 41
1.0
 50
0.0
 71
     0
 42
3.5
  3
txt
  4

  0
STYLE
  5
94
330
3
100
AcDbSymbolTableRecord
100
AcDbTextStyleTableRecord
  2
SLDTEXTSTYLE0
 70
     0
 40
0.0
 41
0.75
 50
0.0
 71
     0
 42
3.5
  3
TXT
  4

  0
ENDTAB
  0
TABLE
  2
VIEW
  5
6
330
0
100
AcDbSymbolTable
 70
     0
  0
ENDTAB
  0
TABLE
  2
UCS
  5
7
330
0
100
AcDbSymbolTable
 70
     0
  0
ENDTAB
  0
TABLE
  2
APPID
  5
9
330
0
100
AcDbSymbolTable
 70
     4
  0
APPID
  5
12
330
9
100
AcDbSymbolTableRecord
100
AcDbRegAppTableRecord
  2
ACAD
 70
     0
  0
APPID
  5
13D
330
9
100
AcDbSymbolTableRecord
100
AcDbRegAppTableRecord
  2
PE_URL
 70
     0
  0
APPID
  5
268
330
9
100
AcDbSymbolTableRecord
100
AcDbRegAppTableRecord
  2
ACAD_DSTYLE_DIMFLIPARROW_SYMBOL
 70
     0
  0
APPID
  5
269
330
9
100
AcDbSymbolTableRecord
100
AcDbRegAppTableRecord
  2
ACAD_DSTYLE_DIMFLIPARROW_WHICH_SYMBOL
 70
     0
  0
ENDTAB
  0
TABLE
  2
DIMSTYLE
  5
A
330
0
100
AcDbSymbolTable
 70
     5
100
AcDbDimStyleTable
  0
DIMSTYLE
105
27
330
A
100
AcDbSymbolTableRecord
100
AcDbDimStyleTableRecord
  2
ISO-25
 70
     0
 41
2.5
 42
0.625
 43
3.75
 44
1.25
 73
     0
 74
     0
 77
     1
 78
     8
140
2.5
141
2.5
143
0.03937007874016
147
0.625
171
     3
172
     1
178
     0
271
     2
272
     2
274
     3
278
    44
283
     0
284
     8
340
11
  0
DIMSTYLE
105
BC
330
A
100
AcDbSymbolTableRecord
100
AcDbDimStyleTableRecord
  2
SLDDIMSTYLE0
 70
     0
 41
3.302
 44
0.0
 45
0.000000001
 73
     0
 74
     0
 77
     1
 78
     4
 79
     1
140
3.5
147
0.875
172
     1
173
     1
178
     0
271
     2
272
     2
276
     2
284
    12
289
     0
340
94
  0
DIMSTYLE
105
CA
330
A
100
AcDbSymbolTableRecord
100
AcDbDimStyleTableRecord
  2
SLDDIMSTYLE1
 70
     0
 41
3.302
 44
0.0
 45
0.000000001
 73
     0
 74
     0
 77
     1
 78
     4
 79
     1
140
3.5
143
0.0393700787401575
147
0.875
148
0.000000001
170
     1
172
     1
173
     1
178
     0
271
     2
272
     2
276
     2
284
    12
289
     0
340
94
  0
DIMSTYLE
105
E0
102
{ACAD_REACTORS
330
DF
330
F3
330
C9
330
BB
102
}
330
A
100
AcDbSymbolTableRecord
100
AcDbDimStyleTableRecord
  2
SLDDIMSTYLE2
 70
     0
 41
3.302
 44
0.0
 45
0.000000001
 73
     0
 74
     0
 77
     1
 78
     4
 79
     1
140
3.5
143
0.0393700787401575
147
0.875
148
0.000000001
170
     1
173
     1
178
     0
271
     2
272
     2
276
     2
284
    12
340
94
  0
DIMSTYLE
105
F4
330
A
100
AcDbSymbolTableRecord
100
AcDbDimStyleTableRecord
  2
SLDDIMSTYLE3
 70
     0
 41
3.302
 44
0.0
 45
0.000000001
 73
     0
 74
     0
 77
     1
 78
    12
 79
     3
140
3.5
143
0.0393700787401575
147
0.875
148
0.000000001
170
     1
173
     1
178
     0
271
     2
272
     2
276
     2
284
    12
340
94
  0
ENDTAB
  0
TABLE
  2
BLOCK_RECORD
  5
1
330
0
100
AcDbSymbolTable
 70
     9
  0
BLOCK_RECORD
  5
1F
330
1
100
AcDbSymbolTableRecord
100
AcDbBlockTableRecord
  2
*Model_Space
340
22
  0
BLOCK_RECORD
  5
1B
330
1
100
AcDbSymbolTableRecord
100
AcDbBlockTableRecord
  2
*Paper_Space
340
1E
  0
BLOCK_RECORD
  5
23
330
1
100
AcDbSymbolTableRecord
100
AcDbBlockTableRecord
  2
*Paper_Space0
340
26
  0
BLOCK_RECORD
  5
7F
330
1
100
AcDbSymbolTableRecord
100
AcDbBlockTableRecord
  2
블럭10
340
0
102
{BLKREFS
331
B4
102
}
  0
BLOCK_RECORD
  5
BD
330
1
100
AcDbSymbolTableRecord
100
AcDbBlockTableRecord
  2
_D
340
0
  0
BLOCK_RECORD
  5
CB
330
1
100
AcDbSymbolTableRecord
100
AcDbBlockTableRecord
  2
_D_1
340
0
  0
BLOCK_RECORD
  5
E1
330
1
100
AcDbSymbolTableRecord
100
AcDbBlockTableRecord
  2
_D_2
340
0
  0
BLOCK_RECORD
  5
F5
330
1
100
AcDbSymbolTableRecord
100
AcDbBlockTableRecord
  2
_D_3
340
0
  0
BLOCK_RECORD
  5
10E
330
1
100
AcDbSymbolTableRecord
100
AcDbBlockTableRecord
  2
SW_DOWELSYMBOL_0
340
0
102
{BLKREFS
331
1A8
102
}
  0
BLOCK_RECORD
  5
237
330
1
100
AcDbSymbolTableRecord
100
AcDbBlockTableRecord
  2
*D7
340
0
  0
BLOCK_RECORD
  5
246
330
1
100
AcDbSymbolTableRecord
100
AcDbBlockTableRecord
  2
*D8
340
0
  0
ENDTAB
  0
ENDSEC
  0
SECTION
  2
BLOCKS
  0
BLOCK
  5
20
330
1F
100
AcDbEntity
  8
0
100
AcDbBlockBegin
  2
*Model_Space
 70
     0
 10
0.0
 20
0.0
 30
0.0
  3
*Model_Space
  1
*Model_Space
  0
ENDBLK
  5
21
330
1F
100
AcDbEntity
  8
0
100
AcDbBlockEnd
  0
BLOCK
  5
1C
330
1B
100
AcDbEntity
 67
     1
  8
0
100
AcDbBlockBegin
  2
*Paper_Space
 70
     0
 10
0.0
 20
0.0
 30
0.0
  3
*Paper_Space
  1
*Paper_Space
  0
ENDBLK
  5
1D
330
1B
100
AcDbEntity
 67
     1
  8
0
100
AcDbBlockEnd
  0
BLOCK
  5
24
330
23
100
AcDbEntity
  8
0
100
AcDbBlockBegin
  2
*Paper_Space0
 70
     0
 10
0.0
 20
0.0
 30
0.0
  3
*Paper_Space0
  1
*Paper_Space0
  0
ENDBLK
  5
25
330
23
100
AcDbEntity
  8
0
100
AcDbBlockEnd
  0
BLOCK
  5
80
330
7F
100
AcDbEntity
  8
0
100
AcDbBlockBegin
  2
블럭10
 70
     2
 10
0.0
 20
0.0
 30
0.0
  3
블럭10
  1
블럭10
  0
ELLIPSE
  5
82
330
7F
100
AcDbEntity
  8
중심선
100
AcDbEllipse
 10
20.54032771741204
 20
12.0471743016438
 30
0.0
 11
6.600054785286829
 21
-1.261213355974178E-13
 31
0.0
210
0.0
220
0.0
230
1.0
 40
0.636358354079598
 41
0.9219305317359503
 42
6.513795318482858
  0
ELLIPSE
  5
83
330
7F
100
AcDbEntity
  8
중심선
100
AcDbEllipse
 10
20.54032771746488
 20
12.04717430159265
 30
0.0
 11
3.960054785062283
 21
1.540847449632565E-10
 31
0.0
210
0.0
220
0.0
230
1.0
 40
0.3939339440162632
 41
1.131841032648279
 42
5.62031148352944
  0
LINE
  5
84
330
7F
100
AcDbEntity
  8
중심선
100
AcDbLine
 10
2.268634060543552
 20
16.24717430164393
 30
0.0
 11
5.714909304380834
 21
16.24717430164393
 31
0.0
  0
LINE
  5
85
330
7F
100
AcDbEntity
  8
중심선
100
AcDbLine
 10
5.245725140726316
 20
7.84717430164391
 30
0.0
 11
8.692000384563599
 21
7.84717430164391
 31
0.0
  0
LINE
  5
86
330
7F
100
AcDbEntity
  8
중심선
100
AcDbLine
 10
15.74043728645272
 20
16.24717430164393
 30
0.0
 11
8.692000384563599
 21
7.84717430164391
 31
0.0
  0
LINE
  5
87
330
7F
100
AcDbEntity
  8
중심선
100
AcDbLine
 10
0.1404042013395286
 20
13.71084872107135
 30
0.0
 11
3.58671253028996
 21
13.71088815037384
 31
0.0
  0
LINE
  5
88
330
7F
100
AcDbEntity
  8
중심선
100
AcDbLine
 10
2.750260043222114
 20
10.84717430164391
 30
0.0
 11
6.196535287059397
 21
10.84717430164391
 31
0.0
  0
LINE
  5
89
330
7F
100
AcDbEntity
  8
중심선
100
AcDbLine
 10
12.29416204261559
 20
16.24717430164393
 30
0.0
 11
5.245725140726316
 21
7.84717430164391
 31
0.0
  0
LINE
  5
8A
330
7F
100
AcDbEntity
  8
중심선
100
AcDbLine
 10
10.72767329541681
 20
16.24717430164393
 30
0.0
 11
6.196535287059397
 21
10.84717430164391
 31
0.0
  0
LINE
  5
8B
330
7F
100
AcDbEntity
  8
중심선
100
AcDbLine
 10
7.28139805157953
 20
16.24717430164393
 30
0.0
 11
2.750260043222114
 21
10.84717430164391
 31
0.0
  0
LINE
  5
8C
330
7F
100
AcDbEntity
  8
중심선
100
AcDbLine
 10
5.714909304380834
 20
16.24717430164393
 30
0.0
 11
3.58671253028996
 21
13.71088815037384
 31
0.0
  0
LINE
  5
8D
330
7F
100
AcDbEntity
  8
중심선
100
AcDbLine
 10
2.268634060543552
 20
16.24717430164393
 30
0.0
 11
0.1404042013395286
 21
13.71084872107135
 31
0.0
  0
LINE
  5
8E
330
7F
100
AcDbEntity
  8
중심선
100
AcDbLine
 10
7.28139805157953
 20
16.24717430164393
 30
0.0
 11
10.72767329541681
 21
16.24717430164393
 31
0.0
  0
LINE
  5
8F
330
7F
100
AcDbEntity
  8
중심선
100
AcDbLine
 10
12.29416204261559
 20
16.24717430164393
 30
0.0
 11
15.74043728645272
 21
16.24717430164393
 31
0.0
  0
LINE
  5
90
330
7F
100
AcDbEntity
  8
중심선
100
AcDbLine
 10
19.22036997980202
 20
11.08717430171403
 30
0.0
 11
23.66174974927406
 21
11.08717430171406
 31
0.0
  0
LINE
  5
91
330
7F
100
AcDbEntity
  8
중심선
100
AcDbLine
 10
19.22039502424796
 20
13.00717430171391
 30
0.0
 11
19.22036997980202
 21
11.08717430171403
 31
0.0
  0
LINE
  5
92
330
7F
100
AcDbEntity
  8
중심선
100
AcDbLine
 10
19.22039502424796
 20
13.00717430171391
 30
0.0
 11
26.96566020931264
 21
13.00717430171391
 31
0.0
  0
LINE
  5
93
330
7F
100
AcDbEntity
  8
중심선
100
AcDbLine
 10
22.22332737316547
 20
13.45928029700563
 30
0.0
 11
24.52862924686651
 21
15.39360700705356
 31
0.0
  0
ATTDEF
  5
95
330
7F
100
AcDbEntity
  8
FORMAT
 62
     2
100
AcDbText
 10
4.408487351596664
 20
2.075366912832191
 30
0.0
 40
4.233333333333333
  1
E1030132
 41
0.75
  7
SLDTEXTSTYLE0
 11
4.408487351596664
 21
-0.0412997538344756
 31
0.0
100
AcDbAttributeDefinition
  3

  2
AUTOATTR0
 70
     0
 74
     1
  0
ENDBLK
  5
81
330
7F
100
AcDbEntity
  8
0
100
AcDbBlockEnd
  0
BLOCK
  5
BE
330
BD
100
AcDbEntity
  8
0
100
AcDbBlockBegin
  2
_D
 70
     0
 10
0.0
 20
0.0
 30
0.0
  3
_D
  1
_D
  0
LINE
  5
C0
330
BD
100
AcDbEntity
  8
치수문자_일반주서
 62
     0
370
    -2
100
AcDbLine
 10
-43.90761466157386
 20
15.87499999999999
 30
0.0
 11
-73.45011466157383
 21
15.87499999999988
 31
0.0
  0
LINE
  5
C1
330
BD
100
AcDbEntity
  8
치수문자_일반주서
 62
     0
370
    -2
100
AcDbLine
 10
-57.45011466157385
 20
-15.87500000000001
 30
0.0
 11
-73.45011466157372
 21
-15.87500000000006
 31
0.0
  0
LINE
  5
C2
330
BD
100
AcDbEntity
  8
치수문자_일반주서
 62
     0
370
    -2
100
AcDbLine
 10
-73.45011466157383
 20
15.87499999999988
 30
0.0
 11
-73.45011466157399
 21
55.62499999999989
 31
0.0
  0
LINE
  5
C3
330
BD
100
AcDbEntity
  8
치수문자_일반주서
 62
     0
370
    -2
100
AcDbLine
 10
-73.45011466157383
 20
15.87499999999988
 30
0.0
 11
-73.45011466157372
 21
-15.87500000000006
 31
0.0
  0
LINE
  5
C4
330
BD
100
AcDbEntity
  8
치수문자_일반주서
 62
     0
370
    -2
100
AcDbLine
 10
-73.45011466157385
 20
19.87499999999988
 30
0.0
 11
-73.45011466157386
 21
23.87499999999988
 31
0.0
  0
LINE
  5
C5
330
BD
100
AcDbEntity
  8
치수문자_일반주서
 62
     0
370
    -2
100
AcDbLine
 10
-73.4501146615737
 20
-19.87500000000006
 30
0.0
 11
-73.45011466157369
 21
-23.87500000000006
 31
0.0
  0
SOLID
  5
C6
330
BD
100
AcDbEntity
  8
치수문자_일반주서
 62
     0
100
AcDbTrace
 10
-74.11678132824052
 20
19.87499999999988
 30
0.0
 11
-72.78344799490718
 21
19.87499999999989
 31
0.0
 12
-73.45011466157383
 22
15.87499999999988
 32
0.0
 13
-73.45011466157383
 23
15.87499999999988
 33
0.0
  0
SOLID
  5
C7
330
BD
100
AcDbEntity
  8
치수문자_일반주서
 62
     0
100
AcDbTrace
 10
-72.78344799490704
 20
-19.87500000000006
 30
0.0
 11
-74.11678132824038
 21
-19.87500000000007
 31
0.0
 12
-73.45011466157372
 22
-15.87500000000006
 32
0.0
 13
-73.45011466157372
 23
-15.87500000000006
 33
0.0
  0
MTEXT
  5
C8
330
BD
100
AcDbEntity
  8
치수문자_일반주서
 62
     0
100
AcDbMText
 10
-78.32511466157392
 20
37.74999999999987
 30
0.0
 40
4.0
 41
0.0
 71
     2
 72
     1
  1
\A1;%%c31.75 [1 1/4]
  7
SLDTEXTSTYLE0
 11
-3.580687802255628E-15
 21
1.0
 31
0.0
 73
     1
 44
1.0
  0
POINT
  5
262
330
BD
100
AcDbEntity
  8
Defpoints
 62
     0
100
AcDbPoint
 10
-43.84511466157386
 20
15.87499999999999
 30
0.0
  0
POINT
  5
263
330
BD
100
AcDbEntity
  8
Defpoints
 62
     0
100
AcDbPoint
 10
-57.38761466157385
 20
-15.87500000000001
 30
0.0
  0
POINT
  5
264
330
BD
100
AcDbEntity
  8
Defpoints
 62
     0
100
AcDbPoint
 10
-73.45011466157372
 20
-15.87500000000007
 30
0.0
  0
ENDBLK
  5
BF
330
BD
100
AcDbEntity
  8
0
100
AcDbBlockEnd
  0
BLOCK
  5
CC
330
CB
100
AcDbEntity
  8
0
100
AcDbBlockBegin
  2
_D_1
 70
     0
 10
0.0
 20
0.0
 30
0.0
  3
_D_1
  1
_D_1
  0
LINE
  5
CE
330
CB
100
AcDbEntity
  8
치수문자_일반주서
 62
     0
370
    -2
100
AcDbLine
 10
46.32488533842614
 20
19.09639923012429
 30
0.0
 11
46.32488533842614
 21
30.875
 31
0.0
  0
LINE
  5
CF
330
CB
100
AcDbEntity
  8
치수문자_일반주서
 62
     0
370
    -2
100
AcDbLine
 10
5.049885338426146
 20
5.5353493240694
 30
0.0
 11
5.049885338426147
 21
30.875
 31
0.0
  0
LINE
  5
D0
330
CB
100
AcDbEntity
  8
치수문자_일반주서
 62
     0
370
    -2
100
AcDbLine
 10
42.32488533842614
 20
30.875
 30
0.0
 11
9.049885338426147
 21
30.875
 31
0.0
  0
SOLID
  5
D1
330
CB
100
AcDbEntity
  8
치수문자_일반주서
 62
     0
100
AcDbTrace
 10
42.32488533842614
 20
30.20833333333334
 30
0.0
 11
42.32488533842614
 21
31.54166666666667
 31
0.0
 12
46.32488533842614
 22
30.875
 32
0.0
 13
46.32488533842614
 23
30.875
 33
0.0
  0
SOLID
  5
D2
330
CB
100
AcDbEntity
  8
치수문자_일반주서
 62
     0
100
AcDbTrace
 10
9.049885338426147
 20
31.54166666666667
 30
0.0
 11
9.049885338426147
 21
30.20833333333334
 31
0.0
 12
5.049885338426147
 22
30.875
 32
0.0
 13
5.049885338426147
 23
30.875
 33
0.0
  0
MTEXT
  5
D3
330
CB
100
AcDbEntity
  8
치수문자_일반주서
 62
     0
100
AcDbMText
 10
25.68738533842615
 20
35.75
 30
0.0
 40
4.0
 41
0.0
 71
     2
 72
     1
  1
\A1;41.28 [1 5/8]
  7
SLDTEXTSTYLE0
 73
     1
 44
1.0
  0
POINT
  5
D4
330
CB
100
AcDbEntity
  8
Defpoints
 62
     0
100
AcDbPoint
 10
46.32488533842614
 20
19.03389923012429
 30
0.0
  0
POINT
  5
D5
330
CB
100
AcDbEntity
  8
Defpoints
 62
     0
100
AcDbPoint
 10
5.049885338426146
 20
5.4728493240694
 30
0.0
  0
POINT
  5
D6
330
CB
100
AcDbEntity
  8
Defpoints
 62
     0
100
AcDbPoint
 10
5.049885338426146
 20
30.875
 30
0.0
  0
ENDBLK
  5
CD
330
CB
100
AcDbEntity
  8
0
100
AcDbBlockEnd
  0
BLOCK
  5
E2
330
E1
100
AcDbEntity
  8
0
100
AcDbBlockBegin
  2
_D_2
 70
     0
 10
0.0
 20
0.0
 30
0.0
  3
_D_2
  1
_D_2
  0
LINE
  5
E4
330
E1
100
AcDbEntity
  8
치수문자_일반주서
 62
     0
370
    -2
100
AcDbLine
 10
46.32488533842614
 20
19.09639923012429
 30
0.0
 11
46.32488533842614
 21
45.875
 31
0.0
  0
LINE
  5
E5
330
E1
100
AcDbEntity
  8
치수문자_일반주서
 62
     0
370
    -2
100
AcDbLine
 10
-58.45011466157386
 20
14.03250000000001
 30
0.0
 11
-58.45011466157386
 21
45.875
 31
0.0
  0
LINE
  5
E6
330
E1
100
AcDbEntity
  8
치수문자_일반주서
 62
     0
370
    -2
100
AcDbLine
 10
42.32488533842614
 20
45.875
 30
0.0
 11
-54.45011466157386
 21
45.875
 31
0.0
  0
SOLID
  5
E7
330
E1
100
AcDbEntity
  8
치수문자_일반주서
 62
     0
100
AcDbTrace
 10
42.32488533842614
 20
45.20833333333334
 30
0.0
 11
42.32488533842614
 21
46.54166666666666
 31
0.0
 12
46.32488533842614
 22
45.875
 32
0.0
 13
46.32488533842614
 23
45.875
 33
0.0
  0
SOLID
  5
E8
330
E1
100
AcDbEntity
  8
치수문자_일반주서
 62
     0
100
AcDbTrace
 10
-54.45011466157386
 20
46.54166666666666
 30
0.0
 11
-54.45011466157386
 21
45.20833333333334
 31
0.0
 12
-58.45011466157386
 22
45.875
 32
0.0
 13
-58.45011466157386
 23
45.875
 33
0.0
  0
MTEXT
  5
E9
330
E1
100
AcDbEntity
  8
치수문자_일반주서
 62
     0
100
AcDbMText
 10
-6.062614661573861
 20
50.75
 30
0.0
 40
4.0
 41
0.0
 71
     2
 72
     1
  1
\A1;104.78 [4 1/8]
  7
SLDTEXTSTYLE0
 73
     1
 44
1.0
  0
POINT
  5
EA
330
E1
100
AcDbEntity
  8
Defpoints
 62
     0
100
AcDbPoint
 10
46.32488533842614
 20
19.03389923012429
 30
0.0
  0
POINT
  5
EB
330
E1
100
AcDbEntity
  8
Defpoints
 62
     0
100
AcDbPoint
 10
-58.45011466157386
 20
13.97000000000001
 30
0.0
  0
POINT
  5
EC
330
E1
100
AcDbEntity
  8
Defpoints
 62
     0
100
AcDbPoint
 10
-58.45011466157386
 20
45.875
 30
0.0
  0
ENDBLK
  5
E3
330
E1
100
AcDbEntity
  8
0
100
AcDbBlockEnd
  0
BLOCK
  5
F6
330
F5
100
AcDbEntity
  8
0
100
AcDbBlockBegin
  2
_D_3
 70
     0
 10
0.0
 20
0.0
 30
0.0
  3
_D_3
  1
_D_3
  0
LINE
  5
F8
330
F5
100
AcDbEntity
  8
치수문자_일반주서
 62
     0
370
    -2
100
AcDbLine
 10
46.38738533842616
 20
-19.0338992301247
 30
0.0
 11
61.32488533842626
 21
-19.03389923012465
 31
0.0
  0
LINE
  5
F9
330
F5
100
AcDbEntity
  8
치수문자_일반주서
 62
     0
370
    -2
100
AcDbLine
 10
46.38738533842616
 20
19.03389923012472
 30
0.0
 11
61.32488533842612
 21
19.03389923012478
 31
0.0
  0
LINE
  5
FA
330
F5
100
AcDbEntity
  8
치수문자_일반주서
 62
     0
370
    -2
100
AcDbLine
 10
61.32488533842612
 20
19.03389923012478
 30
0.0
 11
61.32488533842598
 21
59.28389923012478
 31
0.0
  0
LINE
  5
FB
330
F5
100
AcDbEntity
  8
치수문자_일반주서
 62
     0
370
    -2
100
AcDbLine
 10
61.32488533842626
 20
-19.03389923012465
 30
0.0
 11
61.32488533842612
 21
19.03389923012478
 31
0.0
  0
LINE
  5
FC
330
F5
100
AcDbEntity
  8
치수문자_일반주서
 62
     0
370
    -2
100
AcDbLine
 10
61.32488533842627
 20
-23.03389923012465
 30
0.0
 11
61.32488533842628
 21
-27.03389923012465
 31
0.0
  0
LINE
  5
FD
330
F5
100
AcDbEntity
  8
치수문자_일반주서
 62
     0
370
    -2
100
AcDbLine
 10
61.32488533842611
 20
23.03389923012478
 30
0.0
 11
61.32488533842609
 21
27.03389923012478
 31
0.0
  0
SOLID
  5
FE
330
F5
100
AcDbEntity
  8
치수문자_일반주서
 62
     0
100
AcDbTrace
 10
61.99155200509293
 20
-23.03389923012464
 30
0.0
 11
60.65821867175961
 21
-23.03389923012465
 31
0.0
 12
61.32488533842626
 22
-19.03389923012465
 32
0.0
 13
61.32488533842626
 23
-19.03389923012465
 33
0.0
  0
SOLID
  5
FF
330
F5
100
AcDbEntity
  8
치수문자_일반주서
 62
     0
100
AcDbTrace
 10
60.65821867175944
 20
23.03389923012478
 30
0.0
 11
61.99155200509277
 21
23.03389923012478
 31
0.0
 12
61.32488533842612
 22
19.03389923012478
 32
0.0
 13
61.32488533842612
 23
19.03389923012478
 33
0.0
  0
MTEXT
  5
100
330
F5
100
AcDbEntity
  8
치수문자_일반주서
 62
     0
100
AcDbMText
 10
56.44988533842604
 20
41.15889923012477
 30
0.0
 40
4.0
 41
0.0
 71
     2
 72
     1
  1
\A1;%%c38.07 [1 1/2]
  7
SLDTEXTSTYLE0
 11
-3.546386322691866E-15
 21
1.0
 31
0.0
 73
     1
 44
1.0
  0
POINT
  5
101
330
F5
100
AcDbEntity
  8
Defpoints
 62
     0
100
AcDbPoint
 10
46.32488533842616
 20
-19.0338992301247
 30
0.0
  0
POINT
  5
265
330
F5
100
AcDbEntity
  8
Defpoints
 62
     0
100
AcDbPoint
 10
46.32488533842616
 20
19.03389923012472
 30
0.0
  0
POINT
  5
266
330
F5
100
AcDbEntity
  8
Defpoints
 62
     0
100
AcDbPoint
 10
61.32488533842612
 20
19.03389923012478
 30
0.0
  0
ENDBLK
  5
F7
330
F5
100
AcDbEntity
  8
0
100
AcDbBlockEnd
  0
BLOCK
  5
10F
330
10E
100
AcDbEntity
  8
0
100
AcDbBlockBegin
  2
SW_DOWELSYMBOL_0
 70
     0
 10
0.0
 20
0.0
 30
0.0
  3
SW_DOWELSYMBOL_0
  1
SW_DOWELSYMBOL_0
  0
CIRCLE
  5
111
330
10E
100
AcDbEntity
  8
해칭선
 62
     0
100
AcDbCircle
 10
0.0
 20
0.0
 30
0.0
 40
3.000000000000001
  0
HATCH
  5
112
330
10E
100
AcDbEntity
  8
0
  6
Continuous
 62
     0
370
     0
100
AcDbHatch
 10
0.0
 20
0.0
 30
0.0
210
0.0
220
0.0
230
1.0
  2
SOLID
 70
     1
 71
     0
 91
        1
 92
        0
 93
        3
 72
     2
 10
0.0
 20
0.0
 40
3.000000000000001
 50
0.0
 51
90.0
 73
     1
 72
     1
 10
0.0
 20
3.000000000000001
 11
0.0
 21
0.0
 72
     1
 10
0.0
 20
0.0
 11
3.000000000000001
 21
0.0
 97
        0
 75
     0
 76
     1
 98
        1
 10
0.0
 20
0.0
  0
HATCH
  5
113
330
10E
100
AcDbEntity
  8
0
  6
Continuous
 62
     0
370
     0
100
AcDbHatch
 10
0.0
 20
0.0
 30
0.0
210
0.0
220
0.0
230
1.0
  2
SOLID
 70
     1
 71
     0
 91
        1
 92
        0
 93
        3
 72
     2
 10
0.0
 20
0.0
 40
3.000000000000001
 50
180.0
 51
270.0000000000007
 73
     1
 72
     1
 10
0.0
 20
-3.000000000000001
 11
0.0
 21
0.0
 72
     1
 10
0.0
 20
0.0
 11
-3.000000000000001
 21
0.0
 97
        0
 75
     0
 76
     1
 98
        1
 10
0.0
 20
0.0
  0
ENDBLK
  5
110
330
10E
100
AcDbEntity
  8
0
100
AcDbBlockEnd
  0
BLOCK
  5
238
330
237
100
AcDbEntity
  8
0
100
AcDbBlockBegin
  2
*D7
 70
     1
 10
0.0
 20
0.0
 30
0.0
  3
*D7
  1
*D7
  0
LINE
  5
23A
330
237
100
AcDbEntity
  8
치수문자_일반주서
 62
     0
370
    -2
100
AcDbLine
 10
41.275
 20
16.93660569950587
 30
0.0
 11
41.275
 21
30.30136473855821
 31
0.0
  0
LINE
  5
23B
330
237
100
AcDbEntity
  8
치수문자_일반주서
 62
     0
370
    -2
100
AcDbLine
 10
0.0
 20
4.96171406262761
 30
0.0
 11
0.0
 21
30.30136473855821
 31
0.0
  0
LINE
  5
23C
330
237
100
AcDbEntity
  8
치수문자_일반주서
 62
     0
370
    -2
100
AcDbLine
 10
37.275
 20
30.30136473855821
 30
0.0
 11
4.0
 21
30.30136473855821
 31
0.0
  0
SOLID
  5
23D
330
237
100
AcDbEntity
  8
치수문자_일반주서
 62
     0
100
AcDbTrace
 10
37.275
 20
29.63469807189155
 30
0.0
 11
37.275
 21
30.96803140522488
 31
0.0
 12
41.275
 22
30.30136473855821
 32
0.0
 13
41.275
 23
30.30136473855821
 33
0.0
  0
SOLID
  5
23E
330
237
100
AcDbEntity
  8
치수문자_일반주서
 62
     0
100
AcDbTrace
 10
4.0
 20
30.96803140522488
 30
0.0
 11
4.0
 21
29.63469807189155
 31
0.0
 12
0.0
 22
30.30136473855821
 32
0.0
 13
0.0
 23
30.30136473855821
 33
0.0
  0
MTEXT
  5
23F
330
237
100
AcDbEntity
  8
치수문자_일반주서
 62
     0
100
AcDbMText
 10
20.6375
 20
35.17636473855821
 30
0.0
 40
4.0
 41
0.0
 71
     2
 72
     1
  1
\A1;41.28 [1 5/8]
  7
SLDTEXTSTYLE0
 73
     1
 44
1.0
  0
POINT
  5
240
330
237
100
AcDbEntity
  8
Defpoints
 62
     0
100
AcDbPoint
 10
41.275
 20
16.87410569950587
 30
0.0
  0
POINT
  5
241
330
237
100
AcDbEntity
  8
Defpoints
 62
     0
100
AcDbPoint
 10
0.0
 20
4.89921406262761
 30
0.0
  0
POINT
  5
242
330
237
100
AcDbEntity
  8
Defpoints
 62
     0
100
AcDbPoint
 10
0.0
 20
30.30136473855821
 30
0.0
  0
ENDBLK
  5
239
330
237
100
AcDbEntity
  8
0
100
AcDbBlockEnd
  0
BLOCK
  5
247
330
246
100
AcDbEntity
  8
0
100
AcDbBlockBegin
  2
*D8
 70
     1
 10
0.0
 20
0.0
 30
0.0
  3
*D8
  1
*D8
  0
LINE
  5
249
330
246
100
AcDbEntity
  8
치수문자_일반주서
 62
     0
370
    -2
100
AcDbLine
 10
117.3610494553929
 20
-19.56540913924581
 30
0.0
 11
117.3610494553929
 21
-6.200650100193471
 31
0.0
  0
LINE
  5
24A
330
246
100
AcDbEntity
  8
치수문자_일반주서
 62
     0
370
    -2
100
AcDbLine
 10
76.08604945539294
 20
-31.54030077612407
 30
0.0
 11
76.08604945539294
 21
-6.200650100193471
 31
0.0
  0
LINE
  5
24B
330
246
100
AcDbEntity
  8
치수문자_일반주서
 62
     0
370
    -2
100
AcDbLine
 10
113.3610494553929
 20
-6.200650100193471
 30
0.0
 11
80.08604945539294
 21
-6.200650100193471
 31
0.0
  0
SOLID
  5
24C
330
246
100
AcDbEntity
  8
치수문자_일반주서
 62
     0
100
AcDbTrace
 10
113.3610494553929
 20
-6.867316766860138
 30
0.0
 11
113.3610494553929
 21
-5.533983433526804
 31
0.0
 12
117.3610494553929
 22
-6.200650100193471
 32
0.0
 13
117.3610494553929
 23
-6.200650100193471
 33
0.0
  0
SOLID
  5
24D
330
246
100
AcDbEntity
  8
치수문자_일반주서
 62
     0
100
AcDbTrace
 10
80.08604945539294
 20
-5.533983433526804
 30
0.0
 11
80.08604945539294
 21
-6.867316766860138
 31
0.0
 12
76.08604945539294
 22
-6.200650100193471
 32
0.0
 13
76.08604945539294
 23
-6.200650100193471
 33
0.0
  0
MTEXT
  5
24E
330
246
100
AcDbEntity
  8
치수문자_일반주서
 62
     0
100
AcDbMText
 10
96.72354945539294
 20
-1.325650100193471
 30
0.0
 40
4.0
 41
0.0
 71
     2
 72
     1
  1
\A1;41.28 [1 5/8]
  7
SLDTEXTSTYLE0
 73
     1
 44
1.0
  0
POINT
  5
24F
330
246
100
AcDbEntity
  8
Defpoints
 62
     0
100
AcDbPoint
 10
117.3610494553929
 20
-19.62790913924581
 30
0.0
  0
POINT
  5
250
330
246
100
AcDbEntity
  8
Defpoints
 62
     0
100
AcDbPoint
 10
76.08604945539294
 20
-31.60280077612407
 30
0.0
  0
POINT
  5
251
330
246
100
AcDbEntity
  8
Defpoints
 62
     0
100
AcDbPoint
 10
76.08604945539294
 20
-6.200650100193471
 30
0.0
  0
ENDBLK
  5
248
330
246
100
AcDbEntity
  8
0
100
AcDbBlockEnd
  0
ENDSEC
  0
SECTION
  2
ENTITIES
  0
SPLINE
  5
96
330
1F
100
AcDbEntity
  8
0
  6
Continuous
 62
     1
370
    15
100
AcDbSpline
210
0.0
220
0.0
230
1.0
 70
     8
 71
     3
 72
    67
 73
    63
 74
     0
 42
0.000000001
 43
0.00000001
 40
0.0
 40
0.0
 40
0.0
 40
0.0
 40
0.0205105765012585
 40
0.0390407974379276
 40
0.0556604999158538
 40
0.0669504775878425
 40
0.077323193168559
 40
0.0931575972065659
 40
0.107462337824756
 40
0.1202242838987081
 40
0.1314231435710293
 40
0.1411326367778531
 40
0.1502258688268668
 40
0.1726873821333397
 40
0.1968846730220027
 40
0.227901150726851
 40
0.2618075628271
 40
0.297908322351123
 40
0.3136766986138244
 40
0.3295684146057808
 40
0.3446789051941506
 40
0.3586751911001856
 40
0.3715560243159322
 40
0.3851158040019085
 40
0.4017021723115065
 40
0.4219892914608279
 40
0.4415044518704258
 40
0.4601518221931544
 40
0.4774958501528597
 40
0.4921126762384849
 40
0.5011527047266762
 40
0.5091105025096141
 40
0.5193576461746219
 40
0.5325241501190436
 40
0.5477658567141935
 40
0.5629122066275051
 40
0.5804961193339492
 40
0.5975647132406472
 40
0.611660866798734
 40
0.6221002583307572
 40
0.6342954617958011
 40
0.6498644666313705
 40
0.6686109415977011
 40
0.6884044488453059
 40
0.7086805662483459
 40
0.7291884109405294
 40
0.7484404596685182
 40
0.7646290982786696
 40
0.7823262563277934
 40
0.8020151755142081
 40
0.8223291318592346
 40
0.8418860808466745
 40
0.8609199399160397
 40
0.8723687303997262
 40
0.8833600253697211
 40
0.8938862297513075
 40
0.9039517970027823
 40
0.9152068495971768
 40
0.9301924305358527
 40
0.9492911529274177
 40
0.9725490480897399
 40
1.0
 40
1.0
 40
1.0
 40
1.0
 10
39.24640923633441
 20
13.02929567786689
 30
0.0
 10
39.04998490913013
 20
13.01233437931592
 30
0.0
 10
38.67610159240358
 20
12.98004944471294
 30
0.0
 10
38.11647664838826
 20
12.93242338542737
 30
0.0
 10
37.63009136444521
 20
12.89314738937477
 30
0.0
 10
37.21321304491569
 20
12.86184072755827
 30
0.0
 10
36.79358440034228
 20
12.83260149490363
 30
0.0
 10
36.32312579897459
 20
12.80342905380278
 30
0.0
 10
35.83663317817264
 20
12.7770395440239
 30
0.0
 10
35.39935588283906
 20
12.75246502023138
 30
0.0
 10
35.01181786918885
 20
12.73100262143388
 30
0.0
 10
34.66615762987956
 20
12.71242781506468
 30
0.0
 10
34.19579334327862
 20
12.68834436820812
 30
0.0
 10
33.57471999744998
 20
12.659541543471
 30
0.0
 10
32.73697446600507
 20
12.62564874825472
 30
0.0
 10
31.74193054713161
 20
12.59173509177138
 30
0.0
 10
30.60770390330975
 20
12.56275569822894
 30
0.0
 10
29.64366833817629
 20
12.546889461996
 30
0.0
 10
28.8887285316839
 20
12.53959122854425
 30
0.0
 10
28.3701294830809
 20
12.53669599401643
 30
0.0
 10
27.87071041669719
 20
12.53588028840267
 30
0.0
 10
27.40373920604678
 20
12.53686094130902
 30
0.0
 10
26.95288152101518
 20
12.53937206597745
 30
0.0
 10
26.47226415167997
 20
12.54370269651726
 30
0.0
 10
25.90891769020987
 20
12.55098184889004
 30
0.0
 10
25.2788219627469
 20
12.56212121947227
 30
0.0
 10
24.6257894919626
 20
12.57701296611609
 30
0.0
 10
24.00566352987524
 20
12.59419586362036
 30
0.0
 10
23.44031373351573
 20
12.61247542012659
 30
0.0
 10
22.98234336208434
 20
12.62916477129852
 30
0.0
 10
22.62925650376499
 20
12.64310693443245
 30
0.0
 10
22.32501433969255
 20
12.65578695392137
 30
0.0
 10
21.97469081867148
 20
12.67120862414239
 30
0.0
 10
21.54308115652947
 20
12.69152242192919
 30
0.0
 10
21.05669904016294
 20
12.71616270671041
 30
0.0
 10
20.52082060281944
 20
12.74534948962096
 30
0.0
 10
19.9643909636634
 20
12.77793613649951
 30
0.0
 10
19.41951061886719
 20
12.81220626260742
 30
0.0
 10
18.95452209576671
 20
12.84326192623772
 30
0.0
 10
18.54414985629635
 20
12.87192743115292
 30
0.0
 10
18.117593293973
 20
12.90292900762483
 30
0.0
 10
17.59834520295611
 20
12.94246895863705
 30
0.0
 10
16.9943680662748
 20
12.99105161500251
 30
0.0
 10
16.33763969974857
 20
13.04706704930694
 30
0.0
 10
15.66077061592025
 20
13.1080120073431
 30
0.0
 10
14.98945094900407
 20
13.17171641773784
 30
0.0
 10
14.36397505124404
 20
13.23401736201398
 30
0.0
 10
13.77079872581121
 20
13.29559755440196
 30
0.0
 10
13.18190609599059
 20
13.35907358465024
 30
0.0
 10
12.55871298819953
 20
13.42865842196614
 30
0.0
 10
11.91014345393353
 20
13.50379298745185
 30
0.0
 10
11.24886490540152
 20
13.58411499848214
 30
0.0
 10
10.67877300115763
 20
13.65623609539907
 30
0.0
 10
10.20461083629842
 20
13.71770926762415
 30
0.0
 10
9.827833644547765
 20
13.76720795248108
 30
0.0
 10
9.466723139320926
 20
13.81522883819883
 30
0.0
 10
9.103677663468922
 20
13.8637676694811
 30
0.0
 10
8.687318124745223
 20
13.92037604049281
 30
0.0
 10
8.17990212291413
 20
13.99228923853599
 30
0.0
 10
7.551607153116146
 20
14.08433942192748
 30
0.0
 10
6.799264783343899
 20
14.19812964847373
 30
0.0
 10
6.260029860820163
 20
14.28249078747293
 30
0.0
 10
5.968118039095162
 20
14.32815922017161
 30
0.0
1001
PE_URL
1000

  0
SPLINE
  5
97
330
1F
100
AcDbEntity
  8
0
  6
Continuous
 62
     1
370
    15
100
AcDbSpline
210
0.0
220
0.0
230
1.0
 70
     8
 71
     3
 72
    33
 73
    29
 74
     0
 42
0.000000001
 43
0.00000001
 40
0.0
 40
0.0
 40
0.0
 40
0.0
 40
0.0467666455421573
 40
0.0895206689195969
 40
0.1304210340909191
 40
0.1656214283507509
 40
0.2013651308643086
 40
0.2315434528452052
 40
0.2553806162242079
 40
0.2730316005248304
 40
0.2916096089933072
 40
0.3200050576696207
 40
0.3555471236575
 40
0.3967450148586106
 40
0.4404642989203976
 40
0.477265807398309
 40
0.5157003672202897
 40
0.5546552073275746
 40
0.5866450644017106
 40
0.6102535127386371
 40
0.6344713800432894
 40
0.6622502357047108
 40
0.693913833051903
 40
0.7643681339619774
 40
0.8385636352122882
 40
0.9098246607258956
 40
0.9737806879048124
 40
1.0
 40
1.0
 40
1.0
 40
1.0
 10
5.968118039095167
 20
-14.32815922017159
 30
0.0
 10
6.12879485912905
 20
-14.3021535514372
 30
0.0
 10
6.436362276944825
 20
-14.25237352480037
 30
0.0
 10
6.987581204317554
 20
-14.16164464260279
 30
0.0
 10
7.547206694772145
 20
-14.0762006742847
 30
0.0
 10
8.097714618554438
 20
-13.99863558224156
 30
0.0
 10
8.587799085450337
 20
-13.93312285768162
 30
0.0
 10
9.02426791027655
 20
-13.87443892231013
 30
0.0
 10
9.373407637010915
 20
-13.82774603037685
 30
0.0
 10
9.66706195121284
 20
-13.78861367603511
 30
0.0
 10
9.983091597756907
 20
-13.74671164502337
 30
0.0
 10
10.38299744772808
 20
-13.69446497779004
 30
0.0
 10
10.88810820336969
 20
-13.62997482254864
 30
0.0
 10
11.46340861699869
 20
-13.55861191557471
 30
0.0
 10
12.04523155672525
 20
-13.48874194121498
 30
0.0
 10
12.61354827527946
 20
-13.42284705472541
 30
0.0
 10
13.15905525548094
 20
-13.36167800701
 30
0.0
 10
13.68142752543
 20
-13.30515424030687
 30
0.0
 10
14.13302480882869
 20
-13.25791046928265
 30
0.0
 10
14.51435218528412
 20
-13.21909113672763
 30
0.0
 10
14.87597026261015
 20
-13.18315475348959
 30
0.0
 10
15.27614668135798
 20
-13.14444178083334
 30
0.0
 10
15.89761161587194
 20
-13.08620012442837
 30
0.0
 10
16.74074104116081
 20
-13.01154012325083
 30
0.0
 10
17.77226811031101
 20
-12.92793728976683
 30
0.0
 10
18.77305533505752
 20
-12.85504144585636
 30
0.0
 10
19.54504777305822
 20
-12.8033538861739
 30
0.0
 10
19.97627230929739
 20
-12.77806300526042
 30
0.0
 10
20.10165482285123
 20
-12.77070944823286
 30
0.0
1001
PE_URL
1000

  0
SPLINE
  5
98
330
1F
100
AcDbEntity
  8
0
  6
Continuous
 62
     1
370
    15
100
AcDbSpline
210
0.0
220
0.0
230
1.0
 70
     8
 71
     3
 72
    38
 73
    34
 74
     0
 42
0.000000001
 43
0.00000001
 40
0.0
 40
0.0
 40
0.0
 40
0.0
 40
0.0624999999999999
 40
0.0624999999999999
 40
0.1249999999999998
 40
0.1249999999999998
 40
0.1874999999999996
 40
0.1874999999999996
 40
0.2499999999999995
 40
0.2499999999999995
 40
0.3124999999999996
 40
0.3124999999999996
 40
0.3749999999999996
 40
0.3749999999999996
 40
0.4374999999999997
 40
0.4374999999999997
 40
0.4999999999999998
 40
0.4999999999999998
 40
0.5624999999999999
 40
0.5624999999999999
 40
0.625
 40
0.625
 40
0.6875
 40
0.6875
 40
0.75
 40
0.75
 40
0.8125
 40
0.8125
 40
0.875
 40
0.875
 40
0.9375
 40
0.9375
 40
1.0
 40
1.0
 40
1.0
 40
1.0
 10
46.32488533842614
 20
-18.07732355886768
 30
0.0
 10
45.4673756463098
 20
-17.92085558086965
 30
0.0
 10
44.60609745224793
 20
-17.74574759419704
 30
0.0
 10
42.8838760295425
 20
-17.3597022486902
 30
0.0
 10
42.02407474384272
 20
-17.1488678153342
 30
0.0
 10
40.30781062164403
 20
-16.69304323504094
 30
0.0
 10
39.44624870844358
 20
-16.44758597245313
 30
0.0
 10
37.72414577167087
 20
-15.92371415552165
 30
0.0
 10
36.865541840261
 20
-15.64552489689575
 30
0.0
 10
35.14815010275837
 20
-15.0578795435081
 30
0.0
 10
34.28636381616535
 20
-14.74805529469954
 30
0.0
 10
32.56449782408732
 20
-14.09916184701743
 30
0.0
 10
31.70681141911362
 20
-13.76042762407936
 30
0.0
 10
29.98840944656979
 20
-13.05526082355338
 30
0.0
 10
29.12645818396807
 20
-12.688628446279
 30
0.0
 10
27.4049475410186
 20
-11.93057628473942
 30
0.0
 10
26.54789862476337
 20
-11.53955934575639
 30
0.0
 10
24.82860402840235
 20
-10.73405271704338
 30
0.0
 10
23.96654722515445
 20
-10.31956252170322
 30
0.0
 10
22.24551025430767
 20
-9.470883314980018
 30
0.0
 10
21.38881864320794
 20
-9.03710031241274
 30
0.0
 10
19.66874923846476
 20
-8.150897596541947
 30
0.0
 10
18.80664635423399
 20
-7.69867200768403
 30
0.0
 10
17.08620126991225
 20
-6.780111346310444
 30
0.0
 10
16.22958669864824
 20
-6.314105812102101
 30
0.0
 10
14.50886047832072
 20
-5.368832027994628
 30
0.0
 10
13.64677098338177
 20
-4.889917420343875
 30
0.0
 10
11.92703586441552
 20
-3.92392569241819
 30
0.0
 10
11.07021805003845
 20
-3.437016309555445
 30
0.0
 10
9.348953157353767
 20
-2.455748054557152
 30
0.0
 10
8.486936518898002
 20
-1.961843873256475
 30
0.0
 10
6.768029281551139
 20
-0.9720253940254469
 30
0.0
 10
5.910727987619421
 20
-0.4760359609427781
 30
0.0
 10
5.049885338423913
 20
0.0206140773158537
 30
0.0
1001
PE_URL
1000

  0
SPLINE
  5
99
330
1F
100
AcDbEntity
  8
외형선
  6
Continuous
370
    15
100
AcDbSpline
210
0.0
220
0.0
230
1.0
 70
    24
 71
     3
 72
     8
 73
     4
 74
     0
 42
0.000000001
 43
0.00000001
 40
0.0
 40
0.0
 40
0.0
 40
0.0
 40
1.0
 40
1.0
 40
1.0
 40
1.0
 10
5.04988533842616
 20
0.9934429497813303
 30
0.0
 10
5.04988533842616
 20
0.7477491417231614
 30
0.0
 10
5.04988533842616
 20
0.4217374128665858
 30
0.0
 10
5.04988533842616
 20
0.0206140773217686
 30
0.0
  0
SPLINE
  5
9A
330
1F
100
AcDbEntity
  8
0
  6
Continuous
 62
     1
370
    15
100
AcDbSpline
210
0.0
220
0.0
230
1.0
 70
     8
 71
     3
 72
    38
 73
    34
 74
     0
 42
0.000000001
 43
0.00000001
 40
0.0
 40
0.0
 40
0.0
 40
0.0
 40
0.0625000000000003
 40
0.0625000000000003
 40
0.1250000000000006
 40
0.1250000000000006
 40
0.1875000000000009
 40
0.1875000000000009
 40
0.2500000000000013
 40
0.2500000000000013
 40
0.3125000000000012
 40
0.3125000000000012
 40
0.3750000000000011
 40
0.3750000000000011
 40
0.4375000000000011
 40
0.4375000000000011
 40
0.500000000000001
 40
0.500000000000001
 40
0.5625000000000009
 40
0.5625000000000009
 40
0.6250000000000008
 40
0.6250000000000008
 40
0.6875000000000007
 40
0.6875000000000007
 40
0.7500000000000004
 40
0.7500000000000004
 40
0.8125000000000003
 40
0.8125000000000003
 40
0.8750000000000002
 40
0.8750000000000002
 40
0.9375000000000001
 40
0.9375000000000001
 40
1.0
 40
1.0
 40
1.0
 40
1.0
 10
46.32488533842614
 20
-15.02992163621451
 30
0.0
 10
45.46737564630983
 20
-14.87305201041379
 30
0.0
 10
44.60609745224802
 20
-14.70064544558705
 30
0.0
 10
42.88387602954271
 20
-14.32621030334111
 30
0.0
 10
42.02407474384294
 20
-14.12427919137688
 30
0.0
 10
40.30781062164434
 20
-13.69237950255844
 30
0.0
 10
39.44624870844397
 20
-13.4619703296012
 30
0.0
 10
37.72414577167132
 20
-12.97424888464399
 30
0.0
 10
36.86554184026153
 20
-12.71714320453837
 30
0.0
 10
35.14815010275898
 20
-12.17757811505472
 30
0.0
 10
34.28636381616599
 20
-11.89478348579197
 30
0.0
 10
32.56449782408808
 20
-11.30569591000541
 30
0.0
 10
31.7068114191144
 20
-10.9997036425372
 30
0.0
 10
29.98840944657068
 20
-10.36560819349619
 30
0.0
 10
29.12645818396902
 20
-10.0373284975935
 30
0.0
 10
27.40494754101965
 20
-9.361274266366989
 30
0.0
 10
26.54789862476444
 20
-9.013855550386822
 30
0.0
 10
24.82860402840352
 20
-8.300683885552829
 30
0.0
 10
23.96654722515565
 20
-7.934933734760194
 30
0.0
 10
22.24551025430898
 20
-7.18843825767379
 30
0.0
 10
21.38881864320929
 20
-6.808046713379644
 30
0.0
 10
19.66874923846622
 20
-6.033194040991678
 30
0.0
 10
18.80664635423549
 20
-5.638905845770217
 30
0.0
 10
17.08620126991384
 20
-4.840214922351704
 30
0.0
 10
16.22958669864987
 20
-4.436095589337953
 30
0.0
 10
14.50886047832245
 20
-3.618472292120294
 30
0.0
 10
13.64677098338353
 20
-3.205277264763115
 30
0.0
 10
11.92703586441739
 20
-2.373909360372629
 30
0.0
 10
11.07021805004036
 20
-1.95587798969755
 30
0.0
 10
9.34895315735578
 20
-1.11544635271701
 30
0.0
 10
8.486936518900055
 20
-0.6934383287732284
 30
0.0
 10
6.768029281553283
 20
0.1502942958404168
 30
0.0
 10
5.910727987621617
 20
0.5720854261254289
 30
0.0
 10
5.049885338426145
 20
0.993442949781338
 30
0.0
1001
PE_URL
1000

  0
LINE
  5
9B
330
1F
100
AcDbEntity
  8
0
  6
Continuous
 62
     1
370
    15
100
AcDbLine
 10
46.32488533842585
 20
-18.07732355886768
 30
0.0
 11
46.32488533842614
 21
-15.02992163621451
 31
0.0
1001
PE_URL
1000

  0
SPLINE
  5
9C
330
1F
100
AcDbEntity
  8
0
  6
Continuous
 62
     1
370
    15
100
AcDbSpline
210
0.0
220
0.0
230
1.0
 70
     8
 71
     3
 72
    38
 73
    34
 74
     0
 42
0.000000001
 43
0.00000001
 40
0.0
 40
0.0
 40
0.0
 40
0.0
 40
0.0625
 40
0.0625
 40
0.125
 40
0.125
 40
0.1875
 40
0.1875
 40
0.25
 40
0.25
 40
0.3125
 40
0.3125
 40
0.375
 40
0.375
 40
0.4375000000000001
 40
0.4375000000000001
 40
0.5000000000000002
 40
0.5000000000000002
 40
0.5625000000000002
 40
0.5625000000000002
 40
0.6250000000000002
 40
0.6250000000000002
 40
0.6875000000000003
 40
0.6875000000000003
 40
0.7500000000000004
 40
0.7500000000000004
 40
0.8125000000000003
 40
0.8125000000000003
 40
0.8750000000000002
 40
0.8750000000000002
 40
0.9375000000000001
 40
0.9375000000000001
 40
1.0
 40
1.0
 40
1.0
 40
1.0
 10
5.049885338426172
 20
-5.241428377320275
 30
0.0
 10
5.910727987621641
 20
-5.718909990394347
 30
0.0
 10
6.768029281553312
 20
-6.190397621250409
 30
0.0
 10
8.486936518900087
 20
-7.120604504788596
 30
0.0
 10
9.348953157355792
 20
-7.579380979117909
 30
0.0
 10
11.07021805004038
 20
-8.480057417810572
 30
0.0
 10
11.92703586441741
 20
-8.921555189352377
 30
0.0
 10
13.64677098338356
 20
-9.786537207559348
 30
0.0
 10
14.50886047832246
 20
-10.20985586756435
 30
0.0
 10
16.22958669864989
 20
-11.03425913052888
 30
0.0
 10
17.08620126991385
 20
-11.43505175688833
 30
0.0
 10
18.80664635423551
 20
-12.21365943745097
 30
0.0
 10
19.66874923846623
 20
-12.59117823890392
 30
0.0
 10
21.38881864320931
 20
-13.31919310732546
 30
0.0
 10
22.245510254309
 20
-13.66954695132287
 30
0.0
 10
23.96654722515568
 20
-14.34273857897473
 30
0.0
 10
24.82860402840355
 20
-14.66523629070232
 30
0.0
 10
26.54789862476446
 20
-15.2791113859256
 30
0.0
 10
27.40494754101963
 20
-15.5705066519843
 30
0.0
 10
29.12645818396902
 20
-16.12181581596459
 30
0.0
 10
29.98840944657067
 20
-16.38141813524911
 30
0.0
 10
31.70681141911441
 20
-16.86620037311951
 30
0.0
 10
32.56449782408808
 20
-17.09153462005362
 30
0.0
 10
34.286363816166
 20
-17.50747460194831
 30
0.0
 10
35.14815010275898
 20
-17.69784716199113
 30
0.0
 10
36.86554184026151
 20
-18.04174731480464
 30
0.0
 10
37.72414577167131
 20
-18.19550551866845
 30
0.0
 10
39.44624870844396
 20
-18.46590054628662
 30
0.0
 10
40.30781062164435
 20
-18.58240406507591
 30
0.0
 10
42.02407474384294
 20
-18.77708445894684
 30
0.0
 10
42.88387602954269
 20
-18.85547162942872
 30
0.0
 10
44.60609745224802
 20
-18.9737068250935
 30
0.0
 10
45.46737564630983
 20
-19.01351057990236
 30
0.0
 10
46.32488533842614
 20
-19.03389923012451
 30
0.0
1001
PE_URL
1000

  0
LINE
  5
9D
330
1F
100
AcDbEntity
  8
0
  6
Continuous
 62
     1
370
    15
100
AcDbLine
 10
46.32488533842616
 20
-19.0338992301247
 30
0.0
 11
46.3248853384258
 21
-18.07732355886766
 31
0.0
1001
PE_URL
1000

  0
LINE
  5
9E
330
1F
100
AcDbEntity
  8
외형선
  6
Continuous
370
    15
100
AcDbLine
 10
5.04988533842615
 20
-5.241428377320362
 30
0.0
 11
5.04988533842615
 21
0.0206140773197321
 31
0.0
  0
SPLINE
  5
9F
330
1F
100
AcDbEntity
  8
0
  6
Continuous
 62
     1
370
    15
100
AcDbSpline
210
0.0
220
0.0
230
1.0
 70
     8
 71
     3
 72
    38
 73
    34
 74
     0
 42
0.000000001
 43
0.00000001
 40
0.0
 40
0.0
 40
0.0
 40
0.0
 40
0.0625
 40
0.0625
 40
0.125
 40
0.125
 40
0.1875
 40
0.1875
 40
0.25
 40
0.25
 40
0.3125
 40
0.3125
 40
0.375
 40
0.375
 40
0.4375
 40
0.4375
 40
0.5
 40
0.5
 40
0.5625
 40
0.5625
 40
0.625
 40
0.625
 40
0.6875
 40
0.6875
 40
0.75
 40
0.75
 40
0.8125
 40
0.8125
 40
0.875
 40
0.875
 40
0.9375
 40
0.9375
 40
1.0
 40
1.0
 40
1.0
 40
1.0
 10
46.32488533842614
 20
0.0000000000000155
 30
0.0
 10
45.46737564630982
 20
0.3968070844884923
 30
0.0
 10
44.60609745224803
 20
0.7941948558849907
 30
0.0
 10
42.88387602954269
 20
1.586489993583011
 30
0.0
 10
42.02407474384295
 20
1.981221160741308
 30
0.0
 10
40.30781062164435
 20
2.7653427696517
 30
0.0
 10
39.44624870844397
 20
3.155507089894347
 30
0.0
 10
37.7241457716713
 20
3.928450553010576
 30
0.0
 10
36.86554184026151
 20
4.310944066236593
 30
0.0
 10
35.14815010275897
 20
5.066413810959404
 30
0.0
 10
34.28636381616599
 20
5.439821662933508
 30
0.0
 10
32.56449782408806
 20
6.174536278156818
 30
0.0
 10
31.70681141911441
 20
6.535514492513389
 30
0.0
 10
29.98840944657068
 20
7.243865393578055
 30
0.0
 10
29.12645818396902
 20
7.591392131101365
 30
0.0
 10
27.40494754101963
 20
8.269938043818902
 30
0.0
 10
26.54789862476444
 20
8.600647754747914
 30
0.0
 10
24.82860402840352
 20
9.244558353563638
 30
0.0
 10
23.96654722515566
 20
9.557711550043726
 30
0.0
 10
22.24551025430898
 20
10.16352596309922
 30
0.0
 10
21.38881864320929
 20
10.45594688050568
 30
0.0
 10
19.66874923846622
 20
11.01966649127803
 30
0.0
 10
18.80664635423549
 20
11.29079428445104
 30
0.0
 10
17.08620126991383
 20
11.809097294256
 30
0.0
 10
16.22958669864987
 20
12.05613308497973
 30
0.0
 10
14.50886047832244
 20
12.52586861702855
 30
0.0
 10
13.64677098338353
 20
12.74834741661247
 30
0.0
 10
11.92703586441738
 20
13.16650396112232
 30
0.0
 10
11.07021805004035
 20
13.36215139635317
 30
0.0
 10
9.348953157355773
 20
13.72640620548425
 30
0.0
 10
8.486936518900052
 20
13.89480313944659
 30
0.0
 10
6.768029281553277
 20
14.20263215780351
 30
0.0
 10
5.910727987621612
 20
14.34212441058482
 30
0.0
 10
5.049885338426143
 20
14.46705261457627
 30
0.0
1001
PE_URL
1000

  0
SPLINE
  5
A0
330
1F
100
AcDbEntity
  8
0
  6
Continuous
 62
     1
370
    15
100
AcDbSpline
210
0.0
220
0.0
230
1.0
 70
    24
 71
     3
 72
     8
 73
     4
 74
     0
 42
0.000000001
 43
0.00000001
 40
0.0
 40
0.0
 40
0.0
 40
0.0
 40
1.0
 40
1.0
 40
1.0
 40
1.0
 10
46.32488533842614
 20
-1.552895695127808
 30
0.0
 10
46.32488533842614
 20
-1.034735970232326
 30
0.0
 10
46.32488533842614
 20
-0.5163603393623971
 30
0.0
 10
46.32488533842614
 20
0.0000000000000155
 30
0.0
1001
PE_URL
1000

  0
SPLINE
  5
A1
330
1F
100
AcDbEntity
  8
0
  6
Continuous
 62
     1
370
    15
100
AcDbSpline
210
0.0
220
0.0
230
1.0
 70
     8
 71
     3
 72
     8
 73
     4
 74
     0
 42
0.000000001
 43
0.00000001
 40
0.0
 40
0.0
 40
0.0
 40
0.0
 40
1.0
 40
1.0
 40
1.0
 40
1.0
 10
46.32488533842614
 20
-1.552895695114205
 30
0.0
 10
46.08787417529734
 20
-2.532228871142156
 30
0.0
 10
45.77941773741032
 20
-3.46793560702808
 30
0.0
 10
45.41548683144111
 20
-4.369768114430916
 30
0.0
1001
PE_URL
1000

  0
SPLINE
  5
A2
330
1F
100
AcDbEntity
  8
0
  6
Continuous
 62
     1
370
    15
100
AcDbSpline
210
0.0
220
0.0
230
1.0
 70
     8
 71
     3
 72
     8
 73
     4
 74
     0
 42
0.000000001
 43
0.00000001
 40
0.0
 40
0.0
 40
0.0
 40
0.0
 40
1.0
 40
1.0
 40
1.0
 40
1.0
 10
46.32488533842614
 20
-5.090978121864724
 30
0.0
 10
46.02120455900013
 20
-4.852235721554333
 30
0.0
 10
45.71807349895028
 20
-4.611827003481389
 30
0.0
 10
45.4154868314411
 20
-4.36976811443091
 30
0.0
1001
PE_URL
1000

  0
SPLINE
  5
A3
330
1F
100
AcDbEntity
  8
0
  6
Continuous
 62
     1
370
    15
100
AcDbSpline
210
0.0
220
0.0
230
1.0
 70
    24
 71
     3
 72
    14
 73
    10
 74
     0
 42
0.000000001
 43
0.00000001
 40
0.0
 40
0.0
 40
0.0
 40
0.0
 40
0.2500000000000001
 40
0.2500000000000001
 40
0.5
 40
0.5
 40
0.75
 40
0.75
 40
1.0
 40
1.0
 40
1.0
 40
1.0
 10
46.32488533842614
 20
-15.02992163621451
 30
0.0
 10
46.32488533842616
 20
-14.4538412983685
 30
0.0
 10
46.32488533842613
 20
-13.80325256384738
 30
0.0
 10
46.32488533842612
 20
-12.36422548531383
 30
0.0
 10
46.32488533842612
 20
-11.57581351426877
 30
0.0
 10
46.32488533842613
 20
-9.883517005969885
 30
0.0
 10
46.32488533842613
 20
-8.979726836108997
 30
0.0
 10
46.32488533842613
 20
-7.0885179083667
 30
0.0
 10
46.32488533842614
 20
-6.101242455996386
 30
0.0
 10
46.32488533842614
 20
-5.090978121865332
 30
0.0
1001
PE_URL
1000

  0
SPLINE
  5
A4
330
1F
100
AcDbEntity
  8
외형선
  6
Continuous
370
    15
100
AcDbSpline
210
0.0
220
0.0
230
1.0
 70
    24
 71
     3
 72
    14
 73
    10
 74
     0
 42
0.000000001
 43
0.00000001
 40
0.0
 40
0.0
 40
0.0
 40
0.0
 40
0.2499999999999998
 40
0.2499999999999998
 40
0.4999999999999999
 40
0.4999999999999999
 40
0.75
 40
0.75
 40
1.0
 40
1.0
 40
1.0
 40
1.0
 10
5.049885338426143
 20
14.46705261457627
 30
0.0
 10
5.049885338426143
 20
13.84701296798328
 30
0.0
 10
5.049885338426143
 20
13.07061712273088
 30
0.0
 10
5.049885338426143
 20
11.22781573607979
 30
0.0
 10
5.049885338426143
 20
10.16159427067049
 30
0.0
 10
5.049885338426143
 20
7.806747155968017
 30
0.0
 10
5.049885338426143
 20
6.518801515037599
 30
0.0
 10
5.049885338426143
 20
3.82032404587749
 30
0.0
 10
5.049885338426143
 20
2.410650088736918
 30
0.0
 10
5.049885338426143
 20
0.9934429497813416
 30
0.0
  0
SPLINE
  5
A5
330
1F
100
AcDbEntity
  8
0
  6
Continuous
 62
     1
370
    15
100
AcDbSpline
210
0.0
220
0.0
230
1.0
 70
    24
 71
     3
 72
    10
 73
     6
 74
     0
 42
0.000000001
 43
0.00000001
 40
0.0
 40
0.0
 40
0.0
 40
0.0
 40
0.4999999999999998
 40
0.4999999999999998
 40
1.0
 40
1.0
 40
1.0
 40
1.0
 10
41.32488533842614
 20
7.736872478995689
 30
0.0
 10
41.32488533842614
 20
8.611736677061199
 30
0.0
 10
41.32488533842616
 20
9.404063859155867
 30
0.0
 10
41.32488533842614
 20
10.77840933395849
 30
0.0
 10
41.32488533842616
 20
11.3602299400137
 30
0.0
 10
41.32488533842614
 20
11.82493140031235
 30
0.0
1001
PE_URL
1000

  0
SPLINE
  5
A6
330
1F
100
AcDbEntity
  8
0
  6
Continuous
 62
     1
370
    15
100
AcDbSpline
210
0.0
220
0.0
230
1.0
 70
    24
 71
     3
 72
     8
 73
     4
 74
     0
 42
0.000000001
 43
0.00000001
 40
0.0
 40
0.0
 40
0.0
 40
0.0
 40
1.0
 40
1.0
 40
1.0
 40
1.0
 10
46.32488533842614
 20
0.0000000000000177
 30
0.0
 10
46.32488533842614
 20
0.2105471666334518
 30
0.0
 10
46.32488533842613
 20
0.4207411103080896
 30
0.0
 10
46.32488533842613
 20
0.6303976771146789
 30
0.0
1001
PE_URL
1000

  0
SPLINE
  5
A7
330
1F
100
AcDbEntity
  8
0
  6
Continuous
 62
     1
370
    15
100
AcDbSpline
210
0.0
220
0.0
230
1.0
 70
     8
 71
     3
 72
     9
 73
     5
 74
     0
 42
0.000000001
 43
0.00000001
 40
0.0
 40
0.0
 40
0.0
 40
0.0
 40
0.5219126464725556
 40
0.9999999999999999
 40
0.9999999999999999
 40
0.9999999999999999
 40
0.9999999999999999
 10
46.32488533842614
 20
13.335
 30
0.0
 10
45.09318978420752
 20
13.32161113536539
 30
0.0
 10
42.73322483117706
 20
13.29595767644827
 30
0.0
 10
40.37349376689273
 20
13.11125995846772
 30
0.0
 10
39.24533618733253
 20
13.02295831527583
 30
0.0
1001
PE_URL
1000

  0
SPLINE
  5
A8
330
1F
100
AcDbEntity
  8
0
  6
Continuous
 62
     1
370
    15
100
AcDbSpline
210
0.0
220
0.0
230
1.0
 70
     8
 71
     3
 72
     8
 73
     4
 74
     0
 42
0.000000001
 43
0.00000001
 40
0.0
 40
0.0
 40
0.0
 40
0.0
 40
1.0
 40
1.0
 40
1.0
 40
1.0
 10
46.32488533842614
 20
13.33500000000001
 30
0.0
 10
44.64949337575716
 20
12.88087558296493
 30
0.0
 10
42.98268370769083
 20
12.378326256997
 30
0.0
 10
41.32488533842616
 20
11.82493140031278
 30
0.0
1001
PE_URL
1000

  0
SPLINE
  5
A9
330
1F
100
AcDbEntity
  8
0
  6
Continuous
 62
     1
370
    15
100
AcDbSpline
210
0.0
220
0.0
230
1.0
 70
     8
 71
     3
 72
    14
 73
    10
 74
     0
 42
0.000000001
 43
0.00000001
 40
0.0
 40
0.0
 40
0.0
 40
0.0
 40
0.5000000000000009
 40
0.5000000000000009
 40
0.6250000000000004
 40
0.6250000000000004
 40
0.75
 40
0.75
 40
1.0
 40
1.0
 40
1.0
 40
1.0
 10
41.32488533842614
 20
7.736872478995596
 30
0.0
 10
42.36234963830128
 20
6.823668196228978
 30
0.0
 10
43.3118827363586
 20
5.786264797495662
 30
0.0
 10
44.36965590119188
 20
4.307101211976514
 30
0.0
 10
44.57467146456061
 20
4.002032334709758
 30
0.0
 10
44.9707613204338
 20
3.372203122752744
 30
0.0
 10
45.16207490784107
 20
3.046879165154474
 30
0.0
 10
45.70754405690675
 20
2.050711573763106
 30
0.0
 10
46.03544273517625
 20
1.356659252005163
 30
0.0
 10
46.32488533842614
 20
0.6303976771146264
 30
0.0
1001
PE_URL
1000

  0
LINE
  5
AA
330
1F
100
AcDbEntity
  8
0
  6
Continuous
 62
     1
370
    15
100
AcDbLine
 10
46.32488533842614
 20
-1.576070302023707
 30
0.0
 11
46.32488533842614
 21
-5.090978121864727
 31
0.0
1001
PE_URL
1000

  0
LINE
  5
AB
330
1F
100
AcDbEntity
  8
0
  6
Continuous
 62
     1
370
    15
100
AcDbLine
 10
5.969950837835195
 20
-14.31506198140288
 30
0.0
 11
5.049885338426143
 21
-14.46705261457626
 31
0.0
1001
PE_URL
1000

  0
SPLINE
  5
AC
330
1F
100
AcDbEntity
  8
외형선
  6
Continuous
370
    15
100
AcDbSpline
210
0.0
220
0.0
230
1.0
 70
    24
 71
     3
 72
    19
 73
    15
 74
     0
 42
0.000000001
 43
0.00000001
 40
0.0
 40
0.0
 40
0.0
 40
0.0
 40
0.0219958084356431
 40
0.1098526919618344
 40
0.2002620080413405
 40
0.2906713241208466
 40
0.378528207647038
 40
0.4663850911732294
 40
0.5567944072527354
 40
0.6472037233322416
 40
0.7352487551614809
 40
0.8236018616661208
 40
0.9119549681707606
 40
1.0
 40
1.0
 40
1.0
 40
1.0
 10
5.04988533842615
 20
-5.28775759111216
 30
0.0
 10
5.04988533842615
 20
-5.41024472424577
 30
0.0
 10
5.04988533842615
 20
-6.021976788779054
 30
0.0
 10
5.049885338426152
 20
-7.055173194845593
 30
0.0
 10
5.049885338426152
 20
-8.368606348928266
 30
0.0
 10
5.049885338426152
 20
-9.568404842380055
 30
0.0
 10
5.049885338426152
 20
-10.64430362205284
 30
0.0
 10
5.049885338426152
 20
-11.60095143337718
 30
0.0
 10
5.049885338426152
 20
-12.43709474714058
 30
0.0
 10
5.049885338426152
 20
-13.13754064372438
 30
0.0
 10
5.049885338426152
 20
-13.69188409375468
 30
0.0
 10
5.049885338426152
 20
-14.09884508372706
 30
0.0
 10
5.049885338426152
 20
-14.37528850717615
 30
0.0
 10
5.049885338426152
 20
-14.43650021365078
 30
0.0
 10
5.049885338426152
 20
-14.46705261457624
 30
0.0
  0
LINE
  5
AD
330
1F
100
AcDbEntity
  8
0
  6
Continuous
 62
     1
370
    15
100
AcDbLine
 10
46.32488533842614
 20
0.6391219108743138
 30
0.0
 11
46.32488533842614
 21
13.33500000000001
 31
0.0
1001
PE_URL
1000

  0
SPLINE
  5
AE
330
1F
100
AcDbEntity
  8
0
  6
Continuous
 62
     1
370
    15
100
AcDbSpline
210
0.0
220
0.0
230
1.0
 70
    24
 71
     3
 72
    14
 73
    10
 74
     0
 42
0.000000001
 43
0.00000001
 40
0.0
 40
0.0
 40
0.0
 40
0.0
 40
0.25
 40
0.25
 40
0.5
 40
0.5
 40
0.75
 40
0.75
 40
1.0
 40
1.0
 40
1.0
 40
1.0
 10
46.32488533842614
 20
13.33500000000001
 30
0.0
 10
46.32488533842616
 20
13.73916724608967
 30
0.0
 10
46.32488533842616
 20
14.17509742113075
 30
0.0
 10
46.32488533842616
 20
15.09325330177685
 30
0.0
 10
46.32488533842614
 20
15.57538747801501
 30
0.0
 10
46.32488533842616
 20
16.56077437020787
 30
0.0
 10
46.32488533842614
 20
17.06386132050917
 30
0.0
 10
46.32488533842616
 20
18.06200198620703
 30
0.0
 10
46.32488533842614
 20
18.55687409107139
 30
0.0
 10
46.32488533842614
 20
19.03389923012472
 30
0.0
1001
PE_URL
1000

  0
SPLINE
  5
AF
330
1F
100
AcDbEntity
  8
0
  6
Continuous
 62
     1
370
    15
100
AcDbSpline
210
0.0
220
0.0
230
1.0
 70
     8
 71
     3
 72
    18
 73
    14
 74
     0
 42
0.000000001
 43
0.00000001
 40
0.0
 40
0.0
 40
0.0
 40
0.0
 40
0.0956287053790961
 40
0.2008019464828242
 40
0.3061592374746807
 40
0.3918988951851633
 40
0.4777381978247494
 40
0.5637273399489192
 40
0.6498170075459577
 40
0.7371514626116681
 40
0.8245912550215501
 40
0.9121895082255994
 40
1.0
 40
1.0
 40
1.0
 40
1.0
 10
20.10248735712031
 20
12.77028075669798
 30
0.0
 10
20.93817520680993
 20
13.12288239299829
 30
0.0
 10
22.69295946541189
 20
13.86327822520632
 30
0.0
 10
25.37021909516209
 20
14.87337709837746
 30
0.0
 10
27.95870941130892
 20
15.76318013867732
 30
0.0
 10
30.3805368124617
 20
16.50268674510892
 30
0.0
 10
32.63064519657551
 20
17.11617985162515
 30
0.0
 10
34.88623409925451
 20
17.64875250146647
 30
0.0
 10
37.15260559854933
 20
18.1029505913172
 30
0.0
 10
39.43368508940002
 20
18.47283150410751
 30
0.0
 10
41.72631846466787
 20
18.75472120621797
 30
0.0
 10
44.02427994012255
 20
18.95251504635256
 30
0.0
 10
45.55739853200568
 20
19.00674929500627
 30
0.0
 10
46.32488533842614
 20
19.03389923012429
 30
0.0
1001
PE_URL
1000

  0
LINE
  5
B0
330
1F
100
AcDbEntity
  8
중심선
 62
     1
100
AcDbLine
 10
-65.45011466157386
 20
0.0000000000000009
 30
0.0
 11
53.32488533842614
 21
0.0000000000000156
 31
0.0
  0
LINE
  5
B1
330
1F
100
AcDbEntity
  8
참조1
100
AcDbLine
 10
0.2873853384261436
 20
0.0000000000000034
 30
0.0
 11
0.2873853384261487
 21
-40.0
 31
0.0
  0
LINE
  5
B2
330
1F
100
AcDbEntity
  8
참조1
100
AcDbLine
 10
0.2873853384261487
 20
-40.0
 30
0.0
 11
-21.22144647588253
 21
-39.99999999999999
 31
0.0
  0
INSERT
  5
B4
330
1F
100
AcDbEntity
  8
0
  6
Continuous
 62
     7
100
AcDbBlockReference
 66
     1
  2
블럭10
 10
-13.65288759369906
 20
-52.04717430164393
 30
0.0
  0
ATTRIB
  5
B5
330
B4
100
AcDbEntity
  8
FORMAT
 62
     2
100
AcDbText
 10
-22.83418288244034
 20
-49.97180738881174
 30
0.0
 40
4.233333333333333
  1
E2030132 [ 2 FLUTE ]
 41
0.75
  7
SLDTEXTSTYLE0
 11
-22.83418288244034
 21
-52.08847405547841
 31
0.0
100
AcDbAttribute
  2
AUTOATTR0
 70
     0
 74
     1
  0
SEQEND
  5
B6
330
B4
100
AcDbEntity
  8
0
  6
Continuous
 62
     7
  0
HATCH
  5
B7
330
1F
100
AcDbEntity
  8
중심선
100
AcDbHatch
 10
0.0
 20
0.0
 30
0.0
210
0.0
220
0.0
230
1.0
  2
SOLID
 70
     1
 71
     0
 91
        1
 92
        0
 93
        4
 72
     1
 10
-7.93797828931822
 20
-35.79999999999999
 11
-11.3842535331555
 21
-35.79999999999999
 72
     1
 10
-11.3842535331555
 20
-35.79999999999999
 11
-13.51248339235952
 21
-38.33632558057259
 72
     1
 10
-13.51248339235952
 20
-38.33632558057259
 11
-10.06617506340909
 21
-38.3362861512701
 72
     1
 10
-10.06617506340909
 20
-38.3362861512701
 11
-7.93797828931822
 21
-35.79999999999999
 97
        0
 75
     0
 76
     1
 98
        1
 10
1.309306506299208
 20
-0.0010749287238858
  0
HATCH
  5
B8
330
1F
100
AcDbEntity
  8
중심선
100
AcDbHatch
 10
0.0
 20
0.0
 30
0.0
210
0.0
220
0.0
230
1.0
  2
SOLID
 70
     1
 71
     0
 91
        1
 92
        0
 93
        4
 72
     1
 10
-2.92521429828224
 20
-35.79999999999999
 11
-6.371489542119523
 21
-35.79999999999999
 72
     1
 10
-6.371489542119523
 20
-35.79999999999999
 11
-10.90262755047694
 21
-41.20000000000001
 72
     1
 10
-10.90262755047694
 20
-41.20000000000001
 11
-7.456352306639657
 21
-41.20000000000001
 72
     1
 10
-7.456352306639657
 20
-41.20000000000001
 11
-2.92521429828224
 21
-35.79999999999999
 97
        0
 75
     0
 76
     1
 98
        1
 10
1.309306506299208
 20
-0.0010749287238858
  0
HATCH
  5
B9
330
1F
100
AcDbEntity
  8
중심선
100
AcDbHatch
 10
0.0
 20
0.0
 30
0.0
210
0.0
220
0.0
230
1.0
  2
SOLID
 70
     1
 71
     0
 91
        1
 92
        0
 93
        4
 72
     1
 10
2.087549692753627
 20
-35.79999999999999
 11
-1.35872555108346
 21
-35.79999999999999
 72
     1
 10
-1.35872555108346
 20
-35.79999999999999
 11
-8.407162452972738
 21
-44.20000000000001
 72
     1
 10
-8.407162452972738
 20
-44.20000000000001
 11
-4.960887209135455
 21
-44.20000000000001
 72
     1
 10
-4.960887209135455
 20
-44.20000000000001
 11
2.087549692753628
 21
-35.79999999999999
 97
        0
 75
     0
 76
     1
 98
        1
 10
1.309306506299208
 20
-0.0010749287238858
  0
HATCH
  5
BA
330
1F
100
AcDbEntity
  8
중심선
100
AcDbHatch
 10
0.0
 20
0.0
 30
0.0
210
0.0
220
0.0
230
1.0
  2
SOLID
 70
     1
 71
     0
 91
        1
 92
        0
 93
        6
 72
     3
 10
6.887440123765827
 20
-40.00000000005127
 11
3.960054785062284
 21
1.540882976769353E-10
 40
0.3939339440162627
 50
17.09539180608436
 51
320.0019657685086
 73
     0
 72
     1
 10
8.570439779466422
 20
-38.58789400463832
 11
10.87574165316749
 21
-36.65356729459037
 72
     3
 10
6.88744012371298
 20
-40.00000000000014
 11
6.60005478528683
 21
-1.278976924368180E-13
 40
0.636358354079598
 50
39.99873849337385
 51
368.4976242363724
 73
     1
 72
     1
 10
13.31277261561359
 20
-39.03999999993002
 11
5.567507430548902
 21
-39.03999999993002
 72
     1
 10
5.567507430548902
 20
-39.03999999993002
 11
5.567482386102968
 21
-40.95999999992991
 72
     1
 10
5.567482386102968
 20
-40.95999999992991
 11
10.00886215557501
 21
-40.95999999992988
 97
        0
 75
     0
 76
     1
 98
        1
 10
1.309306506299208
 20
-0.0010749287238858
  0
DIMENSION
  5
BB
330
1F
100
AcDbEntity
  8
치수문자_일반주서
100
AcDbDimension
  2
_D
 10
-73.45011466157372
 20
-15.87500000000006
 30
0.0
 11
-73.45011466157392
 21
37.74999999999989
 31
0.0
 70
   160
  1
%%c<>
 71
     2
 42
31.74999999999995
 52
-270.0
  3
SLDDIMSTYLE2
100
AcDbAlignedDimension
 13
-43.84511466157386
 23
15.87499999999999
 33
0.0
 14
-57.38761466157385
 24
-15.87500000000001
 34
0.0
 50
90.0000000000002
100
AcDbRotatedDimension
1001
PE_URL
1000

1001
ACAD
1000
DSTYLE
1002
{
1070
   171
1070
     8
1070
   273
1070
     7
1070
    41
1040
4.0
1070
   140
1040
4.0
1002
}
1001
ACAD_DSTYLE_DIMFLIPARROW_SYMBOL
1070
   385
1070
     0
1001
ACAD_DSTYLE_DIMFLIPARROW_WHICH_SYMBOL
1070
   386
1070
     3
  0
DIMENSION
  5
C9
330
1F
100
AcDbEntity
  8
치수문자_일반주서
100
AcDbDimension
  2
_D_1
 10
5.049885338426147
 20
30.875
 30
0.0
 11
25.68738533842615
 21
30.875
 31
0.0
 70
   160
  1
<>
 71
     2
 42
41.275
  3
SLDDIMSTYLE2
100
AcDbAlignedDimension
 13
46.32488533842614
 23
19.03389923012429
 33
0.0
 14
5.049885338426146
 24
5.4728493240694
 34
0.0
100
AcDbRotatedDimension
1001
PE_URL
1000

1001
ACAD
1000
DSTYLE
1002
{
1070
   171
1070
     8
1070
   273
1070
     7
1070
    41
1040
4.0
1070
   140
1040
4.0
1002
}
  0
DIMENSION
  5
DF
330
1F
100
AcDbEntity
  8
치수문자_일반주서
100
AcDbDimension
  2
_D_2
 10
-58.45011466157386
 20
45.875
 30
0.0
 11
-6.062614661573861
 21
45.875
 31
0.0
 70
   160
  1
<>
 71
     2
 42
104.775
  3
SLDDIMSTYLE2
100
AcDbAlignedDimension
 13
46.32488533842614
 23
19.03389923012429
 33
0.0
 14
-58.45011466157386
 24
13.97000000000001
 34
0.0
 50
0.000000000000008
100
AcDbRotatedDimension
1001
PE_URL
1000

1001
ACAD
1000
DSTYLE
1002
{
1070
   171
1070
     8
1070
   273
1070
     7
1070
    41
1040
4.0
1070
   140
1040
4.0
1002
}
  0
DIMENSION
  5
F3
330
1F
100
AcDbEntity
  8
치수문자_일반주서
100
AcDbDimension
  2
_D_3
 10
61.32488533842612
 20
19.03389923012478
 30
0.0
 11
61.32488533842604
 21
41.15889923012478
 31
0.0
 70
   160
  1
%%c<>
 71
     2
 42
38.06779846024942
 52
-270.0
  3
SLDDIMSTYLE2
100
AcDbAlignedDimension
 13
46.32488533842616
 23
-19.0338992301247
 33
0.0
 14
46.32488533842616
 24
19.03389923012472
 34
0.0
 50
90.0000000000002
100
AcDbRotatedDimension
1001
PE_URL
1000

1001
ACAD
1000
DSTYLE
1002
{
1070
   171
1070
     8
1070
   273
1070
     7
1070
    41
1040
4.0
1070
   140
1040
4.0
1002
}
1001
ACAD_DSTYLE_DIMFLIPARROW_SYMBOL
1070
   385
1070
     0
1001
ACAD_DSTYLE_DIMFLIPARROW_WHICH_SYMBOL
1070
   386
1070
     3
  0
LINE
  5
107
330
1F
100
AcDbEntity
  8
참조1
100
AcDbLine
 10
76.75089415377174
 20
7.440000000000009
 30
0.0
 11
76.75089415377174
 21
-7.439999999999995
 31
0.0
  0
LINE
  5
108
330
1F
100
AcDbEntity
  8
참조1
100
AcDbLine
 10
89.45089415377174
 20
5.440000000000009
 30
0.0
 11
76.75089415377174
 21
5.440000000000009
 31
0.0
  0
SOLID
  5
109
330
1F
100
AcDbEntity
  8
참조1
100
AcDbTrace
 10
76.75089415377174
 20
5.440000000000009
 30
0.0
 11
83.10089415377173
 21
4.424000000000009
 31
0.0
 12
83.10089415377173
 22
6.456000000000009
 32
0.0
 13
83.10089415377173
 23
6.456000000000009
 33
0.0
  0
LINE
  5
10A
330
1F
100
AcDbEntity
  8
참조1
100
AcDbLine
 10
89.45089415377174
 20
-5.439999999999995
 30
0.0
 11
76.75089415377174
 21
-5.439999999999995
 31
0.0
  0
SOLID
  5
10B
330
1F
100
AcDbEntity
  8
참조1
100
AcDbTrace
 10
76.75089415377174
 20
-5.439999999999995
 30
0.0
 11
83.10089415377173
 21
-6.455999999999995
 31
0.0
 12
83.10089415377173
 22
-4.423999999999995
 32
0.0
 13
83.10089415377173
 23
-4.423999999999995
 33
0.0
  0
MTEXT
  5
10C
330
1F
100
AcDbEntity
  8
참조1
100
AcDbMText
 10
86.13524428639772
 20
11.01029177718834
 30
0.0
 40
3.5
 41
0.0
 71
     1
 72
     1
  1
A
  7
SLDTEXTSTYLE0
 73
     1
 44
1.0
  0
MTEXT
  5
10D
330
1F
100
AcDbEntity
  8
참조1
100
AcDbMText
 10
86.13524428639772
 20
0.1302917771883343
 30
0.0
 40
3.5
 41
0.0
 71
     1
 72
     1
  1
A
  7
SLDTEXTSTYLE0
 73
     1
 44
1.0
  0
SPLINE
  5
18B
330
1F
100
AcDbEntity
  8
외형선
  6
Continuous
370
    15
100
AcDbSpline
210
0.0
220
0.0
230
1.0
 70
    24
 71
     3
 72
     8
 73
     4
 74
     0
 42
0.000000001
 43
0.00000001
 40
0.0
 40
0.0
 40
0.0
 40
0.0
 40
1.0
 40
1.0
 40
1.0
 40
1.0
 10
5.049885338426137
 20
2.586003176581428
 30
0.0
 10
5.049885338426137
 20
2.464529104552767
 30
0.0
 10
5.049885338426137
 20
2.268408457578161
 30
0.0
 10
5.049885338426137
 20
2.0004234278776
 30
0.0
  0
LINE
  5
18C
330
1F
100
AcDbEntity
  8
외형선
  6
Continuous
370
    15
100
AcDbLine
 10
5.049885338426137
 20
-2.868439214036243
 30
0.0
 11
5.049885338426137
 21
2.000423427880413
 31
0.0
  0
SPLINE
  5
18D
330
1F
100
AcDbEntity
  8
외형선
  6
Continuous
370
    15
100
AcDbSpline
210
0.0
220
0.0
230
1.0
 70
    24
 71
     3
 72
    14
 73
    10
 74
     0
 42
0.000000001
 43
0.00000001
 40
0.0
 40
0.0
 40
0.0
 40
0.0
 40
0.25
 40
0.25
 40
0.5
 40
0.5
 40
0.75
 40
0.75
 40
1.0
 40
1.0
 40
1.0
 40
1.0
 10
5.049885338426137
 20
13.67426650302474
 30
0.0
 10
5.049885338426137
 20
13.24811946257553
 30
0.0
 10
5.049885338426137
 20
12.67600270899131
 30
0.0
 10
5.049885338426137
 20
11.24974388296438
 30
0.0
 10
5.049885338426137
 20
10.39568219519118
 30
0.0
 10
5.049885338426137
 20
8.457733453098573
 30
0.0
 10
5.049885338426137
 20
7.374406019547305
 30
0.0
 10
5.049885338426137
 20
5.063366746192916
 30
0.0
 10
5.049885338426137
 20
3.836432004151952
 30
0.0
 10
5.049885338426137
 20
2.586003176581436
 30
0.0
  0
SPLINE
  5
18E
330
1F
100
AcDbEntity
  8
외형선
  6
Continuous
370
    15
100
AcDbSpline
210
0.0
220
0.0
230
1.0
 70
    24
 71
     3
 72
    19
 73
    15
 74
     0
 42
0.000000001
 43
0.00000001
 40
0.0
 40
0.0
 40
0.0
 40
0.0
 40
0.0601676081337111
 40
0.1445939507462632
 40
0.2314730612762812
 40
0.3183521718062992
 40
0.4027785144188513
 40
0.4872048570314035
 40
0.5740839675614213
 40
0.6609630780914393
 40
0.7445340734226613
 40
0.8281050687538833
 40
0.9140525343769417
 40
1.0
 40
1.0
 40
1.0
 40
1.0
 10
5.049885338426137
 20
-2.912408393726714
 30
0.0
 10
5.049885338426137
 20
-3.25445308629655
 30
0.0
 10
5.049885338426137
 20
-4.07645008708397
 30
0.0
 10
5.049885338426137
 20
-5.319834978087862
 30
0.0
 10
5.049885338426137
 20
-6.638144634755754
 30
0.0
 10
5.049885338426137
 20
-7.867966054994568
 30
0.0
 10
5.049885338426137
 20
-8.99260401299518
 30
0.0
 10
5.049885338426137
 20
-10.01762848746989
 30
0.0
 10
5.049885338426137
 20
-10.94236411808052
 30
0.0
 10
5.049885338426137
 20
-11.74686082211426
 30
0.0
 10
5.049885338426137
 20
-12.42147928126015
 30
0.0
 10
5.049885338426137
 20
-12.97034062893322
 30
0.0
 10
5.049885338426137
 20
-13.40538110893541
 30
0.0
 10
5.049885338426137
 20
-13.58463803832828
 30
0.0
 10
5.049885338426137
 20
-13.67426650302472
 30
0.0
  0
LINE
  5
18F
330
1F
100
AcDbEntity
  8
외형선
  6
Continuous
370
    15
100
AcDbLine
 10
1.999999999999972
 20
15.875
 30
0.0
 11
-21.02003966157385
 21
15.875
 31
0.0
  0
LINE
  5
190
330
1F
100
AcDbEntity
  8
외형선
  6
Continuous
370
    15
100
AcDbLine
 10
-57.45011466157385
 20
-15.87500000000001
 30
0.0
 11
1.999999999999972
 21
-15.875
 31
0.0
  0
LINE
  5
191
330
1F
100
AcDbEntity
  8
외형선
  6
Continuous
370
    15
100
AcDbLine
 10
-58.45011466157386
 20
-14.87499999999999
 30
0.0
 11
-57.45011466157385
 21
-15.87499999999999
 31
0.0
  0
SPLINE
  5
192
330
1F
100
AcDbEntity
  8
외형선
  6
Continuous
370
    15
100
AcDbSpline
210
0.0
220
0.0
230
1.0
 70
     8
 71
     3
 72
     9
 73
     5
 74
     0
 42
0.000000001
 43
0.00000001
 40
0.0
 40
0.0
 40
0.0
 40
0.0
 40
0.4903866493474611
 40
1.0
 40
1.0
 40
1.0
 40
1.0
 10
5.049885338426151
 20
2.586003176581421
 30
0.0
 10
4.542360815616306
 20
2.82852160786625
 30
0.0
 10
3.507413140174528
 20
3.323066945932737
 30
0.0
 10
2.50895015078229
 20
3.832394532799356
 30
0.0
 10
2.00012008125556
 20
4.09195467092222
 30
0.0
  0
LINE
  5
193
330
1F
100
AcDbEntity
  8
외형선
  6
Continuous
370
    15
100
AcDbLine
 10
5.049885338426165
 20
-0.5314138600008391
 30
0.0
 11
5.049885338426165
 21
-0.7738545373127153
 31
0.0
  0
SPLINE
  5
194
330
1F
100
AcDbEntity
  8
외형선
  6
Continuous
370
    15
100
AcDbSpline
210
0.0
220
0.0
230
1.0
 70
     8
 71
     3
 72
     8
 73
     4
 74
     0
 42
0.000000001
 43
0.00000001
 40
0.0
 40
0.0
 40
0.0
 40
0.0
 40
1.0
 40
1.0
 40
1.0
 40
1.0
 10
5.049885338426158
 20
-0.7738545373127153
 30
0.0
 10
4.03122422376881
 20
-0.3635730375112729
 30
0.0
 10
3.017688501886347
 20
0.0476081297797464
 30
0.0
 10
2.000028932607847
 20
0.458403307963934
 30
0.0
  0
SPLINE
  5
195
330
1F
100
AcDbEntity
  8
외형선
  6
Continuous
370
    15
100
AcDbSpline
210
0.0
220
0.0
230
1.0
 70
     8
 71
     3
 72
     8
 73
     4
 74
     0
 42
0.000000001
 43
0.00000001
 40
0.0
 40
0.0
 40
0.0
 40
0.0
 40
1.0
 40
1.0
 40
1.0
 40
1.0
 10
5.049885338426158
 20
-2.888039153811739
 30
0.0
 10
4.031214570074987
 20
-2.300730690869891
 30
0.0
 10
3.017669273356688
 20
-1.713477085889366
 30
0.0
 10
2.0
 20
-1.128113257866836
 30
0.0
  0
SPLINE
  5
196
330
1F
100
AcDbEntity
  8
외형선
  6
Continuous
370
    15
100
AcDbSpline
210
0.0
220
0.0
230
1.0
 70
     8
 71
     3
 72
     8
 73
     4
 74
     0
 42
0.000000001
 43
0.00000001
 40
0.0
 40
0.0
 40
0.0
 40
0.0
 40
1.0
 40
1.0
 40
1.0
 40
1.0
 10
5.049885338422399
 20
2.000423427876292
 30
0.0
 10
4.031254636552234
 20
2.569503204564647
 30
0.0
 10
3.017749079009732
 20
3.129527178041542
 30
0.0
 10
2.000120081251808
 20
3.678754533633175
 30
0.0
  0
LINE
  5
197
330
1F
100
AcDbEntity
  8
외형선
  6
Continuous
370
    15
100
AcDbLine
 10
5.049885338426158
 20
3.94661453594399
 30
0.0
 11
5.049885338426158
 21
-0.4536078328534074
 31
0.0
  0
LINE
  5
198
330
1F
100
AcDbEntity
  8
외형선
  6
Continuous
370
    15
100
AcDbLine
 10
1.999999999999972
 20
-15.875
 30
0.0
 11
2.0
 21
3.696107139967793
 31
0.0
  0
LINE
  5
199
330
1F
100
AcDbEntity
  8
외형선
  6
Continuous
370
    15
100
AcDbLine
 10
1.999999999999986
 20
4.080318367679382
 30
0.0
 11
1.999999999999972
 21
15.875
 31
0.0
  0
LINE
  5
19A
330
1F
100
AcDbEntity
  8
외형선
  6
Continuous
370
    15
100
AcDbLine
 10
-57.45011466157385
 20
13.97000000000001
 30
0.0
 11
-57.45011466157385
 21
-15.87500000000001
 31
0.0
  0
LINE
  5
19B
330
1F
100
AcDbEntity
  8
외형선
  6
Continuous
370
    15
100
AcDbLine
 10
-58.45011466157386
 20
13.97000000000001
 30
0.0
 11
-58.45011466157386
 21
-14.87499999999998
 31
0.0
  0
SPLINE
  5
19C
330
1F
100
AcDbEntity
  8
외형선
  6
Continuous
370
    15
100
AcDbSpline
210
0.0
220
0.0
230
1.0
 70
    24
 71
     3
 72
    11
 73
     7
 74
     0
 42
0.000000001
 43
0.00000001
 40
0.0
 40
0.0
 40
0.0
 40
0.0
 40
0.0823041583770279
 40
0.330386082657111
 40
0.8244444445770203
 40
1.0
 40
1.0
 40
1.0
 40
1.0
 10
5.049885338426158
 20
4.132058598373487
 30
0.0
 10
5.049885338426158
 20
4.131579337312896
 30
0.0
 10
5.049885338426165
 20
4.129655483312067
 30
0.0
 10
5.049885338426158
 20
4.098156775640749
 30
0.0
 10
5.049885338426165
 20
4.037020422010141
 30
0.0
 10
5.049885338426158
 20
3.9653933206212
 30
0.0
 10
5.049885338426158
 20
3.946614535948431
 30
0.0
  0
SPLINE
  5
19D
330
1F
100
AcDbEntity
  8
외형선
  6
Continuous
370
    15
100
AcDbSpline
210
0.0
220
0.0
230
1.0
 70
     8
 71
     3
 72
    18
 73
    14
 74
     0
 42
0.000000001
 43
0.00000001
 40
0.0
 40
0.0
 40
0.0
 40
0.0
 40
0.2500000000000011
 40
0.2500000000000011
 40
0.3750000000000014
 40
0.3750000000000014
 40
0.5000000000000018
 40
0.5000000000000018
 40
0.6250000000000021
 40
0.6250000000000021
 40
0.7500000000000024
 40
0.7500000000000024
 40
1.0
 40
1.0
 40
1.0
 40
1.0
 10
2.290328943835441
 20
13.85791338238191
 30
0.0
 10
2.261634500481456
 20
13.87984565063122
 30
0.0
 10
2.23126596175846
 20
13.90426899918241
 30
0.0
 10
2.179757488563695
 20
13.94970309481604
 30
0.0
 10
2.161787381202828
 20
13.96618171395303
 30
0.0
 10
2.124509673021841
 20
14.00248888858756
 30
0.0
 10
2.104541364299209
 20
14.02305800087305
 30
0.0
 10
2.068013137998499
 20
14.06417416492013
 30
0.0
 10
2.052291348851298
 20
14.08381879593427
 30
0.0
 10
2.028624187023453
 20
14.11674995026949
 30
0.0
 10
2.020510186304904
 20
14.13005894704558
 30
0.0
 10
2.003196561667778
 20
14.16270407982303
 30
0.0
 10
1.999999999999957
 20
14.17613632362517
 30
0.0
 10
1.999999999999964
 20
14.18588518675779
 30
0.0
  0
SPLINE
  5
19E
330
1F
100
AcDbEntity
  8
외형선
  6
Continuous
370
    15
100
AcDbSpline
210
0.0
220
0.0
230
1.0
 70
     8
 71
     3
 72
    16
 73
    12
 74
     0
 42
0.000000001
 43
0.00000001
 40
0.0
 40
0.0
 40
0.0
 40
0.0
 40
0.1885062659111649
 40
0.3660870867624697
 40
0.5291463940981855
 40
0.6676019494618727
 40
0.7815277951775346
 40
0.8710511475346278
 40
0.9364332364261764
 40
0.9783782694745654
 40
1.0
 40
1.0
 40
1.0
 40
1.0
 10
2.290329546450472
 20
13.8578957319418
 30
0.0
 10
2.303748388961687
 20
13.84770813424304
 30
0.0
 10
2.329808344788141
 20
13.82792339157352
 30
0.0
 10
2.36835815496304
 20
13.79961794234768
 30
0.0
 10
2.403931460543454
 20
13.77419609381261
 30
0.0
 10
2.435581803249931
 20
13.75232694608849
 30
0.0
 10
2.462619114035412
 20
13.73457981581542
 30
0.0
 10
2.484815284222343
 20
13.72063720035774
 30
0.0
 10
2.502681944353995
 20
13.71107008731905
 30
0.0
 10
2.515182628103815
 20
13.70427439179817
 30
0.0
 10
2.523842084274897
 20
13.70258996655263
 30
0.0
 10
2.526787529619313
 20
13.70201702266338
 30
0.0
  0
SPLINE
  5
19F
330
1F
100
AcDbEntity
  8
외형선
  6
Continuous
370
    15
100
AcDbSpline
210
0.0
220
0.0
230
1.0
 70
     8
 71
     3
 72
     8
 73
     4
 74
     0
 42
0.000000001
 43
0.00000001
 40
0.0
 40
0.0
 40
0.0
 40
0.0
 40
1.0
 40
1.0
 40
1.0
 40
1.0
 10
5.049885338426137
 20
13.67426650302474
 30
0.0
 10
4.207100543480415
 20
13.70134746061326
 30
0.0
 10
3.367630814654468
 20
13.71058406342043
 30
0.0
 10
2.526808352508212
 20
13.70199599452106
 30
0.0
  0
SPLINE
  5
1A0
330
1F
100
AcDbEntity
  8
외형선
  6
Continuous
370
    15
100
AcDbSpline
210
0.0
220
0.0
230
1.0
 70
    24
 71
     3
 72
    17
 73
    13
 74
     0
 42
0.000000001
 43
0.00000001
 40
0.0
 40
0.0
 40
0.0
 40
0.0
 40
0.1313580261013513
 40
0.2627160522027026
 40
0.3590253798081519
 40
0.455334707413601
 40
0.5544420293605489
 40
0.6535493513074967
 40
0.7406183468884215
 40
0.8276873424693466
 40
0.916804288052325
 40
1.0
 40
1.0
 40
1.0
 40
1.0
 10
5.049885338426158
 20
12.66916838106828
 30
0.0
 10
5.049885338426158
 20
12.52596852133816
 30
0.0
 10
5.049885338426158
 20
12.23956880187789
 30
0.0
 10
5.049885338426165
 20
11.59905215273749
 30
0.0
 10
5.049885338426158
 20
10.88663460064066
 30
0.0
 10
5.049885338426165
 20
10.13578412132075
 30
0.0
 10
5.049885338426158
 20
9.273352987290775
 30
0.0
 10
5.049885338426158
 20
8.341553286000543
 30
0.0
 10
5.049885338426158
 20
7.368369768598399
 30
0.0
 10
5.049885338426165
 20
6.362407772971231
 30
0.0
 10
5.049885338426165
 20
5.313601434760475
 30
0.0
 10
5.049885338426165
 20
4.570757910675486
 30
0.0
 10
5.049885338426165
 20
4.212099430575282
 30
0.0
  0
SPLINE
  5
1A1
330
1F
100
AcDbEntity
  8
외형선
  6
Continuous
370
    15
100
AcDbSpline
210
0.0
220
0.0
230
1.0
 70
     8
 71
     3
 72
     8
 73
     4
 74
     0
 42
0.000000001
 43
0.00000001
 40
0.0
 40
0.0
 40
0.0
 40
0.0
 40
1.0
 40
1.0
 40
1.0
 40
1.0
 10
5.049885338426137
 20
-13.67426650302472
 30
0.0
 10
4.031229201589056
 20
-13.70699868305977
 30
0.0
 10
3.017698416863738
 20
-13.71367102895771
 30
0.0
 10
2.000043851385861
 20
-13.69428828557773
 30
0.0
  0
SPLINE
  5
1A2
330
1F
100
AcDbEntity
  8
외형선
  6
Continuous
370
    15
100
AcDbSpline
210
0.0
220
0.0
230
1.0
 70
    24
 71
     3
 72
    14
 73
    10
 74
     0
 42
0.000000001
 43
0.00000001
 40
0.0
 40
0.0
 40
0.0
 40
0.0
 40
0.25
 40
0.25
 40
0.5
 40
0.5
 40
0.75
 40
0.75
 40
1.0
 40
1.0
 40
1.0
 40
1.0
 10
5.049885338426158
 20
-0.7738545373127153
 30
0.0
 10
5.049885338426158
 20
-2.12371059993788
 30
0.0
 10
5.049885338426158
 20
-3.46857557347451
 30
0.0
 10
5.049885338426158
 20
-6.01065417580584
 30
0.0
 10
5.049885338426158
 20
-7.206344885641215
 30
0.0
 10
5.049885338426158
 20
-9.32048511077953
 30
0.0
 10
5.049885338426158
 20
-10.23780812378205
 30
0.0
 10
5.049885338426158
 20
-11.71921585877855
 30
0.0
 10
5.049885338426158
 20
-12.28326743127754
 30
0.0
 10
5.049885338426158
 20
-12.66916838106829
 30
0.0
  0
SPLINE
  5
1A3
330
1F
100
AcDbEntity
  8
외형선
  6
Continuous
370
    15
100
AcDbSpline
210
0.0
220
0.0
230
1.0
 70
    24
 71
     3
 72
    12
 73
     8
 74
     0
 42
0.000000001
 43
0.00000001
 40
0.0
 40
0.0
 40
0.0
 40
0.0
 40
0.0864847977554923
 40
0.3334174136468478
 40
0.5791958706366193
 40
0.8252577544266632
 40
1.0
 40
1.0
 40
1.0
 40
1.0
 10
5.049885338426158
 20
4.132175635189991
 30
0.0
 10
5.049885338426158
 20
4.13167958268436
 30
0.0
 10
5.049885338426158
 20
4.129767194059394
 30
0.0
 10
5.049885338426158
 20
4.107581530131316
 30
0.0
 10
5.049885338426158
 20
4.06532009642984
 30
0.0
 10
5.049885338426158
 20
4.010593567145644
 30
0.0
 10
5.049885338426158
 20
3.965386944028648
 30
0.0
 10
5.049885338426158
 20
3.946614535948431
 30
0.0
  0
LINE
  5
1A4
330
1F
100
AcDbEntity
  8
외형선
  6
Continuous
370
    15
100
AcDbLine
 10
5.049885338426158
 20
-0.5314138600008249
 30
0.0
 11
5.049885338426158
 21
-0.7738545373127153
 31
0.0
  0
SPLINE
  5
1A5
330
1F
100
AcDbEntity
  8
외형선
  6
Continuous
370
    15
100
AcDbSpline
210
0.0
220
0.0
230
1.0
 70
    24
 71
     3
 72
    17
 73
    13
 74
     0
 42
0.000000001
 43
0.00000001
 40
0.0
 40
0.0
 40
0.0
 40
0.0
 40
0.1305123694726852
 40
0.2627180348991967
 40
0.3590271035105814
 40
0.4553361721219662
 40
0.5544432275505119
 40
0.6535502829790576
 40
0.7406190444149251
 40
0.8276878058507925
 40
0.9168045117813872
 40
1.0
 40
1.0
 40
1.0
 40
1.0
 10
5.049885338426158
 20
12.66916838106828
 30
0.0
 10
5.049885338426158
 20
12.52719636435634
 30
0.0
 10
5.049885338426158
 20
12.24141035501533
 30
0.0
 10
5.049885338426158
 20
11.60081709327884
 30
0.0
 10
5.049885338426158
 20
10.8866576774552
 30
0.0
 10
5.049885338426158
 20
10.13577773567579
 30
0.0
 10
5.049885338426158
 20
9.273354726452343
 30
0.0
 10
5.049885338426158
 20
8.341552882596769
 30
0.0
 10
5.049885338426158
 20
7.368369870626047
 30
0.0
 10
5.049885338426158
 20
6.362407744985276
 30
0.0
 10
5.049885338426158
 20
5.313601441280134
 30
0.0
 10
5.049885338426158
 20
4.570757912798342
 30
0.0
 10
5.049885338426158
 20
4.212099430575282
 30
0.0
  0
SPLINE
  5
1A6
330
1F
100
AcDbEntity
  8
외형선
  6
Continuous
370
    15
100
AcDbSpline
210
0.0
220
0.0
230
1.0
 70
    24
 71
     3
 72
    14
 73
    10
 74
     0
 42
0.000000001
 43
0.00000001
 40
0.0
 40
0.0
 40
0.0
 40
0.0
 40
0.25
 40
0.25
 40
0.5
 40
0.5
 40
0.75
 40
0.75
 40
1.0
 40
1.0
 40
1.0
 40
1.0
 10
5.049885338426158
 20
-0.7738545373127153
 30
0.0
 10
5.049885338426158
 20
-2.12371059993788
 30
0.0
 10
5.049885338426158
 20
-3.46857557347451
 30
0.0
 10
5.049885338426158
 20
-6.01065417580584
 30
0.0
 10
5.049885338426158
 20
-7.206344885641215
 30
0.0
 10
5.049885338426158
 20
-9.32048511077953
 30
0.0
 10
5.049885338426158
 20
-10.23780812378205
 30
0.0
 10
5.049885338426158
 20
-11.71921585877855
 30
0.0
 10
5.049885338426158
 20
-12.28326743127754
 30
0.0
 10
5.049885338426158
 20
-12.66916838106829
 30
0.0
  0
CIRCLE
  5
1A7
330
1F
100
AcDbEntity
  8
해칭선
100
AcDbCircle
 10
0.0
 20
0.0
 30
0.0
 40
2.999999999999993
  0
INSERT
  5
1A8
330
1F
100
AcDbEntity
  8
해칭선
100
AcDbBlockReference
  2
SW_DOWELSYMBOL_0
 10
0.0
 20
0.0
 30
0.0
  0
LINE
  5
1A9
330
1F
100
AcDbEntity
  8
외형선
  6
Continuous
370
    15
100
AcDbLine
 10
-36.03143966157377
 20
13.97000000000001
 30
0.0
 11
-22.92503966157388
 21
13.97000000000001
 31
0.0
1001
PE_URL
1000

  0
LINE
  5
1AA
330
1F
100
AcDbEntity
  8
외형선
  6
Continuous
370
    15
100
AcDbLine
 10
-36.03143966157377
 20
13.97000000000001
 30
0.0
 11
-37.93643966157374
 21
15.875
 31
0.0
1001
PE_URL
1000

  0
LINE
  5
1AB
330
1F
100
AcDbEntity
  8
외형선
  6
Continuous
370
    15
100
AcDbLine
 10
-22.92503966157388
 20
13.97000000000001
 30
0.0
 11
-21.02003966157385
 21
15.875
 31
0.0
1001
PE_URL
1000

  0
LINE
  5
1AC
330
1F
100
AcDbEntity
  8
외형선
  6
Continuous
370
    15
100
AcDbLine
 10
-58.45011466157386
 20
13.97000000000001
 30
0.0
 11
-45.75011466157386
 21
13.97000000000001
 31
0.0
1001
PE_URL
1000

  0
LINE
  5
1AD
330
1F
100
AcDbEntity
  8
외형선
  6
Continuous
370
    15
100
AcDbLine
 10
-45.75011466157386
 20
13.97000000000001
 30
0.0
 11
-43.84511466157386
 21
15.87499999999999
 31
0.0
1001
PE_URL
1000

  0
LINE
  5
1AE
330
1F
100
AcDbEntity
  8
외형선
  6
Continuous
370
    15
100
AcDbLine
 10
-37.93643966157373
 20
15.875
 30
0.0
 11
-43.84511466157386
 21
15.87499999999999
 31
0.0
  0
ENDSEC
  0
SECTION
  2
OBJECTS
  0
DICTIONARY
  5
C
330
0
100
AcDbDictionary
281
     1
  3
ACAD_DETAILVIEWSTYLE
350
25C
  3
ACAD_GROUP
350
D
  3
ACAD_IMAGE_VARS
350
28C
  3
ACAD_LAYOUT
350
1A
  3
ACAD_MLINESTYLE
350
17
  3
ACAD_PLOTSETTINGS
350
19
  3
ACAD_PLOTSTYLENAME
350
E
  3
ACAD_SCALELIST
350
47
  3
ACAD_SECTIONVIEWSTYLE
350
25D
  3
AcDbVariableDictionary
350
257
  3
APPDATA
350
136
  3
DWGPROPS
350
28D
  0
DICTIONARY
  5
186
330
2
100
AcDbDictionary
280
     1
281
     1
  3
ACAD_LAYERSTATES
360
187
  0
DICTIONARY
  5
25C
102
{ACAD_REACTORS
330
C
102
}
330
C
100
AcDbDictionary
281
     1
  0
DICTIONARY
  5
D
102
{ACAD_REACTORS
330
C
102
}
330
C
100
AcDbDictionary
281
     1
  0
RASTERVARIABLES
  5
28C
102
{ACAD_REACTORS
330
C
102
}
330
C
100
AcDbRasterVariables
 90
        0
 70
     1
 71
     1
 72
     1
  0
DICTIONARY
  5
1A
102
{ACAD_REACTORS
330
C
102
}
330
C
100
AcDbDictionary
281
     1
  3
Layout1
350
1E
  3
Layout2
350
26
  3
Model
350
22
  0
DICTIONARY
  5
17
102
{ACAD_REACTORS
330
C
102
}
330
C
100
AcDbDictionary
281
     1
  3
Standard
350
18
  0
DICTIONARY
  5
19
102
{ACAD_REACTORS
330
C
102
}
330
C
100
AcDbDictionary
281
     1
  0
ACDBDICTIONARYWDFLT
  5
E
102
{ACAD_REACTORS
330
C
102
}
330
C
100
AcDbDictionary
281
     1
  3
Normal
350
F
100
AcDbDictionaryWithDefault
340
F
  0
DICTIONARY
  5
47
102
{ACAD_REACTORS
330
C
102
}
330
C
100
AcDbDictionary
281
     1
  3
A0
350
48
  3
A1
350
49
  3
A2
350
4A
  3
A3
350
4B
  3
A4
350
4C
  3
A5
350
4D
  3
A6
350
4E
  3
A7
350
4F
  3
A8
350
50
  3
A9
350
51
  3
B0
350
52
  3
B1
350
53
  3
B2
350
54
  3
B3
350
55
  3
B4
350
56
  3
B5
350
57
  3
B6
350
58
  3
B7
350
59
  3
B8
350
5A
  3
B9
350
5B
  3
C0
350
5C
  3
C1
350
5D
  3
C2
350
5E
  3
C3
350
5F
  3
C4
350
60
  3
C5
350
61
  3
C6
350
62
  3
C7
350
63
  3
C8
350
64
  3
C9
350
65
  3
D0
350
66
  3
D1
350
67
  3
D2
350
68
  0
DICTIONARY
  5
25D
102
{ACAD_REACTORS
330
C
102
}
330
C
100
AcDbDictionary
281
     1
  0
DICTIONARY
  5
257
102
{ACAD_REACTORS
330
C
102
}
330
C
100
AcDbDictionary
281
     1
  0
DICTIONARY
  5
136
102
{ACAD_REACTORS
330
C
102
}
330
C
100
AcDbDictionary
281
     1
  0
XRECORD
  5
28D
102
{ACAD_REACTORS
330
C
102
}
330
C
100
AcDbXrecord
280
     1
  1
DWGPROPS COOKIE
  2

  3

  4

  6

  7

  8
12016016
  9

300
=
301
=
302
=
303
=
304
=
305
=
306
=
307
=
308
=
309
=
 40
0.0
 41
2458311.189154711
 42
2458323.078390209
  1

 90
        0
  0
DICTIONARY
  5
187
102
{ACAD_REACTORS
330
186
102
}
330
186
100
AcDbDictionary
281
     1
  0
LAYOUT
  5
1E
102
{ACAD_REACTORS
330
1A
102
}
330
1A
100
AcDbPlotSettings
  1

  2
none_device
  4

  6

 40
0.0
 41
0.0
 42
0.0
 43
0.0
 44
0.0
 45
0.0
 46
0.0
 47
0.0
 48
0.0
 49
0.0
140
0.0
141
0.0
142
1.0
143
1.0
 70
   688
 72
     1
 73
     0
 74
     5
  7

 75
    16
147
1.0
148
0.0
149
0.0
100
AcDbLayout
  1
Layout1
 70
     1
 71
     1
 10
0.0
 20
0.0
 11
420.0
 21
297.0
 12
0.0
 22
0.0
 32
0.0
 14
1.000000000000000E+20
 24
1.000000000000000E+20
 34
1.000000000000000E+20
 15
-1.000000000000000E+20
 25
-1.000000000000000E+20
 35
-1.000000000000000E+20
146
0.0
 13
0.0
 23
0.0
 33
0.0
 16
1.0
 26
0.0
 36
0.0
 17
0.0
 27
1.0
 37
0.0
 76
     0
330
1B
  0
LAYOUT
  5
26
102
{ACAD_REACTORS
330
1A
102
}
330
1A
100
AcDbPlotSettings
  1

  2
none_device
  4

  6

 40
0.0
 41
0.0
 42
0.0
 43
0.0
 44
0.0
 45
0.0
 46
0.0
 47
0.0
 48
0.0
 49
0.0
140
0.0
141
0.0
142
1.0
143
1.0
 70
   688
 72
     1
 73
     0
 74
     5
  7

 75
    16
147
1.0
148
0.0
149
0.0
100
AcDbLayout
  1
Layout2
 70
     1
 71
     2
 10
0.0
 20
0.0
 11
0.0
 21
0.0
 12
0.0
 22
0.0
 32
0.0
 14
0.0
 24
0.0
 34
0.0
 15
0.0
 25
0.0
 35
0.0
146
0.0
 13
0.0
 23
0.0
 33
0.0
 16
1.0
 26
0.0
 36
0.0
 17
0.0
 27
1.0
 37
0.0
 76
     0
330
23
  0
LAYOUT
  5
22
102
{ACAD_REACTORS
330
1A
102
}
330
1A
100
AcDbPlotSettings
  1

  2
none_device
  4
ANSI_A_(11.00_x_8.50_Inches)
  6

 40
6.35
 41
19.05
 42
6.35000508
 43
19.05000254
 44
279.4
 45
215.9
 46
111.5354592427306
 47
75.11363934332401
 48
0.0
 49
0.0
140
0.0
141
0.0
142
0.0715194751484015
143
1.0
 70
  1696
 72
     0
 73
     0
 74
     0
  7

 75
     0
147
0.0235690232323232
148
0.0
149
0.0
100
AcDbLayout
  1
Model
 70
     1
 71
     0
 10
0.0
 20
0.0
 11
420.0
 21
297.0
 12
0.0
 22
0.0
 32
0.0
 14
-78.32511466157398
 24
-49.97180738881174
 34
0.0
 15
89.45089415377174
 25
59.28389923012477
 35
0.0
146
0.0
 13
0.0
 23
0.0
 33
0.0
 16
1.0
 26
0.0
 36
0.0
 17
0.0
 27
1.0
 37
0.0
 76
     0
330
1F
331
29
  0
MLINESTYLE
  5
18
102
{ACAD_REACTORS
330
17
102
}
330
17
100
AcDbMlineStyle
  2
Standard
 70
     0
  3

 62
   256
 51
90.0
 52
90.0
 71
     2
 49
0.5
 62
   256
  6
BYLAYER
 49
-0.5
 62
   256
  6
BYLAYER
  0
ACDBPLACEHOLDER
  5
F
102
{ACAD_REACTORS
330
E
102
}
330
E
  0
SCALE
  5
48
102
{ACAD_REACTORS
330
47
102
}
330
47
100
AcDbScale
 70
     0
300
1:1
140
1.0
141
1.0
290
     1
  0
SCALE
  5
49
102
{ACAD_REACTORS
330
47
102
}
330
47
100
AcDbScale
 70
     0
300
1:2
140
1.0
141
2.0
290
     0
  0
SCALE
  5
4A
102
{ACAD_REACTORS
330
47
102
}
330
47
100
AcDbScale
 70
     0
300
1:4
140
1.0
141
4.0
290
     0
  0
SCALE
  5
4B
102
{ACAD_REACTORS
330
47
102
}
330
47
100
AcDbScale
 70
     0
300
1:5
140
1.0
141
5.0
290
     0
  0
SCALE
  5
4C
102
{ACAD_REACTORS
330
47
102
}
330
47
100
AcDbScale
 70
     0
300
1:8
140
1.0
141
8.0
290
     0
  0
SCALE
  5
4D
102
{ACAD_REACTORS
330
47
102
}
330
47
100
AcDbScale
 70
     0
300
1:10
140
1.0
141
10.0
290
     0
  0
SCALE
  5
4E
102
{ACAD_REACTORS
330
47
102
}
330
47
100
AcDbScale
 70
     0
300
1:16
140
1.0
141
16.0
290
     0
  0
SCALE
  5
4F
102
{ACAD_REACTORS
330
47
102
}
330
47
100
AcDbScale
 70
     0
300
1:20
140
1.0
141
20.0
290
     0
  0
SCALE
  5
50
102
{ACAD_REACTORS
330
47
102
}
330
47
100
AcDbScale
 70
     0
300
1:30
140
1.0
141
30.0
290
     0
  0
SCALE
  5
51
102
{ACAD_REACTORS
330
47
102
}
330
47
100
AcDbScale
 70
     0
300
1:40
140
1.0
141
40.0
290
     0
  0
SCALE
  5
52
102
{ACAD_REACTORS
330
47
102
}
330
47
100
AcDbScale
 70
     0
300
1:50
140
1.0
141
50.0
290
     0
  0
SCALE
  5
53
102
{ACAD_REACTORS
330
47
102
}
330
47
100
AcDbScale
 70
     0
300
1:100
140
1.0
141
100.0
290
     0
  0
SCALE
  5
54
102
{ACAD_REACTORS
330
47
102
}
330
47
100
AcDbScale
 70
     0
300
2:1
140
2.0
141
1.0
290
     0
  0
SCALE
  5
55
102
{ACAD_REACTORS
330
47
102
}
330
47
100
AcDbScale
 70
     0
300
4:1
140
4.0
141
1.0
290
     0
  0
SCALE
  5
56
102
{ACAD_REACTORS
330
47
102
}
330
47
100
AcDbScale
 70
     0
300
8:1
140
8.0
141
1.0
290
     0
  0
SCALE
  5
57
102
{ACAD_REACTORS
330
47
102
}
330
47
100
AcDbScale
 70
     0
300
10:1
140
10.0
141
1.0
290
     0
  0
SCALE
  5
58
102
{ACAD_REACTORS
330
47
102
}
330
47
100
AcDbScale
 70
     0
300
100:1
140
100.0
141
1.0
290
     0
  0
SCALE
  5
59
102
{ACAD_REACTORS
330
47
102
}
330
47
100
AcDbScale
 70
     0
300
1/128" = 1'-0"
140
0.0078125
141
12.0
290
     0
  0
SCALE
  5
5A
102
{ACAD_REACTORS
330
47
102
}
330
47
100
AcDbScale
 70
     0
300
1/64" = 1'-0"
140
0.015625
141
12.0
290
     0
  0
SCALE
  5
5B
102
{ACAD_REACTORS
330
47
102
}
330
47
100
AcDbScale
 70
     0
300
1/32" = 1'-0"
140
0.03125
141
12.0
290
     0
  0
SCALE
  5
5C
102
{ACAD_REACTORS
330
47
102
}
330
47
100
AcDbScale
 70
     0
300
1/16" = 1'-0"
140
0.0625
141
12.0
290
     0
  0
SCALE
  5
5D
102
{ACAD_REACTORS
330
47
102
}
330
47
100
AcDbScale
 70
     0
300
3/32" = 1'-0"
140
0.09375
141
12.0
290
     0
  0
SCALE
  5
5E
102
{ACAD_REACTORS
330
47
102
}
330
47
100
AcDbScale
 70
     0
300
1/8" = 1'-0"
140
0.125
141
12.0
290
     0
  0
SCALE
  5
5F
102
{ACAD_REACTORS
330
47
102
}
330
47
100
AcDbScale
 70
     0
300
3/16" = 1'-0"
140
0.1875
141
12.0
290
     0
  0
SCALE
  5
60
102
{ACAD_REACTORS
330
47
102
}
330
47
100
AcDbScale
 70
     0
300
1/4" = 1'-0"
140
0.25
141
12.0
290
     0
  0
SCALE
  5
61
102
{ACAD_REACTORS
330
47
102
}
330
47
100
AcDbScale
 70
     0
300
3/8" = 1'-0"
140
0.375
141
12.0
290
     0
  0
SCALE
  5
62
102
{ACAD_REACTORS
330
47
102
}
330
47
100
AcDbScale
 70
     0
300
1/2" = 1'-0"
140
0.5
141
12.0
290
     0
  0
SCALE
  5
63
102
{ACAD_REACTORS
330
47
102
}
330
47
100
AcDbScale
 70
     0
300
3/4" = 1'-0"
140
0.75
141
12.0
290
     0
  0
SCALE
  5
64
102
{ACAD_REACTORS
330
47
102
}
330
47
100
AcDbScale
 70
     0
300
1" = 1'-0"
140
1.0
141
12.0
290
     0
  0
SCALE
  5
65
102
{ACAD_REACTORS
330
47
102
}
330
47
100
AcDbScale
 70
     0
300
1-1/2" = 1'-0"
140
1.5
141
12.0
290
     0
  0
SCALE
  5
66
102
{ACAD_REACTORS
330
47
102
}
330
47
100
AcDbScale
 70
     0
300
3" = 1'-0"
140
3.0
141
12.0
290
     0
  0
SCALE
  5
67
102
{ACAD_REACTORS
330
47
102
}
330
47
100
AcDbScale
 70
     0
300
6" = 1'-0"
140
6.0
141
12.0
290
     0
  0
SCALE
  5
68
102
{ACAD_REACTORS
330
47
102
}
330
47
100
AcDbScale
 70
     0
300
1'-0" = 1'-0"
140
12.0
141
12.0
290
     0
  0
ENDSEC
  0
EOF
