  0
SECTION
  2
HEADER
  9
$ACADVER
  1
AC1015
  9
$ACADMAINTVER
 70
     6
  9
$DWGCODEPAGE
  3
ANSI_949
  9
$INSBASE
 10
0.0
 20
0.0
 30
0.0
  9
$EXTMIN
 10
-60.23750000000011
 20
-49.97180738881175
 30
0.0
  9
$EXTMAX
 10
86.40100881534565
 20
40.07363307670839
 30
0.0
  9
$LIMMIN
 10
0.0
 20
0.0
  9
$LIMMAX
 10
420.0
 20
297.0
  9
$ORTHOMODE
 70
     1
  9
$REGENMODE
 70
     1
  9
$FILLMODE
 70
     1
  9
$QTEXTMODE
 70
     0
  9
$MIRRTEXT
 70
     1
  9
$LTSCALE
 40
1.0
  9
$ATTMODE
 70
     1
  9
$TEXTSIZE
 40
3.5
  9
$TRACEWID
 40
1.0
  9
$TEXTSTYLE
  7
Standard
  9
$CLAYER
  8
0
  9
$CELTYPE
  6
ByLayer
  9
$CECOLOR
 62
   256
  9
$CELTSCALE
 40
1.0
  9
$DISPSILH
 70
     0
  9
$DIMSCALE
 40
1.0
  9
$DIMASZ
 40
3.302
  9
$DIMEXO
 40
1.0
  9
$DIMDLI
 40
3.75
  9
$DIMRND
 40
0.0
  9
$DIMDLE
 40
0.0
  9
$DIMEXE
 40
1.0
  9
$DIMTP
 40
0.0
  9
$DIMTM
 40
0.0
  9
$DIMTXT
 40
3.5
  9
$DIMCEN
 40
2.5
  9
$DIMTSZ
 40
0.0
  9
$DIMTOL
 70
     0
  9
$DIMLIM
 70
     0
  9
$DIMTIH
 70
     1
  9
$DIMTOH
 70
     1
  9
$DIMSE1
 70
     0
  9
$DIMSE2
 70
     0
  9
$DIMTAD
 70
     1
  9
$DIMZIN
 70
     0
  9
$DIMBLK
  1

  9
$DIMASO
 70
     1
  9
$DIMSHO
 70
     1
  9
$DIMPOST
  1

  9
$DIMAPOST
  1

  9
$DIMALT
 70
     0
  9
$DIMALTD
 70
     3
  9
$DIMALTF
 40
0.0393700787401575
  9
$DIMLFAC
 40
1.0
  9
$DIMTOFL
 70
     1
  9
$DIMTVP
 40
0.0
  9
$DIMTIX
 70
     0
  9
$DIMSOXD
 70
     0
  9
$DIMSAH
 70
     0
  9
$DIMBLK1
  1

  9
$DIMBLK2
  1

  9
$DIMSTYLE
  2
ISO-25
  9
$DIMCLRD
 70
     0
  9
$DIMCLRE
 70
     0
  9
$DIMCLRT
 70
     0
  9
$DIMTFAC
 40
1.0
  9
$DIMGAP
 40
1.524
  9
$DIMJUST
 70
     0
  9
$DIMSD1
 70
     0
  9
$DIMSD2
 70
     0
  9
$DIMTOLJ
 70
     0
  9
$DIMTZIN
 70
     0
  9
$DIMALTZ
 70
     0
  9
$DIMALTTZ
 70
     0
  9
$DIMUPT
 70
     0
  9
$DIMDEC
 70
     2
  9
$DIMTDEC
 70
     2
  9
$DIMALTU
 70
     2
  9
$DIMALTTD
 70
     3
  9
$DIMTXSTY
  7
Standard
  9
$DIMAUNIT
 70
     0
  9
$DIMADEC
 70
     2
  9
$DIMALTRND
 40
0.0
  9
$DIMAZIN
 70
     0
  9
$DIMDSEP
 70
    44
  9
$DIMATFIT
 70
     3
  9
$DIMFRAC
 70
     0
  9
$DIMLDRBLK
  1

  9
$DIMLUNIT
 70
     2
  9
$DIMLWD
 70
    -2
  9
$DIMLWE
 70
    -2
  9
$DIMTMOVE
 70
     0
  9
$LUNITS
 70
     2
  9
$LUPREC
 70
     2
  9
$SKETCHINC
 40
1.0
  9
$FILLETRAD
 40
10.0
  9
$AUNITS
 70
     0
  9
$AUPREC
 70
     2
  9
$MENU
  1
.
  9
$ELEVATION
 40
0.0
  9
$PELEVATION
 40
0.0
  9
$THICKNESS
 40
0.0
  9
$LIMCHECK
 70
     0
  9
$CHAMFERA
 40
0.0
  9
$CHAMFERB
 40
0.0
  9
$CHAMFERC
 40
0.0
  9
$CHAMFERD
 40
0.0
  9
$SKPOLY
 70
     0
  9
$TDCREATE
 40
2458311.565214398
  9
$TDUCREATE
 40
2458311.190214398
  9
$TDUPDATE
 40
2458323.453156806
  9
$TDUUPDATE
 40
2458323.078156806
  9
$TDINDWG
 40
0.0197152199
  9
$TDUSRTIMER
 40
2458323.078114873
  9
$USRTIMER
 70
     1
  9
$ANGBASE
 50
0.0
  9
$ANGDIR
 70
     0
  9
$PDMODE
 70
     0
  9
$PDSIZE
 40
-1.0
  9
$PLINEWID
 40
0.0
  9
$SPLFRAME
 70
     0
  9
$SPLINETYPE
 70
     6
  9
$SPLINESEGS
 70
     8
  9
$HANDSEED
  5
27A
  9
$SURFTAB1
 70
     6
  9
$SURFTAB2
 70
     6
  9
$SURFTYPE
 70
     6
  9
$SURFU
 70
     6
  9
$SURFV
 70
     6
  9
$UCSBASE
  2

  9
$UCSNAME
  2

  9
$UCSORG
 10
0.0
 20
0.0
 30
0.0
  9
$UCSXDIR
 10
1.0
 20
0.0
 30
0.0
  9
$UCSYDIR
 10
0.0
 20
1.0
 30
0.0
  9
$UCSORTHOREF
  2

  9
$UCSORTHOVIEW
 70
     0
  9
$UCSORGTOP
 10
0.0
 20
0.0
 30
0.0
  9
$UCSORGBOTTOM
 10
0.0
 20
0.0
 30
0.0
  9
$UCSORGLEFT
 10
0.0
 20
0.0
 30
0.0
  9
$UCSORGRIGHT
 10
0.0
 20
0.0
 30
0.0
  9
$UCSORGFRONT
 10
0.0
 20
0.0
 30
0.0
  9
$UCSORGBACK
 10
0.0
 20
0.0
 30
0.0
  9
$PUCSBASE
  2

  9
$PUCSNAME
  2

  9
$PUCSORG
 10
0.0
 20
0.0
 30
0.0
  9
$PUCSXDIR
 10
1.0
 20
0.0
 30
0.0
  9
$PUCSYDIR
 10
0.0
 20
1.0
 30
0.0
  9
$PUCSORTHOREF
  2

  9
$PUCSORTHOVIEW
 70
     0
  9
$PUCSORGTOP
 10
0.0
 20
0.0
 30
0.0
  9
$PUCSORGBOTTOM
 10
0.0
 20
0.0
 30
0.0
  9
$PUCSORGLEFT
 10
0.0
 20
0.0
 30
0.0
  9
$PUCSORGRIGHT
 10
0.0
 20
0.0
 30
0.0
  9
$PUCSORGFRONT
 10
0.0
 20
0.0
 30
0.0
  9
$PUCSORGBACK
 10
0.0
 20
0.0
 30
0.0
  9
$USERI1
 70
     0
  9
$USERI2
 70
     0
  9
$USERI3
 70
     0
  9
$USERI4
 70
     0
  9
$USERI5
 70
     0
  9
$USERR1
 40
0.0
  9
$USERR2
 40
0.0
  9
$USERR3
 40
0.0
  9
$USERR4
 40
0.0
  9
$USERR5
 40
0.0
  9
$WORLDVIEW
 70
     1
  9
$SHADEDGE
 70
     3
  9
$SHADEDIF
 70
    70
  9
$TILEMODE
 70
     1
  9
$MAXACTVP
 70
    64
  9
$PINSBASE
 10
0.0
 20
0.0
 30
0.0
  9
$PLIMCHECK
 70
     0
  9
$PEXTMIN
 10
1.000000000000000E+20
 20
1.000000000000000E+20
 30
1.000000000000000E+20
  9
$PEXTMAX
 10
-1.000000000000000E+20
 20
-1.000000000000000E+20
 30
-1.000000000000000E+20
  9
$PLIMMIN
 10
0.0
 20
0.0
  9
$PLIMMAX
 10
0.0
 20
0.0
  9
$UNITMODE
 70
     0
  9
$VISRETAIN
 70
     1
  9
$PLINEGEN
 70
     0
  9
$PSLTSCALE
 70
     1
  9
$TREEDEPTH
 70
  3020
  9
$CMLSTYLE
  2
Standard
  9
$CMLJUST
 70
     0
  9
$CMLSCALE
 40
20.0
  9
$PROXYGRAPHICS
 70
     1
  9
$MEASUREMENT
 70
     1
  9
$CELWEIGHT
370
    -1
  9
$ENDCAPS
280
     0
  9
$JOINSTYLE
280
     0
  9
$LWDISPLAY
290
     1
  9
$INSUNITS
 70
     4
  9
$HYPERLINKBASE
  1

  9
$STYLESHEET
  1

  9
$XEDIT
290
     1
  9
$CEPSNTYPE
380
     0
  9
$PSTYLEMODE
290
     1
  9
$FINGERPRINTGUID
  2
{9FBB94E1-CDAE-4894-9C67-5E3B43C0D481}
  9
$VERSIONGUID
  2
{FAEB1C32-E019-11D5-929B-00C0DF256EC4}
  9
$EXTNAMES
290
     1
  9
$PSVPSCALE
 40
0.0
  9
$OLESTARTUP
290
     0
  0
ENDSEC
  0
SECTION
  2
CLASSES
  0
CLASS
  1
ACDBDICTIONARYWDFLT
  2
AcDbDictionaryWithDefault
  3
ObjectDBX Classes
 90
        0
280
     0
281
     0
  0
CLASS
  1
VISUALSTYLE
  2
AcDbVisualStyle
  3
ObjectDBX Classes
 90
     4095
280
     0
281
     0
  0
CLASS
  1
MATERIAL
  2
AcDbMaterial
  3
ObjectDBX Classes
 90
     1153
280
     0
281
     0
  0
CLASS
  1
SCALE
  2
AcDbScale
  3
ObjectDBX Classes
 90
     1153
280
     0
281
     0
  0
CLASS
  1
SUN
  2
AcDbSun
  3
SCENEOE
 90
     1153
280
     0
281
     0
  0
CLASS
  1
ACDBPLACEHOLDER
  2
AcDbPlaceHolder
  3
ObjectDBX Classes
 90
        0
280
     0
281
     0
  0
CLASS
  1
LAYOUT
  2
AcDbLayout
  3
ObjectDBX Classes
 90
        0
280
     0
281
     0
  0
CLASS
  1
TABLESTYLE
  2
AcDbTableStyle
  3
ObjectDBX Classes
 90
     4095
280
     0
281
     0
  0
CLASS
  1
MLEADERSTYLE
  2
AcDbMLeaderStyle
  3
ACDB_MLEADERSTYLE_CLASS
 90
     4095
280
     0
281
     0
  0
CLASS
  1
DICTIONARYVAR
  2
AcDbDictionaryVar
  3
ObjectDBX Classes
 90
        0
280
     0
281
     0
  0
CLASS
  1
RASTERVARIABLES
  2
AcDbRasterVariables
  3
ISM
 90
        0
280
     0
281
     0
  0
ENDSEC
  0
SECTION
  2
TABLES
  0
TABLE
  2
VPORT
  5
8
330
0
100
AcDbSymbolTable
 70
     1
  0
VPORT
  5
29
330
8
100
AcDbSymbolTableRecord
100
AcDbViewportTableRecord
  2
*Active
 70
     0
 10
0.0
 20
0.0
 11
1.0
 21
1.0
 12
13.08175440767276
 22
-4.949087156051682
 13
0.0
 23
0.0
 14
10.0
 24
10.0
 15
10.0
 25
10.0
 16
0.0
 26
0.0
 36
1.0
 17
0.0
 27
0.0
 37
0.0
 40
91.84634927483053
 41
1.782762691853601
 42
50.0
 43
0.0
 44
0.0
 50
0.0
 51
0.0
 71
    16
 72
  2000
 73
     1
 74
     3
 75
     0
 76
     0
 77
     0
 78
     0
281
     0
 65
     1
110
0.0
120
0.0
130
0.0
111
1.0
121
0.0
131
0.0
112
0.0
122
1.0
132
0.0
 79
     0
146
0.0
  0
ENDTAB
  0
TABLE
  2
LTYPE
  5
5
330
0
100
AcDbSymbolTable
 70
     6
  0
LTYPE
  5
14
330
5
100
AcDbSymbolTableRecord
100
AcDbLinetypeTableRecord
  2
ByBlock
 70
     0
  3

 72
    65
 73
     0
 40
0.0
  0
LTYPE
  5
15
330
5
100
AcDbSymbolTableRecord
100
AcDbLinetypeTableRecord
  2
ByLayer
 70
     0
  3

 72
    65
 73
     0
 40
0.0
  0
LTYPE
  5
16
330
5
100
AcDbSymbolTableRecord
100
AcDbLinetypeTableRecord
  2
Continuous
 70
     0
  3
Solid line
 72
    65
 73
     0
 40
0.0
  0
LTYPE
  5
6A
330
5
100
AcDbSymbolTableRecord
100
AcDbLinetypeTableRecord
  2
HIDDEN
 70
     0
  3
Hidden __ __ __ __ __ __ __ __ __ __ __ __ __ __
 72
    65
 73
     2
 40
1.905
 49
1.27
 74
     0
 49
-0.635
 74
     0
  0
LTYPE
  5
6B
330
5
100
AcDbSymbolTableRecord
100
AcDbLinetypeTableRecord
  2
PHANTOM
 70
     0
  3
Phantom ______  __  __  ______  __  __  ______
 72
    65
 73
     6
 40
12.7
 49
6.35
 74
     0
 49
-1.27
 74
     0
 49
1.27
 74
     0
 49
-1.27
 74
     0
 49
1.27
 74
     0
 49
-1.27
 74
     0
  0
LTYPE
  5
6C
330
5
100
AcDbSymbolTableRecord
100
AcDbLinetypeTableRecord
  2
CENTER
 70
     0
  3
Center ____ _ ____ _ ____ _ ____ _ ____ _ ____
 72
    65
 73
     4
 40
10.16
 49
6.35
 74
     0
 49
-1.27
 74
     0
 49
1.27
 74
     0
 49
-1.27
 74
     0
  0
LTYPE
  5
6D
330
5
100
AcDbSymbolTableRecord
100
AcDbLinetypeTableRecord
  2
CENTERX2
 70
     0
  3
Center (2x) ________  __  ________  __  _____
 72
    65
 73
     4
 40
20.32
 49
12.7
 74
     0
 49
-2.54
 74
     0
 49
2.54
 74
     0
 49
-2.54
 74
     0
  0
LTYPE
  5
6E
330
5
100
AcDbSymbolTableRecord
100
AcDbLinetypeTableRecord
  2
DOT2
 70
     0
  3
Dot (.5x) ........................................
 72
    65
 73
     2
 40
0.635
 49
0.0
 74
     0
 49
-0.635
 74
     0
  0
ENDTAB
  0
TABLE
  2
LAYER
  5
2
102
{ACAD_XDICTIONARY
360
190
102
}
330
0
100
AcDbSymbolTable
 70
    18
  0
LAYER
  5
10
330
2
100
AcDbSymbolTableRecord
100
AcDbLayerTableRecord
  2
0
 70
     0
 62
     7
  6
Continuous
370
    -3
390
F
  0
LAYER
  5
6F
330
2
100
AcDbSymbolTableRecord
100
AcDbLayerTableRecord
  2
FORMAT
 70
     0
 62
     2
  6
Continuous
370
    -3
390
F
  0
LAYER
  5
70
330
2
100
AcDbSymbolTableRecord
100
AcDbLayerTableRecord
  2
외형선
 70
     0
 62
     4
  6
Continuous
370
    30
390
F
  0
LAYER
  5
71
330
2
100
AcDbSymbolTableRecord
100
AcDbLayerTableRecord
  2
숨은선
 70
     0
 62
     2
  6
HIDDEN
370
    15
390
F
  0
LAYER
  5
72
330
2
100
AcDbSymbolTableRecord
100
AcDbLayerTableRecord
  2
중심선
 70
     0
 62
     1
  6
CENTERX2
370
    -3
390
F
  0
LAYER
  5
73
330
2
100
AcDbSymbolTableRecord
100
AcDbLayerTableRecord
  2
파단선
 70
     0
 62
     4
  6
Continuous
370
    -3
390
F
  0
LAYER
  5
74
330
2
100
AcDbSymbolTableRecord
100
AcDbLayerTableRecord
  2
해칭선
 70
     0
 62
   100
  6
Continuous
370
    -3
390
F
  0
LAYER
  5
75
330
2
100
AcDbSymbolTableRecord
100
AcDbLayerTableRecord
  2
가는실선
 70
     0
 62
     4
  6
Continuous
370
    -3
390
F
  0
LAYER
  5
76
330
2
100
AcDbSymbolTableRecord
100
AcDbLayerTableRecord
  2
치수_보조선
 70
     0
 62
     4
  6
Continuous
370
    -3
390
F
  0
LAYER
  5
77
330
2
100
AcDbSymbolTableRecord
100
AcDbLayerTableRecord
  2
치수문자_일반주서
 70
     0
 62
     7
  6
Continuous
370
    15
390
F
  0
LAYER
  5
78
330
2
100
AcDbSymbolTableRecord
100
AcDbLayerTableRecord
  2
개별주서
 70
     0
 62
   100
  6
Continuous
370
    30
390
F
  0
LAYER
  5
79
330
2
100
AcDbSymbolTableRecord
100
AcDbLayerTableRecord
  2
중간선
 70
     0
 62
     2
  6
Continuous
370
    15
390
F
  0
LAYER
  5
7A
330
2
100
AcDbSymbolTableRecord
100
AcDbLayerTableRecord
  2
윤곽선
 70
     0
 62
     3
  6
Continuous
370
    40
390
F
  0
LAYER
  5
7B
330
2
100
AcDbSymbolTableRecord
100
AcDbLayerTableRecord
  2
중심마크
 70
     0
 62
   100
  6
Continuous
370
    30
390
F
  0
LAYER
  5
7C
330
2
100
AcDbSymbolTableRecord
100
AcDbLayerTableRecord
  2
가상선
 70
     0
 62
     4
  6
PHANTOM
370
    -3
390
F
  0
LAYER
  5
7D
330
2
100
AcDbSymbolTableRecord
100
AcDbLayerTableRecord
  2
특수지정선
 70
     0
 62
     5
  6
CENTERX2
370
    60
390
F
  0
LAYER
  5
7E
330
2
100
AcDbSymbolTableRecord
100
AcDbLayerTableRecord
  2
참조1
 70
     0
 62
    -4
  6
Continuous
370
    -3
390
F
  0
LAYER
  5
1C0
330
2
100
AcDbSymbolTableRecord
100
AcDbLayerTableRecord
  2
Defpoints
 70
     0
 62
     7
  6
Continuous
290
     0
370
    -3
390
F
  0
ENDTAB
  0
TABLE
  2
STYLE
  5
3
330
0
100
AcDbSymbolTable
 70
     2
  0
STYLE
  5
11
330
3
100
AcDbSymbolTableRecord
100
AcDbTextStyleTableRecord
  2
Standard
 70
     0
 40
0.0
 41
1.0
 50
0.0
 71
     0
 42
3.5
  3
txt
  4

  0
STYLE
  5
94
330
3
100
AcDbSymbolTableRecord
100
AcDbTextStyleTableRecord
  2
SLDTEXTSTYLE0
 70
     0
 40
0.0
 41
0.75
 50
0.0
 71
     0
 42
3.5
  3
TXT
  4

  0
ENDTAB
  0
TABLE
  2
VIEW
  5
6
330
0
100
AcDbSymbolTable
 70
     0
  0
ENDTAB
  0
TABLE
  2
UCS
  5
7
330
0
100
AcDbSymbolTable
 70
     0
  0
ENDTAB
  0
TABLE
  2
APPID
  5
9
330
0
100
AcDbSymbolTable
 70
     2
  0
APPID
  5
12
330
9
100
AcDbSymbolTableRecord
100
AcDbRegAppTableRecord
  2
ACAD
 70
     0
  0
APPID
  5
141
330
9
100
AcDbSymbolTableRecord
100
AcDbRegAppTableRecord
  2
PE_URL
 70
     0
  0
ENDTAB
  0
TABLE
  2
DIMSTYLE
  5
A
330
0
100
AcDbSymbolTable
 70
     5
100
AcDbDimStyleTable
  0
DIMSTYLE
105
27
330
A
100
AcDbSymbolTableRecord
100
AcDbDimStyleTableRecord
  2
ISO-25
 70
     0
 41
2.5
 42
0.625
 43
3.75
 44
1.25
 73
     0
 74
     0
 77
     1
 78
     8
140
2.5
141
2.5
143
0.03937007874016
147
0.625
171
     3
172
     1
178
     0
271
     2
272
     2
274
     3
278
    44
283
     0
284
     8
340
11
  0
DIMSTYLE
105
C0
330
A
100
AcDbSymbolTableRecord
100
AcDbDimStyleTableRecord
  2
SLDDIMSTYLE0
 70
     0
 41
3.302
 44
0.0
 45
0.000000001
 73
     0
 74
     0
 77
     1
 78
     4
 79
     1
140
3.5
147
0.875
172
     1
173
     1
178
     0
271
     2
272
     2
276
     2
284
    12
289
     0
340
94
  0
DIMSTYLE
105
CE
102
{ACAD_REACTORS
330
CD
330
F7
330
E3
330
BF
102
}
330
A
100
AcDbSymbolTableRecord
100
AcDbDimStyleTableRecord
  2
SLDDIMSTYLE1
 70
     0
 41
3.302
 44
0.0
 45
0.000000001
 73
     0
 74
     0
 77
     1
 78
     4
 79
     1
140
3.5
143
0.0393700787401575
147
0.875
148
0.000000001
170
     1
172
     1
173
     1
178
     0
271
     2
272
     2
276
     2
284
    12
289
     0
340
94
  0
DIMSTYLE
105
E4
330
A
100
AcDbSymbolTableRecord
100
AcDbDimStyleTableRecord
  2
SLDDIMSTYLE2
 70
     0
 41
3.302
 44
0.0
 45
0.000000001
 73
     0
 74
     0
 77
     1
 78
     4
 79
     1
140
3.5
143
0.0393700787401575
147
0.875
148
0.000000001
170
     1
173
     1
178
     0
271
     2
272
     2
276
     2
284
    12
340
94
  0
DIMSTYLE
105
F8
330
A
100
AcDbSymbolTableRecord
100
AcDbDimStyleTableRecord
  2
SLDDIMSTYLE3
 70
     0
 41
3.302
 44
0.0
 45
0.000000001
 73
     0
 74
     0
 77
     1
 78
    12
 79
     3
140
3.5
143
0.0393700787401575
147
0.875
148
0.000000001
170
     1
173
     1
178
     0
271
     2
272
     2
276
     2
284
    12
340
94
  0
ENDTAB
  0
TABLE
  2
BLOCK_RECORD
  5
1
330
0
100
AcDbSymbolTable
 70
     9
  0
BLOCK_RECORD
  5
1F
330
1
100
AcDbSymbolTableRecord
100
AcDbBlockTableRecord
  2
*Model_Space
340
22
  0
BLOCK_RECORD
  5
1B
330
1
100
AcDbSymbolTableRecord
100
AcDbBlockTableRecord
  2
*Paper_Space
340
1E
  0
BLOCK_RECORD
  5
23
330
1
100
AcDbSymbolTableRecord
100
AcDbBlockTableRecord
  2
*Paper_Space0
340
26
  0
BLOCK_RECORD
  5
7F
330
1
100
AcDbSymbolTableRecord
100
AcDbBlockTableRecord
  2
블럭10
340
0
102
{BLKREFS
331
B8
102
}
  0
BLOCK_RECORD
  5
C1
330
1
100
AcDbSymbolTableRecord
100
AcDbBlockTableRecord
  2
_D
340
0
  0
BLOCK_RECORD
  5
CF
330
1
100
AcDbSymbolTableRecord
100
AcDbBlockTableRecord
  2
_D_1
340
0
  0
BLOCK_RECORD
  5
E5
330
1
100
AcDbSymbolTableRecord
100
AcDbBlockTableRecord
  2
_D_2
340
0
  0
BLOCK_RECORD
  5
F9
330
1
100
AcDbSymbolTableRecord
100
AcDbBlockTableRecord
  2
_D_3
340
0
  0
BLOCK_RECORD
  5
112
330
1
100
AcDbSymbolTableRecord
100
AcDbBlockTableRecord
  2
SW_DOWELSYMBOL_0
340
0
102
{BLKREFS
331
220
102
}
  0
BLOCK_RECORD
  5
1F9
330
1
100
AcDbSymbolTableRecord
100
AcDbBlockTableRecord
  2
*D7
340
0
  0
BLOCK_RECORD
  5
20B
330
1
100
AcDbSymbolTableRecord
100
AcDbBlockTableRecord
  2
*D8
340
0
  0
ENDTAB
  0
ENDSEC
  0
SECTION
  2
BLOCKS
  0
BLOCK
  5
20
330
1F
100
AcDbEntity
  8
0
100
AcDbBlockBegin
  2
*Model_Space
 70
     0
 10
0.0
 20
0.0
 30
0.0
  3
*Model_Space
  1
*Model_Space
  0
ENDBLK
  5
21
330
1F
100
AcDbEntity
  8
0
100
AcDbBlockEnd
  0
BLOCK
  5
1C
330
1B
100
AcDbEntity
 67
     1
  8
0
100
AcDbBlockBegin
  2
*Paper_Space
 70
     0
 10
0.0
 20
0.0
 30
0.0
  3
*Paper_Space
  1
*Paper_Space
  0
ENDBLK
  5
1D
330
1B
100
AcDbEntity
 67
     1
  8
0
100
AcDbBlockEnd
  0
BLOCK
  5
24
330
23
100
AcDbEntity
  8
0
100
AcDbBlockBegin
  2
*Paper_Space0
 70
     0
 10
0.0
 20
0.0
 30
0.0
  3
*Paper_Space0
  1
*Paper_Space0
  0
ENDBLK
  5
25
330
23
100
AcDbEntity
  8
0
100
AcDbBlockEnd
  0
BLOCK
  5
80
330
7F
100
AcDbEntity
  8
0
100
AcDbBlockBegin
  2
블럭10
 70
     2
 10
0.0
 20
0.0
 30
0.0
  3
블럭10
  1
블럭10
  0
ELLIPSE
  5
82
330
7F
100
AcDbEntity
  8
중심선
100
AcDbEllipse
 10
20.54032771741204
 20
12.0471743016438
 30
0.0
 11
6.600054785286829
 21
-1.261213355974178E-13
 31
0.0
210
0.0
220
0.0
230
1.0
 40
0.636358354079598
 41
0.9219305317359503
 42
6.513795318482858
  0
ELLIPSE
  5
83
330
7F
100
AcDbEntity
  8
중심선
100
AcDbEllipse
 10
20.54032771746488
 20
12.04717430159265
 30
0.0
 11
3.960054785062283
 21
1.540847449632565E-10
 31
0.0
210
0.0
220
0.0
230
1.0
 40
0.3939339440162632
 41
1.131841032648279
 42
5.62031148352944
  0
LINE
  5
84
330
7F
100
AcDbEntity
  8
중심선
100
AcDbLine
 10
2.268634060543552
 20
16.24717430164393
 30
0.0
 11
5.714909304380834
 21
16.24717430164393
 31
0.0
  0
LINE
  5
85
330
7F
100
AcDbEntity
  8
중심선
100
AcDbLine
 10
5.245725140726316
 20
7.84717430164391
 30
0.0
 11
8.692000384563599
 21
7.84717430164391
 31
0.0
  0
LINE
  5
86
330
7F
100
AcDbEntity
  8
중심선
100
AcDbLine
 10
15.74043728645272
 20
16.24717430164393
 30
0.0
 11
8.692000384563599
 21
7.84717430164391
 31
0.0
  0
LINE
  5
87
330
7F
100
AcDbEntity
  8
중심선
100
AcDbLine
 10
0.1404042013395286
 20
13.71084872107135
 30
0.0
 11
3.58671253028996
 21
13.71088815037384
 31
0.0
  0
LINE
  5
88
330
7F
100
AcDbEntity
  8
중심선
100
AcDbLine
 10
2.750260043222114
 20
10.84717430164391
 30
0.0
 11
6.196535287059397
 21
10.84717430164391
 31
0.0
  0
LINE
  5
89
330
7F
100
AcDbEntity
  8
중심선
100
AcDbLine
 10
12.29416204261559
 20
16.24717430164393
 30
0.0
 11
5.245725140726316
 21
7.84717430164391
 31
0.0
  0
LINE
  5
8A
330
7F
100
AcDbEntity
  8
중심선
100
AcDbLine
 10
10.72767329541681
 20
16.24717430164393
 30
0.0
 11
6.196535287059397
 21
10.84717430164391
 31
0.0
  0
LINE
  5
8B
330
7F
100
AcDbEntity
  8
중심선
100
AcDbLine
 10
7.28139805157953
 20
16.24717430164393
 30
0.0
 11
2.750260043222114
 21
10.84717430164391
 31
0.0
  0
LINE
  5
8C
330
7F
100
AcDbEntity
  8
중심선
100
AcDbLine
 10
5.714909304380834
 20
16.24717430164393
 30
0.0
 11
3.58671253028996
 21
13.71088815037384
 31
0.0
  0
LINE
  5
8D
330
7F
100
AcDbEntity
  8
중심선
100
AcDbLine
 10
2.268634060543552
 20
16.24717430164393
 30
0.0
 11
0.1404042013395286
 21
13.71084872107135
 31
0.0
  0
LINE
  5
8E
330
7F
100
AcDbEntity
  8
중심선
100
AcDbLine
 10
7.28139805157953
 20
16.24717430164393
 30
0.0
 11
10.72767329541681
 21
16.24717430164393
 31
0.0
  0
LINE
  5
8F
330
7F
100
AcDbEntity
  8
중심선
100
AcDbLine
 10
12.29416204261559
 20
16.24717430164393
 30
0.0
 11
15.74043728645272
 21
16.24717430164393
 31
0.0
  0
LINE
  5
90
330
7F
100
AcDbEntity
  8
중심선
100
AcDbLine
 10
19.22036997980202
 20
11.08717430171403
 30
0.0
 11
23.66174974927406
 21
11.08717430171406
 31
0.0
  0
LINE
  5
91
330
7F
100
AcDbEntity
  8
중심선
100
AcDbLine
 10
19.22039502424796
 20
13.00717430171391
 30
0.0
 11
19.22036997980202
 21
11.08717430171403
 31
0.0
  0
LINE
  5
92
330
7F
100
AcDbEntity
  8
중심선
100
AcDbLine
 10
19.22039502424796
 20
13.00717430171391
 30
0.0
 11
26.96566020931264
 21
13.00717430171391
 31
0.0
  0
LINE
  5
93
330
7F
100
AcDbEntity
  8
중심선
100
AcDbLine
 10
22.22332737316547
 20
13.45928029700563
 30
0.0
 11
24.52862924686651
 21
15.39360700705356
 31
0.0
  0
ATTDEF
  5
95
330
7F
100
AcDbEntity
  8
FORMAT
 62
     2
100
AcDbText
 10
4.408487351596664
 20
2.075366912832191
 30
0.0
 40
4.233333333333333
  1
E1030901
 41
0.75
  7
SLDTEXTSTYLE0
 11
4.408487351596664
 21
-0.0412997538344756
 31
0.0
100
AcDbAttributeDefinition
  3

  2
AUTOATTR0
 70
     0
 74
     1
  0
ENDBLK
  5
81
330
7F
100
AcDbEntity
  8
0
100
AcDbBlockEnd
  0
BLOCK
  5
C2
330
C1
100
AcDbEntity
  8
0
100
AcDbBlockBegin
  2
_D
 70
     0
 10
0.0
 20
0.0
 30
0.0
  3
_D
  1
_D
  0
LINE
  5
C4
330
C1
100
AcDbEntity
  8
치수문자_일반주서
 62
     0
370
    -2
100
AcDbLine
 10
-39.86250000000001
 20
4.742068888803493
 30
0.0
 11
-55.8625
 21
4.742068888803431
 31
0.0
  0
LINE
  5
C5
330
C1
100
AcDbEntity
  8
치수문자_일반주서
 62
     0
370
    -2
100
AcDbLine
 10
-39.86250000000001
 20
-4.7829311111965
 30
0.0
 11
-55.86249999999997
 21
-4.782931111196561
 31
0.0
  0
LINE
  5
C6
330
C1
100
AcDbEntity
  8
치수문자_일반주서
 62
     0
370
    -2
100
AcDbLine
 10
-55.8625
 20
4.742068888803431
 30
0.0
 11
-55.86250000000013
 21
37.59606888880343
 31
0.0
  0
LINE
  5
C7
330
C1
100
AcDbEntity
  8
치수문자_일반주서
 62
     0
370
    -2
100
AcDbLine
 10
-55.8625
 20
4.742068888803431
 30
0.0
 11
-55.86249999999997
 21
-4.782931111196561
 31
0.0
  0
LINE
  5
C8
330
C1
100
AcDbEntity
  8
치수문자_일반주서
 62
     0
370
    -2
100
AcDbLine
 10
-55.86250000000002
 20
8.04406888880343
 30
0.0
 11
-55.86250000000003
 21
11.34606888880343
 31
0.0
  0
LINE
  5
C9
330
C1
100
AcDbEntity
  8
치수문자_일반주서
 62
     0
370
    -2
100
AcDbLine
 10
-55.86249999999995
 20
-8.08493111119656
 30
0.0
 11
-55.86249999999994
 21
-11.38693111119656
 31
0.0
  0
SOLID
  5
CA
330
C1
100
AcDbEntity
  8
치수문자_일반주서
 62
     0
100
AcDbTrace
 10
-56.41283333333335
 20
8.044068888803428
 30
0.0
 11
-55.31216666666668
 21
8.044068888803432
 31
0.0
 12
-55.8625
 22
4.742068888803431
 32
0.0
 13
-55.8625
 23
4.742068888803431
 33
0.0
  0
SOLID
  5
CB
330
C1
100
AcDbEntity
  8
치수문자_일반주서
 62
     0
100
AcDbTrace
 10
-55.31216666666662
 20
-8.084931111196559
 30
0.0
 11
-56.41283333333329
 21
-8.084931111196562
 31
0.0
 12
-55.86249999999997
 22
-4.782931111196561
 32
0.0
 13
-55.86249999999997
 23
-4.782931111196561
 33
0.0
  0
MTEXT
  5
CC
330
C1
100
AcDbEntity
  8
치수문자_일반주서
 62
     0
100
AcDbMText
 10
-60.23750000000008
 20
24.47106888880342
 30
0.0
 40
3.5
 41
0.0
 71
     2
 72
     1
  1
\A1;%%c9.53 [3/8]
  7
SLDTEXTSTYLE0
 11
-3.729883127349610E-15
 21
1.0
 31
0.0
 73
     1
 44
1.0
  0
POINT
  5
24F
330
C1
100
AcDbEntity
  8
Defpoints
 62
     0
100
AcDbPoint
 10
-39.80000000000001
 20
4.742068888803493
 30
0.0
  0
POINT
  5
250
330
C1
100
AcDbEntity
  8
Defpoints
 62
     0
100
AcDbPoint
 10
-39.80000000000001
 20
-4.7829311111965
 30
0.0
  0
POINT
  5
251
330
C1
100
AcDbEntity
  8
Defpoints
 62
     0
100
AcDbPoint
 10
-55.86249999999997
 20
-4.782931111196561
 30
0.0
  0
ENDBLK
  5
C3
330
C1
100
AcDbEntity
  8
0
100
AcDbBlockEnd
  0
BLOCK
  5
D0
330
CF
100
AcDbEntity
  8
0
100
AcDbBlockBegin
  2
_D_1
 70
     0
 10
0.0
 20
0.0
 30
0.0
  3
_D_1
  1
_D_1
  0
LINE
  5
D2
330
CF
100
AcDbEntity
  8
치수문자_일반주서
 62
     0
370
    -2
100
AcDbLine
 10
22.63749999999999
 20
6.407133076708231
 30
0.0
 11
22.63749999999999
 21
19.74206888880348
 31
0.0
  0
LINE
  5
D3
330
CF
100
AcDbEntity
  8
치수문자_일반주서
 62
     0
370
    -2
100
AcDbLine
 10
2.000000000000033
 20
5.535349324069391
 30
0.0
 11
2.000000000000036
 21
19.74206888880348
 31
0.0
  0
LINE
  5
D4
330
CF
100
AcDbEntity
  8
치수문자_일반주서
 62
     0
370
    -2
100
AcDbLine
 10
22.63749999999999
 20
19.74206888880348
 30
0.0
 11
58.55399999999999
 21
19.74206888880348
 31
0.0
  0
LINE
  5
D5
330
CF
100
AcDbEntity
  8
치수문자_일반주서
 62
     0
370
    -2
100
AcDbLine
 10
22.63749999999999
 20
19.74206888880348
 30
0.0
 11
2.000000000000036
 21
19.74206888880348
 31
0.0
  0
LINE
  5
D6
330
CF
100
AcDbEntity
  8
치수문자_일반주서
 62
     0
370
    -2
100
AcDbLine
 10
25.93949999999999
 20
19.74206888880348
 30
0.0
 11
29.24149999999999
 21
19.74206888880348
 31
0.0
  0
LINE
  5
D7
330
CF
100
AcDbEntity
  8
치수문자_일반주서
 62
     0
370
    -2
100
AcDbLine
 10
-1.301999999999964
 20
19.74206888880348
 30
0.0
 11
-4.603999999999964
 21
19.74206888880348
 31
0.0
  0
SOLID
  5
D8
330
CF
100
AcDbEntity
  8
치수문자_일반주서
 62
     0
100
AcDbTrace
 10
25.93949999999999
 20
20.29240222213682
 30
0.0
 11
25.93949999999999
 21
19.19173555547015
 31
0.0
 12
22.63749999999999
 22
19.74206888880348
 32
0.0
 13
22.63749999999999
 23
19.74206888880348
 33
0.0
  0
SOLID
  5
D9
330
CF
100
AcDbEntity
  8
치수문자_일반주서
 62
     0
100
AcDbTrace
 10
-1.301999999999964
 20
19.19173555547015
 30
0.0
 11
-1.301999999999964
 21
20.29240222213682
 31
0.0
 12
2.000000000000036
 22
19.74206888880348
 32
0.0
 13
2.000000000000036
 23
19.74206888880348
 33
0.0
  0
MTEXT
  5
DA
330
CF
100
AcDbEntity
  8
치수문자_일반주서
 62
     0
100
AcDbMText
 10
43.89774999999999
 20
24.11706888880348
 30
0.0
 40
3.5
 41
0.0
 71
     2
 72
     1
  1
\A1;20.64 [13/16]
  7
SLDTEXTSTYLE0
 73
     1
 44
1.0
  0
POINT
  5
252
330
CF
100
AcDbEntity
  8
Defpoints
 62
     0
100
AcDbPoint
 10
22.63749999999999
 20
6.344633076708231
 30
0.0
  0
POINT
  5
253
330
CF
100
AcDbEntity
  8
Defpoints
 62
     0
100
AcDbPoint
 10
2.000000000000033
 20
5.472849324069391
 30
0.0
  0
POINT
  5
254
330
CF
100
AcDbEntity
  8
Defpoints
 62
     0
100
AcDbPoint
 10
2.000000000000033
 20
19.74206888880348
 30
0.0
  0
ENDBLK
  5
D1
330
CF
100
AcDbEntity
  8
0
100
AcDbBlockEnd
  0
BLOCK
  5
E6
330
E5
100
AcDbEntity
  8
0
100
AcDbBlockBegin
  2
_D_2
 70
     0
 10
0.0
 20
0.0
 30
0.0
  3
_D_2
  1
_D_2
  0
LINE
  5
E8
330
E5
100
AcDbEntity
  8
치수문자_일반주서
 62
     0
370
    -2
100
AcDbLine
 10
22.63749999999999
 20
6.407133076708231
 30
0.0
 11
22.63749999999999
 21
34.74206888880349
 31
0.0
  0
LINE
  5
E9
330
E5
100
AcDbEntity
  8
치수문자_일반주서
 62
     0
370
    -2
100
AcDbLine
 10
-40.86250000000001
 20
3.804568888803495
 30
0.0
 11
-40.86250000000001
 21
34.74206888880349
 31
0.0
  0
LINE
  5
EA
330
E5
100
AcDbEntity
  8
치수문자_일반주서
 62
     0
370
    -2
100
AcDbLine
 10
19.33549999999999
 20
34.74206888880349
 30
0.0
 11
-37.56050000000001
 21
34.74206888880349
 31
0.0
  0
SOLID
  5
EB
330
E5
100
AcDbEntity
  8
치수문자_일반주서
 62
     0
100
AcDbTrace
 10
19.33549999999999
 20
34.19173555547015
 30
0.0
 11
19.33549999999999
 21
35.29240222213682
 31
0.0
 12
22.63749999999999
 22
34.74206888880349
 32
0.0
 13
22.63749999999999
 23
34.74206888880349
 33
0.0
  0
SOLID
  5
EC
330
E5
100
AcDbEntity
  8
치수문자_일반주서
 62
     0
100
AcDbTrace
 10
-37.56050000000001
 20
35.29240222213682
 30
0.0
 11
-37.56050000000001
 21
34.19173555547015
 31
0.0
 12
-40.86250000000001
 22
34.74206888880349
 32
0.0
 13
-40.86250000000001
 23
34.74206888880349
 33
0.0
  0
MTEXT
  5
ED
330
E5
100
AcDbEntity
  8
치수문자_일반주서
 62
     0
100
AcDbMText
 10
-9.112500000000006
 20
39.11706888880349
 30
0.0
 40
3.5
 41
0.0
 71
     2
 72
     1
  1
\A1;63.50 [2 1/2]
  7
SLDTEXTSTYLE0
 73
     1
 44
1.0
  0
POINT
  5
EE
330
E5
100
AcDbEntity
  8
Defpoints
 62
     0
100
AcDbPoint
 10
22.63749999999999
 20
6.344633076708231
 30
0.0
  0
POINT
  5
EF
330
E5
100
AcDbEntity
  8
Defpoints
 62
     0
100
AcDbPoint
 10
-40.86250000000001
 20
3.742068888803495
 30
0.0
  0
POINT
  5
F0
330
E5
100
AcDbEntity
  8
Defpoints
 62
     0
100
AcDbPoint
 10
-40.86250000000001
 20
34.74206888880349
 30
0.0
  0
ENDBLK
  5
E7
330
E5
100
AcDbEntity
  8
0
100
AcDbBlockEnd
  0
BLOCK
  5
FA
330
F9
100
AcDbEntity
  8
0
100
AcDbBlockBegin
  2
_D_3
 70
     0
 10
0.0
 20
0.0
 30
0.0
  3
_D_3
  1
_D_3
  0
LINE
  5
FC
330
F9
100
AcDbEntity
  8
치수문자_일반주서
 62
     0
370
    -2
100
AcDbLine
 10
22.70000000000004
 20
-6.34463307670824
 30
0.0
 11
64.77808155745787
 21
-6.344633076708085
 31
0.0
  0
LINE
  5
FD
330
F9
100
AcDbEntity
  8
치수문자_일반주서
 62
     0
370
    -2
100
AcDbLine
 10
22.70000000000004
 20
6.344633076708235
 30
0.0
 11
64.77808155745782
 21
6.344633076708391
 31
0.0
  0
LINE
  5
FE
330
F9
100
AcDbEntity
  8
치수문자_일반주서
 62
     0
370
    -2
100
AcDbLine
 10
64.77808155745782
 20
6.344633076708391
 30
0.0
 11
64.77808155745771
 21
40.07363307670839
 31
0.0
  0
LINE
  5
FF
330
F9
100
AcDbEntity
  8
치수문자_일반주서
 62
     0
370
    -2
100
AcDbLine
 10
64.77808155745787
 20
-6.344633076708085
 30
0.0
 11
64.77808155745782
 21
6.344633076708391
 31
0.0
  0
LINE
  5
100
330
F9
100
AcDbEntity
  8
치수문자_일반주서
 62
     0
370
    -2
100
AcDbLine
 10
64.77808155745788
 20
-9.646633076708085
 30
0.0
 11
64.7780815574579
 21
-12.94863307670808
 31
0.0
  0
LINE
  5
101
330
F9
100
AcDbEntity
  8
치수문자_일반주서
 62
     0
370
    -2
100
AcDbLine
 10
64.77808155745781
 20
9.64663307670839
 30
0.0
 11
64.7780815574578
 21
12.94863307670839
 31
0.0
  0
SOLID
  5
102
330
F9
100
AcDbEntity
  8
치수문자_일반주서
 62
     0
100
AcDbTrace
 10
65.32841489079121
 20
-9.646633076708083
 30
0.0
 11
64.22774822412455
 21
-9.646633076708087
 31
0.0
 12
64.77808155745787
 22
-6.344633076708085
 32
0.0
 13
64.77808155745787
 23
-6.344633076708085
 33
0.0
  0
SOLID
  5
103
330
F9
100
AcDbEntity
  8
치수문자_일반주서
 62
     0
100
AcDbTrace
 10
64.22774822412448
 20
9.646633076708389
 30
0.0
 11
65.32841489079114
 21
9.646633076708392
 31
0.0
 12
64.77808155745782
 22
6.344633076708391
 32
0.0
 13
64.77808155745782
 23
6.344633076708391
 33
0.0
  0
MTEXT
  5
104
330
F9
100
AcDbEntity
  8
치수문자_일반주서
 62
     0
100
AcDbMText
 10
60.40308155745775
 20
26.51113307670838
 30
0.0
 40
3.5
 41
0.0
 71
     2
 72
     1
  1
\A1;%%c12.69 [1/2]
  7
SLDTEXTSTYLE0
 11
-3.359734410971242E-15
 21
1.0
 31
0.0
 73
     1
 44
1.0
  0
POINT
  5
105
330
F9
100
AcDbEntity
  8
Defpoints
 62
     0
100
AcDbPoint
 10
22.63750000000004
 20
-6.34463307670824
 30
0.0
  0
POINT
  5
106
330
F9
100
AcDbEntity
  8
Defpoints
 62
     0
100
AcDbPoint
 10
22.63750000000004
 20
6.344633076708235
 30
0.0
  0
POINT
  5
107
330
F9
100
AcDbEntity
  8
Defpoints
 62
     0
100
AcDbPoint
 10
64.77808155745782
 20
6.344633076708392
 30
0.0
  0
ENDBLK
  5
FB
330
F9
100
AcDbEntity
  8
0
100
AcDbBlockEnd
  0
BLOCK
  5
113
330
112
100
AcDbEntity
  8
0
100
AcDbBlockBegin
  2
SW_DOWELSYMBOL_0
 70
     0
 10
0.0
 20
0.0
 30
0.0
  3
SW_DOWELSYMBOL_0
  1
SW_DOWELSYMBOL_0
  0
CIRCLE
  5
115
330
112
100
AcDbEntity
  8
해칭선
 62
     0
100
AcDbCircle
 10
0.0
 20
0.0
 30
0.0
 40
3.000000000000001
  0
HATCH
  5
116
330
112
100
AcDbEntity
  8
0
  6
Continuous
 62
     0
370
     0
100
AcDbHatch
 10
0.0
 20
0.0
 30
0.0
210
0.0
220
0.0
230
1.0
  2
SOLID
 70
     1
 71
     0
 91
        1
 92
        0
 93
        3
 72
     2
 10
0.0
 20
0.0
 40
3.000000000000001
 50
0.0
 51
90.0
 73
     1
 72
     1
 10
0.0
 20
3.000000000000001
 11
0.0
 21
0.0
 72
     1
 10
0.0
 20
0.0
 11
3.000000000000001
 21
0.0
 97
        0
 75
     0
 76
     1
 98
        1
 10
0.0
 20
0.0
  0
HATCH
  5
117
330
112
100
AcDbEntity
  8
0
  6
Continuous
 62
     0
370
     0
100
AcDbHatch
 10
0.0
 20
0.0
 30
0.0
210
0.0
220
0.0
230
1.0
  2
SOLID
 70
     1
 71
     0
 91
        1
 92
        0
 93
        3
 72
     2
 10
0.0
 20
0.0
 40
3.000000000000001
 50
180.0
 51
270.0000000000007
 73
     1
 72
     1
 10
0.0
 20
-3.000000000000001
 11
0.0
 21
0.0
 72
     1
 10
0.0
 20
0.0
 11
-3.000000000000001
 21
0.0
 97
        0
 75
     0
 76
     1
 98
        1
 10
0.0
 20
0.0
  0
ENDBLK
  5
114
330
112
100
AcDbEntity
  8
0
100
AcDbBlockEnd
  0
BLOCK
  5
1FA
330
1F9
100
AcDbEntity
  8
0
100
AcDbBlockBegin
  2
*D7
 70
     1
 10
0.0
 20
0.0
 30
0.0
  3
*D7
  1
*D7
  0
LINE
  5
1FC
330
1F9
100
AcDbEntity
  8
치수문자_일반주서
 62
     0
370
    -2
100
AcDbLine
 10
27.2415
 20
4.345577502114839
 30
0.0
 11
27.2415
 21
13.29172858387919
 31
0.0
  0
LINE
  5
1FD
330
1F9
100
AcDbEntity
  8
치수문자_일반주서
 62
     0
370
    -2
100
AcDbLine
 10
6.604000000000002
 20
2.929361757642647
 30
0.0
 11
6.603999999999999
 21
13.29172858387919
 31
0.0
  0
LINE
  5
1FE
330
1F9
100
AcDbEntity
  8
치수문자_일반주서
 62
     0
370
    -2
100
AcDbLine
 10
27.2415
 20
13.29172858387919
 30
0.0
 11
63.158
 21
13.29172858387919
 31
0.0
  0
LINE
  5
1FF
330
1F9
100
AcDbEntity
  8
치수문자_일반주서
 62
     0
370
    -2
100
AcDbLine
 10
27.2415
 20
13.29172858387919
 30
0.0
 11
6.603999999999999
 21
13.29172858387919
 31
0.0
  0
LINE
  5
200
330
1F9
100
AcDbEntity
  8
치수문자_일반주서
 62
     0
370
    -2
100
AcDbLine
 10
30.5435
 20
13.29172858387919
 30
0.0
 11
33.8455
 21
13.29172858387919
 31
0.0
  0
LINE
  5
201
330
1F9
100
AcDbEntity
  8
치수문자_일반주서
 62
     0
370
    -2
100
AcDbLine
 10
3.302
 20
13.29172858387919
 30
0.0
 11
0.0
 21
13.29172858387919
 31
0.0
  0
SOLID
  5
202
330
1F9
100
AcDbEntity
  8
치수문자_일반주서
 62
     0
100
AcDbTrace
 10
30.5435
 20
13.84206191721252
 30
0.0
 11
30.5435
 21
12.74139525054585
 31
0.0
 12
27.2415
 22
13.29172858387919
 32
0.0
 13
27.2415
 23
13.29172858387919
 33
0.0
  0
SOLID
  5
203
330
1F9
100
AcDbEntity
  8
치수문자_일반주서
 62
     0
100
AcDbTrace
 10
3.302
 20
12.74139525054585
 30
0.0
 11
3.302
 21
13.84206191721252
 31
0.0
 12
6.603999999999999
 22
13.29172858387919
 32
0.0
 13
6.603999999999999
 23
13.29172858387919
 33
0.0
  0
MTEXT
  5
204
330
1F9
100
AcDbEntity
  8
치수문자_일반주서
 62
     0
100
AcDbMText
 10
48.50175
 20
17.66672858387918
 30
0.0
 40
3.5
 41
0.0
 71
     2
 72
     1
  1
\A1;20.64 [13/16]
  7
SLDTEXTSTYLE0
 73
     1
 44
1.0
  0
POINT
  5
205
330
1F9
100
AcDbEntity
  8
Defpoints
 62
     0
100
AcDbPoint
 10
27.2415
 20
4.283077502114839
 30
0.0
  0
POINT
  5
206
330
1F9
100
AcDbEntity
  8
Defpoints
 62
     0
100
AcDbPoint
 10
6.604000000000002
 20
2.866861757642647
 30
0.0
  0
POINT
  5
207
330
1F9
100
AcDbEntity
  8
Defpoints
 62
     0
100
AcDbPoint
 10
6.604000000000002
 20
13.29172858387919
 30
0.0
  0
ENDBLK
  5
1FB
330
1F9
100
AcDbEntity
  8
0
100
AcDbBlockEnd
  0
BLOCK
  5
20C
330
20B
100
AcDbEntity
  8
0
100
AcDbBlockBegin
  2
*D8
 70
     1
 10
0.0
 20
0.0
 30
0.0
  3
*D8
  1
*D8
  0
LINE
  5
20E
330
20B
100
AcDbEntity
  8
치수문자_일반주서
 62
     0
370
    -2
100
AcDbLine
 10
70.33677647156453
 20
-30.38104430630476
 30
0.0
 11
70.33677647156453
 21
-21.43489322454042
 31
0.0
  0
LINE
  5
20F
330
20B
100
AcDbEntity
  8
치수문자_일반주서
 62
     0
370
    -2
100
AcDbLine
 10
49.69927647156453
 20
-31.79726005077696
 30
0.0
 11
49.69927647156453
 21
-21.43489322454042
 31
0.0
  0
LINE
  5
210
330
20B
100
AcDbEntity
  8
치수문자_일반주서
 62
     0
370
    -2
100
AcDbLine
 10
70.33677647156453
 20
-21.43489322454042
 30
0.0
 11
106.2532764715645
 21
-21.43489322454042
 31
0.0
  0
LINE
  5
211
330
20B
100
AcDbEntity
  8
치수문자_일반주서
 62
     0
370
    -2
100
AcDbLine
 10
70.33677647156453
 20
-21.43489322454042
 30
0.0
 11
49.69927647156453
 21
-21.43489322454042
 31
0.0
  0
LINE
  5
212
330
20B
100
AcDbEntity
  8
치수문자_일반주서
 62
     0
370
    -2
100
AcDbLine
 10
73.63877647156454
 20
-21.43489322454042
 30
0.0
 11
76.94077647156453
 21
-21.43489322454042
 31
0.0
  0
LINE
  5
213
330
20B
100
AcDbEntity
  8
치수문자_일반주서
 62
     0
370
    -2
100
AcDbLine
 10
46.39727647156453
 20
-21.43489322454042
 30
0.0
 11
43.09527647156453
 21
-21.43489322454042
 31
0.0
  0
SOLID
  5
214
330
20B
100
AcDbEntity
  8
치수문자_일반주서
 62
     0
100
AcDbTrace
 10
73.63877647156454
 20
-20.88455989120708
 30
0.0
 11
73.63877647156454
 21
-21.98522655787375
 31
0.0
 12
70.33677647156453
 22
-21.43489322454042
 32
0.0
 13
70.33677647156453
 23
-21.43489322454042
 33
0.0
  0
SOLID
  5
215
330
20B
100
AcDbEntity
  8
치수문자_일반주서
 62
     0
100
AcDbTrace
 10
46.39727647156453
 20
-21.98522655787375
 30
0.0
 11
46.39727647156453
 21
-20.88455989120708
 31
0.0
 12
49.69927647156453
 22
-21.43489322454042
 32
0.0
 13
49.69927647156453
 23
-21.43489322454042
 33
0.0
  0
MTEXT
  5
216
330
20B
100
AcDbEntity
  8
치수문자_일반주서
 62
     0
100
AcDbMText
 10
91.59702647156453
 20
-17.05989322454042
 30
0.0
 40
3.5
 41
0.0
 71
     2
 72
     1
  1
\A1;20.64 [13/16]
  7
SLDTEXTSTYLE0
 73
     1
 44
1.0
  0
POINT
  5
217
330
20B
100
AcDbEntity
  8
Defpoints
 62
     0
100
AcDbPoint
 10
70.33677647156453
 20
-30.44354430630476
 30
0.0
  0
POINT
  5
218
330
20B
100
AcDbEntity
  8
Defpoints
 62
     0
100
AcDbPoint
 10
49.69927647156453
 20
-31.85976005077696
 30
0.0
  0
POINT
  5
219
330
20B
100
AcDbEntity
  8
Defpoints
 62
     0
100
AcDbPoint
 10
49.69927647156453
 20
-21.43489322454042
 30
0.0
  0
ENDBLK
  5
20D
330
20B
100
AcDbEntity
  8
0
100
AcDbBlockEnd
  0
ENDSEC
  0
SECTION
  2
ENTITIES
  0
LINE
  5
96
330
1F
100
AcDbEntity
  8
0
  6
Continuous
 62
     1
370
    15
100
AcDbLine
 10
2.624844392901287
 20
1.814823947236431
 30
0.0
 11
2.605239059124839
 21
1.825629442520531
 31
0.0
1001
PE_URL
1000

  0
SPLINE
  5
97
330
1F
100
AcDbEntity
  8
0
  6
Continuous
 62
     1
370
    15
100
AcDbSpline
210
0.0
220
0.0
230
1.0
 70
     8
 71
     3
 72
    20
 73
    16
 74
     0
 42
0.000000001
 43
0.00000001
 40
0.0
 40
0.0
 40
0.0
 40
0.0
 40
0.1093617553271464
 40
0.1990076737427977
 40
0.2721521824068328
 40
0.3317308512557953
 40
0.3803025867696617
 40
0.4450718834554034
 40
0.5332207390023047
 40
0.6080832063260927
 40
0.668559271341503
 40
0.7203396155546021
 40
0.7910406425204553
 40
0.8842946260137577
 40
1.0
 40
1.0
 40
1.0
 40
1.0
 10
6.186782747432055
 20
1.62718773647551
 30
0.0
 10
6.127465797054022
 20
1.655037913006425
 30
0.0
 10
6.019525610167511
 20
1.70571741086346
 30
0.0
 10
5.858745067767429
 20
1.7825072376507
 30
0.0
 10
5.719983331170734
 20
1.849656208121286
 30
0.0
 10
5.608545951542244
 20
1.903940616118788
 30
0.0
 10
5.508696610958447
 20
1.95295862166455
 30
0.0
 10
5.391324326200237
 20
2.010970609710109
 30
0.0
 10
5.256991421952271
 20
2.078012059659908
 30
0.0
 10
5.125123933917456
 20
2.144501195360407
 30
0.0
 10
5.014372055129202
 20
2.200816958680904
 30
0.0
 10
4.905576381451033
 20
2.256521936249961
 30
0.0
 10
4.778500828616628
 20
2.322097035547023
 30
0.0
 10
4.614225159159456
 20
2.407642805458625
 30
0.0
 10
4.491886769490812
 20
2.472395116784097
 30
0.0
 10
4.424145323018998
 20
2.50824989011781
 30
0.0
1001
PE_URL
1000

  0
SPLINE
  5
98
330
1F
100
AcDbEntity
  8
0
  6
Continuous
 62
     1
370
    15
100
AcDbSpline
210
0.0
220
0.0
230
1.0
 70
     8
 71
     3
 72
     9
 73
     5
 74
     0
 42
0.000000001
 43
0.00000001
 40
0.0
 40
0.0
 40
0.0
 40
0.0
 40
0.4994563797107243
 40
1.0
 40
1.0
 40
1.0
 40
1.0
 10
4.087425943124488
 20
5.045957022846456
 30
0.0
 10
3.739286076751296
 20
5.028833032425015
 30
0.0
 10
3.042248496462844
 20
4.994547775259297
 30
0.0
 10
2.347667890894118
 20
4.978024370930802
 30
0.0
 10
2.000000000000029
 20
4.969753686308715
 30
0.0
1001
PE_URL
1000

  0
SPLINE
  5
99
330
1F
100
AcDbEntity
  8
0
  6
Continuous
 62
     1
370
    15
100
AcDbSpline
210
0.0
220
0.0
230
1.0
 70
     8
 71
     3
 72
    55
 73
    51
 74
     0
 42
0.000000001
 43
0.00000001
 40
0.0
 40
0.0
 40
0.0
 40
0.0
 40
0.0275848698026422
 40
0.0520393295328726
 40
0.0735066170576125
 40
0.0923180974076518
 40
0.109060551677435
 40
0.1246268031473541
 40
0.1387871150973924
 40
0.1531240132461624
 40
0.1668554304185423
 40
0.1799938147812983
 40
0.1925659065858982
 40
0.2157298440872384
 40
0.2384548621725645
 40
0.261719381931778
 40
0.2879977174116804
 40
0.3150297395746581
 40
0.3415885095526308
 40
0.3723978200421383
 40
0.3983264536832781
 40
0.4196702933112189
 40
0.4424977898165273
 40
0.4678600125695443
 40
0.4961586600425741
 40
0.5210673544729862
 40
0.5488304111112877
 40
0.5750684132263792
 40
0.597938676620648
 40
0.6182307743424802
 40
0.6364918529853438
 40
0.6512321581095538
 40
0.667045641312049
 40
0.6843695241424955
 40
0.7043985618167368
 40
0.7271930700173352
 40
0.7502854484277909
 40
0.7778021092027078
 40
0.8020162088929803
 40
0.8241576521968113
 40
0.8442040684030107
 40
0.8621779706400802
 40
0.8734449489776703
 40
0.887254804089372
 40
0.9037400697564617
 40
0.9227341660813804
 40
0.9416412329913331
 40
0.9603029294094648
 40
0.9795242286661168
 40
0.9999999999999999
 40
0.9999999999999999
 40
0.9999999999999999
 40
0.9999999999999999
 10
20.27810410194734
 20
4.343099009759808
 30
0.0
 10
20.21562034705444
 20
4.337079791850933
 30
0.0
 10
20.09774367282734
 20
4.325724434130152
 30
0.0
 10
19.90733659103774
 20
4.302477308218696
 30
0.0
 10
19.71907824365235
 20
4.280024355471489
 30
0.0
 10
19.53097739756051
 20
4.260346917492087
 30
0.0
 10
19.34240544760943
 20
4.245318790793156
 30
0.0
 10
19.15831006477017
 20
4.235914839285073
 30
0.0
 10
18.98652100451427
 20
4.231831104430403
 30
0.0
 10
18.83002452908957
 20
4.229433523102959
 30
0.0
 10
18.67296074808733
 20
4.225506176825324
 30
0.0
 10
18.52159063851481
 20
4.221238676888175
 30
0.0
 10
18.33207482835255
 20
4.21532421310188
 30
0.0
 10
18.10258298655517
 20
4.207665217688314
 30
0.0
 10
17.83066255504967
 20
4.198963448413398
 30
0.0
 10
17.5477094376343
 20
4.191276609049059
 30
0.0
 10
17.2487069094479
 20
4.184862615895172
 30
0.0
 10
16.93955587341167
 20
4.180396993037379
 30
0.0
 10
16.61767145861987
 20
4.178269178656747
 30
0.0
 10
16.31056183185459
 20
4.178733936246637
 30
0.0
 10
16.01945989983623
 20
4.181059028924849
 30
0.0
 10
15.75181566436651
 20
4.184881981781094
 30
0.0
 10
15.49007241278844
 20
4.190158196233232
 30
0.0
 10
15.20104897746466
 20
4.197755886093886
 30
0.0
 10
14.89912963523014
 20
4.207870161955404
 30
0.0
 10
14.58845343794839
 20
4.220435097359338
 30
0.0
 10
14.28784790109765
 20
4.234652306447622
 30
0.0
 10
13.99501950662299
 20
4.250557548749969
 30
0.0
 10
13.73051500206408
 20
4.266621789263367
 30
0.0
 10
13.49648775984419
 20
4.282162162638066
 30
0.0
 10
13.29357342864064
 20
4.296666150474311
 30
0.0
 10
13.10772459598291
 20
4.310701846034443
 30
0.0
 10
12.92546145494391
 20
4.325156172072215
 30
0.0
 10
12.72304394470425
 20
4.342033293604818
 30
0.0
 10
12.49390009426299
 20
4.362189473584777
 30
0.0
 10
12.24261954256934
 20
4.385612208474935
 30
0.0
 10
11.96281406849097
 20
4.413266880093955
 30
0.0
 10
11.6776401037548
 20
4.443223296179593
 30
0.0
 10
11.39715292573515
 20
4.474470732232899
 30
0.0
 10
11.14842305907882
 20
4.503584369954106
 30
0.0
 10
10.92422460326691
 20
4.530837861286479
 30
0.0
 10
10.73345328510911
 20
4.55497994006529
 30
0.0
 10
10.5655524266366
 20
4.576803346068743
 30
0.0
 10
10.40355811256733
 20
4.59813965954486
 30
0.0
 10
10.2117520601967
 20
4.623730811181138
 30
0.0
 10
10.00123905435841
 20
4.651773043292766
 30
0.0
 10
9.779475994378016
 20
4.682705150206329
 30
0.0
 10
9.565703118598005
 20
4.714859938599078
 30
0.0
 10
9.36266531889102
 20
4.747429257469166
 30
0.0
 10
9.244912766103841
 20
4.766313864268297
 30
0.0
 10
9.184175933159146
 20
4.776054555074875
 30
0.0
1001
PE_URL
1000

  0
SPLINE
  5
9A
330
1F
100
AcDbEntity
  8
0
  6
Continuous
 62
     1
370
    15
100
AcDbSpline
210
0.0
220
0.0
230
1.0
 70
     8
 71
     3
 72
    28
 73
    24
 74
     0
 42
0.000000001
 43
0.00000001
 40
0.0
 40
0.0
 40
0.0
 40
0.0
 40
0.0490246305382925
 40
0.0950457097522406
 40
0.1397269457945058
 40
0.1988742458722597
 40
0.2547725992540722
 40
0.2998185386071099
 40
0.3349338870660296
 40
0.3699874683335335
 40
0.4082930233884119
 40
0.449960036420499
 40
0.4910049252728899
 40
0.5348142030484259
 40
0.5831960268655056
 40
0.6376669293687334
 40
0.6944539572716926
 40
0.7447850549730674
 40
0.8081126757941776
 40
0.8636250038980487
 40
0.9160128912186475
 40
0.9750264216659257
 40
1.0
 40
1.0
 40
1.0
 40
1.0
 10
9.184175933159146
 20
-4.776054555074881
 30
0.0
 10
9.244914696615842
 20
-4.766313029655111
 30
0.0
 10
9.362670992151937
 20
-4.747426804763155
 30
0.0
 10
9.56568229203493
 20
-4.714868942492503
 30
0.0
 10
9.80138185417535
 20
-4.679385910903878
 30
0.0
 10
10.06403068958617
 20
-4.643325402990188
 30
0.0
 10
10.32252168232499
 20
-4.608918463242725
 30
0.0
 10
10.54416696742389
 20
-4.579565818651298
 30
0.0
 10
10.73196274716967
 20
-4.555171041289722
 30
0.0
 10
10.90687772246149
 20
-4.533053196997432
 30
0.0
 10
11.08749310251195
 20
-4.510954125313059
 30
0.0
 10
11.27535549680247
 20
-4.488649270851245
 30
0.0
 10
11.47484969832006
 20
-4.465766231447199
 30
0.0
 10
11.68619709912868
 20
-4.442438432004363
 30
0.0
 10
11.9196226145273
 20
-4.417777911736593
 30
0.0
 10
12.17372605207016
 20
-4.392272583758922
 30
0.0
 10
12.43105335109161
 20
-4.367909285583962
 30
0.0
 10
12.70229677536519
 20
-4.343714178770062
 30
0.0
 10
12.97129439196683
 20
-4.321294763149227
 30
0.0
 10
13.24355508648277
 20
-4.300234905234723
 30
0.0
 10
13.50897661955513
 20
-4.281296806004282
 30
0.0
 10
13.72603852116548
 20
-4.266725931242697
 30
0.0
 10
13.85969867266311
 20
-4.259045635252927
 30
0.0
 10
13.89944253707282
 20
-4.256761898185269
 30
0.0
1001
PE_URL
1000

  0
SPLINE
  5
9B
330
1F
100
AcDbEntity
  8
0
  6
Continuous
 62
     1
370
    15
100
AcDbSpline
210
0.0
220
0.0
230
1.0
 70
     8
 71
     3
 72
     9
 73
     5
 74
     0
 42
0.000000001
 43
0.00000001
 40
0.0
 40
0.0
 40
0.0
 40
0.0
 40
0.5005436202892755
 40
1.0
 40
1.0
 40
1.0
 40
1.0
 10
2.000000000000029
 20
-4.969753686308719
 30
0.0
 10
2.347667890894118
 20
-4.978024370930806
 30
0.0
 10
3.042248496462844
 20
-4.994547775259297
 30
0.0
 10
3.739286076751294
 20
-5.028833032425017
 30
0.0
 10
4.087425943124488
 20
-5.045957022846459
 30
0.0
1001
PE_URL
1000

  0
SPLINE
  5
9C
330
1F
100
AcDbEntity
  8
0
  6
Continuous
 62
     1
370
    15
100
AcDbSpline
210
0.0
220
0.0
230
1.0
 70
     8
 71
     3
 72
    38
 73
    34
 74
     0
 42
0.000000001
 43
0.00000001
 40
0.0
 40
0.0
 40
0.0
 40
0.0
 40
0.0624999999999998
 40
0.0624999999999998
 40
0.1249999999999996
 40
0.1249999999999996
 40
0.1874999999999996
 40
0.1874999999999996
 40
0.2499999999999994
 40
0.2499999999999994
 40
0.3124999999999993
 40
0.3124999999999993
 40
0.3749999999999994
 40
0.3749999999999994
 40
0.4374999999999996
 40
0.4374999999999996
 40
0.4999999999999996
 40
0.4999999999999996
 40
0.5624999999999996
 40
0.5624999999999996
 40
0.6249999999999997
 40
0.6249999999999997
 40
0.6874999999999998
 40
0.6874999999999998
 40
0.7499999999999998
 40
0.7499999999999998
 40
0.8124999999999998
 40
0.8124999999999998
 40
0.8749999999999999
 40
0.8749999999999999
 40
0.9375
 40
0.9375
 40
1.0
 40
1.0
 40
1.0
 40
1.0
 10
2.000000000000035
 20
2.157593439559934
 30
0.0
 10
2.428138501684446
 20
1.924462198699874
 30
0.0
 10
2.859910700854935
 20
1.685724455574351
 30
0.0
 10
3.72185918085309
 20
1.201889263332519
 30
0.0
 10
4.149440347651134
 20
0.9572985317097736
 30
0.0
 10
5.008419196800737
 20
0.4641391911431971
 30
0.0
 10
5.440599951599696
 20
0.2154129214911577
 30
0.0
 10
6.301453022898306
 20
-0.2812184584902879
 30
0.0
 10
6.728160578555533
 20
-0.5287441731760396
 30
0.0
 10
7.589035178774676
 20
-1.021671607172581
 30
0.0
 10
8.021212971652536
 20
-1.266680688995732
 30
0.0
 10
8.880158645747677
 20
-1.748760075005953
 30
0.0
 10
9.30776531112994
 20
-1.986004198891934
 30
0.0
 10
10.16972360612235
 20
-2.451537622847978
 30
0.0
 10
10.60148692895996
 20
-2.679331175540639
 30
0.0
 10
11.45771921532327
 20
-3.120367362802767
 30
0.0
 10
11.88799488599
 20
-3.334615952191703
 30
0.0
 10
12.75022140433995
 20
-3.747094146588833
 30
0.0
 10
13.17938280885649
 20
-3.944885777009902
 30
0.0
 10
14.03663591244019
 20
-4.321394398795637
 30
0.0
 10
14.4685876747215
 20
-4.500647215069783
 30
0.0
 10
15.33026609893292
 20
-4.837359927334738
 30
0.0
 10
15.75736477515816
 20
-4.994535342823208
 30
0.0
 10
16.61705570484144
 20
-5.285996570735131
 30
0.0
 10
17.04928090335031
 20
-5.42017395837051
 30
0.0
 10
17.90959664448557
 20
-5.662643447255056
 30
0.0
 10
18.33640408405007
 20
-5.770890772692869
 30
0.0
 10
19.19772450771926
 20
-5.961100964059872
 30
0.0
 10
19.62981148339277
 20
-6.042803285075719
 30
0.0
 10
20.48795424427419
 20
-6.177822860981001
 30
0.0
 10
20.91624285409353
 20
-6.231314994989473
 30
0.0
 10
21.7783793111347
 20
-6.309692807108339
 30
0.0
 10
22.20991684496683
 20
-6.334448321295241
 30
0.0
 10
22.63750000000004
 20
-6.344633076708235
 30
0.0
1001
PE_URL
1000

  0
SPLINE
  5
9D
330
1F
100
AcDbEntity
  8
0
  6
Continuous
 62
     1
370
    15
100
AcDbSpline
210
0.0
220
0.0
230
1.0
 70
     8
 71
     3
 72
    11
 73
     7
 74
     0
 42
0.000000001
 43
0.00000001
 40
0.0
 40
0.0
 40
0.0
 40
0.0
 40
0.2519847214851301
 40
0.5015461865188071
 40
0.7505712529798614
 40
1.0
 40
1.0
 40
1.0
 40
1.0
 10
6.863851425439545
 20
-0.6052622044780954
 30
0.0
 10
6.455385089567008
 20
-0.4409215352815385
 30
0.0
 10
5.642380507897275
 20
-0.1138206085281449
 30
0.0
 10
4.425132558521576
 20
0.3779299714394422
 30
0.0
 10
3.212693715079467
 20
0.86551993083165
 30
0.0
 10
2.404449428087644
 20
1.179885641507204
 30
0.0
 10
2.000000000000038
 20
1.337195793820558
 30
0.0
1001
PE_URL
1000

  0
SPLINE
  5
9E
330
1F
100
AcDbEntity
  8
외형선
  6
Continuous
370
    15
100
AcDbSpline
210
0.0
220
0.0
230
1.0
 70
    24
 71
     3
 72
    10
 73
     6
 74
     0
 42
0.000000001
 43
0.00000001
 40
0.0
 40
0.0
 40
0.0
 40
0.0
 40
0.4999999999999999
 40
0.4999999999999999
 40
1.0
 40
1.0
 40
1.0
 40
1.0
 10
2.000000000000033
 20
2.157593439559927
 30
0.0
 10
2.000000000000033
 20
2.139526567663261
 30
0.0
 10
2.000000000000035
 20
2.055011209208975
 30
0.0
 10
2.000000000000035
 20
1.767948784852964
 30
0.0
 10
2.000000000000035
 20
1.566611175575365
 30
0.0
 10
2.000000000000035
 20
1.337195793820561
 30
0.0
  0
SPLINE
  5
9F
330
1F
100
AcDbEntity
  8
0
  6
Continuous
 62
     1
370
    15
100
AcDbSpline
210
0.0
220
0.0
230
1.0
 70
     8
 71
     3
 72
    38
 73
    34
 74
     0
 42
0.000000001
 43
0.00000001
 40
0.0
 40
0.0
 40
0.0
 40
0.0
 40
0.0625
 40
0.0625
 40
0.125
 40
0.125
 40
0.1875000000000001
 40
0.1875000000000001
 40
0.25
 40
0.25
 40
0.3125
 40
0.3125
 40
0.375
 40
0.375
 40
0.4375000000000001
 40
0.4375000000000001
 40
0.5
 40
0.5
 40
0.5625
 40
0.5625
 40
0.625
 40
0.625
 40
0.6875
 40
0.6875
 40
0.75
 40
0.75
 40
0.8125000000000001
 40
0.8125000000000001
 40
0.875
 40
0.875
 40
0.9375
 40
0.9375
 40
1.0
 40
1.0
 40
1.0
 40
1.0
 10
22.63750000000003
 20
-6.025774519622566
 30
0.0
 10
22.209916844967
 20
-5.947613971057015
 30
0.0
 10
21.77837931113507
 20
-5.855404311552688
 30
0.0
 10
20.91624285409428
 20
-5.644562945548265
 30
0.0
 10
20.48795424427513
 20
-5.526176274527662
 30
0.0
 10
19.62981148339408
 20
-5.264562178400261
 30
0.0
 10
19.19772450772076
 20
-5.12105695453636
 30
0.0
 10
18.33640408405194
 20
-4.811514687397223
 30
0.0
 10
17.90959664448762
 20
-4.645838521038421
 30
0.0
 10
17.04928090335275
 20
-4.293128540982635
 30
0.0
 10
16.61705570484406
 20
-4.106209376300555
 30
0.0
 10
15.75736477516113
 20
-3.715103020527827
 30
0.0
 10
15.33026609893608
 20
-3.51102267130981
 30
0.0
 10
14.46858767472506
 20
-3.086522089441679
 30
0.0
 10
14.03663591244393
 20
-2.866493968482142
 30
0.0
 10
13.17938280886056
 20
-2.415476852789083
 30
0.0
 10
12.75022140434425
 20
-2.183829989221107
 30
0.0
 10
11.88799488599467
 20
-1.710870678655502
 30
0.0
 10
11.45771921532807
 20
-1.47006727567905
 30
0.0
 10
10.60148692896518
 20
-0.9836594429089754
 30
0.0
 10
10.16972360612777
 20
-0.7369528262842445
 30
0.0
 10
9.307765311135727
 20
-0.2415793898968279
 30
0.0
 10
8.880158645753612
 20
0.0065813317679525
 30
0.0
 10
8.021212971658896
 20
0.5024537311925684
 30
0.0
 10
7.589035178781227
 20
0.7503235113464813
 30
0.0
 10
6.72816057856242
 20
1.240823740724458
 30
0.0
 10
6.301453022905385
 20
1.483088358829836
 30
0.0
 10
5.440599951607184
 20
1.961114321809461
 30
0.0
 10
5.008419196808402
 20
2.196485796992942
 30
0.0
 10
4.149440347659111
 20
2.655123458141615
 30
0.0
 10
3.721859180861295
 20
2.878556625435138
 30
0.0
 10
2.859910700863539
 20
3.312373514467739
 30
0.0
 10
2.428138501693221
 20
3.522282152955297
 30
0.0
 10
2.000000000008946
 20
3.723084914077941
 30
0.0
1001
PE_URL
1000

  0
SPLINE
  5
A0
330
1F
100
AcDbEntity
  8
0
  6
Continuous
 62
     1
370
    15
100
AcDbSpline
210
0.0
220
0.0
230
1.0
 70
     8
 71
     3
 72
    22
 73
    18
 74
     0
 42
0.000000001
 43
0.00000001
 40
0.0
 40
0.0
 40
0.0
 40
0.0
 40
0.0688594330957268
 40
0.1377344003504231
 40
0.2065783161181237
 40
0.2754678110525889
 40
0.3442972495493041
 40
0.4132002648359499
 40
0.4820162668458383
 40
0.5509317943673037
 40
0.6197354013494539
 40
0.6886624322573119
 40
0.7574546862935043
 40
0.8263922110670527
 40
0.8951741548094685
 40
0.9641211633146002
 40
1.0
 40
1.0
 40
1.0
 40
1.0
 10
22.63750000000003
 20
-5.009973878738174
 30
0.0
 10
22.25974706336361
 20
-4.935864294407554
 30
0.0
 10
21.50415597193103
 20
-4.78762840719357
 30
0.0
 10
20.37078371679406
 20
-4.500397214648637
 30
0.0
 10
19.23747205765432
 20
-4.168917770521938
 30
0.0
 10
18.10407706421706
 20
-3.79271746729095
 30
0.0
 10
16.97079603452445
 20
-3.375792300243314
 30
0.0
 10
15.8373797600979
 20
-2.924000161286247
 30
0.0
 10
14.70412719451492
 20
-2.439921170948898
 30
0.0
 10
13.57069121481057
 20
-1.931511494865203
 30
0.0
 10
12.43746490474574
 20
-1.400788985614915
 30
0.0
 10
11.30401084317975
 20
-0.8572735963583533
 30
0.0
 10
10.17080843675189
 20
-0.3024058805415142
 30
0.0
 10
9.037338436241471
 20
0.2533736453134122
 30
0.0
 10
7.904155652658032
 20
0.8082974788705051
 30
0.0
 10
6.951231614433922
 20
1.267970751409285
 30
0.0
 10
6.376324784566041
 20
1.536233186409397
 30
0.0
 10
6.179550904797562
 20
1.628051612263273
 30
0.0
1001
PE_URL
1000

  0
LINE
  5
A1
330
1F
100
AcDbEntity
  8
0
  6
Continuous
 62
     1
370
    15
100
AcDbLine
 10
22.63750000000003
 20
-6.025774519622566
 30
0.0
 11
22.63750000000003
 21
-5.009973878738174
 31
0.0
1001
PE_URL
1000

  0
LINE
  5
A2
330
1F
100
AcDbEntity
  8
외형선
  6
Continuous
370
    15
100
AcDbLine
 10
2.000000000000033
 20
2.157593439559934
 30
0.0
 11
2.000000000000035
 21
3.723084914076769
 31
0.0
  0
LINE
  5
A3
330
1F
100
AcDbEntity
  8
0
  6
Continuous
 62
     1
370
    15
100
AcDbLine
 10
22.63750000000004
 20
-6.34463307670824
 30
0.0
 11
22.63750000000003
 21
-6.025774519622566
 31
0.0
1001
PE_URL
1000

  0
SPLINE
  5
A4
330
1F
100
AcDbEntity
  8
0
  6
Continuous
 62
     1
370
    15
100
AcDbSpline
210
0.0
220
0.0
230
1.0
 70
     8
 71
     3
 72
     8
 73
     4
 74
     0
 42
0.000000001
 43
0.00000001
 40
0.0
 40
0.0
 40
0.0
 40
0.0
 40
1.0
 40
1.0
 40
1.0
 40
1.0
 10
18.70860935627958
 20
1.776017074452404
 30
0.0
 10
18.48345661831289
 20
2.042719345425616
 30
0.0
 10
18.28187534697981
 20
2.300050926274995
 30
0.0
 10
18.10997056945178
 20
2.545584801375662
 30
0.0
1001
PE_URL
1000

  0
LINE
  5
A5
330
1F
100
AcDbEntity
  8
0
  6
Continuous
 62
     1
370
    15
100
AcDbLine
 10
18.19025512375337
 20
2.612951541294601
 30
0.0
 11
22.63750000000003
 21
0.0000000000000007
 31
0.0
1001
PE_URL
1000

  0
LINE
  5
A6
330
1F
100
AcDbEntity
  8
0
  6
Continuous
 62
     1
370
    15
100
AcDbLine
 10
22.63750000000003
 20
0.0000000000000007
 30
0.0
 11
22.63750000000003
 21
-1.696992707288244
 31
0.0
1001
PE_URL
1000

  0
SPLINE
  5
A7
330
1F
100
AcDbEntity
  8
0
  6
Continuous
 62
     1
370
    15
100
AcDbSpline
210
0.0
220
0.0
230
1.0
 70
     8
 71
     3
 72
    12
 73
     8
 74
     0
 42
0.000000001
 43
0.00000001
 40
0.0
 40
0.0
 40
0.0
 40
0.0
 40
0.4999999999999993
 40
0.4999999999999993
 40
0.7499999999999997
 40
0.7499999999999997
 40
1.0
 40
1.0
 40
1.0
 40
1.0
 10
22.63750000000003
 20
-1.696992707288244
 30
0.0
 10
21.95739727265297
 20
-1.162318204574252
 30
0.0
 10
21.28865445793663
 20
-0.6057234975937686
 30
0.0
 10
20.30302321729136
 20
0.2629039036822228
 30
0.0
 10
19.97744021316179
 20
0.5581594504446568
 30
0.0
 10
19.33292402705686
 20
1.161502109201975
 30
0.0
 10
19.01574347731788
 20
1.46803240444103
 30
0.0
 10
18.70860935627957
 20
1.776017074452406
 30
0.0
1001
PE_URL
1000

  0
SPLINE
  5
A8
330
1F
100
AcDbEntity
  8
0
  6
Continuous
 62
     1
370
    15
100
AcDbSpline
210
0.0
220
0.0
230
1.0
 70
     8
 71
     3
 72
    21
 73
    17
 74
     0
 42
0.000000001
 43
0.00000001
 40
0.0
 40
0.0
 40
0.0
 40
0.0
 40
0.0593446536676427
 40
0.1188356768127846
 40
0.1963870836952736
 40
0.2738391692337221
 40
0.3514048576758013
 40
0.4288427953342638
 40
0.5064216135355707
 40
0.5838465930420818
 40
0.6614373884368744
 40
0.7388506001777364
 40
0.8164522195019355
 40
0.8938548544613135
 40
0.9768615865855401
 40
1.0
 40
1.0
 40
1.0
 40
1.0
 10
18.70860935627748
 20
1.776017074453307
 30
0.0
 10
18.41945646974703
 20
1.900311580125913
 30
0.0
 10
17.84043752112094
 20
2.149207155259552
 30
0.0
 10
16.88309217931451
 20
2.541565379499728
 30
0.0
 10
15.83743761032333
 20
2.949493285898225
 30
0.0
 10
14.70412804012141
 20
3.360891244309796
 30
0.0
 10
13.57074282293576
 20
3.735559556859834
 30
0.0
 10
12.43747325634274
 20
4.071807618971659
 30
0.0
 10
11.3040727138126
 20
4.363654511996899
 30
0.0
 10
10.17082020464695
 20
4.610325795826715
 30
0.0
 10
9.037411202115718
 20
4.807157932589837
 30
0.0
 10
7.904171613454459
 20
4.953526236440545
 30
0.0
 10
6.770759767042541
 20
5.047857805180796
 30
0.0
 10
5.611229912304078
 20
5.085642197800569
 30
0.0
 10
4.716113315705903
 20
5.083518691092451
 30
0.0
 10
4.198823188295881
 20
5.047599477979641
 30
0.0
 10
4.086059926608428
 20
5.039769505178638
 30
0.0
1001
PE_URL
1000

  0
SPLINE
  5
A9
330
1F
100
AcDbEntity
  8
0
  6
Continuous
 62
     1
370
    15
100
AcDbSpline
210
0.0
220
0.0
230
1.0
 70
    24
 71
     3
 72
    10
 73
     6
 74
     0
 42
0.000000001
 43
0.00000001
 40
0.0
 40
0.0
 40
0.0
 40
0.0
 40
0.5000000000000001
 40
0.5000000000000001
 40
1.0
 40
1.0
 40
1.0
 40
1.0
 10
22.63750000000003
 20
-5.009973878738172
 30
0.0
 10
22.63750000000004
 20
-4.625920320174163
 30
0.0
 10
22.63750000000004
 20
-4.140653922806077
 30
0.0
 10
22.63750000000004
 20
-3.012456250606818
 30
0.0
 10
22.63750000000003
 20
-2.370502263375817
 30
0.0
 10
22.63750000000003
 20
-1.696992707288448
 30
0.0
1001
PE_URL
1000

  0
SPLINE
  5
AA
330
1F
100
AcDbEntity
  8
외형선
  6
Continuous
370
    15
100
AcDbSpline
210
0.0
220
0.0
230
1.0
 70
    24
 71
     3
 72
    16
 73
    12
 74
     0
 42
0.000000001
 43
0.00000001
 40
0.0
 40
0.0
 40
0.0
 40
0.0
 40
0.0491036632873978
 40
0.189164666039963
 40
0.3292256687925281
 40
0.4733557467106033
 40
0.6174858246286786
 40
0.7438828856081721
 40
0.8702799465876654
 40
0.9996389512904323
 40
1.0
 40
1.0
 40
1.0
 40
1.0
 10
2.000000000000033
 20
4.966909218734298
 30
0.0
 10
2.000000000000033
 20
4.96681233612199
 30
0.0
 10
2.000000000000033
 20
4.966439110057464
 30
0.0
 10
2.000000000000033
 20
4.925834785071511
 30
0.0
 10
2.000000000000033
 20
4.832621078087441
 30
0.0
 10
2.000000000000033
 20
4.68745006795822
 30
0.0
 10
2.000000000000031
 20
4.500324010106237
 30
0.0
 10
2.000000000000038
 20
4.28100587176432
 30
0.0
 10
2.000000000000017
 20
4.030355000876059
 30
0.0
 10
2.000000000000071
 20
3.849149284034157
 30
0.0
 10
2.000000000000033
 20
3.7420798547697
 30
0.0
 10
2.000000000000033
 20
3.741781849347614
 30
0.0
  0
SPLINE
  5
AB
330
1F
100
AcDbEntity
  8
0
  6
Continuous
 62
     1
370
    15
100
AcDbSpline
210
0.0
220
0.0
230
1.0
 70
    24
 71
     3
 72
     8
 73
     4
 74
     0
 42
0.000000001
 43
0.00000001
 40
0.0
 40
0.0
 40
0.0
 40
0.0
 40
1.0
 40
1.0
 40
1.0
 40
1.0
 10
18.77229688430284
 20
3.101342567901441
 30
0.0
 10
18.56376375333019
 20
2.92636249461404
 30
0.0
 10
18.34154178445888
 20
2.739896122494629
 30
0.0
 10
18.10997056944506
 20
2.545584801385261
 30
0.0
1001
PE_URL
1000

  0
SPLINE
  5
AC
330
1F
100
AcDbEntity
  8
0
  6
Continuous
 62
     1
370
    15
100
AcDbSpline
210
0.0
220
0.0
230
1.0
 70
     8
 71
     3
 72
    10
 73
     6
 74
     0
 42
0.000000001
 43
0.00000001
 40
0.0
 40
0.0
 40
0.0
 40
0.0
 40
0.4802927722291314
 40
0.9606983745425176
 40
1.0
 40
1.0
 40
1.0
 40
1.0
 10
22.63750000000003
 20
4.444999999999998
 30
0.0
 10
22.25974718578398
 20
4.439548111473901
 30
0.0
 10
21.50415281589181
 20
4.428643053667389
 30
0.0
 10
20.71758527778115
 20
4.387218813566858
 30
0.0
 10
20.30883825472654
 20
4.344611363754336
 30
0.0
 10
20.27792773136157
 20
4.341389276500686
 30
0.0
1001
PE_URL
1000

  0
SPLINE
  5
AD
330
1F
100
AcDbEntity
  8
0
  6
Continuous
 62
     1
370
    15
100
AcDbSpline
210
0.0
220
0.0
230
1.0
 70
     8
 71
     3
 72
    10
 73
     6
 74
     0
 42
0.000000001
 43
0.00000001
 40
0.0
 40
0.0
 40
0.0
 40
0.0
 40
0.5
 40
0.5
 40
1.0
 40
1.0
 40
1.0
 40
1.0
 10
22.63750000000003
 20
4.445
 30
0.0
 10
21.98416113388165
 20
4.267805132207945
 30
0.0
 10
21.33482101282632
 20
4.068866271955327
 30
0.0
 10
20.04484335793021
 20
3.623666457193528
 30
0.0
 10
19.40462993873351
 20
3.378093991209913
 30
0.0
 10
18.77229688430188
 20
3.101342567902345
 30
0.0
1001
PE_URL
1000

  0
SPLINE
  5
AE
330
1F
100
AcDbEntity
  8
0
  6
Continuous
 62
     1
370
    15
100
AcDbSpline
210
0.0
220
0.0
230
1.0
 70
     8
 71
     3
 72
    14
 73
    10
 74
     0
 42
0.000000001
 43
0.00000001
 40
0.0
 40
0.0
 40
0.0
 40
0.0
 40
0.0206170758372166
 40
0.1781687888516418
 40
0.3361039498180655
 40
0.4936341369197493
 40
0.6625698075088866
 40
0.8311518295706585
 40
1.0
 40
1.0
 40
1.0
 40
1.0
 10
9.184869924393688
 20
-4.773140704495379
 30
0.0
 10
9.13548436415269
 20
-4.781825968684467
 30
0.0
 10
8.708703887407497
 20
-4.856882344944817
 30
0.0
 10
7.904189191440684
 20
-4.950647063147615
 30
0.0
 10
6.770758420332104
 20
-5.04792849499778
 30
0.0
 10
5.611217535070194
 20
-5.088285204200864
 30
0.0
 10
4.42505318434656
 20
-5.0712814186692
 30
0.0
 10
3.212732461408376
 20
-4.996049907072308
 30
0.0
 10
2.404456663223551
 20
-4.895163698683282
 30
0.0
 10
2.000000000000038
 20
-4.844680807445001
 30
0.0
1001
PE_URL
1000

  0
SPLINE
  5
AF
330
1F
100
AcDbEntity
  8
외형선
  6
Continuous
370
    15
100
AcDbSpline
210
0.0
220
0.0
230
1.0
 70
    24
 71
     3
 72
    14
 73
    10
 74
     0
 42
0.000000001
 43
0.00000001
 40
0.0
 40
0.0
 40
0.0
 40
0.0
 40
0.25
 40
0.25
 40
0.5
 40
0.5
 40
0.75
 40
0.75
 40
1.0
 40
1.0
 40
1.0
 40
1.0
 10
2.0
 20
1.337195793820573
 30
0.0
 10
2.0
 20
0.7770127768717615
 30
0.0
 10
2.0
 20
0.1925734905305011
 30
0.0
 10
2.0
 20
-0.9730164241687638
 30
0.0
 10
1.999999999999998
 20
-1.553594019169754
 30
0.0
 10
2.0
 20
-2.652291721579474
 30
0.0
 10
2.0
 20
-3.169826396917764
 30
0.0
 10
2.0
 20
-4.095202418127423
 30
0.0
 10
2.0
 20
-4.502808124016523
 30
0.0
 10
2.0
 20
-4.844680807444998
 30
0.0
  0
LINE
  5
B0
330
1F
100
AcDbEntity
  8
0
  6
Continuous
 62
     1
370
    15
100
AcDbLine
 10
22.63750000000003
 20
0.0000000000000007
 30
0.0
 11
22.63750000000003
 21
4.444999999999999
 31
0.0
1001
PE_URL
1000

  0
SPLINE
  5
B1
330
1F
100
AcDbEntity
  8
외형선
  6
Continuous
370
    15
100
AcDbSpline
210
0.0
220
0.0
230
1.0
 70
    24
 71
     3
 72
    11
 73
     7
 74
     0
 42
0.000000001
 43
0.00000001
 40
0.0
 40
0.0
 40
0.0
 40
0.0
 40
0.2848895693800725
 40
0.569779138760145
 40
0.8583862396735826
 40
1.0
 40
1.0
 40
1.0
 40
1.0
 10
2.000000000000029
 20
-4.844680807444999
 30
0.0
 10
2.000000000000029
 20
-4.86743194379645
 30
0.0
 10
2.000000000000031
 20
-4.912934216499353
 30
0.0
 10
2.000000000000033
 20
-4.952326065488212
 30
0.0
 10
2.000000000000033
 20
-4.971472630288863
 30
0.0
 10
2.000000000000033
 20
-4.968039338957502
 30
0.0
 10
2.000000000000033
 20
-4.966909218734301
 30
0.0
  0
SPLINE
  5
B2
330
1F
100
AcDbEntity
  8
0
  6
Continuous
 62
     1
370
    15
100
AcDbSpline
210
0.0
220
0.0
230
1.0
 70
    24
 71
     3
 72
    10
 73
     6
 74
     0
 42
0.000000001
 43
0.00000001
 40
0.0
 40
0.0
 40
0.0
 40
0.0
 40
0.5
 40
0.5
 40
1.0
 40
1.0
 40
1.0
 40
1.0
 10
22.63750000000003
 20
4.444999999999998
 30
0.0
 10
22.63750000000003
 20
4.71444483072644
 30
0.0
 10
22.63750000000003
 20
5.027564677306191
 30
0.0
 10
22.63750000000005
 20
5.684489272101427
 30
0.0
 10
22.63750000000004
 20
6.026616317339347
 30
0.0
 10
22.63750000000003
 20
6.344633076708234
 30
0.0
1001
PE_URL
1000

  0
SPLINE
  5
B3
330
1F
100
AcDbEntity
  8
0
  6
Continuous
 62
     1
370
    15
100
AcDbSpline
210
0.0
220
0.0
230
1.0
 70
     8
 71
     3
 72
    17
 73
    13
 74
     0
 42
0.000000001
 43
0.00000001
 40
0.0
 40
0.0
 40
0.0
 40
0.0
 40
0.0209687512567649
 40
0.1262783463302103
 40
0.2333867249783466
 40
0.3406892070048987
 40
0.448578709999915
 40
0.5566668160095416
 40
0.6669665749313963
 40
0.7774785814837761
 40
0.8886307396868639
 40
1.0
 40
1.0
 40
1.0
 40
1.0
 10
13.89855564833322
 20
4.256676958549399
 30
0.0
 10
13.95960739758034
 20
4.283592922712236
 30
0.0
 10
14.32727421002368
 20
4.445686668913254
 30
0.0
 10
15.00791920920062
 20
4.714643009322043
 30
0.0
 10
15.93841554654481
 20
5.0613928514818
 30
0.0
 10
16.87759722410618
 20
5.370146461754795
 30
0.0
 10
17.81962026646887
 20
5.641502061892071
 30
0.0
 10
18.76925519608878
 20
5.874041786935838
 30
0.0
 10
19.72831246294092
 20
6.063302684751223
 30
0.0
 10
20.69430251936545
 20
6.207672121275694
 30
0.0
 10
21.66513098924217
 20
6.3071364760278
 30
0.0
 10
22.3131662454334
 20
6.332126082812272
 30
0.0
 10
22.63749999999999
 20
6.344633076708231
 30
0.0
1001
PE_URL
1000

  0
LINE
  5
B4
330
1F
100
AcDbEntity
  8
중심선
 62
     1
100
AcDbLine
 10
-47.86250000000001
 20
-0.000000000000005
 30
0.0
 11
29.63750000000003
 21
0.0000000000000029
 31
0.0
  0
LINE
  5
B5
330
1F
100
AcDbEntity
  8
참조1
100
AcDbLine
 10
-13.08124999999997
 20
-0.0000000000000059
 30
0.0
 11
-13.08124999999996
 21
-40.00000000000001
 31
0.0
  0
LINE
  5
B6
330
1F
100
AcDbEntity
  8
참조1
100
AcDbLine
 10
-13.08124999999996
 20
-40.00000000000001
 30
0.0
 11
-24.27133181430865
 21
-40.0
 31
0.0
  0
INSERT
  5
B8
330
1F
100
AcDbEntity
  8
0
  6
Continuous
 62
     7
100
AcDbBlockReference
 66
     1
  2
블럭10
 10
-27.02152293212517
 20
-52.04717430164393
 30
0.0
  0
ATTRIB
  5
B9
330
B8
100
AcDbEntity
  8
FORMAT
 62
     2
100
AcDbText
 10
-36.20281822086645
 20
-49.97180738881174
 30
0.0
 40
4.233333333333333
  1
E2030901 [ 2 FLUTE ]
 41
0.75
  7
SLDTEXTSTYLE0
 11
-36.20281822086645
 21
-52.08847405547841
 31
0.0
100
AcDbAttribute
  2
AUTOATTR0
 70
     0
 74
     1
  0
SEQEND
  5
BA
330
B8
100
AcDbEntity
  8
0
  6
Continuous
 62
     7
  0
HATCH
  5
BB
330
1F
100
AcDbEntity
  8
중심선
100
AcDbHatch
 10
0.0
 20
0.0
 30
0.0
210
0.0
220
0.0
230
1.0
  2
SOLID
 70
     1
 71
     0
 91
        1
 92
        0
 93
        4
 72
     1
 10
-21.30661362774432
 20
-35.8
 11
-24.7528888715816
 21
-35.8
 72
     1
 10
-24.7528888715816
 20
-35.8
 11
-26.88111873078563
 21
-38.3363255805726
 72
     1
 10
-26.88111873078562
 20
-38.3363255805726
 11
-23.43481040183519
 21
-38.33628615127011
 72
     1
 10
-23.43481040183519
 20
-38.33628615127011
 11
-21.30661362774432
 21
-35.8
 97
        0
 75
     0
 76
     1
 98
        1
 10
-1.740578832126905
 20
-0.0010749287238951
  0
HATCH
  5
BC
330
1F
100
AcDbEntity
  8
중심선
100
AcDbHatch
 10
0.0
 20
0.0
 30
0.0
210
0.0
220
0.0
230
1.0
  2
SOLID
 70
     1
 71
     0
 91
        1
 92
        0
 93
        4
 72
     1
 10
-16.29384963670834
 20
-35.80000000000003
 11
-19.74012488054562
 21
-35.79999999999998
 72
     1
 10
-19.74012488054562
 20
-35.79999999999998
 11
-24.27126288890304
 21
-41.20000000000002
 72
     1
 10
-24.27126288890304
 20
-41.20000000000002
 11
-20.82498764506576
 21
-41.20000000000002
 72
     1
 10
-20.82498764506576
 20
-41.20000000000002
 11
-16.29384963670834
 21
-35.80000000000003
 97
        0
 75
     0
 76
     1
 98
        1
 10
-1.740578832126905
 20
-0.0010749287238951
  0
HATCH
  5
BD
330
1F
100
AcDbEntity
  8
중심선
100
AcDbHatch
 10
0.0
 20
0.0
 30
0.0
210
0.0
220
0.0
230
1.0
  2
SOLID
 70
     1
 71
     0
 91
        1
 92
        0
 93
        4
 72
     1
 10
-11.28108564567245
 20
-35.8
 11
-14.72736088950956
 21
-35.79999999999998
 72
     1
 10
-14.72736088950956
 20
-35.79999999999998
 11
-21.77579779139884
 21
-44.20000000000002
 72
     1
 10
-21.77579779139884
 20
-44.20000000000002
 11
-18.32952254756156
 21
-44.20000000000002
 72
     1
 10
-18.32952254756156
 20
-44.20000000000002
 11
-11.28108564567245
 21
-35.8
 97
        0
 75
     0
 76
     1
 98
        1
 10
-1.740578832126905
 20
-0.0010749287238951
  0
HATCH
  5
BE
330
1F
100
AcDbEntity
  8
중심선
100
AcDbHatch
 10
0.0
 20
0.0
 30
0.0
210
0.0
220
0.0
230
1.0
  2
SOLID
 70
     1
 71
     0
 91
        1
 92
        0
 93
        6
 72
     3
 10
-6.481195214660275
 20
-40.00000000005127
 11
3.960054785062284
 21
1.540882976769353E-10
 40
0.3939339440162627
 50
17.09539180608436
 51
320.0019657685086
 73
     0
 72
     1
 10
-4.798195558959679
 20
-38.58789400463833
 11
-2.492893685258641
 21
-36.65356729459038
 72
     3
 10
-6.481195214713122
 20
-40.00000000000015
 11
6.600054785286829
 21
-1.278976924368180E-13
 40
0.636358354079598
 50
39.99873849337411
 51
368.4976242363724
 73
     1
 72
     1
 10
-0.0558627228125117
 20
-39.03999999993002
 11
-7.801127907877198
 21
-39.03999999993002
 72
     1
 10
-7.801127907877198
 20
-39.03999999993002
 11
-7.801152952323132
 21
-40.95999999992991
 72
     1
 10
-7.801152952323132
 20
-40.95999999992991
 11
-3.359773182851097
 21
-40.95999999992988
 97
        0
 75
     0
 76
     1
 98
        1
 10
-1.740578832126905
 20
-0.0010749287238951
  0
DIMENSION
  5
BF
330
1F
100
AcDbEntity
  8
치수문자_일반주서
100
AcDbDimension
  2
_D
 10
-55.86249999999997
 20
-4.782931111196561
 30
0.0
 11
-55.86250000000008
 21
24.47106888880343
 31
0.0
 70
   160
  1
%%c<>
 71
     2
 42
9.524999999999993
 52
-270.0
  3
SLDDIMSTYLE1
100
AcDbAlignedDimension
 13
-39.80000000000001
 23
4.742068888803493
 33
0.0
 14
-39.80000000000001
 24
-4.7829311111965
 34
0.0
 50
90.0000000000002
100
AcDbRotatedDimension
1001
PE_URL
1000

1001
ACAD
1000
DSTYLE
1002
{
1070
   171
1070
     8
1070
   273
1070
     7
1002
}
  0
DIMENSION
  5
CD
330
1F
100
AcDbEntity
  8
치수문자_일반주서
100
AcDbDimension
  2
_D_1
 10
2.000000000000036
 20
19.74206888880348
 30
0.0
 11
43.89774999999999
 21
19.74206888880348
 31
0.0
 70
   160
  1
<>
 71
     2
 42
20.63749999999996
  3
SLDDIMSTYLE1
100
AcDbAlignedDimension
 13
22.63749999999999
 23
6.344633076708231
 33
0.0
 14
2.000000000000033
 24
5.472849324069391
 34
0.0
100
AcDbRotatedDimension
1001
PE_URL
1000

1001
ACAD
1000
DSTYLE
1002
{
1070
   171
1070
     8
1070
   273
1070
     7
1002
}
  0
DIMENSION
  5
E3
330
1F
100
AcDbEntity
  8
치수문자_일반주서
100
AcDbDimension
  2
_D_2
 10
-40.86250000000001
 20
34.74206888880349
 30
0.0
 11
-9.112500000000006
 21
34.74206888880349
 31
0.0
 70
   160
  1
<>
 71
     2
 42
63.5
  3
SLDDIMSTYLE1
100
AcDbAlignedDimension
 13
22.63749999999999
 23
6.344633076708231
 33
0.0
 14
-40.86250000000001
 24
3.742068888803495
 34
0.0
 50
0.000000000000008
100
AcDbRotatedDimension
1001
PE_URL
1000

1001
ACAD
1000
DSTYLE
1002
{
1070
   171
1070
     8
1070
   273
1070
     7
1002
}
  0
DIMENSION
  5
F7
330
1F
100
AcDbEntity
  8
치수문자_일반주서
100
AcDbDimension
  2
_D_3
 10
64.77808155745782
 20
6.344633076708391
 30
0.0
 11
64.77808155745775
 21
26.51113307670839
 31
0.0
 70
   160
  1
%%c<>
 71
     2
 42
12.68926615341648
 52
-270.0
  3
SLDDIMSTYLE1
100
AcDbAlignedDimension
 13
22.63750000000004
 23
-6.34463307670824
 33
0.0
 14
22.63750000000004
 24
6.344633076708235
 34
0.0
 50
90.0000000000002
100
AcDbRotatedDimension
1001
PE_URL
1000

1001
ACAD
1000
DSTYLE
1002
{
1070
   171
1070
     8
1070
   273
1070
     7
1002
}
  0
LINE
  5
10B
330
1F
100
AcDbEntity
  8
참조1
100
AcDbLine
 10
73.70100881534563
 20
7.44
 30
0.0
 11
73.70100881534563
 21
-7.440000000000004
 31
0.0
  0
LINE
  5
10C
330
1F
100
AcDbEntity
  8
참조1
100
AcDbLine
 10
86.40100881534563
 20
5.44
 30
0.0
 11
73.70100881534563
 21
5.44
 31
0.0
  0
SOLID
  5
10D
330
1F
100
AcDbEntity
  8
참조1
100
AcDbTrace
 10
73.70100881534563
 20
5.44
 30
0.0
 11
80.05100881534563
 21
4.424
 31
0.0
 12
80.05100881534563
 22
6.456
 32
0.0
 13
80.05100881534563
 23
6.456
 33
0.0
  0
LINE
  5
10E
330
1F
100
AcDbEntity
  8
참조1
100
AcDbLine
 10
86.40100881534563
 20
-5.440000000000004
 30
0.0
 11
73.70100881534563
 21
-5.440000000000004
 31
0.0
  0
SOLID
  5
10F
330
1F
100
AcDbEntity
  8
참조1
100
AcDbTrace
 10
73.70100881534563
 20
-5.440000000000004
 30
0.0
 11
80.05100881534563
 21
-6.456000000000004
 31
0.0
 12
80.05100881534563
 22
-4.424000000000004
 32
0.0
 13
80.05100881534563
 23
-4.424000000000004
 33
0.0
  0
MTEXT
  5
110
330
1F
100
AcDbEntity
  8
참조1
100
AcDbMText
 10
83.08535894797161
 20
11.01029177718833
 30
0.0
 40
3.5
 41
0.0
 71
     1
 72
     1
  1
A
  7
SLDTEXTSTYLE0
 73
     1
 44
1.0
  0
MTEXT
  5
111
330
1F
100
AcDbEntity
  8
참조1
100
AcDbMText
 10
83.08535894797161
 20
0.130291777188325
 30
0.0
 40
3.5
 41
0.0
 71
     1
 72
     1
  1
A
  7
SLDTEXTSTYLE0
 73
     1
 44
1.0
  0
SPLINE
  5
21A
330
1F
100
AcDbEntity
  8
외형선
  6
Continuous
370
    15
100
AcDbSpline
210
0.0
220
0.0
230
1.0
 70
    24
 71
     3
 72
    10
 73
     6
 74
     0
 42
0.000000001
 43
0.00000001
 40
0.0
 40
0.0
 40
0.0
 40
0.0
 40
0.5
 40
0.5
 40
1.0
 40
1.0
 40
1.0
 40
1.0
 10
2.0
 20
2.70553361601824
 30
0.0
 10
2.0
 20
2.650388152557191
 30
0.0
 10
2.0
 20
2.532928647088967
 30
0.0
 10
2.0
 20
2.195927017092343
 30
0.0
 10
2.0
 20
1.977671050705109
 30
0.0
 10
2.0
 20
1.739690935202322
 30
0.0
  0
LINE
  5
21B
330
1F
100
AcDbEntity
  8
외형선
  6
Continuous
370
    15
100
AcDbLine
 10
2.0
 20
2.70553361601824
 30
0.0
 11
2.0
 21
4.064837745300999
 31
0.0
  0
SPLINE
  5
21C
330
1F
100
AcDbEntity
  8
외형선
  6
Continuous
370
    15
100
AcDbSpline
210
0.0
220
0.0
230
1.0
 70
    24
 71
     3
 72
    13
 73
     9
 74
     0
 42
0.000000001
 43
0.00000001
 40
0.0
 40
0.0
 40
0.0
 40
0.0
 40
0.188704635595819
 40
0.3934446911359002
 40
0.5981847466759814
 40
0.7777346481181643
 40
0.9572845495603473
 40
1.0
 40
1.0
 40
1.0
 40
1.0
 10
1.999999999999993
 20
4.648347356830383
 30
0.0
 10
1.999999999999993
 20
4.64490472730828
 30
0.0
 10
1.999999999999993
 20
4.637726926377514
 30
0.0
 10
2.0
 20
4.568223564421377
 30
0.0
 10
1.999999999999993
 20
4.4592232199915
 30
0.0
 10
2.0
 20
4.310773006212823
 30
0.0
 10
1.999999999999993
 20
4.187040440751604
 30
0.0
 10
1.999999999999993
 20
4.099805131812701
 30
0.0
 10
1.999999999999993
 20
4.083040055816742
 30
0.0
  0
SPLINE
  5
21D
330
1F
100
AcDbEntity
  8
외형선
  6
Continuous
370
    15
100
AcDbSpline
210
0.0
220
0.0
230
1.0
 70
    24
 71
     3
 72
    14
 73
    10
 74
     0
 42
0.000000001
 43
0.00000001
 40
0.0
 40
0.0
 40
0.0
 40
0.0
 40
0.25
 40
0.25
 40
0.4999999999999999
 40
0.4999999999999999
 40
0.75
 40
0.75
 40
1.0
 40
1.0
 40
1.0
 40
1.0
 10
2.0
 20
1.739690935202324
 30
0.0
 10
2.0
 20
1.224604688384456
 30
0.0
 10
2.0
 20
0.6791159262929973
 30
0.0
 10
2.0
 20
-0.4266754843778493
 30
0.0
 10
2.0
 20
-0.9864693713587052
 30
0.0
 10
2.0
 20
-2.064807499698972
 30
0.0
 10
2.0
 20
-2.5827771574202
 30
0.0
 10
2.0
 20
-3.52920474093311
 30
0.0
 10
2.0
 20
-3.957377740220387
 30
0.0
 10
2.0
 20
-4.327631522302273
 30
0.0
  0
SPLINE
  5
21E
330
1F
100
AcDbEntity
  8
외형선
  6
Continuous
370
    15
100
AcDbSpline
210
0.0
220
0.0
230
1.0
 70
    24
 71
     3
 72
    13
 73
     9
 74
     0
 42
0.000000001
 43
0.00000001
 40
0.0
 40
0.0
 40
0.0
 40
0.0
 40
0.1794148194141552
 40
0.3588296388283104
 40
0.5405856469710543
 40
0.7223416551137982
 40
0.9863895817279978
 40
1.0
 40
1.0
 40
1.0
 40
1.0
 10
2.0
 20
-4.327631522302273
 30
0.0
 10
2.0
 20
-4.363900383592615
 30
0.0
 10
2.0
 20
-4.436438106173291
 30
0.0
 10
2.0
 20
-4.519930870779721
 30
0.0
 10
2.0
 20
-4.585163425883696
 30
0.0
 10
1.999999999999993
 20
-4.632420461760827
 30
0.0
 10
2.0
 20
-4.656161593997549
 30
0.0
 10
1.999999999999993
 20
-4.648712478501825
 30
0.0
 10
1.999999999999993
 20
-4.648347333425075
 30
0.0
  0
CIRCLE
  5
21F
330
1F
100
AcDbEntity
  8
해칭선
100
AcDbCircle
 10
0.0
 20
0.0
 30
0.0
 40
3.000000000000001
  0
INSERT
  5
220
330
1F
100
AcDbEntity
  8
해칭선
100
AcDbBlockReference
  2
SW_DOWELSYMBOL_0
 10
0.0
 20
0.0
 30
0.0
  0
LINE
  5
223
330
1F
100
AcDbEntity
  8
외형선
  6
Continuous
370
    15
100
AcDbLine
 10
2.000000000000033
 20
4.742068888803497
 30
0.0
 11
-16.1800499999999
 21
4.742068888803496
 31
0.0
  0
LINE
  5
224
330
1F
100
AcDbEntity
  8
외형선
  6
Continuous
370
    15
100
AcDbLine
 10
-39.86250000000001
 20
-4.7829311111965
 30
0.0
 11
2.000000000000002
 21
-4.7829311111965
 31
0.0
  0
LINE
  5
225
330
1F
100
AcDbEntity
  8
외형선
  6
Continuous
370
    15
100
AcDbLine
 10
-39.86250000000001
 20
4.742068888803493
 30
0.0
 11
-40.86250000000001
 21
3.742068888803495
 31
0.0
  0
LINE
  5
226
330
1F
100
AcDbEntity
  8
외형선
  6
Continuous
370
    15
100
AcDbLine
 10
-40.86250000000001
 20
-3.7829311111965
 30
0.0
 11
-39.86250000000001
 21
-4.7829311111965
 31
0.0
  0
LINE
  5
22F
330
1F
100
AcDbEntity
  8
외형선
  6
Continuous
370
    15
100
AcDbLine
 10
-39.86250000000001
 20
4.742068888803493
 30
0.0
 11
-39.86250000000001
 21
-4.7829311111965
 31
0.0
  0
LINE
  5
230
330
1F
100
AcDbEntity
  8
외형선
  6
Continuous
370
    15
100
AcDbLine
 10
-40.86250000000001
 20
3.742068888803495
 30
0.0
 11
-40.86250000000001
 21
-3.7829311111965
 31
0.0
  0
SPLINE
  5
231
330
1F
100
AcDbEntity
  8
외형선
  6
Continuous
370
    15
100
AcDbSpline
210
0.0
220
0.0
230
1.0
 70
    24
 71
     3
 72
    14
 73
    10
 74
     0
 42
0.000000001
 43
0.00000001
 40
0.0
 40
0.0
 40
0.0
 40
0.0
 40
0.25
 40
0.25
 40
0.5
 40
0.5
 40
0.75
 40
0.75
 40
1.0
 40
1.0
 40
1.0
 40
1.0
 10
2.0
 20
2.544261232565121
 30
0.0
 10
2.0
 20
2.185666127079424
 30
0.0
 10
2.0
 20
1.784416587272665
 30
0.0
 10
2.0
 20
0.9242759654173192
 30
0.0
 10
2.0
 20
0.4656909438830859
 30
0.0
 10
2.0
 20
-0.4656909438830859
 30
0.0
 10
2.0
 20
-0.9379915309057942
 30
0.0
 10
2.0
 20
-1.85039288886006
 30
0.0
 10
2.0
 20
-2.290114196253565
 30
0.0
 10
2.0
 20
-2.696204717437467
 30
0.0
  0
SPLINE
  5
235
330
1F
100
AcDbEntity
  8
외형선
  6
Continuous
370
    15
100
AcDbSpline
210
0.0
220
0.0
230
1.0
 70
    24
 71
     3
 72
    13
 73
     9
 74
     0
 42
0.000000001
 43
0.00000001
 40
0.0
 40
0.0
 40
0.0
 40
0.0
 40
0.1570783618121704
 40
0.316208208231654
 40
0.5470874379448776
 40
0.7846621809606552
 40
0.9929246111127845
 40
1.0
 40
1.0
 40
1.0
 40
1.0
 10
2.0
 20
-2.696204717437467
 30
0.0
 10
2.0
 20
-2.8259850814974
 30
0.0
 10
2.0
 20
-3.087240775213591
 30
0.0
 10
2.0
 20
-3.455038844289835
 30
0.0
 10
2.0
 20
-3.784400730042822
 30
0.0
 10
2.0
 20
-3.978355139259573
 30
0.0
 10
2.0
 20
-4.053694432603855
 30
0.0
 10
2.0
 20
-4.031509016915191
 30
0.0
 10
2.0
 20
-4.030780067191809
 30
0.0
  0
SPLINE
  5
237
330
1F
100
AcDbEntity
  8
외형선
  6
Continuous
370
    15
100
AcDbSpline
210
0.0
220
0.0
230
1.0
 70
    24
 71
     3
 72
    10
 73
     6
 74
     0
 42
0.000000001
 43
0.00000001
 40
0.0
 40
0.0
 40
0.0
 40
0.0
 40
0.5
 40
0.5
 40
1.0
 40
1.0
 40
1.0
 40
1.0
 10
2.0
 20
3.777804450312413
 30
0.0
 10
2.0
 20
3.63717478157432
 30
0.0
 10
2.0
 20
3.449939588717816
 30
0.0
 10
2.0
 20
3.021506719466592
 30
0.0
 10
2.0
 20
2.781666292340498
 30
0.0
 10
2.0
 20
2.544261232565121
 30
0.0
  0
LINE
  5
238
330
1F
100
AcDbEntity
  8
외형선
  6
Continuous
370
    15
100
AcDbLine
 10
2.0
 20
4.511446653745276
 30
0.0
 11
2.0
 21
3.777804450312415
 31
0.0
  0
SPLINE
  5
239
330
1F
100
AcDbEntity
  8
외형선
  6
Continuous
370
    15
100
AcDbSpline
210
0.0
220
0.0
230
1.0
 70
    24
 71
     3
 72
    10
 73
     6
 74
     0
 42
0.000000001
 43
0.00000001
 40
0.0
 40
0.0
 40
0.0
 40
0.0
 40
0.3594513896827398
 40
0.8364083631556398
 40
1.0
 40
1.0
 40
1.0
 40
1.0
 10
2.0
 20
-4.032848891173057
 30
0.0
 10
2.0
 20
-4.098726338086376
 30
0.0
 10
2.0
 20
-4.25201673874464
 30
0.0
 10
2.0
 20
-4.421931065651297
 30
0.0
 10
2.0
 20
-4.525785244842577
 30
0.0
 10
2.0
 20
-4.55230887613828
 30
0.0
  0
SPLINE
  5
23A
330
1F
100
AcDbEntity
  8
외형선
  6
Continuous
370
    15
100
AcDbSpline
210
0.0
220
0.0
230
1.0
 70
    24
 71
     3
 72
    10
 73
     6
 74
     0
 42
0.000000001
 43
0.00000001
 40
0.0
 40
0.0
 40
0.0
 40
0.0
 40
0.5
 40
0.5
 40
1.0
 40
1.0
 40
1.0
 40
1.0
 10
2.0
 20
3.777804450312415
 30
0.0
 10
2.0
 20
3.637174781574323
 30
0.0
 10
2.0
 20
3.44993958871782
 30
0.0
 10
2.0
 20
3.021506719466593
 30
0.0
 10
2.0
 20
2.781666292340498
 30
0.0
 10
2.0
 20
2.544261232565121
 30
0.0
  0
SPLINE
  5
23B
330
1F
100
AcDbEntity
  8
외형선
  6
Continuous
370
    15
100
AcDbSpline
210
0.0
220
0.0
230
1.0
 70
    24
 71
     3
 72
    14
 73
    10
 74
     0
 42
0.000000001
 43
0.00000001
 40
0.0
 40
0.0
 40
0.0
 40
0.0
 40
0.25
 40
0.25
 40
0.5
 40
0.5
 40
0.75
 40
0.75
 40
1.0
 40
1.0
 40
1.0
 40
1.0
 10
2.0
 20
2.544261232565121
 30
0.0
 10
2.0
 20
2.185666127079424
 30
0.0
 10
2.0
 20
1.784416587272665
 30
0.0
 10
2.0
 20
0.9242759654173192
 30
0.0
 10
2.0
 20
0.4656909438830859
 30
0.0
 10
2.0
 20
-0.4656909438830859
 30
0.0
 10
2.0
 20
-0.9379915309057942
 30
0.0
 10
2.0
 20
-1.85039288886006
 30
0.0
 10
2.0
 20
-2.290114196253565
 30
0.0
 10
2.0
 20
-2.696204717437467
 30
0.0
  0
SPLINE
  5
23C
330
1F
100
AcDbEntity
  8
외형선
  6
Continuous
370
    15
100
AcDbSpline
210
0.0
220
0.0
230
1.0
 70
    24
 71
     3
 72
    13
 73
     9
 74
     0
 42
0.000000001
 43
0.00000001
 40
0.0
 40
0.0
 40
0.0
 40
0.0
 40
0.1571719763677811
 40
0.3163966599735271
 40
0.5474134876107424
 40
0.7851298188996289
 40
0.993516367960462
 40
1.0
 40
1.0
 40
1.0
 40
1.0
 10
2.0
 20
-2.696204717437467
 30
0.0
 10
2.0
 20
-2.825985258171645
 30
0.0
 10
2.0
 20
-3.087241307543749
 30
0.0
 10
2.0
 20
-3.455036275821289
 30
0.0
 10
2.0
 20
-3.784415500370532
 30
0.0
 10
2.0
 20
-3.978301865573993
 30
0.0
 10
2.0
 20
-4.053697471867441
 30
0.0
 10
2.0
 20
-4.031624919803601
 30
0.0
 10
2.0
 20
-4.030958888318814
 30
0.0
  0
SPLINE
  5
23D
330
1F
100
AcDbEntity
  8
외형선
  6
Continuous
370
    15
100
AcDbSpline
210
0.0
220
0.0
230
1.0
 70
    24
 71
     3
 72
    10
 73
     6
 74
     0
 42
0.000000001
 43
0.00000001
 40
0.0
 40
0.0
 40
0.0
 40
0.0
 40
0.3594513896922377
 40
0.8364083631777426
 40
1.0
 40
1.0
 40
1.0
 40
1.0
 10
2.0
 20
-4.032848891173064
 30
0.0
 10
2.0
 20
-4.098726338086376
 30
0.0
 10
2.0
 20
-4.252016738744654
 30
0.0
 10
2.0
 20
-4.421931065646763
 30
0.0
 10
2.0
 20
-4.525785244834044
 30
0.0
 10
2.0
 20
-4.552308876125529
 30
0.0
  0
LINE
  5
23E
330
1F
100
AcDbEntity
  8
외형선
  6
Continuous
370
    15
100
AcDbLine
 10
-24.58745000000013
 20
3.472068888803504
 30
0.0
 11
-17.45005
 21
3.472068888803504
 31
0.0
1001
PE_URL
1000

  0
LINE
  5
23F
330
1F
100
AcDbEntity
  8
외형선
  6
Continuous
370
    15
100
AcDbLine
 10
-24.58745000000013
 20
3.472068888803504
 30
0.0
 11
-25.85745000000011
 21
4.742068888803484
 31
0.0
1001
PE_URL
1000

  0
LINE
  5
240
330
1F
100
AcDbEntity
  8
외형선
  6
Continuous
370
    15
100
AcDbLine
 10
-17.45005
 20
3.472068888803504
 30
0.0
 11
-16.18004999999991
 21
4.742068888803484
 31
0.0
1001
PE_URL
1000

  0
LINE
  5
241
330
1F
100
AcDbEntity
  8
외형선
  6
Continuous
370
    15
100
AcDbLine
 10
-25.85745000000014
 20
4.742068888803496
 30
0.0
 11
-39.86250000000001
 21
4.742068888803495
 31
0.0
  0
ENDSEC
  0
SECTION
  2
OBJECTS
  0
DICTIONARY
  5
C
330
0
100
AcDbDictionary
281
     1
  3
ACAD_DETAILVIEWSTYLE
350
249
  3
ACAD_GROUP
350
D
  3
ACAD_IMAGE_VARS
350
278
  3
ACAD_LAYOUT
350
1A
  3
ACAD_MLINESTYLE
350
17
  3
ACAD_PLOTSETTINGS
350
19
  3
ACAD_PLOTSTYLENAME
350
E
  3
ACAD_SCALELIST
350
47
  3
ACAD_SECTIONVIEWSTYLE
350
24A
  3
AcDbVariableDictionary
350
244
  3
APPDATA
350
13A
  3
DWGPROPS
350
279
  0
DICTIONARY
  5
190
330
2
100
AcDbDictionary
280
     1
281
     1
  3
ACAD_LAYERSTATES
360
191
  0
DICTIONARY
  5
249
102
{ACAD_REACTORS
330
C
102
}
330
C
100
AcDbDictionary
281
     1
  0
DICTIONARY
  5
D
102
{ACAD_REACTORS
330
C
102
}
330
C
100
AcDbDictionary
281
     1
  0
RASTERVARIABLES
  5
278
102
{ACAD_REACTORS
330
C
102
}
330
C
100
AcDbRasterVariables
 90
        0
 70
     1
 71
     1
 72
     1
  0
DICTIONARY
  5
1A
102
{ACAD_REACTORS
330
C
102
}
330
C
100
AcDbDictionary
281
     1
  3
Layout1
350
1E
  3
Layout2
350
26
  3
Model
350
22
  0
DICTIONARY
  5
17
102
{ACAD_REACTORS
330
C
102
}
330
C
100
AcDbDictionary
281
     1
  3
Standard
350
18
  0
DICTIONARY
  5
19
102
{ACAD_REACTORS
330
C
102
}
330
C
100
AcDbDictionary
281
     1
  0
ACDBDICTIONARYWDFLT
  5
E
102
{ACAD_REACTORS
330
C
102
}
330
C
100
AcDbDictionary
281
     1
  3
Normal
350
F
100
AcDbDictionaryWithDefault
340
F
  0
DICTIONARY
  5
47
102
{ACAD_REACTORS
330
C
102
}
330
C
100
AcDbDictionary
281
     1
  3
A0
350
48
  3
A1
350
49
  3
A2
350
4A
  3
A3
350
4B
  3
A4
350
4C
  3
A5
350
4D
  3
A6
350
4E
  3
A7
350
4F
  3
A8
350
50
  3
A9
350
51
  3
B0
350
52
  3
B1
350
53
  3
B2
350
54
  3
B3
350
55
  3
B4
350
56
  3
B5
350
57
  3
B6
350
58
  3
B7
350
59
  3
B8
350
5A
  3
B9
350
5B
  3
C0
350
5C
  3
C1
350
5D
  3
C2
350
5E
  3
C3
350
5F
  3
C4
350
60
  3
C5
350
61
  3
C6
350
62
  3
C7
350
63
  3
C8
350
64
  3
C9
350
65
  3
D0
350
66
  3
D1
350
67
  3
D2
350
68
  0
DICTIONARY
  5
24A
102
{ACAD_REACTORS
330
C
102
}
330
C
100
AcDbDictionary
281
     1
  0
DICTIONARY
  5
244
102
{ACAD_REACTORS
330
C
102
}
330
C
100
AcDbDictionary
281
     1
  0
DICTIONARY
  5
13A
102
{ACAD_REACTORS
330
C
102
}
330
C
100
AcDbDictionary
281
     1
  0
XRECORD
  5
279
102
{ACAD_REACTORS
330
C
102
}
330
C
100
AcDbXrecord
280
     1
  1
DWGPROPS COOKIE
  2

  3

  4

  6

  7

  8
12016016
  9

300
=
301
=
302
=
303
=
304
=
305
=
306
=
307
=
308
=
309
=
 40
0.0
 41
2458311.190214398
 42
2458323.078156806
  1

 90
        0
  0
DICTIONARY
  5
191
102
{ACAD_REACTORS
330
190
102
}
330
190
100
AcDbDictionary
281
     1
  0
LAYOUT
  5
1E
102
{ACAD_REACTORS
330
1A
102
}
330
1A
100
AcDbPlotSettings
  1

  2
none_device
  4

  6

 40
0.0
 41
0.0
 42
0.0
 43
0.0
 44
0.0
 45
0.0
 46
0.0
 47
0.0
 48
0.0
 49
0.0
140
0.0
141
0.0
142
1.0
143
1.0
 70
   688
 72
     1
 73
     0
 74
     5
  7

 75
    16
147
1.0
148
0.0
149
0.0
100
AcDbLayout
  1
Layout1
 70
     1
 71
     1
 10
0.0
 20
0.0
 11
420.0
 21
297.0
 12
0.0
 22
0.0
 32
0.0
 14
1.000000000000000E+20
 24
1.000000000000000E+20
 34
1.000000000000000E+20
 15
-1.000000000000000E+20
 25
-1.000000000000000E+20
 35
-1.000000000000000E+20
146
0.0
 13
0.0
 23
0.0
 33
0.0
 16
1.0
 26
0.0
 36
0.0
 17
0.0
 27
1.0
 37
0.0
 76
     0
330
1B
  0
LAYOUT
  5
26
102
{ACAD_REACTORS
330
1A
102
}
330
1A
100
AcDbPlotSettings
  1

  2
none_device
  4

  6

 40
0.0
 41
0.0
 42
0.0
 43
0.0
 44
0.0
 45
0.0
 46
0.0
 47
0.0
 48
0.0
 49
0.0
140
0.0
141
0.0
142
1.0
143
1.0
 70
   688
 72
     1
 73
     0
 74
     5
  7

 75
    16
147
1.0
148
0.0
149
0.0
100
AcDbLayout
  1
Layout2
 70
     1
 71
     2
 10
0.0
 20
0.0
 11
0.0
 21
0.0
 12
0.0
 22
0.0
 32
0.0
 14
0.0
 24
0.0
 34
0.0
 15
0.0
 25
0.0
 35
0.0
146
0.0
 13
0.0
 23
0.0
 33
0.0
 16
1.0
 26
0.0
 36
0.0
 17
0.0
 27
1.0
 37
0.0
 76
     0
330
23
  0
LAYOUT
  5
22
102
{ACAD_REACTORS
330
1A
102
}
330
1A
100
AcDbPlotSettings
  1

  2
none_device
  4
ANSI_A_(11.00_x_8.50_Inches)
  6

 40
6.35
 41
19.05
 42
6.35000508
 43
19.05000254
 44
279.4
 45
215.9
 46
111.5354592427306
 47
97.62990263130112
 48
0.0
 49
0.0
140
0.0
141
0.0
142
0.0715194751484015
143
1.0
 70
  1696
 72
     0
 73
     0
 74
     0
  7

 75
     0
147
0.0235690232323232
148
0.0
149
0.0
100
AcDbLayout
  1
Model
 70
     1
 71
     0
 10
0.0
 20
0.0
 11
420.0
 21
297.0
 12
0.0
 22
0.0
 32
0.0
 14
-60.23750000000011
 24
-49.97180738881175
 34
0.0
 15
86.40100881534565
 25
40.07363307670839
 35
0.0
146
0.0
 13
0.0
 23
0.0
 33
0.0
 16
1.0
 26
0.0
 36
0.0
 17
0.0
 27
1.0
 37
0.0
 76
     0
330
1F
331
29
  0
MLINESTYLE
  5
18
102
{ACAD_REACTORS
330
17
102
}
330
17
100
AcDbMlineStyle
  2
Standard
 70
     0
  3

 62
   256
 51
90.0
 52
90.0
 71
     2
 49
0.5
 62
   256
  6
BYLAYER
 49
-0.5
 62
   256
  6
BYLAYER
  0
ACDBPLACEHOLDER
  5
F
102
{ACAD_REACTORS
330
E
102
}
330
E
  0
SCALE
  5
48
102
{ACAD_REACTORS
330
47
102
}
330
47
100
AcDbScale
 70
     0
300
1:1
140
1.0
141
1.0
290
     1
  0
SCALE
  5
49
102
{ACAD_REACTORS
330
47
102
}
330
47
100
AcDbScale
 70
     0
300
1:2
140
1.0
141
2.0
290
     0
  0
SCALE
  5
4A
102
{ACAD_REACTORS
330
47
102
}
330
47
100
AcDbScale
 70
     0
300
1:4
140
1.0
141
4.0
290
     0
  0
SCALE
  5
4B
102
{ACAD_REACTORS
330
47
102
}
330
47
100
AcDbScale
 70
     0
300
1:5
140
1.0
141
5.0
290
     0
  0
SCALE
  5
4C
102
{ACAD_REACTORS
330
47
102
}
330
47
100
AcDbScale
 70
     0
300
1:8
140
1.0
141
8.0
290
     0
  0
SCALE
  5
4D
102
{ACAD_REACTORS
330
47
102
}
330
47
100
AcDbScale
 70
     0
300
1:10
140
1.0
141
10.0
290
     0
  0
SCALE
  5
4E
102
{ACAD_REACTORS
330
47
102
}
330
47
100
AcDbScale
 70
     0
300
1:16
140
1.0
141
16.0
290
     0
  0
SCALE
  5
4F
102
{ACAD_REACTORS
330
47
102
}
330
47
100
AcDbScale
 70
     0
300
1:20
140
1.0
141
20.0
290
     0
  0
SCALE
  5
50
102
{ACAD_REACTORS
330
47
102
}
330
47
100
AcDbScale
 70
     0
300
1:30
140
1.0
141
30.0
290
     0
  0
SCALE
  5
51
102
{ACAD_REACTORS
330
47
102
}
330
47
100
AcDbScale
 70
     0
300
1:40
140
1.0
141
40.0
290
     0
  0
SCALE
  5
52
102
{ACAD_REACTORS
330
47
102
}
330
47
100
AcDbScale
 70
     0
300
1:50
140
1.0
141
50.0
290
     0
  0
SCALE
  5
53
102
{ACAD_REACTORS
330
47
102
}
330
47
100
AcDbScale
 70
     0
300
1:100
140
1.0
141
100.0
290
     0
  0
SCALE
  5
54
102
{ACAD_REACTORS
330
47
102
}
330
47
100
AcDbScale
 70
     0
300
2:1
140
2.0
141
1.0
290
     0
  0
SCALE
  5
55
102
{ACAD_REACTORS
330
47
102
}
330
47
100
AcDbScale
 70
     0
300
4:1
140
4.0
141
1.0
290
     0
  0
SCALE
  5
56
102
{ACAD_REACTORS
330
47
102
}
330
47
100
AcDbScale
 70
     0
300
8:1
140
8.0
141
1.0
290
     0
  0
SCALE
  5
57
102
{ACAD_REACTORS
330
47
102
}
330
47
100
AcDbScale
 70
     0
300
10:1
140
10.0
141
1.0
290
     0
  0
SCALE
  5
58
102
{ACAD_REACTORS
330
47
102
}
330
47
100
AcDbScale
 70
     0
300
100:1
140
100.0
141
1.0
290
     0
  0
SCALE
  5
59
102
{ACAD_REACTORS
330
47
102
}
330
47
100
AcDbScale
 70
     0
300
1/128" = 1'-0"
140
0.0078125
141
12.0
290
     0
  0
SCALE
  5
5A
102
{ACAD_REACTORS
330
47
102
}
330
47
100
AcDbScale
 70
     0
300
1/64" = 1'-0"
140
0.015625
141
12.0
290
     0
  0
SCALE
  5
5B
102
{ACAD_REACTORS
330
47
102
}
330
47
100
AcDbScale
 70
     0
300
1/32" = 1'-0"
140
0.03125
141
12.0
290
     0
  0
SCALE
  5
5C
102
{ACAD_REACTORS
330
47
102
}
330
47
100
AcDbScale
 70
     0
300
1/16" = 1'-0"
140
0.0625
141
12.0
290
     0
  0
SCALE
  5
5D
102
{ACAD_REACTORS
330
47
102
}
330
47
100
AcDbScale
 70
     0
300
3/32" = 1'-0"
140
0.09375
141
12.0
290
     0
  0
SCALE
  5
5E
102
{ACAD_REACTORS
330
47
102
}
330
47
100
AcDbScale
 70
     0
300
1/8" = 1'-0"
140
0.125
141
12.0
290
     0
  0
SCALE
  5
5F
102
{ACAD_REACTORS
330
47
102
}
330
47
100
AcDbScale
 70
     0
300
3/16" = 1'-0"
140
0.1875
141
12.0
290
     0
  0
SCALE
  5
60
102
{ACAD_REACTORS
330
47
102
}
330
47
100
AcDbScale
 70
     0
300
1/4" = 1'-0"
140
0.25
141
12.0
290
     0
  0
SCALE
  5
61
102
{ACAD_REACTORS
330
47
102
}
330
47
100
AcDbScale
 70
     0
300
3/8" = 1'-0"
140
0.375
141
12.0
290
     0
  0
SCALE
  5
62
102
{ACAD_REACTORS
330
47
102
}
330
47
100
AcDbScale
 70
     0
300
1/2" = 1'-0"
140
0.5
141
12.0
290
     0
  0
SCALE
  5
63
102
{ACAD_REACTORS
330
47
102
}
330
47
100
AcDbScale
 70
     0
300
3/4" = 1'-0"
140
0.75
141
12.0
290
     0
  0
SCALE
  5
64
102
{ACAD_REACTORS
330
47
102
}
330
47
100
AcDbScale
 70
     0
300
1" = 1'-0"
140
1.0
141
12.0
290
     0
  0
SCALE
  5
65
102
{ACAD_REACTORS
330
47
102
}
330
47
100
AcDbScale
 70
     0
300
1-1/2" = 1'-0"
140
1.5
141
12.0
290
     0
  0
SCALE
  5
66
102
{ACAD_REACTORS
330
47
102
}
330
47
100
AcDbScale
 70
     0
300
3" = 1'-0"
140
3.0
141
12.0
290
     0
  0
SCALE
  5
67
102
{ACAD_REACTORS
330
47
102
}
330
47
100
AcDbScale
 70
     0
300
6" = 1'-0"
140
6.0
141
12.0
290
     0
  0
SCALE
  5
68
102
{ACAD_REACTORS
330
47
102
}
330
47
100
AcDbScale
 70
     0
300
1'-0" = 1'-0"
140
12.0
141
12.0
290
     0
  0
ENDSEC
  0
EOF
