  0
SECTION
  2
HEADER
  9
$ACADVER
  1
AC1015
  9
$ACADMAINTVER
 70
     6
  9
$DWGCODEPAGE
  3
ANSI_949
  9
$INSBASE
 10
0.0
 20
0.0
 30
0.0
  9
$EXTMIN
 10
-68.17500000000011
 20
-49.97180738881174
 30
0.0
  9
$EXTMAX
 10
86.4010088153456
 20
42.53479134588537
 30
0.0
  9
$LIMMIN
 10
0.0
 20
0.0
  9
$LIMMAX
 10
420.0
 20
297.0
  9
$ORTHOMODE
 70
     1
  9
$REGENMODE
 70
     1
  9
$FILLMODE
 70
     1
  9
$QTEXTMODE
 70
     0
  9
$MIRRTEXT
 70
     1
  9
$LTSCALE
 40
1.0
  9
$ATTMODE
 70
     1
  9
$TEXTSIZE
 40
3.5
  9
$TRACEWID
 40
1.0
  9
$TEXTSTYLE
  7
Standard
  9
$CLAYER
  8
0
  9
$CELTYPE
  6
ByLayer
  9
$CECOLOR
 62
   256
  9
$CELTSCALE
 40
1.0
  9
$DISPSILH
 70
     0
  9
$DIMSCALE
 40
1.0
  9
$DIMASZ
 40
3.302
  9
$DIMEXO
 40
1.0
  9
$DIMDLI
 40
3.75
  9
$DIMRND
 40
0.0
  9
$DIMDLE
 40
0.0
  9
$DIMEXE
 40
1.0
  9
$DIMTP
 40
0.0
  9
$DIMTM
 40
0.0
  9
$DIMTXT
 40
3.5
  9
$DIMCEN
 40
2.5
  9
$DIMTSZ
 40
0.0
  9
$DIMTOL
 70
     0
  9
$DIMLIM
 70
     0
  9
$DIMTIH
 70
     1
  9
$DIMTOH
 70
     1
  9
$DIMSE1
 70
     0
  9
$DIMSE2
 70
     0
  9
$DIMTAD
 70
     1
  9
$DIMZIN
 70
     0
  9
$DIMBLK
  1

  9
$DIMASO
 70
     1
  9
$DIMSHO
 70
     1
  9
$DIMPOST
  1

  9
$DIMAPOST
  1

  9
$DIMALT
 70
     0
  9
$DIMALTD
 70
     3
  9
$DIMALTF
 40
0.0393700787401575
  9
$DIMLFAC
 40
1.0
  9
$DIMTOFL
 70
     1
  9
$DIMTVP
 40
0.0
  9
$DIMTIX
 70
     0
  9
$DIMSOXD
 70
     0
  9
$DIMSAH
 70
     0
  9
$DIMBLK1
  1

  9
$DIMBLK2
  1

  9
$DIMSTYLE
  2
ISO-25
  9
$DIMCLRD
 70
     0
  9
$DIMCLRE
 70
     0
  9
$DIMCLRT
 70
     0
  9
$DIMTFAC
 40
1.0
  9
$DIMGAP
 40
1.524
  9
$DIMJUST
 70
     0
  9
$DIMSD1
 70
     0
  9
$DIMSD2
 70
     0
  9
$DIMTOLJ
 70
     0
  9
$DIMTZIN
 70
     0
  9
$DIMALTZ
 70
     0
  9
$DIMALTTZ
 70
     0
  9
$DIMUPT
 70
     0
  9
$DIMDEC
 70
     2
  9
$DIMTDEC
 70
     2
  9
$DIMALTU
 70
     2
  9
$DIMALTTD
 70
     3
  9
$DIMTXSTY
  7
Standard
  9
$DIMAUNIT
 70
     0
  9
$DIMADEC
 70
     2
  9
$DIMALTRND
 40
0.0
  9
$DIMAZIN
 70
     0
  9
$DIMDSEP
 70
    44
  9
$DIMATFIT
 70
     3
  9
$DIMFRAC
 70
     0
  9
$DIMLDRBLK
  1

  9
$DIMLUNIT
 70
     2
  9
$DIMLWD
 70
    -2
  9
$DIMLWE
 70
    -2
  9
$DIMTMOVE
 70
     0
  9
$LUNITS
 70
     2
  9
$LUPREC
 70
     2
  9
$SKETCHINC
 40
1.0
  9
$FILLETRAD
 40
10.0
  9
$AUNITS
 70
     0
  9
$AUPREC
 70
     2
  9
$MENU
  1
.
  9
$ELEVATION
 40
0.0
  9
$PELEVATION
 40
0.0
  9
$THICKNESS
 40
0.0
  9
$LIMCHECK
 70
     0
  9
$CHAMFERA
 40
0.0
  9
$CHAMFERB
 40
0.0
  9
$CHAMFERC
 40
0.0
  9
$CHAMFERD
 40
0.0
  9
$SKPOLY
 70
     0
  9
$TDCREATE
 40
2458311.565425301
  9
$TDUCREATE
 40
2458311.190425301
  9
$TDUPDATE
 40
2458323.45310713
  9
$TDUUPDATE
 40
2458323.07810713
  9
$TDINDWG
 40
0.0084940972
  9
$TDUSRTIMER
 40
2458323.07806919
  9
$USRTIMER
 70
     1
  9
$ANGBASE
 50
0.0
  9
$ANGDIR
 70
     0
  9
$PDMODE
 70
     0
  9
$PDSIZE
 40
-1.0
  9
$PLINEWID
 40
0.0
  9
$SPLFRAME
 70
     0
  9
$SPLINETYPE
 70
     6
  9
$SPLINESEGS
 70
     8
  9
$HANDSEED
  5
25C
  9
$SURFTAB1
 70
     6
  9
$SURFTAB2
 70
     6
  9
$SURFTYPE
 70
     6
  9
$SURFU
 70
     6
  9
$SURFV
 70
     6
  9
$UCSBASE
  2

  9
$UCSNAME
  2

  9
$UCSORG
 10
0.0
 20
0.0
 30
0.0
  9
$UCSXDIR
 10
1.0
 20
0.0
 30
0.0
  9
$UCSYDIR
 10
0.0
 20
1.0
 30
0.0
  9
$UCSORTHOREF
  2

  9
$UCSORTHOVIEW
 70
     0
  9
$UCSORGTOP
 10
0.0
 20
0.0
 30
0.0
  9
$UCSORGBOTTOM
 10
0.0
 20
0.0
 30
0.0
  9
$UCSORGLEFT
 10
0.0
 20
0.0
 30
0.0
  9
$UCSORGRIGHT
 10
0.0
 20
0.0
 30
0.0
  9
$UCSORGFRONT
 10
0.0
 20
0.0
 30
0.0
  9
$UCSORGBACK
 10
0.0
 20
0.0
 30
0.0
  9
$PUCSBASE
  2

  9
$PUCSNAME
  2

  9
$PUCSORG
 10
0.0
 20
0.0
 30
0.0
  9
$PUCSXDIR
 10
1.0
 20
0.0
 30
0.0
  9
$PUCSYDIR
 10
0.0
 20
1.0
 30
0.0
  9
$PUCSORTHOREF
  2

  9
$PUCSORTHOVIEW
 70
     0
  9
$PUCSORGTOP
 10
0.0
 20
0.0
 30
0.0
  9
$PUCSORGBOTTOM
 10
0.0
 20
0.0
 30
0.0
  9
$PUCSORGLEFT
 10
0.0
 20
0.0
 30
0.0
  9
$PUCSORGRIGHT
 10
0.0
 20
0.0
 30
0.0
  9
$PUCSORGFRONT
 10
0.0
 20
0.0
 30
0.0
  9
$PUCSORGBACK
 10
0.0
 20
0.0
 30
0.0
  9
$USERI1
 70
     0
  9
$USERI2
 70
     0
  9
$USERI3
 70
     0
  9
$USERI4
 70
     0
  9
$USERI5
 70
     0
  9
$USERR1
 40
0.0
  9
$USERR2
 40
0.0
  9
$USERR3
 40
0.0
  9
$USERR4
 40
0.0
  9
$USERR5
 40
0.0
  9
$WORLDVIEW
 70
     1
  9
$SHADEDGE
 70
     3
  9
$SHADEDIF
 70
    70
  9
$TILEMODE
 70
     1
  9
$MAXACTVP
 70
    64
  9
$PINSBASE
 10
0.0
 20
0.0
 30
0.0
  9
$PLIMCHECK
 70
     0
  9
$PEXTMIN
 10
1.000000000000000E+20
 20
1.000000000000000E+20
 30
1.000000000000000E+20
  9
$PEXTMAX
 10
-1.000000000000000E+20
 20
-1.000000000000000E+20
 30
-1.000000000000000E+20
  9
$PLIMMIN
 10
0.0
 20
0.0
  9
$PLIMMAX
 10
0.0
 20
0.0
  9
$UNITMODE
 70
     0
  9
$VISRETAIN
 70
     1
  9
$PLINEGEN
 70
     0
  9
$PSLTSCALE
 70
     1
  9
$TREEDEPTH
 70
  3020
  9
$CMLSTYLE
  2
Standard
  9
$CMLJUST
 70
     0
  9
$CMLSCALE
 40
20.0
  9
$PROXYGRAPHICS
 70
     1
  9
$MEASUREMENT
 70
     1
  9
$CELWEIGHT
370
    -1
  9
$ENDCAPS
280
     0
  9
$JOINSTYLE
280
     0
  9
$LWDISPLAY
290
     1
  9
$INSUNITS
 70
     4
  9
$HYPERLINKBASE
  1

  9
$STYLESHEET
  1

  9
$XEDIT
290
     1
  9
$CEPSNTYPE
380
     0
  9
$PSTYLEMODE
290
     1
  9
$FINGERPRINTGUID
  2
{6975377E-07DE-49FD-99D0-B58B52B212FB}
  9
$VERSIONGUID
  2
{FAEB1C32-E019-11D5-929B-00C0DF256EC4}
  9
$EXTNAMES
290
     1
  9
$PSVPSCALE
 40
0.0
  9
$OLESTARTUP
290
     0
  0
ENDSEC
  0
SECTION
  2
CLASSES
  0
CLASS
  1
ACDBDICTIONARYWDFLT
  2
AcDbDictionaryWithDefault
  3
ObjectDBX Classes
 90
        0
280
     0
281
     0
  0
CLASS
  1
VISUALSTYLE
  2
AcDbVisualStyle
  3
ObjectDBX Classes
 90
     4095
280
     0
281
     0
  0
CLASS
  1
MATERIAL
  2
AcDbMaterial
  3
ObjectDBX Classes
 90
     1153
280
     0
281
     0
  0
CLASS
  1
SCALE
  2
AcDbScale
  3
ObjectDBX Classes
 90
     1153
280
     0
281
     0
  0
CLASS
  1
SUN
  2
AcDbSun
  3
SCENEOE
 90
     1153
280
     0
281
     0
  0
CLASS
  1
ACDBPLACEHOLDER
  2
AcDbPlaceHolder
  3
ObjectDBX Classes
 90
        0
280
     0
281
     0
  0
CLASS
  1
LAYOUT
  2
AcDbLayout
  3
ObjectDBX Classes
 90
        0
280
     0
281
     0
  0
CLASS
  1
TABLESTYLE
  2
AcDbTableStyle
  3
ObjectDBX Classes
 90
     4095
280
     0
281
     0
  0
CLASS
  1
MLEADERSTYLE
  2
AcDbMLeaderStyle
  3
ACDB_MLEADERSTYLE_CLASS
 90
     4095
280
     0
281
     0
  0
CLASS
  1
DICTIONARYVAR
  2
AcDbDictionaryVar
  3
ObjectDBX Classes
 90
        0
280
     0
281
     0
  0
CLASS
  1
RASTERVARIABLES
  2
AcDbRasterVariables
  3
ISM
 90
        0
280
     0
281
     0
  0
ENDSEC
  0
SECTION
  2
TABLES
  0
TABLE
  2
VPORT
  5
8
330
0
100
AcDbSymbolTable
 70
     1
  0
VPORT
  5
29
330
8
100
AcDbSymbolTableRecord
100
AcDbViewportTableRecord
  2
*Active
 70
     0
 10
0.0
 20
0.0
 11
1.0
 21
1.0
 12
9.113004407672747
 22
-3.718508021463194
 13
0.0
 23
0.0
 14
10.0
 24
10.0
 15
10.0
 25
10.0
 16
0.0
 26
0.0
 36
1.0
 17
0.0
 27
0.0
 37
0.0
 40
94.35673070939103
 41
1.782762691853601
 42
50.0
 43
0.0
 44
0.0
 50
0.0
 51
0.0
 71
    16
 72
  2000
 73
     1
 74
     3
 75
     0
 76
     0
 77
     0
 78
     0
281
     0
 65
     1
110
0.0
120
0.0
130
0.0
111
1.0
121
0.0
131
0.0
112
0.0
122
1.0
132
0.0
 79
     0
146
0.0
  0
ENDTAB
  0
TABLE
  2
LTYPE
  5
5
330
0
100
AcDbSymbolTable
 70
     6
  0
LTYPE
  5
14
330
5
100
AcDbSymbolTableRecord
100
AcDbLinetypeTableRecord
  2
ByBlock
 70
     0
  3

 72
    65
 73
     0
 40
0.0
  0
LTYPE
  5
15
330
5
100
AcDbSymbolTableRecord
100
AcDbLinetypeTableRecord
  2
ByLayer
 70
     0
  3

 72
    65
 73
     0
 40
0.0
  0
LTYPE
  5
16
330
5
100
AcDbSymbolTableRecord
100
AcDbLinetypeTableRecord
  2
Continuous
 70
     0
  3
Solid line
 72
    65
 73
     0
 40
0.0
  0
LTYPE
  5
6A
330
5
100
AcDbSymbolTableRecord
100
AcDbLinetypeTableRecord
  2
HIDDEN
 70
     0
  3
Hidden __ __ __ __ __ __ __ __ __ __ __ __ __ __
 72
    65
 73
     2
 40
1.905
 49
1.27
 74
     0
 49
-0.635
 74
     0
  0
LTYPE
  5
6B
330
5
100
AcDbSymbolTableRecord
100
AcDbLinetypeTableRecord
  2
PHANTOM
 70
     0
  3
Phantom ______  __  __  ______  __  __  ______
 72
    65
 73
     6
 40
12.7
 49
6.35
 74
     0
 49
-1.27
 74
     0
 49
1.27
 74
     0
 49
-1.27
 74
     0
 49
1.27
 74
     0
 49
-1.27
 74
     0
  0
LTYPE
  5
6C
330
5
100
AcDbSymbolTableRecord
100
AcDbLinetypeTableRecord
  2
CENTER
 70
     0
  3
Center ____ _ ____ _ ____ _ ____ _ ____ _ ____
 72
    65
 73
     4
 40
10.16
 49
6.35
 74
     0
 49
-1.27
 74
     0
 49
1.27
 74
     0
 49
-1.27
 74
     0
  0
LTYPE
  5
6D
330
5
100
AcDbSymbolTableRecord
100
AcDbLinetypeTableRecord
  2
CENTERX2
 70
     0
  3
Center (2x) ________  __  ________  __  _____
 72
    65
 73
     4
 40
20.32
 49
12.7
 74
     0
 49
-2.54
 74
     0
 49
2.54
 74
     0
 49
-2.54
 74
     0
  0
LTYPE
  5
6E
330
5
100
AcDbSymbolTableRecord
100
AcDbLinetypeTableRecord
  2
DOT2
 70
     0
  3
Dot (.5x) ........................................
 72
    65
 73
     2
 40
0.635
 49
0.0
 74
     0
 49
-0.635
 74
     0
  0
ENDTAB
  0
TABLE
  2
LAYER
  5
2
102
{ACAD_XDICTIONARY
360
185
102
}
330
0
100
AcDbSymbolTable
 70
    18
  0
LAYER
  5
10
330
2
100
AcDbSymbolTableRecord
100
AcDbLayerTableRecord
  2
0
 70
     0
 62
     7
  6
Continuous
370
    -3
390
F
  0
LAYER
  5
6F
330
2
100
AcDbSymbolTableRecord
100
AcDbLayerTableRecord
  2
FORMAT
 70
     0
 62
     2
  6
Continuous
370
    -3
390
F
  0
LAYER
  5
70
330
2
100
AcDbSymbolTableRecord
100
AcDbLayerTableRecord
  2
외형선
 70
     0
 62
     4
  6
Continuous
370
    30
390
F
  0
LAYER
  5
71
330
2
100
AcDbSymbolTableRecord
100
AcDbLayerTableRecord
  2
숨은선
 70
     0
 62
     2
  6
HIDDEN
370
    15
390
F
  0
LAYER
  5
72
330
2
100
AcDbSymbolTableRecord
100
AcDbLayerTableRecord
  2
중심선
 70
     0
 62
     1
  6
CENTERX2
370
    -3
390
F
  0
LAYER
  5
73
330
2
100
AcDbSymbolTableRecord
100
AcDbLayerTableRecord
  2
파단선
 70
     0
 62
     4
  6
Continuous
370
    -3
390
F
  0
LAYER
  5
74
330
2
100
AcDbSymbolTableRecord
100
AcDbLayerTableRecord
  2
해칭선
 70
     0
 62
   100
  6
Continuous
370
    -3
390
F
  0
LAYER
  5
75
330
2
100
AcDbSymbolTableRecord
100
AcDbLayerTableRecord
  2
가는실선
 70
     0
 62
     4
  6
Continuous
370
    -3
390
F
  0
LAYER
  5
76
330
2
100
AcDbSymbolTableRecord
100
AcDbLayerTableRecord
  2
치수_보조선
 70
     0
 62
     4
  6
Continuous
370
    -3
390
F
  0
LAYER
  5
77
330
2
100
AcDbSymbolTableRecord
100
AcDbLayerTableRecord
  2
치수문자_일반주서
 70
     0
 62
     7
  6
Continuous
370
    15
390
F
  0
LAYER
  5
78
330
2
100
AcDbSymbolTableRecord
100
AcDbLayerTableRecord
  2
개별주서
 70
     0
 62
   100
  6
Continuous
370
    30
390
F
  0
LAYER
  5
79
330
2
100
AcDbSymbolTableRecord
100
AcDbLayerTableRecord
  2
중간선
 70
     0
 62
     2
  6
Continuous
370
    15
390
F
  0
LAYER
  5
7A
330
2
100
AcDbSymbolTableRecord
100
AcDbLayerTableRecord
  2
윤곽선
 70
     0
 62
     3
  6
Continuous
370
    40
390
F
  0
LAYER
  5
7B
330
2
100
AcDbSymbolTableRecord
100
AcDbLayerTableRecord
  2
중심마크
 70
     0
 62
   100
  6
Continuous
370
    30
390
F
  0
LAYER
  5
7C
330
2
100
AcDbSymbolTableRecord
100
AcDbLayerTableRecord
  2
가상선
 70
     0
 62
     4
  6
PHANTOM
370
    -3
390
F
  0
LAYER
  5
7D
330
2
100
AcDbSymbolTableRecord
100
AcDbLayerTableRecord
  2
특수지정선
 70
     0
 62
     5
  6
CENTERX2
370
    60
390
F
  0
LAYER
  5
7E
330
2
100
AcDbSymbolTableRecord
100
AcDbLayerTableRecord
  2
참조1
 70
     0
 62
    -4
  6
Continuous
370
    -3
390
F
  0
LAYER
  5
1AA
330
2
100
AcDbSymbolTableRecord
100
AcDbLayerTableRecord
  2
Defpoints
 70
     0
 62
     7
  6
Continuous
290
     0
370
    -3
390
F
  0
ENDTAB
  0
TABLE
  2
STYLE
  5
3
330
0
100
AcDbSymbolTable
 70
     2
  0
STYLE
  5
11
330
3
100
AcDbSymbolTableRecord
100
AcDbTextStyleTableRecord
  2
Standard
 70
     0
 40
0.0
 41
1.0
 50
0.0
 71
     0
 42
3.5
  3
txt
  4

  0
STYLE
  5
94
330
3
100
AcDbSymbolTableRecord
100
AcDbTextStyleTableRecord
  2
SLDTEXTSTYLE0
 70
     0
 40
0.0
 41
0.75
 50
0.0
 71
     0
 42
3.5
  3
TXT
  4

  0
ENDTAB
  0
TABLE
  2
VIEW
  5
6
330
0
100
AcDbSymbolTable
 70
     0
  0
ENDTAB
  0
TABLE
  2
UCS
  5
7
330
0
100
AcDbSymbolTable
 70
     0
  0
ENDTAB
  0
TABLE
  2
APPID
  5
9
330
0
100
AcDbSymbolTable
 70
     2
  0
APPID
  5
12
330
9
100
AcDbSymbolTableRecord
100
AcDbRegAppTableRecord
  2
ACAD
 70
     0
  0
APPID
  5
141
330
9
100
AcDbSymbolTableRecord
100
AcDbRegAppTableRecord
  2
PE_URL
 70
     0
  0
ENDTAB
  0
TABLE
  2
DIMSTYLE
  5
A
330
0
100
AcDbSymbolTable
 70
     5
100
AcDbDimStyleTable
  0
DIMSTYLE
105
27
330
A
100
AcDbSymbolTableRecord
100
AcDbDimStyleTableRecord
  2
ISO-25
 70
     0
 41
2.5
 42
0.625
 43
3.75
 44
1.25
 73
     0
 74
     0
 77
     1
 78
     8
140
2.5
141
2.5
143
0.03937007874016
147
0.625
171
     3
172
     1
178
     0
271
     2
272
     2
274
     3
278
    44
283
     0
284
     8
340
11
  0
DIMSTYLE
105
C0
330
A
100
AcDbSymbolTableRecord
100
AcDbDimStyleTableRecord
  2
SLDDIMSTYLE0
 70
     0
 41
3.302
 44
0.0
 45
0.000000001
 73
     0
 74
     0
 77
     1
 78
     4
 79
     1
140
3.5
147
0.875
172
     1
173
     1
178
     0
271
     2
272
     2
276
     2
284
    12
289
     0
340
94
  0
DIMSTYLE
105
CE
102
{ACAD_REACTORS
330
CD
330
F7
330
E3
330
BF
102
}
330
A
100
AcDbSymbolTableRecord
100
AcDbDimStyleTableRecord
  2
SLDDIMSTYLE1
 70
     0
 41
3.302
 44
0.0
 45
0.000000001
 73
     0
 74
     0
 77
     1
 78
     4
 79
     1
140
3.5
143
0.0393700787401575
147
0.875
148
0.000000001
170
     1
172
     1
173
     1
178
     0
271
     2
272
     2
276
     2
284
    12
289
     0
340
94
  0
DIMSTYLE
105
E4
330
A
100
AcDbSymbolTableRecord
100
AcDbDimStyleTableRecord
  2
SLDDIMSTYLE2
 70
     0
 41
3.302
 44
0.0
 45
0.000000001
 73
     0
 74
     0
 77
     1
 78
     4
 79
     1
140
3.5
143
0.0393700787401575
147
0.875
148
0.000000001
170
     1
173
     1
178
     0
271
     2
272
     2
276
     2
284
    12
340
94
  0
DIMSTYLE
105
F8
330
A
100
AcDbSymbolTableRecord
100
AcDbDimStyleTableRecord
  2
SLDDIMSTYLE3
 70
     0
 41
3.302
 44
0.0
 45
0.000000001
 73
     0
 74
     0
 77
     1
 78
    12
 79
     3
140
3.5
143
0.0393700787401575
147
0.875
148
0.000000001
170
     1
173
     1
178
     0
271
     2
272
     2
276
     2
284
    12
340
94
  0
ENDTAB
  0
TABLE
  2
BLOCK_RECORD
  5
1
330
0
100
AcDbSymbolTable
 70
     9
  0
BLOCK_RECORD
  5
1F
330
1
100
AcDbSymbolTableRecord
100
AcDbBlockTableRecord
  2
*Model_Space
340
22
  0
BLOCK_RECORD
  5
1B
330
1
100
AcDbSymbolTableRecord
100
AcDbBlockTableRecord
  2
*Paper_Space
340
1E
  0
BLOCK_RECORD
  5
23
330
1
100
AcDbSymbolTableRecord
100
AcDbBlockTableRecord
  2
*Paper_Space0
340
26
  0
BLOCK_RECORD
  5
7F
330
1
100
AcDbSymbolTableRecord
100
AcDbBlockTableRecord
  2
블럭10
340
0
102
{BLKREFS
331
B8
102
}
  0
BLOCK_RECORD
  5
C1
330
1
100
AcDbSymbolTableRecord
100
AcDbBlockTableRecord
  2
_D
340
0
  0
BLOCK_RECORD
  5
CF
330
1
100
AcDbSymbolTableRecord
100
AcDbBlockTableRecord
  2
_D_1
340
0
  0
BLOCK_RECORD
  5
E5
330
1
100
AcDbSymbolTableRecord
100
AcDbBlockTableRecord
  2
_D_2
340
0
  0
BLOCK_RECORD
  5
F9
330
1
100
AcDbSymbolTableRecord
100
AcDbBlockTableRecord
  2
_D_3
340
0
  0
BLOCK_RECORD
  5
112
330
1
100
AcDbSymbolTableRecord
100
AcDbBlockTableRecord
  2
SW_DOWELSYMBOL_0
340
0
102
{BLKREFS
331
195
102
}
  0
BLOCK_RECORD
  5
1E3
330
1
100
AcDbSymbolTableRecord
100
AcDbBlockTableRecord
  2
*D7
340
0
  0
BLOCK_RECORD
  5
1F5
330
1
100
AcDbSymbolTableRecord
100
AcDbBlockTableRecord
  2
*D8
340
0
  0
ENDTAB
  0
ENDSEC
  0
SECTION
  2
BLOCKS
  0
BLOCK
  5
20
330
1F
100
AcDbEntity
  8
0
100
AcDbBlockBegin
  2
*Model_Space
 70
     0
 10
0.0
 20
0.0
 30
0.0
  3
*Model_Space
  1
*Model_Space
  0
ENDBLK
  5
21
330
1F
100
AcDbEntity
  8
0
100
AcDbBlockEnd
  0
BLOCK
  5
1C
330
1B
100
AcDbEntity
 67
     1
  8
0
100
AcDbBlockBegin
  2
*Paper_Space
 70
     0
 10
0.0
 20
0.0
 30
0.0
  3
*Paper_Space
  1
*Paper_Space
  0
ENDBLK
  5
1D
330
1B
100
AcDbEntity
 67
     1
  8
0
100
AcDbBlockEnd
  0
BLOCK
  5
24
330
23
100
AcDbEntity
  8
0
100
AcDbBlockBegin
  2
*Paper_Space0
 70
     0
 10
0.0
 20
0.0
 30
0.0
  3
*Paper_Space0
  1
*Paper_Space0
  0
ENDBLK
  5
25
330
23
100
AcDbEntity
  8
0
100
AcDbBlockEnd
  0
BLOCK
  5
80
330
7F
100
AcDbEntity
  8
0
100
AcDbBlockBegin
  2
블럭10
 70
     2
 10
0.0
 20
0.0
 30
0.0
  3
블럭10
  1
블럭10
  0
ELLIPSE
  5
82
330
7F
100
AcDbEntity
  8
중심선
100
AcDbEllipse
 10
20.54032771741204
 20
12.0471743016438
 30
0.0
 11
6.600054785286829
 21
-1.261213355974178E-13
 31
0.0
210
0.0
220
0.0
230
1.0
 40
0.636358354079598
 41
0.9219305317359503
 42
6.513795318482858
  0
ELLIPSE
  5
83
330
7F
100
AcDbEntity
  8
중심선
100
AcDbEllipse
 10
20.54032771746488
 20
12.04717430159265
 30
0.0
 11
3.960054785062283
 21
1.540847449632565E-10
 31
0.0
210
0.0
220
0.0
230
1.0
 40
0.3939339440162632
 41
1.131841032648279
 42
5.62031148352944
  0
LINE
  5
84
330
7F
100
AcDbEntity
  8
중심선
100
AcDbLine
 10
2.268634060543552
 20
16.24717430164393
 30
0.0
 11
5.714909304380834
 21
16.24717430164393
 31
0.0
  0
LINE
  5
85
330
7F
100
AcDbEntity
  8
중심선
100
AcDbLine
 10
5.245725140726316
 20
7.84717430164391
 30
0.0
 11
8.692000384563599
 21
7.84717430164391
 31
0.0
  0
LINE
  5
86
330
7F
100
AcDbEntity
  8
중심선
100
AcDbLine
 10
15.74043728645272
 20
16.24717430164393
 30
0.0
 11
8.692000384563599
 21
7.84717430164391
 31
0.0
  0
LINE
  5
87
330
7F
100
AcDbEntity
  8
중심선
100
AcDbLine
 10
0.1404042013395286
 20
13.71084872107135
 30
0.0
 11
3.58671253028996
 21
13.71088815037384
 31
0.0
  0
LINE
  5
88
330
7F
100
AcDbEntity
  8
중심선
100
AcDbLine
 10
2.750260043222114
 20
10.84717430164391
 30
0.0
 11
6.196535287059397
 21
10.84717430164391
 31
0.0
  0
LINE
  5
89
330
7F
100
AcDbEntity
  8
중심선
100
AcDbLine
 10
12.29416204261559
 20
16.24717430164393
 30
0.0
 11
5.245725140726316
 21
7.84717430164391
 31
0.0
  0
LINE
  5
8A
330
7F
100
AcDbEntity
  8
중심선
100
AcDbLine
 10
10.72767329541681
 20
16.24717430164393
 30
0.0
 11
6.196535287059397
 21
10.84717430164391
 31
0.0
  0
LINE
  5
8B
330
7F
100
AcDbEntity
  8
중심선
100
AcDbLine
 10
7.28139805157953
 20
16.24717430164393
 30
0.0
 11
2.750260043222114
 21
10.84717430164391
 31
0.0
  0
LINE
  5
8C
330
7F
100
AcDbEntity
  8
중심선
100
AcDbLine
 10
5.714909304380834
 20
16.24717430164393
 30
0.0
 11
3.58671253028996
 21
13.71088815037384
 31
0.0
  0
LINE
  5
8D
330
7F
100
AcDbEntity
  8
중심선
100
AcDbLine
 10
2.268634060543552
 20
16.24717430164393
 30
0.0
 11
0.1404042013395286
 21
13.71084872107135
 31
0.0
  0
LINE
  5
8E
330
7F
100
AcDbEntity
  8
중심선
100
AcDbLine
 10
7.28139805157953
 20
16.24717430164393
 30
0.0
 11
10.72767329541681
 21
16.24717430164393
 31
0.0
  0
LINE
  5
8F
330
7F
100
AcDbEntity
  8
중심선
100
AcDbLine
 10
12.29416204261559
 20
16.24717430164393
 30
0.0
 11
15.74043728645272
 21
16.24717430164393
 31
0.0
  0
LINE
  5
90
330
7F
100
AcDbEntity
  8
중심선
100
AcDbLine
 10
19.22036997980202
 20
11.08717430171403
 30
0.0
 11
23.66174974927406
 21
11.08717430171406
 31
0.0
  0
LINE
  5
91
330
7F
100
AcDbEntity
  8
중심선
100
AcDbLine
 10
19.22039502424796
 20
13.00717430171391
 30
0.0
 11
19.22036997980202
 21
11.08717430171403
 31
0.0
  0
LINE
  5
92
330
7F
100
AcDbEntity
  8
중심선
100
AcDbLine
 10
19.22039502424796
 20
13.00717430171391
 30
0.0
 11
26.96566020931264
 21
13.00717430171391
 31
0.0
  0
LINE
  5
93
330
7F
100
AcDbEntity
  8
중심선
100
AcDbLine
 10
22.22332737316547
 20
13.45928029700563
 30
0.0
 11
24.52862924686651
 21
15.39360700705356
 31
0.0
  0
ATTDEF
  5
95
330
7F
100
AcDbEntity
  8
FORMAT
 62
     2
100
AcDbText
 10
4.408487351596664
 20
2.075366912832191
 30
0.0
 40
4.233333333333333
  1
E1030902
 41
0.75
  7
SLDTEXTSTYLE0
 11
4.408487351596664
 21
-0.0412997538344756
 31
0.0
100
AcDbAttributeDefinition
  3

  2
AUTOATTR0
 70
     0
 74
     1
  0
ENDBLK
  5
81
330
7F
100
AcDbEntity
  8
0
100
AcDbBlockEnd
  0
BLOCK
  5
C2
330
C1
100
AcDbEntity
  8
0
100
AcDbBlockBegin
  2
_D
 70
     0
 10
0.0
 20
0.0
 30
0.0
  3
_D
  1
_D
  0
LINE
  5
C4
330
C1
100
AcDbEntity
  8
치수문자_일반주서
 62
     0
370
    -2
100
AcDbLine
 10
-47.8625
 20
6.349999999999994
 30
0.0
 11
-63.8
 21
6.349999999999934
 31
0.0
  0
LINE
  5
C5
330
C1
100
AcDbEntity
  8
치수문자_일반주서
 62
     0
370
    -2
100
AcDbLine
 10
-47.8625
 20
-6.349999999999994
 30
0.0
 11
-63.79999999999995
 21
-6.350000000000051
 31
0.0
  0
LINE
  5
C6
330
C1
100
AcDbEntity
  8
치수문자_일반주서
 62
     0
370
    -2
100
AcDbLine
 10
-63.8
 20
6.349999999999934
 30
0.0
 11
-63.8000000000001
 21
39.64149999999994
 31
0.0
  0
LINE
  5
C7
330
C1
100
AcDbEntity
  8
치수문자_일반주서
 62
     0
370
    -2
100
AcDbLine
 10
-63.8
 20
6.349999999999934
 30
0.0
 11
-63.79999999999995
 21
-6.350000000000051
 31
0.0
  0
LINE
  5
C8
330
C1
100
AcDbEntity
  8
치수문자_일반주서
 62
     0
370
    -2
100
AcDbLine
 10
-63.80000000000001
 20
9.651999999999934
 30
0.0
 11
-63.80000000000003
 21
12.95399999999993
 31
0.0
  0
LINE
  5
C9
330
C1
100
AcDbEntity
  8
치수문자_일반주서
 62
     0
370
    -2
100
AcDbLine
 10
-63.79999999999994
 20
-9.65200000000005
 30
0.0
 11
-63.79999999999993
 21
-12.95400000000005
 31
0.0
  0
SOLID
  5
CA
330
C1
100
AcDbEntity
  8
치수문자_일반주서
 62
     0
100
AcDbTrace
 10
-64.35033333333334
 20
9.651999999999932
 30
0.0
 11
-63.24966666666668
 21
9.651999999999935
 31
0.0
 12
-63.8
 22
6.349999999999934
 32
0.0
 13
-63.8
 23
6.349999999999934
 33
0.0
  0
SOLID
  5
CB
330
C1
100
AcDbEntity
  8
치수문자_일반주서
 62
     0
100
AcDbTrace
 10
-63.24966666666661
 20
-9.652000000000049
 30
0.0
 11
-64.35033333333327
 21
-9.652000000000053
 31
0.0
 12
-63.79999999999995
 22
-6.350000000000051
 32
0.0
 13
-63.79999999999995
 23
-6.350000000000051
 33
0.0
  0
MTEXT
  5
CC
330
C1
100
AcDbEntity
  8
치수문자_일반주서
 62
     0
100
AcDbMText
 10
-68.17500000000007
 20
26.29774999999992
 30
0.0
 40
3.5
 41
0.0
 71
     2
 72
     1
  1
\A1;%%c12.70 [1/2]
  7
SLDTEXTSTYLE0
 11
-3.356894814614650E-15
 21
1.0
 31
0.0
 73
     1
 44
1.0
  0
POINT
  5
230
330
C1
100
AcDbEntity
  8
Defpoints
 62
     0
100
AcDbPoint
 10
-47.8
 20
6.349999999999994
 30
0.0
  0
POINT
  5
231
330
C1
100
AcDbEntity
  8
Defpoints
 62
     0
100
AcDbPoint
 10
-47.8
 20
-6.349999999999994
 30
0.0
  0
POINT
  5
232
330
C1
100
AcDbEntity
  8
Defpoints
 62
     0
100
AcDbPoint
 10
-63.79999999999995
 20
-6.350000000000054
 30
0.0
  0
ENDBLK
  5
C3
330
C1
100
AcDbEntity
  8
0
100
AcDbBlockEnd
  0
BLOCK
  5
D0
330
CF
100
AcDbEntity
  8
0
100
AcDbBlockBegin
  2
_D_1
 70
     0
 10
0.0
 20
0.0
 30
0.0
  3
_D_1
  1
_D_1
  0
LINE
  5
D2
330
CF
100
AcDbEntity
  8
치수문자_일반주서
 62
     0
370
    -2
100
AcDbLine
 10
30.57500000000001
 20
7.993291345885297
 30
0.0
 11
30.57500000000001
 21
21.35000000000002
 31
0.0
  0
LINE
  5
D3
330
CF
100
AcDbEntity
  8
치수문자_일반주서
 62
     0
370
    -2
100
AcDbLine
 10
2.00000000000001
 20
5.535349324069393
 30
0.0
 11
2.000000000000011
 21
21.35000000000002
 31
0.0
  0
LINE
  5
D4
330
CF
100
AcDbEntity
  8
치수문자_일반주서
 62
     0
370
    -2
100
AcDbLine
 10
27.27300000000001
 20
21.35000000000002
 30
0.0
 11
5.30200000000001
 21
21.35000000000002
 31
0.0
  0
SOLID
  5
D5
330
CF
100
AcDbEntity
  8
치수문자_일반주서
 62
     0
100
AcDbTrace
 10
27.27300000000001
 20
20.79966666666668
 30
0.0
 11
27.27300000000001
 21
21.90033333333335
 31
0.0
 12
30.57500000000001
 22
21.35000000000002
 32
0.0
 13
30.57500000000001
 23
21.35000000000002
 33
0.0
  0
SOLID
  5
D6
330
CF
100
AcDbEntity
  8
치수문자_일반주서
 62
     0
100
AcDbTrace
 10
5.30200000000001
 20
21.90033333333335
 30
0.0
 11
5.30200000000001
 21
20.79966666666668
 31
0.0
 12
2.000000000000011
 22
21.35000000000002
 32
0.0
 13
2.000000000000011
 23
21.35000000000002
 33
0.0
  0
MTEXT
  5
D7
330
CF
100
AcDbEntity
  8
치수문자_일반주서
 62
     0
100
AcDbMText
 10
14.70000000000001
 20
25.72500000000002
 30
0.0
 40
3.5
 41
0.0
 71
     2
 72
     1
  1
\A1;28.58 [1 1/8]
  7
SLDTEXTSTYLE0
 73
     1
 44
1.0
  0
POINT
  5
D8
330
CF
100
AcDbEntity
  8
Defpoints
 62
     0
100
AcDbPoint
 10
30.57500000000001
 20
7.930791345885297
 30
0.0
  0
POINT
  5
D9
330
CF
100
AcDbEntity
  8
Defpoints
 62
     0
100
AcDbPoint
 10
2.00000000000001
 20
5.472849324069393
 30
0.0
  0
POINT
  5
DA
330
CF
100
AcDbEntity
  8
Defpoints
 62
     0
100
AcDbPoint
 10
2.00000000000001
 20
21.35000000000002
 30
0.0
  0
ENDBLK
  5
D1
330
CF
100
AcDbEntity
  8
0
100
AcDbBlockEnd
  0
BLOCK
  5
E6
330
E5
100
AcDbEntity
  8
0
100
AcDbBlockBegin
  2
_D_2
 70
     0
 10
0.0
 20
0.0
 30
0.0
  3
_D_2
  1
_D_2
  0
LINE
  5
E8
330
E5
100
AcDbEntity
  8
치수문자_일반주서
 62
     0
370
    -2
100
AcDbLine
 10
30.57500000000001
 20
7.993291345885297
 30
0.0
 11
30.575
 21
36.35000000000002
 31
0.0
  0
LINE
  5
E9
330
E5
100
AcDbEntity
  8
치수문자_일반주서
 62
     0
370
    -2
100
AcDbLine
 10
-48.8
 20
5.412499999999994
 30
0.0
 11
-48.8
 21
36.35000000000002
 31
0.0
  0
LINE
  5
EA
330
E5
100
AcDbEntity
  8
치수문자_일반주서
 62
     0
370
    -2
100
AcDbLine
 10
27.273
 20
36.35000000000002
 30
0.0
 11
-45.498
 21
36.35000000000002
 31
0.0
  0
SOLID
  5
EB
330
E5
100
AcDbEntity
  8
치수문자_일반주서
 62
     0
100
AcDbTrace
 10
27.273
 20
35.79966666666668
 30
0.0
 11
27.273
 21
36.90033333333335
 31
0.0
 12
30.575
 22
36.35000000000002
 32
0.0
 13
30.575
 23
36.35000000000002
 33
0.0
  0
SOLID
  5
EC
330
E5
100
AcDbEntity
  8
치수문자_일반주서
 62
     0
100
AcDbTrace
 10
-45.498
 20
36.90033333333335
 30
0.0
 11
-45.498
 21
35.79966666666668
 31
0.0
 12
-48.8
 22
36.35000000000002
 32
0.0
 13
-48.8
 23
36.35000000000002
 33
0.0
  0
MTEXT
  5
ED
330
E5
100
AcDbEntity
  8
치수문자_일반주서
 62
     0
100
AcDbMText
 10
-10.7
 20
40.72500000000002
 30
0.0
 40
3.5
 41
0.0
 71
     2
 72
     1
  1
\A1;79.38 [3 1/8]
  7
SLDTEXTSTYLE0
 73
     1
 44
1.0
  0
POINT
  5
EE
330
E5
100
AcDbEntity
  8
Defpoints
 62
     0
100
AcDbPoint
 10
30.57500000000001
 20
7.930791345885297
 30
0.0
  0
POINT
  5
EF
330
E5
100
AcDbEntity
  8
Defpoints
 62
     0
100
AcDbPoint
 10
-48.8
 20
5.349999999999994
 30
0.0
  0
POINT
  5
F0
330
E5
100
AcDbEntity
  8
Defpoints
 62
     0
100
AcDbPoint
 10
-48.8
 20
36.35000000000002
 30
0.0
  0
ENDBLK
  5
E7
330
E5
100
AcDbEntity
  8
0
100
AcDbBlockEnd
  0
BLOCK
  5
FA
330
F9
100
AcDbEntity
  8
0
100
AcDbBlockBegin
  2
_D_3
 70
     0
 10
0.0
 20
0.0
 30
0.0
  3
_D_3
  1
_D_3
  0
LINE
  5
FC
330
F9
100
AcDbEntity
  8
치수문자_일반주서
 62
     0
370
    -2
100
AcDbLine
 10
30.63750000000001
 20
-7.930791345885297
 30
0.0
 11
45.57500000000005
 21
-7.93079134588524
 31
0.0
  0
LINE
  5
FD
330
F9
100
AcDbEntity
  8
치수문자_일반주서
 62
     0
370
    -2
100
AcDbLine
 10
30.63750000000001
 20
7.930791345885297
 30
0.0
 11
45.575
 21
7.930791345885353
 31
0.0
  0
LINE
  5
FE
330
F9
100
AcDbEntity
  8
치수문자_일반주서
 62
     0
370
    -2
100
AcDbLine
 10
45.575
 20
7.930791345885353
 30
0.0
 11
45.57499999999987
 21
42.53479134588535
 31
0.0
  0
LINE
  5
FF
330
F9
100
AcDbEntity
  8
치수문자_일반주서
 62
     0
370
    -2
100
AcDbLine
 10
45.57500000000005
 20
-7.93079134588524
 30
0.0
 11
45.575
 21
7.930791345885353
 31
0.0
  0
LINE
  5
100
330
F9
100
AcDbEntity
  8
치수문자_일반주서
 62
     0
370
    -2
100
AcDbLine
 10
45.57500000000007
 20
-11.23279134588524
 30
0.0
 11
45.57500000000008
 21
-14.53479134588524
 31
0.0
  0
LINE
  5
101
330
F9
100
AcDbEntity
  8
치수문자_일반주서
 62
     0
370
    -2
100
AcDbLine
 10
45.57499999999998
 20
11.23279134588535
 30
0.0
 11
45.57499999999997
 21
14.53479134588535
 31
0.0
  0
SOLID
  5
102
330
F9
100
AcDbEntity
  8
치수문자_일반주서
 62
     0
100
AcDbTrace
 10
46.1253333333334
 20
-11.23279134588524
 30
0.0
 11
45.02466666666673
 21
-11.23279134588524
 31
0.0
 12
45.57500000000005
 22
-7.93079134588524
 32
0.0
 13
45.57500000000005
 23
-7.93079134588524
 33
0.0
  0
SOLID
  5
103
330
F9
100
AcDbEntity
  8
치수문자_일반주서
 62
     0
100
AcDbTrace
 10
45.02466666666665
 20
11.23279134588535
 30
0.0
 11
46.12533333333332
 21
11.23279134588535
 31
0.0
 12
45.575
 22
7.930791345885353
 32
0.0
 13
45.575
 23
7.930791345885353
 33
0.0
  0
MTEXT
  5
104
330
F9
100
AcDbEntity
  8
치수문자_일반주서
 62
     0
100
AcDbMText
 10
41.19999999999992
 20
28.53479134588533
 30
0.0
 40
3.5
 41
0.0
 71
     2
 72
     1
  1
\A1;%%c15.86 [5/8]
  7
SLDTEXTSTYLE0
 11
-3.583716705035991E-15
 21
1.0
 31
0.0
 73
     1
 44
1.0
  0
POINT
  5
105
330
F9
100
AcDbEntity
  8
Defpoints
 62
     0
100
AcDbPoint
 10
30.57500000000001
 20
-7.930791345885297
 30
0.0
  0
POINT
  5
106
330
F9
100
AcDbEntity
  8
Defpoints
 62
     0
100
AcDbPoint
 10
30.57500000000001
 20
7.930791345885297
 30
0.0
  0
POINT
  5
107
330
F9
100
AcDbEntity
  8
Defpoints
 62
     0
100
AcDbPoint
 10
45.575
 20
7.930791345885353
 30
0.0
  0
ENDBLK
  5
FB
330
F9
100
AcDbEntity
  8
0
100
AcDbBlockEnd
  0
BLOCK
  5
113
330
112
100
AcDbEntity
  8
0
100
AcDbBlockBegin
  2
SW_DOWELSYMBOL_0
 70
     0
 10
0.0
 20
0.0
 30
0.0
  3
SW_DOWELSYMBOL_0
  1
SW_DOWELSYMBOL_0
  0
CIRCLE
  5
115
330
112
100
AcDbEntity
  8
해칭선
 62
     0
100
AcDbCircle
 10
0.0
 20
0.0
 30
0.0
 40
3.000000000000001
  0
HATCH
  5
116
330
112
100
AcDbEntity
  8
0
  6
Continuous
 62
     0
370
     0
100
AcDbHatch
 10
0.0
 20
0.0
 30
0.0
210
0.0
220
0.0
230
1.0
  2
SOLID
 70
     1
 71
     0
 91
        1
 92
        0
 93
        3
 72
     2
 10
0.0
 20
0.0
 40
3.000000000000001
 50
0.0
 51
90.0
 73
     1
 72
     1
 10
0.0
 20
3.000000000000001
 11
0.0
 21
0.0
 72
     1
 10
0.0
 20
0.0
 11
3.000000000000001
 21
0.0
 97
        0
 75
     0
 76
     1
 98
        1
 10
0.0
 20
0.0
  0
HATCH
  5
117
330
112
100
AcDbEntity
  8
0
  6
Continuous
 62
     0
370
     0
100
AcDbHatch
 10
0.0
 20
0.0
 30
0.0
210
0.0
220
0.0
230
1.0
  2
SOLID
 70
     1
 71
     0
 91
        1
 92
        0
 93
        3
 72
     2
 10
0.0
 20
0.0
 40
3.000000000000001
 50
180.0
 51
270.0000000000007
 73
     1
 72
     1
 10
0.0
 20
-3.000000000000001
 11
0.0
 21
0.0
 72
     1
 10
0.0
 20
0.0
 11
-3.000000000000001
 21
0.0
 97
        0
 75
     0
 76
     1
 98
        1
 10
0.0
 20
0.0
  0
ENDBLK
  5
114
330
112
100
AcDbEntity
  8
0
100
AcDbBlockEnd
  0
BLOCK
  5
1E4
330
1E3
100
AcDbEntity
  8
0
100
AcDbBlockBegin
  2
*D7
 70
     1
 10
0.0
 20
0.0
 30
0.0
  3
*D7
  1
*D7
  0
LINE
  5
1E6
330
1E3
100
AcDbEntity
  8
치수문자_일반주서
 62
     0
370
    -2
100
AcDbLine
 10
39.94149999999952
 20
5.630443882041726
 30
0.0
 11
39.94149999999952
 21
19.18542231980357
 31
0.0
  0
LINE
  5
1E7
330
1E3
100
AcDbEntity
  8
치수문자_일반주서
 62
     0
370
    -2
100
AcDbLine
 10
6.603999999999999
 20
3.370771643872974
 30
0.0
 11
6.603999999999999
 21
19.18542231980357
 31
0.0
  0
LINE
  5
1E8
330
1E3
100
AcDbEntity
  8
치수문자_일반주서
 62
     0
370
    -2
100
AcDbLine
 10
39.94149999999952
 20
19.18542231980357
 30
0.0
 11
78.92049999999952
 21
19.18542231980357
 31
0.0
  0
LINE
  5
1E9
330
1E3
100
AcDbEntity
  8
치수문자_일반주서
 62
     0
370
    -2
100
AcDbLine
 10
39.94149999999952
 20
19.18542231980357
 30
0.0
 11
6.603999999999999
 21
19.18542231980357
 31
0.0
  0
LINE
  5
1EA
330
1E3
100
AcDbEntity
  8
치수문자_일반주서
 62
     0
370
    -2
100
AcDbLine
 10
43.24349999999952
 20
19.18542231980357
 30
0.0
 11
46.54549999999952
 21
19.18542231980357
 31
0.0
  0
LINE
  5
1EB
330
1E3
100
AcDbEntity
  8
치수문자_일반주서
 62
     0
370
    -2
100
AcDbLine
 10
3.302
 20
19.18542231980357
 30
0.0
 11
0.0
 21
19.18542231980357
 31
0.0
  0
SOLID
  5
1EC
330
1E3
100
AcDbEntity
  8
치수문자_일반주서
 62
     0
100
AcDbTrace
 10
43.24349999999952
 20
19.73575565313691
 30
0.0
 11
43.24349999999952
 21
18.63508898647024
 31
0.0
 12
39.94149999999952
 22
19.18542231980357
 32
0.0
 13
39.94149999999952
 23
19.18542231980357
 33
0.0
  0
SOLID
  5
1ED
330
1E3
100
AcDbEntity
  8
치수문자_일반주서
 62
     0
100
AcDbTrace
 10
3.302
 20
18.63508898647024
 30
0.0
 11
3.302
 21
19.73575565313691
 31
0.0
 12
6.603999999999999
 22
19.18542231980357
 32
0.0
 13
6.603999999999999
 23
19.18542231980357
 33
0.0
  0
MTEXT
  5
1EE
330
1E3
100
AcDbEntity
  8
치수문자_일반주서
 62
     0
100
AcDbMText
 10
62.73299999999952
 20
23.56042231980357
 30
0.0
 40
3.5
 41
0.0
 71
     2
 72
     1
  1
\A1;33.34 [1 5/16]
  7
SLDTEXTSTYLE0
 73
     1
 44
1.0
  0
POINT
  5
1EF
330
1E3
100
AcDbEntity
  8
Defpoints
 62
     0
100
AcDbPoint
 10
39.94149999999952
 20
5.567943882041726
 30
0.0
  0
POINT
  5
1F0
330
1E3
100
AcDbEntity
  8
Defpoints
 62
     0
100
AcDbPoint
 10
6.603999999999999
 20
3.308271643872974
 30
0.0
  0
POINT
  5
1F1
330
1E3
100
AcDbEntity
  8
Defpoints
 62
     0
100
AcDbPoint
 10
6.603999999999999
 20
19.18542231980357
 30
0.0
  0
ENDBLK
  5
1E5
330
1E3
100
AcDbEntity
  8
0
100
AcDbBlockEnd
  0
BLOCK
  5
1F6
330
1F5
100
AcDbEntity
  8
0
100
AcDbBlockBegin
  2
*D8
 70
     1
 10
0.0
 20
0.0
 30
0.0
  3
*D8
  1
*D8
  0
LINE
  5
1F8
330
1F5
100
AcDbEntity
  8
치수문자_일반주서
 62
     0
370
    -2
100
AcDbLine
 10
72.71207057415263
 20
-31.22845414432153
 30
0.0
 11
72.71207057415263
 21
-17.67347570655969
 31
0.0
  0
LINE
  5
1F9
330
1F5
100
AcDbEntity
  8
치수문자_일반주서
 62
     0
370
    -2
100
AcDbLine
 10
39.37457057415311
 20
-33.48812638249028
 30
0.0
 11
39.37457057415311
 21
-17.67347570655969
 31
0.0
  0
LINE
  5
1FA
330
1F5
100
AcDbEntity
  8
치수문자_일반주서
 62
     0
370
    -2
100
AcDbLine
 10
72.71207057415263
 20
-17.67347570655969
 30
0.0
 11
111.6910705741526
 21
-17.67347570655969
 31
0.0
  0
LINE
  5
1FB
330
1F5
100
AcDbEntity
  8
치수문자_일반주서
 62
     0
370
    -2
100
AcDbLine
 10
72.71207057415263
 20
-17.67347570655969
 30
0.0
 11
39.37457057415311
 21
-17.67347570655969
 31
0.0
  0
LINE
  5
1FC
330
1F5
100
AcDbEntity
  8
치수문자_일반주서
 62
     0
370
    -2
100
AcDbLine
 10
76.01407057415264
 20
-17.67347570655969
 30
0.0
 11
79.31607057415263
 21
-17.67347570655969
 31
0.0
  0
LINE
  5
1FD
330
1F5
100
AcDbEntity
  8
치수문자_일반주서
 62
     0
370
    -2
100
AcDbLine
 10
36.07257057415311
 20
-17.67347570655969
 30
0.0
 11
32.77057057415311
 21
-17.67347570655969
 31
0.0
  0
SOLID
  5
1FE
330
1F5
100
AcDbEntity
  8
치수문자_일반주서
 62
     0
100
AcDbTrace
 10
76.01407057415264
 20
-17.12314237322635
 30
0.0
 11
76.01407057415264
 21
-18.22380903989302
 31
0.0
 12
72.71207057415263
 22
-17.67347570655969
 32
0.0
 13
72.71207057415263
 23
-17.67347570655969
 33
0.0
  0
SOLID
  5
1FF
330
1F5
100
AcDbEntity
  8
치수문자_일반주서
 62
     0
100
AcDbTrace
 10
36.07257057415311
 20
-18.22380903989302
 30
0.0
 11
36.07257057415311
 21
-17.12314237322635
 31
0.0
 12
39.37457057415311
 22
-17.67347570655969
 32
0.0
 13
39.37457057415311
 23
-17.67347570655969
 33
0.0
  0
MTEXT
  5
200
330
1F5
100
AcDbEntity
  8
치수문자_일반주서
 62
     0
100
AcDbMText
 10
95.50357057415263
 20
-13.29847570655969
 30
0.0
 40
3.5
 41
0.0
 71
     2
 72
     1
  1
\A1;33.34 [1 5/16]
  7
SLDTEXTSTYLE0
 73
     1
 44
1.0
  0
POINT
  5
201
330
1F5
100
AcDbEntity
  8
Defpoints
 62
     0
100
AcDbPoint
 10
72.71207057415263
 20
-31.29095414432153
 30
0.0
  0
POINT
  5
202
330
1F5
100
AcDbEntity
  8
Defpoints
 62
     0
100
AcDbPoint
 10
39.37457057415311
 20
-33.55062638249028
 30
0.0
  0
POINT
  5
203
330
1F5
100
AcDbEntity
  8
Defpoints
 62
     0
100
AcDbPoint
 10
39.37457057415311
 20
-17.67347570655969
 30
0.0
  0
ENDBLK
  5
1F7
330
1F5
100
AcDbEntity
  8
0
100
AcDbBlockEnd
  0
ENDSEC
  0
SECTION
  2
ENTITIES
  0
SPLINE
  5
96
330
1F
100
AcDbEntity
  8
0
  6
Continuous
 62
     1
370
    15
100
AcDbSpline
210
0.0
220
0.0
230
1.0
 70
     8
 71
     3
 72
    19
 73
    15
 74
     0
 42
0.000000001
 43
0.00000001
 40
0.0
 40
0.0
 40
0.0
 40
0.0
 40
0.1273012662872912
 40
0.2334425109239481
 40
0.3204491198828153
 40
0.3883909877829221
 40
0.4544304821837077
 40
0.5300522436238778
 40
0.6083701702711499
 40
0.6695474107158422
 40
0.7152684853666905
 40
0.7852244509876203
 40
0.8801272699657605
 40
1.0
 40
1.0
 40
1.0
 40
1.0
 10
10.01019589201743
 20
2.033987094610842
 30
0.0
 10
9.921756993414741
 20
2.075483862396292
 30
0.0
 10
9.75957951352568
 20
2.151579803541151
 30
0.0
 10
9.520440915951362
 20
2.266380845922783
 30
0.0
 10
9.319163535716914
 20
2.364378549565502
 30
0.0
 10
9.154903058195407
 20
2.445240569586293
 30
0.0
 10
9.005070309421063
 20
2.519735684453201
 30
0.0
 10
8.843377867899406
 20
2.6008686347161
 30
0.0
 10
8.6854874988971
 20
2.680744558607291
 30
0.0
 10
8.549435913869434
 20
2.750101304062762
 30
0.0
 10
8.419499704110782
 20
2.81671941284262
 30
0.0
 10
8.264726907498344
 20
2.896578180220214
 30
0.0
 10
8.055404393017067
 20
3.005443303900972
 30
0.0
 10
7.897466310687159
 20
3.088792492750045
 30
0.0
 10
7.809316289922149
 20
3.135312196037601
 30
0.0
1001
PE_URL
1000

  0
SPLINE
  5
97
330
1F
100
AcDbEntity
  8
0
  6
Continuous
 62
     1
370
    15
100
AcDbSpline
210
0.0
220
0.0
230
1.0
 70
     8
 71
     3
 72
    28
 73
    24
 74
     0
 42
0.000000001
 43
0.00000001
 40
0.0
 40
0.0
 40
0.0
 40
0.0
 40
0.0876425577351435
 40
0.1592933376877903
 40
0.2149799966824126
 40
0.2496360557527016
 40
0.2736717238914501
 40
0.2944414886545507
 40
0.3153687042327087
 40
0.3365366154538742
 40
0.3580266072670965
 40
0.4130466936626329
 40
0.4773172573452831
 40
0.5313295881305833
 40
0.5860677295928983
 40
0.6409281052525958
 40
0.688647364650186
 40
0.7142513080373639
 40
0.7404663121914322
 40
0.7816553899473326
 40
0.838621741065298
 40
0.911411558649642
 40
1.0
 40
1.0
 40
1.0
 40
1.0
 10
7.386558881184801
 20
6.307446410639759
 30
0.0
 10
7.230807654437351
 20
6.299397468202216
 30
0.0
 10
6.947724488008721
 20
6.284768240816959
 30
0.0
 10
6.564074980691386
 20
6.26759273799905
 30
0.0
 10
6.273275133123986
 20
6.255771420945946
 30
0.0
 10
6.066135308106887
 20
6.248088137088372
 30
0.0
 10
5.920829596026291
 20
6.243047635744062
 30
0.0
 10
5.800751251683803
 20
6.23901299506314
 30
0.0
 10
5.686197753907383
 20
6.235321429882624
 30
0.0
 10
5.571080486962231
 20
6.231801071487183
 30
0.0
 10
5.396540164275818
 20
6.226775597808219
 30
0.0
 10
5.147276752160455
 20
6.220278425743492
 30
0.0
 10
4.836464093244539
 20
6.213440346748555
 30
0.0
 10
4.525610040363747
 20
6.207927155518494
 30
0.0
 10
4.231586346103885
 20
6.203854540016547
 30
0.0
 10
3.948772957946851
 20
6.201050692542773
 30
0.0
 10
3.718376494777521
 20
6.199618664308587
 30
0.0
 10
3.53954007448229
 20
6.198981564260867
 30
0.0
 10
3.372428639108299
 20
6.198701881702521
 30
0.0
 10
3.148905028728108
 20
6.198869404091568
 30
0.0
 10
2.841668368302413
 20
6.200219428384633
 30
0.0
 10
2.449232339054279
 20
6.203614936071846
 30
0.0
 10
2.159208377258298
 20
6.208298963500316
 30
0.0
 10
2.00000000000001
 20
6.210870255890443
 30
0.0
1001
PE_URL
1000

  0
SPLINE
  5
98
330
1F
100
AcDbEntity
  8
0
  6
Continuous
 62
     1
370
    15
100
AcDbSpline
210
0.0
220
0.0
230
1.0
 70
     8
 71
     3
 72
    53
 73
    49
 74
     0
 42
0.000000001
 43
0.00000001
 40
0.0
 40
0.0
 40
0.0
 40
0.0
 40
0.0194004956374128
 40
0.0371730332670985
 40
0.0542842869647543
 40
0.0691429132026579
 40
0.0850092319481945
 40
0.1010519603934262
 40
0.1153845943930463
 40
0.1280102860067202
 40
0.1389622355531677
 40
0.1535985327549238
 40
0.1689572974533974
 40
0.1857580030747792
 40
0.2190904482379667
 40
0.2559771421436884
 40
0.2914524547811758
 40
0.3133832615195075
 40
0.3382276896035953
 40
0.3645441919258942
 40
0.3867813120056661
 40
0.4046658093379785
 40
0.4390991630031937
 40
0.477481811584879
 40
0.496548242532093
 40
0.5159228004653145
 40
0.5340328544415853
 40
0.5511588940110813
 40
0.5704789213384838
 40
0.5928594706690496
 40
0.6169869630397485
 40
0.6377214014954264
 40
0.6583492417806975
 40
0.6774004466967748
 40
0.6972675039704201
 40
0.7184383609272111
 40
0.7414515063835765
 40
0.7718213054405627
 40
0.7997224921459767
 40
0.8270359361580955
 40
0.8556293108262792
 40
0.868434440836588
 40
0.8812957643241943
 40
0.896152791046158
 40
0.915386529167405
 40
0.9390818967003228
 40
0.967246275672584
 40
1.0
 40
1.0
 40
1.0
 40
1.0
 10
27.62610704767621
 20
5.42887337532794
 30
0.0
 10
27.56983441898275
 20
5.423642889291129
 30
0.0
 10
27.46201117892
 20
5.413620824129328
 30
0.0
 10
27.25330805727686
 20
5.393079352200584
 30
0.0
 10
27.03160172403889
 20
5.374361931719011
 30
0.0
 10
26.8026516056038
 20
5.358260647322806
 30
0.0
 10
26.57701785150214
 20
5.344916611739823
 30
0.0
 10
26.35757879098429
 20
5.332618162440395
 30
0.0
 10
26.15154385569744
 20
5.320847730557015
 30
0.0
 10
25.96949497845696
 20
5.310617266482618
 30
0.0
 10
25.78548876956975
 20
5.300511949664689
 30
0.0
 10
25.58921299987601
 20
5.290250314469188
 30
0.0
 10
25.36870375412898
 20
5.279667757628935
 30
0.0
 10
25.06833996084057
 20
5.266645041969211
 30
0.0
 10
24.67109201769913
 20
5.251835987172743
 30
0.0
 10
24.17728839329251
 20
5.237804700366554
 30
0.0
 10
23.73717324803732
 20
5.229459080829394
 30
0.0
 10
23.35293950011638
 20
5.225014832245407
 30
0.0
 10
23.01178853556996
 20
5.22313808078006
 30
0.0
 10
22.66938525692831
 20
5.223527084582315
 30
0.0
 10
22.35956265939165
 20
5.225845368190916
 30
0.0
 10
22.01166035255258
 20
5.230262725904499
 30
0.0
 10
21.58819053804174
 20
5.238505202671201
 30
0.0
 10
21.15918249443741
 20
5.250876021693755
 30
0.0
 10
20.80063415109768
 20
5.263860309815938
 30
0.0
 10
20.53673455456716
 20
5.274720626845903
 30
0.0
 10
20.28189523976838
 20
5.286438746370744
 30
0.0
 10
20.02731735545661
 20
5.299301053972384
 30
0.0
 10
19.75284789963459
 20
5.314474664782671
 30
0.0
 10
19.44564380103404
 20
5.333082084651077
 30
0.0
 10
19.13168355294843
 20
5.353896970404262
 30
0.0
 10
18.82591870611121
 20
5.375861561107262
 30
0.0
 10
18.54402205928504
 20
5.397543635051132
 30
0.0
 10
18.2661532839025
 20
5.420268547675938
 30
0.0
 10
17.9855522958163
 20
5.444557242062119
 30
0.0
 10
17.68646773444382
 20
5.471957364917429
 30
0.0
 10
17.33845294566251
 20
5.505726826800633
 30
0.0
 10
16.95937603199803
 20
5.54505821213394
 30
0.0
 10
16.55955904664518
 20
5.589208843883399
 30
0.0
 10
16.1712707483988
 20
5.634515048056078
 30
0.0
 10
15.85596737780288
 20
5.673149093304715
 30
0.0
 10
15.59800631525715
 20
5.70612123935723
 30
0.0
 10
15.40443170526297
 20
5.731368594580644
 30
0.0
 10
15.18020607383076
 20
5.761135300160061
 30
0.0
 10
14.90836466104042
 20
5.798447864133313
 30
0.0
 10
14.57784745779052
 20
5.845588389288484
 30
0.0
 10
14.18833137312076
 20
5.90340610194599
 30
0.0
 10
13.90987261906453
 20
5.946757206054776
 30
0.0
 10
13.76015421397817
 20
5.970065714303683
 30
0.0
1001
PE_URL
1000

  0
SPLINE
  5
99
330
1F
100
AcDbEntity
  8
0
  6
Continuous
 62
     1
370
    15
100
AcDbSpline
210
0.0
220
0.0
230
1.0
 70
     8
 71
     3
 72
    29
 73
    25
 74
     0
 42
0.000000001
 43
0.00000001
 40
0.0
 40
0.0
 40
0.0
 40
0.0
 40
0.0457925034747509
 40
0.0896915363673545
 40
0.1327862157459548
 40
0.1764469558927296
 40
0.2420308672631838
 40
0.2985522608563257
 40
0.3438045639955533
 40
0.3807233519603395
 40
0.416030904015173
 40
0.450770410641607
 40
0.4797616815707087
 40
0.5106607428708442
 40
0.5450395844421242
 40
0.5871920100120234
 40
0.6375146876902174
 40
0.6909761672979279
 40
0.7595509957814368
 40
0.8155789802914101
 40
0.8768083786233669
 40
0.9406500538648701
 40
0.9989541483498995
 40
1.0
 40
1.0
 40
1.0
 40
1.0
 10
13.76015421397817
 20
-5.970065714303684
 30
0.0
 10
13.83328001159943
 20
-5.958407119075872
 30
0.0
 10
13.97650793405524
 20
-5.935571998946568
 30
0.0
 10
14.21766016826701
 20
-5.897118465304857
 30
0.0
 10
14.47079570773817
 20
-5.858626788292056
 30
0.0
 10
14.77890857021179
 20
-5.814621678585531
 30
0.0
 10
15.114933686308
 20
-5.769706060460896
 30
0.0
 10
15.45414009990497
 20
-5.724733325828902
 30
0.0
 10
15.73601003897653
 20
-5.688335737286688
 30
0.0
 10
15.97216964760474
 20
-5.658779998092982
 30
0.0
 10
16.18379292643855
 20
-5.633168332107876
 30
0.0
 10
16.37259668642799
 20
-5.61101280764227
 30
0.0
 10
16.55687277022389
 20
-5.589829941841477
 30
0.0
 10
16.74239351949043
 20
-5.569022890132444
 30
0.0
 10
16.95550982815864
 20
-5.54578637880539
 30
0.0
 10
17.20688350527869
 20
-5.519299013981582
 30
0.0
 10
17.49637234897943
 20
-5.490214029699955
 30
0.0
 10
17.83828565120593
 20
-5.45772510624911
 30
0.0
 10
18.19136087320827
 20
-5.426425463992168
 30
0.0
 10
18.55958148541095
 20
-5.39619214848942
 30
0.0
 10
18.91862991323013
 20
-5.368838606949029
 30
0.0
 10
19.28220736146068
 20
-5.343775959250151
 30
0.0
 10
19.52644704836625
 20
-5.327879161639157
 30
0.0
 10
19.64412144166262
 20
-5.321157368283588
 30
0.0
 10
19.64619507384626
 20
-5.321038918324819
 30
0.0
1001
PE_URL
1000

  0
SPLINE
  5
9A
330
1F
100
AcDbEntity
  8
0
  6
Continuous
 62
     1
370
    15
100
AcDbSpline
210
0.0
220
0.0
230
1.0
 70
     8
 71
     3
 72
    12
 73
     8
 74
     0
 42
0.000000001
 43
0.00000001
 40
0.0
 40
0.0
 40
0.0
 40
0.0
 40
0.1975085301091903
 40
0.4330357881873385
 40
0.610110092185257
 40
0.7334386158169856
 40
1.0
 40
1.0
 40
1.0
 40
1.0
 10
2.00000000000001
 20
-6.210870255890444
 30
0.0
 10
2.354643304178214
 20
-6.20596641030282
 30
0.0
 10
3.132195760597535
 20
-6.195214770168533
 30
0.0
 10
4.227668312692769
 20
-6.201362857283029
 30
0.0
 10
5.189652433721292
 20
-6.220172830957565
 30
0.0
 10
6.206860198477583
 20
-6.250410061453625
 30
0.0
 10
6.907525451569143
 20
-6.284285989793404
 30
0.0
 10
7.386558881184801
 20
-6.307446410639761
 30
0.0
1001
PE_URL
1000

  0
SPLINE
  5
9B
330
1F
100
AcDbEntity
  8
0
  6
Continuous
 62
     1
370
    15
100
AcDbSpline
210
0.0
220
0.0
230
1.0
 70
     8
 71
     3
 72
    38
 73
    34
 74
     0
 42
0.000000001
 43
0.00000001
 40
0.0
 40
0.0
 40
0.0
 40
0.0
 40
0.0624999999999999
 40
0.0624999999999999
 40
0.1249999999999998
 40
0.1249999999999998
 40
0.1874999999999998
 40
0.1874999999999998
 40
0.2499999999999997
 40
0.2499999999999997
 40
0.3124999999999996
 40
0.3124999999999996
 40
0.3749999999999995
 40
0.3749999999999995
 40
0.4374999999999994
 40
0.4374999999999994
 40
0.4999999999999993
 40
0.4999999999999993
 40
0.5624999999999994
 40
0.5624999999999994
 40
0.6249999999999996
 40
0.6249999999999996
 40
0.6874999999999998
 40
0.6874999999999998
 40
0.7499999999999998
 40
0.7499999999999998
 40
0.8124999999999998
 40
0.8124999999999998
 40
0.8749999999999998
 40
0.8749999999999998
 40
0.9374999999999999
 40
0.9374999999999999
 40
1.0
 40
1.0
 40
1.0
 40
1.0
 10
30.575
 20
-7.532218149528207
 30
0.0
 10
29.98256528000254
 20
-7.423971529010945
 30
0.0
 10
29.38444065427564
 20
-7.294174666506927
 30
0.0
 10
28.19186674507655
 20
-6.994484671472935
 30
0.0
 10
27.60039794309925
 20
-6.824971647680815
 30
0.0
 10
26.40800229367464
 20
-6.447663558186996
 30
0.0
 10
25.80979165479923
 20
-6.24003931285295
 30
0.0
 10
24.62440705725324
 20
-5.792291963256525
 30
0.0
 10
24.02688146794962
 20
-5.550879544340261
 30
0.0
 10
22.83414534260568
 20
-5.038452433445041
 30
0.0
 10
22.24264817120426
 20
-4.768059689726438
 30
0.0
 10
21.0504468171841
 20
-4.200622167297427
 30
0.0
 10
20.45215827294921
 20
-3.903885035623853
 30
0.0
 10
19.26627424000947
 20
-3.291973630472703
 30
0.0
 10
18.66931958872527
 20
-2.975206143300213
 30
0.0
 10
17.47643729814713
 20
-2.326870387100625
 30
0.0
 10
16.88488338916913
 20
-1.996138396162281
 30
0.0
 10
15.69289235746572
 20
-1.323681048341183
 30
0.0
 10
15.0945340191971
 20
-0.98232203664141
 30
0.0
 10
13.90816629527647
 20
-0.2979787933103542
 30
0.0
 10
13.31175445810093
 20
0.0466129558852928
 30
0.0
 10
12.1187420597608
 20
0.7336398689854655
 30
0.0
 10
11.52710304759694
 20
1.075121980099012
 30
0.0
 10
10.3353383556878
 20
1.751750663971868
 30
0.0
 10
9.736918337880153
 20
2.086545312237424
 30
0.0
 10
8.550082688956397
 20
2.740699305516411
 30
0.0
 10
7.954185517720481
 20
3.061443303450117
 30
0.0
 10
6.761059074932131
 20
3.684134243749399
 30
0.0
 10
6.169306597787584
 20
3.985160927208134
 30
0.0
 10
4.977784252999202
 20
4.564499545909659
 30
0.0
 10
4.379310672948105
 20
4.842524535834
 30
0.0
 10
3.192022885871203
 20
5.368369682006918
 30
0.0
 10
2.596612209398478
 20
5.617197861388228
 30
0.0
 10
1.999999999997574
 20
5.849682859735084
 30
0.0
1001
PE_URL
1000

  0
SPLINE
  5
9C
330
1F
100
AcDbEntity
  8
0
  6
Continuous
 62
     1
370
    15
100
AcDbSpline
210
0.0
220
0.0
230
1.0
 70
     8
 71
     3
 72
    34
 73
    30
 74
     0
 42
0.000000001
 43
0.00000001
 40
0.0
 40
0.0
 40
0.0
 40
0.0
 40
0.1250000000000001
 40
0.1250000000000001
 40
0.2500000000000003
 40
0.2500000000000003
 40
0.3125000000000003
 40
0.3125000000000003
 40
0.3750000000000004
 40
0.3750000000000004
 40
0.4375000000000005
 40
0.4375000000000005
 40
0.5000000000000006
 40
0.5000000000000006
 40
0.5625000000000007
 40
0.5625000000000007
 40
0.6250000000000007
 40
0.6250000000000007
 40
0.6875000000000008
 40
0.6875000000000008
 40
0.7500000000000006
 40
0.7500000000000006
 40
0.8125000000000004
 40
0.8125000000000004
 40
0.8750000000000003
 40
0.8750000000000003
 40
0.9375000000000001
 40
0.9375000000000001
 40
1.0
 40
1.0
 40
1.0
 40
1.0
 10
30.575
 20
-6.262467348422715
 30
0.0
 10
29.72263878439417
 20
-6.106328520788149
 30
0.0
 10
28.85849767231219
 20
-5.912821122283202
 30
0.0
 10
27.15151247790548
 20
-5.461022718740475
 30
0.0
 10
26.28968421486762
 20
-5.201137702355268
 30
0.0
 10
25.00791782070416
 20
-4.769385298113251
 30
0.0
 10
24.58119414711464
 20
-4.618392670208946
 30
0.0
 10
23.72300189924866
 20
-4.302833348550417
 30
0.0
 10
23.29319531835237
 20
-4.138452590700032
 30
0.0
 10
22.43777955894193
 20
-3.798678469079665
 30
0.0
 10
22.01179928342356
 20
-3.623258144134539
 30
0.0
 10
21.1539527287564
 20
-3.261575484562694
 30
0.0
 10
20.724033619579
 20
-3.075568619748088
 30
0.0
 10
19.86782693545686
 20
-2.695674782734082
 30
0.0
 10
19.44228573102242
 20
-2.501916749768343
 30
0.0
 10
18.58489986000135
 20
-2.106734858086653
 30
0.0
 10
18.15492616288085
 20
-1.905584482742847
 30
0.0
 10
17.29804281198624
 20
-1.498800087879265
 30
0.0
 10
16.87263615596885
 20
-1.293415699679567
 30
0.0
 10
16.01582575308688
 20
-0.8785253373949238
 30
0.0
 10
15.58585543294094
 20
-0.669243853728684
 30
0.0
 10
14.72840997526333
 20
-0.2497447798406418
 30
0.0
 10
14.30283328502306
 20
-0.0398407043515941
 30
0.0
 10
13.44671287769314
 20
0.3802842571461363
 30
0.0
 10
13.01680389791873
 20
0.5904002938191244
 30
0.0
 10
12.15891114458249
 20
1.007987871325379
 30
0.0
 10
11.73285991326904
 20
1.215148738348484
 30
0.0
 10
10.87754372093917
 20
1.62585866712665
 30
0.0
 10
10.4477540173137
 20
1.829484177012096
 30
0.0
 10
10.01864149837044
 20
2.030040192855151
 30
0.0
1001
PE_URL
1000

  0
LINE
  5
9D
330
1F
100
AcDbEntity
  8
0
  6
Continuous
 62
     1
370
    15
100
AcDbLine
 10
30.575
 20
-7.532218149528207
 30
0.0
 11
30.575
 21
-6.262467348422715
 31
0.0
1001
PE_URL
1000

  0
SPLINE
  5
9E
330
1F
100
AcDbEntity
  8
0
  6
Continuous
 62
     1
370
    15
100
AcDbSpline
210
0.0
220
0.0
230
1.0
 70
     8
 71
     3
 72
    38
 73
    34
 74
     0
 42
0.000000001
 43
0.00000001
 40
0.0
 40
0.0
 40
0.0
 40
0.0
 40
0.0625
 40
0.0625
 40
0.125
 40
0.125
 40
0.1875
 40
0.1875
 40
0.25
 40
0.25
 40
0.3125
 40
0.3125
 40
0.375
 40
0.375
 40
0.4375
 40
0.4375
 40
0.5
 40
0.5
 40
0.5625
 40
0.5625
 40
0.625
 40
0.625
 40
0.6875
 40
0.6875
 40
0.75
 40
0.75
 40
0.8125
 40
0.8125
 40
0.875
 40
0.875
 40
0.9375
 40
0.9375
 40
1.0
 40
1.0
 40
1.0
 40
1.0
 10
2.000000000000013
 20
4.140405031099531
 30
0.0
 10
2.596612209400868
 20
3.846956140513546
 30
0.0
 10
3.192022885873521
 20
3.542027729229393
 30
0.0
 10
4.379310672950343
 20
2.914638689527568
 30
0.0
 10
4.977784253001388
 20
2.590996322904373
 30
0.0
 10
6.169306597789657
 20
1.931921049767725
 30
0.0
 10
6.761059074934153
 20
1.596769973684964
 30
0.0
 10
7.954185517722406
 20
0.9175724919591794
 30
0.0
 10
8.550082688958257
 20
0.5745568267610428
 30
0.0
 10
9.73691833788193
 20
-0.1118212623021408
 30
0.0
 10
10.33533835568953
 20
-0.4566227326942939
 30
0.0
 10
11.52710304759855
 20
-1.140751295421822
 30
0.0
 10
12.11874205976238
 20
-1.47976143287596
 30
0.0
 10
13.31175445810241
 20
-2.149404062665776
 30
0.0
 10
13.90816629527788
 20
-2.479079465890428
 30
0.0
 10
15.09453401919842
 20
-3.121513013714557
 30
0.0
 10
15.69289235746699
 20
-3.435770075830715
 30
0.0
 10
16.88488338917029
 20
-4.042356336298995
 30
0.0
 10
17.47643729814824
 20
-4.334394695221047
 30
0.0
 10
18.66931958872627
 20
-4.894067216045195
 30
0.0
 10
19.26627424001042
 20
-5.160945707023145
 30
0.0
 10
20.45215827295007
 20
-5.663117446869023
 30
0.0
 10
21.05044681718491
 20
-5.899710426642973
 30
0.0
 10
22.24264817120499
 20
-6.337775613974959
 30
0.0
 10
22.83414534260635
 20
-6.539057668155598
 30
0.0
 10
24.02688146795018
 20
-6.904843469922386
 30
0.0
 10
24.62440705725373
 20
-7.068855574487921
 30
0.0
 10
25.80979165479963
 20
-7.355506683985756
 30
0.0
 10
26.408002293675
 20
-7.478965689694236
 30
0.0
 10
27.60039794309951
 20
-7.682794819137961
 30
0.0
 10
28.19186674507675
 20
-7.763144169367449
 30
0.0
 10
29.38444065427576
 20
-7.880209108094503
 30
0.0
 10
29.98256528000259
 20
-7.916686207494067
 30
0.0
 10
30.575
 20
-7.930791345885294
 30
0.0
1001
PE_URL
1000

  0
SPLINE
  5
9F
330
1F
100
AcDbEntity
  8
0
  6
Continuous
 62
     1
370
    15
100
AcDbSpline
210
0.0
220
0.0
230
1.0
 70
     8
 71
     3
 72
    13
 73
     9
 74
     0
 42
0.000000001
 43
0.00000001
 40
0.0
 40
0.0
 40
0.0
 40
0.0
 40
0.0943726529450152
 40
0.2727520909193937
 40
0.4515882003467961
 40
0.6342161306308974
 40
0.8171348090380366
 40
1.0
 40
1.0
 40
1.0
 40
1.0
 10
10.85435239325985
 20
-0.7542005679330767
 30
0.0
 10
10.57578622841901
 20
-0.6429598705769252
 30
0.0
 10
9.77068536976239
 20
-0.321456428081782
 30
0.0
 10
8.438294282695042
 20
0.220280214776747
 30
0.0
 10
6.844380384626024
 20
0.8605259675773917
 30
0.0
 10
5.238153340099164
 20
1.496992491928218
 30
0.0
 10
3.619297502034877
 20
2.118206166407739
 30
0.0
 10
2.539713212586497
 20
2.506738171083418
 30
0.0
 10
2.00000000000001
 20
2.700975766503894
 30
0.0
1001
PE_URL
1000

  0
SPLINE
  5
A0
330
1F
100
AcDbEntity
  8
외형선
  6
Continuous
370
    15
100
AcDbSpline
210
0.0
220
0.0
230
1.0
 70
    24
 71
     3
 72
    10
 73
     6
 74
     0
 42
0.000000001
 43
0.00000001
 40
0.0
 40
0.0
 40
0.0
 40
0.0
 40
0.5
 40
0.5
 40
1.0
 40
1.0
 40
1.0
 40
1.0
 10
2.000000000000013
 20
4.14040503109953
 30
0.0
 10
2.000000000000013
 20
4.036052337645014
 30
0.0
 10
2.000000000000013
 20
3.849245170993359
 30
0.0
 10
2.000000000000012
 20
3.347623397584913
 30
0.0
 10
2.000000000000012
 20
3.034635477551784
 30
0.0
 10
2.00000000000001
 20
2.700975766503895
 30
0.0
  0
LINE
  5
A1
330
1F
100
AcDbEntity
  8
외형선
  6
Continuous
370
    15
100
AcDbLine
 10
2.000000000000013
 20
4.14040503109953
 30
0.0
 11
2.00000000000001
 21
5.849682859728198
 31
0.0
  0
LINE
  5
A2
330
1F
100
AcDbEntity
  8
0
  6
Continuous
 62
     1
370
    15
100
AcDbLine
 10
30.57500000000001
 20
-7.930791345885297
 30
0.0
 11
30.575
 21
-7.532218149528206
 31
0.0
1001
PE_URL
1000

  0
SPLINE
  5
A3
330
1F
100
AcDbEntity
  8
0
  6
Continuous
 62
     1
370
    15
100
AcDbSpline
210
0.0
220
0.0
230
1.0
 70
     8
 71
     3
 72
     8
 73
     4
 74
     0
 42
0.000000001
 43
0.00000001
 40
0.0
 40
0.0
 40
0.0
 40
0.0
 40
1.0
 40
1.0
 40
1.0
 40
1.0
 10
25.66383024581499
 20
2.220079671996138
 30
0.0
 10
25.63390471791481
 20
2.255523819275082
 30
0.0
 10
25.60429209921011
 20
2.290863161819897
 30
0.0
 10
25.57500000000837
 20
2.326095150660278
 30
0.0
1001
PE_URL
1000

  0
LINE
  5
A4
330
1F
100
AcDbEntity
  8
0
  6
Continuous
 62
     1
370
    15
100
AcDbLine
 10
25.57500000000001
 20
2.937719435296591
 30
0.0
 11
30.575
 21
0.0000000000000034
 31
0.0
1001
PE_URL
1000

  0
LINE
  5
A5
330
1F
100
AcDbEntity
  8
0
  6
Continuous
 62
     1
370
    15
100
AcDbLine
 10
30.575
 20
0.0000000000000034
 30
0.0
 11
30.575
 21
-2.121240884110303
 31
0.0
1001
PE_URL
1000

  0
SPLINE
  5
A6
330
1F
100
AcDbEntity
  8
0
  6
Continuous
 62
     1
370
    15
100
AcDbSpline
210
0.0
220
0.0
230
1.0
 70
     8
 71
     3
 72
    12
 73
     8
 74
     0
 42
0.000000001
 43
0.00000001
 40
0.0
 40
0.0
 40
0.0
 40
0.0
 40
0.5
 40
0.5
 40
0.75
 40
0.75
 40
1.0
 40
1.0
 40
1.0
 40
1.0
 10
30.57500000000001
 20
-2.121240884110306
 30
0.0
 10
29.7248570837302
 20
-1.452887382416917
 30
0.0
 10
28.88891642663288
 20
-0.7571355301524746
 30
0.0
 10
27.65686851419035
 20
0.3286694918016377
 30
0.0
 10
27.24988238863038
 20
0.697735641304032
 30
0.0
 10
26.44422911848985
 20
1.451916538950691
 30
0.0
 10
26.0477441128429
 20
1.83509037929404
 30
0.0
 10
25.66383024581499
 20
2.220079671996138
 30
0.0
1001
PE_URL
1000

  0
SPLINE
  5
A7
330
1F
100
AcDbEntity
  8
0
  6
Continuous
 62
     1
370
    15
100
AcDbSpline
210
0.0
220
0.0
230
1.0
 70
     8
 71
     3
 72
    19
 73
    15
 74
     0
 42
0.000000001
 43
0.00000001
 40
0.0
 40
0.0
 40
0.0
 40
0.0
 40
0.0818592595085583
 40
0.1638879730547075
 40
0.2503620066783493
 40
0.3368172539452274
 40
0.4234181022031675
 40
0.5098159941966026
 40
0.5964328572027842
 40
0.6828654416273711
 40
0.76937152488609
 40
0.8559275079538956
 40
0.9423380568543306
 40
1.0
 40
1.0
 40
1.0
 40
1.0
 10
25.66383024580862
 20
2.220079671998891
 30
0.0
 10
25.16519427430468
 20
2.433604828402292
 30
0.0
 10
24.16689012212257
 20
2.86109715229125
 30
0.0
 10
22.6410881934231
 20
3.470966332818816
 30
0.0
 10
21.08779174707545
 20
4.051320769844093
 30
0.0
 10
19.50679857730054
 20
4.588104987491503
 30
0.0
 10
17.92537087744148
 20
5.063070070740402
 30
0.0
 10
16.34427486045276
 20
5.472995570298909
 30
0.0
 10
14.76279196967982
 20
5.808863664611732
 30
0.0
 10
13.18179391294468
 20
6.069002055941069
 30
0.0
 10
11.60068494221395
 20
6.249252447646426
 30
0.0
 10
10.01942304754432
 20
6.343755924582348
 30
0.0
 10
8.61474502856758
 20
6.364079737052341
 30
0.0
 10
7.736688873775641
 20
6.316935767159666
 30
0.0
 10
7.385265619015009
 20
6.298067398375271
 30
0.0
1001
PE_URL
1000

  0
SPLINE
  5
A8
330
1F
100
AcDbEntity
  8
0
  6
Continuous
 62
     1
370
    15
100
AcDbSpline
210
0.0
220
0.0
230
1.0
 70
    24
 71
     3
 72
    10
 73
     6
 74
     0
 42
0.000000001
 43
0.00000001
 40
0.0
 40
0.0
 40
0.0
 40
0.0
 40
0.5000000000000001
 40
0.5000000000000001
 40
1.0
 40
1.0
 40
1.0
 40
1.0
 10
30.575
 20
-6.262467348422713
 30
0.0
 10
30.57500000000001
 20
-5.782400400217703
 30
0.0
 10
30.57500000000001
 20
-5.175817403507593
 30
0.0
 10
30.575
 20
-3.765570313258523
 30
0.0
 10
30.575
 20
-2.963127829219772
 30
0.0
 10
30.575
 20
-2.12124088411056
 30
0.0
1001
PE_URL
1000

  0
SPLINE
  5
A9
330
1F
100
AcDbEntity
  8
외형선
  6
Continuous
370
    15
100
AcDbSpline
210
0.0
220
0.0
230
1.0
 70
    24
 71
     3
 72
    12
 73
     8
 74
     0
 42
0.000000001
 43
0.00000001
 40
0.0
 40
0.0
 40
0.0
 40
0.0
 40
0.0063606755348044
 40
0.316098130111391
 40
0.6258355846879776
 40
0.8975991181686634
 40
0.9999999999999999
 40
0.9999999999999999
 40
0.9999999999999999
 40
0.9999999999999999
 10
2.00000000000001
 20
6.210245369517773
 30
0.0
 10
2.00000000000001
 20
6.210453357641469
 30
0.0
 10
2.000000000000012
 20
6.220789469997191
 30
0.0
 10
2.00000000000001
 20
6.184158060902046
 30
0.0
 10
2.00000000000001
 20
6.094247626859218
 30
0.0
 10
2.00000000000001
 20
5.985538530138371
 30
0.0
 10
2.00000000000001
 20
5.898376479747389
 30
0.0
 10
2.00000000000001
 20
5.874522071211985
 30
0.0
  0
SPLINE
  5
AA
330
1F
100
AcDbEntity
  8
0
  6
Continuous
 62
     1
370
    15
100
AcDbSpline
210
0.0
220
0.0
230
1.0
 70
     8
 71
     3
 72
     9
 73
     5
 74
     0
 42
0.000000001
 43
0.00000001
 40
0.0
 40
0.0
 40
0.0
 40
0.0
 40
0.5362998371279301
 40
1.0
 40
1.0
 40
1.0
 40
1.0
 10
30.575
 20
5.556249999999999
 30
0.0
 10
30.04773347037631
 20
5.550538151623694
 30
0.0
 10
29.06457723365733
 20
5.539887675936634
 30
0.0
 10
28.08162186977895
 20
5.461158680088673
 30
0.0
 10
27.62582530745257
 20
5.424652031891219
 30
0.0
1001
PE_URL
1000

  0
SPLINE
  5
AB
330
1F
100
AcDbEntity
  8
0
  6
Continuous
 62
     1
370
    15
100
AcDbSpline
210
0.0
220
0.0
230
1.0
 70
     8
 71
     3
 72
    10
 73
     6
 74
     0
 42
0.000000001
 43
0.00000001
 40
0.0
 40
0.0
 40
0.0
 40
0.0
 40
0.5
 40
0.5
 40
1.0
 40
1.0
 40
1.0
 40
1.0
 10
30.575
 20
5.556250000000003
 30
0.0
 10
29.75840404815336
 20
5.334809564106325
 30
0.0
 10
28.94674692733262
 20
5.086103314051063
 30
0.0
 10
27.33413907929083
 20
4.529584005730243
 30
0.0
 10
26.5342565694043
 20
4.2226668595735
 30
0.0
 10
25.7434913161142
 20
3.876674191206881
 30
0.0
1001
PE_URL
1000

  0
SPLINE
  5
AC
330
1F
100
AcDbEntity
  8
0
  6
Continuous
 62
     1
370
    15
100
AcDbSpline
210
0.0
220
0.0
230
1.0
 70
    24
 71
     3
 72
     8
 73
     4
 74
     0
 42
0.000000001
 43
0.00000001
 40
0.0
 40
0.0
 40
0.0
 40
0.0
 40
1.0
 40
1.0
 40
1.0
 40
1.0
 10
25.74349131611423
 20
3.876674191206897
 30
0.0
 10
25.68808168337121
 20
3.830179988808568
 30
0.0
 10
25.63190809952008
 20
3.783044755317185
 30
0.0
 10
25.575
 20
3.735293189998889
 30
0.0
1001
PE_URL
1000

  0
SPLINE
  5
AD
330
1F
100
AcDbEntity
  8
0
  6
Continuous
 62
     1
370
    15
100
AcDbSpline
210
0.0
220
0.0
230
1.0
 70
    24
 71
     3
 72
     8
 73
     4
 74
     0
 42
0.000000001
 43
0.00000001
 40
0.0
 40
0.0
 40
0.0
 40
0.0
 40
1.0
 40
1.0
 40
1.0
 40
1.0
 10
25.57500000000002
 20
2.326095150670329
 30
0.0
 10
25.57500000000002
 20
2.844328698008602
 30
0.0
 10
25.57500000000003
 20
3.323694336875
 30
0.0
 10
25.57500000000003
 20
3.735293189998735
 30
0.0
1001
PE_URL
1000

  0
SPLINE
  5
AE
330
1F
100
AcDbEntity
  8
0
  6
Continuous
 62
     1
370
    15
100
AcDbSpline
210
0.0
220
0.0
230
1.0
 70
     8
 71
     3
 72
    15
 73
    11
 74
     0
 42
0.000000001
 43
0.00000001
 40
0.0
 40
0.0
 40
0.0
 40
0.0
 40
0.0492842404077958
 40
0.1837221190500644
 40
0.318237546278809
 40
0.4525269563281032
 40
0.5871511980874246
 40
0.7246384229713984
 40
0.862338818370505
 40
1.0
 40
1.0
 40
1.0
 40
1.0
 10
13.76176324178522
 20
-5.960533685560516
 30
0.0
 10
13.56856458855727
 20
-5.993376764389263
 30
0.0
 10
12.84835736460577
 20
-6.115809411998685
 30
0.0
 10
11.60069625980486
 20
-6.245480994622004
 30
0.0
 10
10.01941445645347
 20
-6.346670731244727
 30
0.0
 10
8.438358045681959
 20
-6.358744778031096
 30
0.0
 10
6.844293428649216
 20
-6.288200983627292
 30
0.0
 10
5.238199274851322
 20
-6.129391820567156
 30
0.0
 10
3.619279209093356
 20
-5.890548516496374
 30
0.0
 10
2.539708489759995
 20
-5.662993861193073
 30
0.0
 10
2.00000000000001
 20
-5.549232736375392
 30
0.0
1001
PE_URL
1000

  0
SPLINE
  5
AF
330
1F
100
AcDbEntity
  8
외형선
  6
Continuous
370
    15
100
AcDbSpline
210
0.0
220
0.0
230
1.0
 70
    24
 71
     3
 72
    14
 73
    10
 74
     0
 42
0.000000001
 43
0.00000001
 40
0.0
 40
0.0
 40
0.0
 40
0.0
 40
0.25
 40
0.25
 40
0.5
 40
0.5
 40
0.75
 40
0.75
 40
1.0
 40
1.0
 40
1.0
 40
1.0
 10
2.00000000000001
 20
2.700975766503894
 30
0.0
 10
2.00000000000001
 20
2.027823113991151
 30
0.0
 10
2.000000000000012
 20
1.308152575502038
 30
0.0
 10
2.00000000000001
 20
-0.1654936060152976
 30
0.0
 10
2.00000000000001
 20
-0.9188195607427202
 30
0.0
 10
2.00000000000001
 20
-2.385119474373947
 30
0.0
 10
2.000000000000012
 20
-3.097312127380378
 30
0.0
 10
2.00000000000001
 20
-4.414227138905152
 30
0.0
 10
2.00000000000001
 20
-5.018519946507767
 30
0.0
 10
2.00000000000001
 20
-5.549232736375392
 30
0.0
  0
LINE
  5
B0
330
1F
100
AcDbEntity
  8
0
  6
Continuous
 62
     1
370
    15
100
AcDbLine
 10
30.575
 20
0.0000000000000034
 30
0.0
 11
30.575
 21
5.556250000000002
 31
0.0
1001
PE_URL
1000

  0
SPLINE
  5
B1
330
1F
100
AcDbEntity
  8
외형선
  6
Continuous
370
    15
100
AcDbSpline
210
0.0
220
0.0
230
1.0
 70
    24
 71
     3
 72
    13
 73
     9
 74
     0
 42
0.000000001
 43
0.00000001
 40
0.0
 40
0.0
 40
0.0
 40
0.0
 40
0.1440850305102144
 40
0.2881700610204286
 40
0.4341326891860136
 40
0.5800953173515987
 40
0.7922896710489274
 40
1.0
 40
1.0
 40
1.0
 40
1.0
 10
2.000000000000012
 20
-5.549232736375393
 30
0.0
 10
2.00000000000001
 20
-5.609480951704834
 30
0.0
 10
2.00000000000001
 20
-5.729977382363716
 30
0.0
 10
2.00000000000001
 20
-5.878206925622167
 30
0.0
 10
2.00000000000001
 20
-6.001903184667987
 30
0.0
 10
2.00000000000001
 20
-6.111578845357745
 30
0.0
 10
2.00000000000001
 20
-6.194113529568809
 30
0.0
 10
2.00000000000001
 20
-6.204906519770289
 30
0.0
 10
2.00000000000001
 20
-6.210245387465156
 30
0.0
  0
SPLINE
  5
B2
330
1F
100
AcDbEntity
  8
0
  6
Continuous
 62
     1
370
    15
100
AcDbSpline
210
0.0
220
0.0
230
1.0
 70
    24
 71
     3
 72
    10
 73
     6
 74
     0
 42
0.000000001
 43
0.00000001
 40
0.0
 40
0.0
 40
0.0
 40
0.0
 40
0.5
 40
0.5
 40
1.0
 40
1.0
 40
1.0
 40
1.0
 10
30.575
 20
5.556249999999999
 30
0.0
 10
30.57500000000001
 20
5.893056038408052
 30
0.0
 10
30.57500000000002
 20
6.284455846632741
 30
0.0
 10
30.575
 20
7.105611590126789
 30
0.0
 10
30.57500000000002
 20
7.533270396674185
 30
0.0
 10
30.57500000000001
 20
7.930791345885297
 30
0.0
1001
PE_URL
1000

  0
SPLINE
  5
B3
330
1F
100
AcDbEntity
  8
0
  6
Continuous
 62
     1
370
    15
100
AcDbSpline
210
0.0
220
0.0
230
1.0
 70
     8
 71
     3
 72
    16
 73
    12
 74
     0
 42
0.000000001
 43
0.00000001
 40
0.0
 40
0.0
 40
0.0
 40
0.0
 40
0.103438880452173
 40
0.2132345073563514
 40
0.323449874199318
 40
0.4338770309906326
 40
0.5447288142529926
 40
0.6579677878352302
 40
0.7714366859533618
 40
0.8856004867706908
 40
1.0
 40
1.0
 40
1.0
 40
1.0
 10
19.64698326882192
 20
5.321180025057731
 30
0.0
 10
20.02363087495626
 20
5.479409811612343
 30
0.0
 10
20.8000726383427
 20
5.805593258664184
 30
0.0
 10
21.97919756364775
 20
6.246226300592332
 30
0.0
 10
23.18176501732397
 20
6.653667904295823
 30
0.0
 10
24.39042889471518
 20
7.008310538683078
 30
0.0
 10
25.60788750062322
 20
7.313559571292233
 30
0.0
 10
26.83844999686241
 20
7.562223232401183
 30
0.0
 10
28.07942846812072
 20
7.751564608815043
 30
0.0
 10
29.32582350463561
 20
7.882164870764365
 30
0.0
 10
30.15832165575386
 20
7.914571380800216
 30
0.0
 10
30.57499999999939
 20
7.930791345885276
 30
0.0
1001
PE_URL
1000

  0
LINE
  5
B4
330
1F
100
AcDbEntity
  8
중심선
 62
     1
100
AcDbLine
 10
-55.79999999999999
 20
-0.000000000000024
 30
0.0
 11
37.57500000000002
 21
0.0000000000000063
 31
0.0
  0
LINE
  5
B5
330
1F
100
AcDbEntity
  8
참조1
100
AcDbLine
 10
-9.112499999999986
 20
-0.0000000000000042
 30
0.0
 11
-9.112499999999983
 21
-40.00000000000001
 31
0.0
  0
LINE
  5
B6
330
1F
100
AcDbEntity
  8
참조1
100
AcDbLine
 10
-9.112499999999983
 20
-40.00000000000001
 30
0.0
 11
-24.27133181430867
 21
-40.0
 31
0.0
  0
INSERT
  5
B8
330
1F
100
AcDbEntity
  8
0
  6
Continuous
 62
     7
100
AcDbBlockReference
 66
     1
  2
블럭10
 10
-23.05277293212519
 20
-52.04717430164393
 30
0.0
  0
ATTRIB
  5
B9
330
B8
100
AcDbEntity
  8
FORMAT
 62
     2
100
AcDbText
 10
-32.23406822086648
 20
-49.97180738881174
 30
0.0
 40
4.233333333333333
  1
E2030902 [ 2 FLUTE ]
 41
0.75
  7
SLDTEXTSTYLE0
 11
-32.23406822086648
 21
-52.08847405547841
 31
0.0
100
AcDbAttribute
  2
AUTOATTR0
 70
     0
 74
     1
  0
SEQEND
  5
BA
330
B8
100
AcDbEntity
  8
0
  6
Continuous
 62
     7
  0
HATCH
  5
BB
330
1F
100
AcDbEntity
  8
중심선
100
AcDbHatch
 10
0.0
 20
0.0
 30
0.0
210
0.0
220
0.0
230
1.0
  2
SOLID
 70
     1
 71
     0
 91
        1
 92
        0
 93
        4
 72
     1
 10
-17.33786362774435
 20
-35.8
 11
-20.78413887158163
 21
-35.8
 72
     1
 10
-20.78413887158163
 20
-35.8
 11
-22.91236873078568
 21
-38.3363255805726
 72
     1
 10
-22.91236873078568
 20
-38.3363255805726
 11
-19.46606040183523
 21
-38.33628615127011
 72
     1
 10
-19.46606040183523
 20
-38.33628615127011
 11
-17.33786362774435
 21
-35.8
 97
        0
 75
     0
 76
     1
 98
        1
 10
-1.740578832126928
 20
-0.0010749287238934
  0
HATCH
  5
BC
330
1F
100
AcDbEntity
  8
중심선
100
AcDbHatch
 10
0.0
 20
0.0
 30
0.0
210
0.0
220
0.0
230
1.0
  2
SOLID
 70
     1
 71
     0
 91
        1
 92
        0
 93
        4
 72
     1
 10
-12.32509963670837
 20
-35.8
 11
-15.77137488054565
 21
-35.8
 72
     1
 10
-15.77137488054565
 20
-35.8
 11
-20.30251288890307
 21
-41.20000000000002
 72
     1
 10
-20.30251288890307
 20
-41.20000000000002
 11
-16.85623764506579
 21
-41.20000000000002
 72
     1
 10
-16.85623764506579
 20
-41.20000000000002
 11
-12.32509963670837
 21
-35.8
 97
        0
 75
     0
 76
     1
 98
        1
 10
-1.740578832126928
 20
-0.0010749287238934
  0
HATCH
  5
BD
330
1F
100
AcDbEntity
  8
중심선
100
AcDbHatch
 10
0.0
 20
0.0
 30
0.0
210
0.0
220
0.0
230
1.0
  2
SOLID
 70
     1
 71
     0
 91
        1
 92
        0
 93
        4
 72
     1
 10
-7.312335645672476
 20
-35.79999999999998
 11
-10.75861088950962
 21
-35.8
 72
     1
 10
-10.75861088950962
 20
-35.8
 11
-17.80704779139887
 21
-44.20000000000002
 72
     1
 10
-17.80704779139887
 20
-44.20000000000002
 11
-14.36077254756159
 21
-44.20000000000002
 72
     1
 10
-14.36077254756159
 20
-44.20000000000002
 11
-7.312335645672476
 21
-35.79999999999998
 97
        0
 75
     0
 76
     1
 98
        1
 10
-1.740578832126928
 20
-0.0010749287238934
  0
HATCH
  5
BE
330
1F
100
AcDbEntity
  8
중심선
100
AcDbHatch
 10
0.0
 20
0.0
 30
0.0
210
0.0
220
0.0
230
1.0
  2
SOLID
 70
     1
 71
     0
 91
        1
 92
        0
 93
        6
 72
     3
 10
-2.512445214660304
 20
-40.00000000005127
 11
3.960054785062283
 21
1.540882976769353E-10
 40
0.3939339440162628
 50
17.09539180608436
 51
320.0019657685078
 73
     0
 72
     1
 10
-0.829445558959709
 20
-38.5878940046383
 11
1.475856314741357
 21
-36.65356729459035
 72
     3
 10
-2.512445214713151
 20
-40.00000000000015
 11
6.600054785286829
 21
-1.278976924368180E-13
 40
0.636358354079598
 50
39.99873849337413
 51
368.4976242363724
 73
     1
 72
     1
 10
3.912887277187458
 20
-39.03999999993002
 11
-3.832377907877229
 21
-39.03999999993
 72
     1
 10
-3.832377907877229
 20
-39.03999999993
 11
-3.832402952323163
 21
-40.95999999992991
 72
     1
 10
-3.832402952323163
 20
-40.95999999992991
 11
0.6089768171488745
 21
-40.95999999992988
 97
        0
 75
     0
 76
     1
 98
        1
 10
-1.740578832126928
 20
-0.0010749287238934
  0
DIMENSION
  5
BF
330
1F
100
AcDbEntity
  8
치수문자_일반주서
100
AcDbDimension
  2
_D
 10
-63.79999999999995
 20
-6.350000000000051
 30
0.0
 11
-63.80000000000006
 21
26.29774999999994
 31
0.0
 70
   160
  1
%%c<>
 71
     2
 42
12.69999999999999
 52
-270.0
  3
SLDDIMSTYLE1
100
AcDbAlignedDimension
 13
-47.8
 23
6.349999999999994
 33
0.0
 14
-47.8
 24
-6.349999999999994
 34
0.0
 50
90.0000000000002
100
AcDbRotatedDimension
1001
PE_URL
1000

1001
ACAD
1000
DSTYLE
1002
{
1070
   171
1070
     8
1070
   273
1070
     7
1002
}
  0
DIMENSION
  5
CD
330
1F
100
AcDbEntity
  8
치수문자_일반주서
100
AcDbDimension
  2
_D_1
 10
2.000000000000011
 20
21.35000000000002
 30
0.0
 11
14.70000000000001
 21
21.35000000000002
 31
0.0
 70
   160
  1
<>
 71
     2
 42
28.575
  3
SLDDIMSTYLE1
100
AcDbAlignedDimension
 13
30.57500000000001
 23
7.930791345885297
 33
0.0
 14
2.00000000000001
 24
5.472849324069393
 34
0.0
100
AcDbRotatedDimension
1001
PE_URL
1000

1001
ACAD
1000
DSTYLE
1002
{
1070
   171
1070
     8
1070
   273
1070
     7
1002
}
  0
DIMENSION
  5
E3
330
1F
100
AcDbEntity
  8
치수문자_일반주서
100
AcDbDimension
  2
_D_2
 10
-48.8
 20
36.35000000000002
 30
0.0
 11
-10.7
 21
36.35000000000002
 31
0.0
 70
   160
  1
<>
 71
     2
 42
79.375
  3
SLDDIMSTYLE1
100
AcDbAlignedDimension
 13
30.57500000000001
 23
7.930791345885297
 33
0.0
 14
-48.8
 24
5.349999999999994
 34
0.0
 50
0.000000000000008
100
AcDbRotatedDimension
1001
PE_URL
1000

1001
ACAD
1000
DSTYLE
1002
{
1070
   171
1070
     8
1070
   273
1070
     7
1002
}
  0
DIMENSION
  5
F7
330
1F
100
AcDbEntity
  8
치수문자_일반주서
100
AcDbDimension
  2
_D_3
 10
45.575
 20
7.930791345885353
 30
0.0
 11
45.57499999999992
 21
28.53479134588535
 31
0.0
 70
   160
  1
%%c<>
 71
     2
 42
15.86158269177059
 52
-270.0
  3
SLDDIMSTYLE1
100
AcDbAlignedDimension
 13
30.57500000000001
 23
-7.930791345885297
 33
0.0
 14
30.57500000000001
 24
7.930791345885297
 34
0.0
 50
90.0000000000002
100
AcDbRotatedDimension
1001
PE_URL
1000

1001
ACAD
1000
DSTYLE
1002
{
1070
   171
1070
     8
1070
   273
1070
     7
1002
}
  0
LINE
  5
10B
330
1F
100
AcDbEntity
  8
참조1
100
AcDbLine
 10
73.7010088153456
 20
7.440000000000002
 30
0.0
 11
73.7010088153456
 21
-7.440000000000002
 31
0.0
  0
LINE
  5
10C
330
1F
100
AcDbEntity
  8
참조1
100
AcDbLine
 10
86.4010088153456
 20
5.440000000000002
 30
0.0
 11
73.7010088153456
 21
5.440000000000002
 31
0.0
  0
SOLID
  5
10D
330
1F
100
AcDbEntity
  8
참조1
100
AcDbTrace
 10
73.7010088153456
 20
5.440000000000002
 30
0.0
 11
80.0510088153456
 21
4.424000000000002
 31
0.0
 12
80.0510088153456
 22
6.456000000000002
 32
0.0
 13
80.0510088153456
 23
6.456000000000002
 33
0.0
  0
LINE
  5
10E
330
1F
100
AcDbEntity
  8
참조1
100
AcDbLine
 10
86.4010088153456
 20
-5.440000000000002
 30
0.0
 11
73.7010088153456
 21
-5.440000000000002
 31
0.0
  0
SOLID
  5
10F
330
1F
100
AcDbEntity
  8
참조1
100
AcDbTrace
 10
73.7010088153456
 20
-5.440000000000002
 30
0.0
 11
80.0510088153456
 21
-6.456000000000002
 31
0.0
 12
80.0510088153456
 22
-4.424000000000002
 32
0.0
 13
80.0510088153456
 23
-4.424000000000002
 33
0.0
  0
MTEXT
  5
110
330
1F
100
AcDbEntity
  8
참조1
100
AcDbMText
 10
83.08535894797159
 20
11.01029177718833
 30
0.0
 40
3.5
 41
0.0
 71
     1
 72
     1
  1
A
  7
SLDTEXTSTYLE0
 73
     1
 44
1.0
  0
MTEXT
  5
111
330
1F
100
AcDbEntity
  8
참조1
100
AcDbMText
 10
83.08535894797159
 20
0.1302917771883267
 30
0.0
 40
3.5
 41
0.0
 71
     1
 72
     1
  1
A
  7
SLDTEXTSTYLE0
 73
     1
 44
1.0
  0
SPLINE
  5
18A
330
1F
100
AcDbEntity
  8
외형선
  6
Continuous
370
    15
100
AcDbSpline
210
0.0
220
0.0
230
1.0
 70
    24
 71
     3
 72
    10
 73
     6
 74
     0
 42
0.000000001
 43
0.00000001
 40
0.0
 40
0.0
 40
0.0
 40
0.0
 40
0.5
 40
0.5
 40
1.0
 40
1.0
 40
1.0
 40
1.0
 10
2.0
 20
6.327862628846335
 30
0.0
 10
2.0
 20
6.080773971377342
 30
0.0
 10
2.0
 20
5.764317213293429
 30
0.0
 10
2.0
 20
5.059594011701423
 30
0.0
 10
2.0
 20
4.673497960322765
 30
0.0
 10
2.0
 20
4.297559231431142
 30
0.0
  0
SPLINE
  5
18C
330
1F
100
AcDbEntity
  8
외형선
  6
Continuous
370
    15
100
AcDbSpline
210
0.0
220
0.0
230
1.0
 70
    24
 71
     3
 72
    14
 73
    10
 74
     0
 42
0.000000001
 43
0.00000001
 40
0.0
 40
0.0
 40
0.0
 40
0.0
 40
0.25
 40
0.25
 40
0.5
 40
0.5
 40
0.75
 40
0.75
 40
1.0
 40
1.0
 40
1.0
 40
1.0
 10
2.0
 20
4.297559231431139
 30
0.0
 10
2.0
 20
3.773950017503603
 30
0.0
 10
2.0
 20
3.179283948053166
 30
0.0
 10
2.0
 20
1.886460462409902
 30
0.0
 10
2.0
 20
1.188730293162189
 30
0.0
 10
2.0
 20
-0.2450104812101426
 30
0.0
 10
2.0
 20
-0.9802571293080238
 30
0.0
 10
2.0
 20
-2.416030521187187
 30
0.0
 10
2.0
 20
-3.115929237166823
 30
0.0
 10
2.0
 20
-3.769453674788155
 30
0.0
  0
SPLINE
  5
18D
330
1F
100
AcDbEntity
  8
외형선
  6
Continuous
370
    15
100
AcDbSpline
210
0.0
220
0.0
230
1.0
 70
    24
 71
     3
 72
    17
 73
    13
 74
     0
 42
0.000000001
 43
0.00000001
 40
0.0
 40
0.0
 40
0.0
 40
0.0
 40
0.1438388465652921
 40
0.216724439482255
 40
0.289610032399218
 40
0.3955680538272541
 40
0.5015260752552902
 40
0.610562406456255
 40
0.71959873765722
 40
0.8152671762238508
 40
0.9109356147904816
 40
1.0
 40
1.0
 40
1.0
 40
1.0
 10
2.0
 20
-3.769453674788158
 30
0.0
 10
2.0
 20
-3.992404978882581
 30
0.0
 10
2.0
 20
-4.328329505291853
 30
0.0
 10
2.0
 20
-4.721249236543583
 30
0.0
 10
2.0
 20
-5.039037242544795
 30
0.0
 10
2.0
 20
-5.360472534865343
 30
0.0
 10
2.0
 20
-5.670740930510162
 30
0.0
 10
2.0
 20
-5.927636740122066
 30
0.0
 10
2.0
 20
-6.120311608883158
 30
0.0
 10
2.0
 20
-6.251049389757393
 30
0.0
 10
2.0
 20
-6.331220866337118
 30
0.0
 10
2.0
 20
-6.344214960971685
 30
0.0
 10
2.0
 20
-6.350479743950283
 30
0.0
  0
SPLINE
  5
18F
330
1F
100
AcDbEntity
  8
외형선
  6
Continuous
370
    15
100
AcDbSpline
210
0.0
220
0.0
230
1.0
 70
    24
 71
     3
 72
    10
 73
     6
 74
     0
 42
0.000000001
 43
0.00000001
 40
0.0
 40
0.0
 40
0.0
 40
0.0
 40
0.5
 40
0.5
 40
1.0
 40
1.0
 40
1.0
 40
1.0
 10
2.000000000000007
 20
5.022334373446453
 30
0.0
 10
2.000000000000007
 20
4.849171584610412
 30
0.0
 10
2.000000000000007
 20
4.606113203809516
 30
0.0
 10
2.000000000000007
 20
4.03056575296357
 30
0.0
 10
2.0
 20
3.699962059803918
 30
0.0
 10
2.0
 20
3.366483569005441
 30
0.0
  0
LINE
  5
190
330
1F
100
AcDbEntity
  8
외형선
  6
Continuous
370
    15
100
AcDbLine
 10
2.000000000000007
 20
5.02233437344645
 30
0.0
 11
2.0
 21
6.23007197809539
 31
0.0
  0
SPLINE
  5
191
330
1F
100
AcDbEntity
  8
외형선
  6
Continuous
370
    15
100
AcDbSpline
210
0.0
220
0.0
230
1.0
 70
    24
 71
     3
 72
    14
 73
    10
 74
     0
 42
0.000000001
 43
0.00000001
 40
0.0
 40
0.0
 40
0.0
 40
0.0
 40
0.25
 40
0.25
 40
0.5
 40
0.5
 40
0.75
 40
0.75
 40
1.0
 40
1.0
 40
1.0
 40
1.0
 10
2.000000000000007
 20
3.366483569005434
 30
0.0
 10
2.000000000000007
 20
2.818569705538211
 30
0.0
 10
2.000000000000007
 20
2.214249245718017
 30
0.0
 10
2.000000000000007
 20
0.9368444510906517
 30
0.0
 10
2.000000000000007
 20
0.2642473970797017
 30
0.0
 10
2.000000000000007
 20
-1.085147145791302
 30
0.0
 10
2.000000000000007
 20
-1.761225620823131
 30
0.0
 10
2.000000000000007
 20
-3.051895754409705
 30
0.0
 10
2.000000000000007
 20
-3.665981500283889
 30
0.0
 10
2.000000000000007
 20
-4.225951121768995
 30
0.0
  0
SPLINE
  5
192
330
1F
100
AcDbEntity
  8
외형선
  6
Continuous
370
    15
100
AcDbSpline
210
0.0
220
0.0
230
1.0
 70
    24
 71
     3
 72
    15
 73
    11
 74
     0
 42
0.000000001
 43
0.00000001
 40
0.0
 40
0.0
 40
0.0
 40
0.0
 40
0.1215783636977281
 40
0.2433317959080221
 40
0.3649101596057501
 40
0.4984067892622983
 40
0.6319034189188463
 40
0.769278414499808
 40
0.9066534100807697
 40
0.9999999999999999
 40
0.9999999999999999
 40
0.9999999999999999
 40
0.9999999999999999
 10
2.000000000000007
 20
-4.225951121768995
 30
0.0
 10
2.000000000000007
 20
-4.338047811223356
 30
0.0
 10
2.000000000000007
 20
-4.562402605371508
 30
0.0
 10
2.0
 20
-4.850605569063886
 30
0.0
 10
2.0
 20
-5.109684761913934
 30
0.0
 10
2.0
 20
-5.329128120885661
 30
0.0
 10
2.000000000000007
 20
-5.506246567590816
 30
0.0
 10
2.0
 20
-5.62829925275908
 30
0.0
 10
2.0
 20
-5.69342539716177
 30
0.0
 10
2.0
 20
-5.695987234341432
 30
0.0
 10
2.0
 20
-5.697023716316588
 30
0.0
  0
SPLINE
  5
193
330
1F
100
AcDbEntity
  8
외형선
  6
Continuous
370
    15
100
AcDbSpline
210
0.0
220
0.0
230
1.0
 70
    24
 71
     3
 72
    11
 73
     7
 74
     0
 42
0.000000001
 43
0.00000001
 40
0.0
 40
0.0
 40
0.0
 40
0.0
 40
0.1605611477121782
 40
0.4721101436753487
 40
0.7840222220455074
 40
1.0
 40
1.0
 40
1.0
 40
1.0
 10
2.000000000000007
 20
-5.720929935379802
 30
0.0
 10
2.000000000000007
 20
-5.749990067509879
 30
0.0
 10
2.000000000000007
 20
-5.835437782294209
 30
0.0
 10
2.000000000000007
 20
-5.970644808858898
 30
0.0
 10
2.000000000000007
 20
-6.111153204017244
 30
0.0
 10
2.000000000000007
 20
-6.195544581823659
 30
0.0
 10
2.0
 20
-6.230071978095387
 30
0.0
  0
CIRCLE
  5
194
330
1F
100
AcDbEntity
  8
해칭선
100
AcDbCircle
 10
0.0
 20
0.0
 30
0.0
 40
3.000000000000001
  0
INSERT
  5
195
330
1F
100
AcDbEntity
  8
해칭선
100
AcDbBlockReference
  2
SW_DOWELSYMBOL_0
 10
0.0
 20
0.0
 30
0.0
  0
LINE
  5
196
330
1F
100
AcDbEntity
  8
외형선
  6
Continuous
370
    15
100
AcDbLine
 10
2.0
 20
6.350000000000003
 30
0.0
 11
-19.06612499999997
 21
6.350000000000003
 31
0.0
  0
LINE
  5
197
330
1F
100
AcDbEntity
  8
외형선
  6
Continuous
370
    15
100
AcDbLine
 10
-47.79999999999999
 20
-6.35
 30
0.0
 11
2.0
 21
-6.349999999999996
 31
0.0
  0
LINE
  5
198
330
1F
100
AcDbEntity
  8
외형선
  6
Continuous
370
    15
100
AcDbLine
 10
-47.79999999999999
 20
6.349999999999996
 30
0.0
 11
-48.79999999999999
 21
5.349999999999996
 31
0.0
  0
LINE
  5
199
330
1F
100
AcDbEntity
  8
외형선
  6
Continuous
370
    15
100
AcDbLine
 10
-48.79999999999999
 20
-5.35
 30
0.0
 11
-47.79999999999999
 21
-6.349999999999996
 31
0.0
  0
LINE
  5
19A
330
1F
100
AcDbEntity
  8
외형선
  6
Continuous
370
    15
100
AcDbLine
 10
2.000000000000007
 20
5.538086587305232
 30
0.0
 11
2.000000000000007
 21
4.464653049026657
 31
0.0
  0
LINE
  5
19B
330
1F
100
AcDbEntity
  8
외형선
  6
Continuous
370
    15
100
AcDbLine
 10
-47.79999999999999
 20
6.349999999999996
 30
0.0
 11
-47.79999999999999
 21
-6.349999999999989
 31
0.0
  0
LINE
  5
19C
330
1F
100
AcDbEntity
  8
외형선
  6
Continuous
370
    15
100
AcDbLine
 10
-48.79999999999999
 20
5.349999999999996
 30
0.0
 11
-48.79999999999999
 21
-5.350000000000003
 31
0.0
  0
SPLINE
  5
19D
330
1F
100
AcDbEntity
  8
외형선
  6
Continuous
370
    15
100
AcDbSpline
210
0.0
220
0.0
230
1.0
 70
    24
 71
     3
 72
    14
 73
    10
 74
     0
 42
0.000000001
 43
0.00000001
 40
0.0
 40
0.0
 40
0.0
 40
0.0
 40
0.2499999999999999
 40
0.2499999999999999
 40
0.4999999999999999
 40
0.4999999999999999
 40
0.7499999999999999
 40
0.7499999999999999
 40
1.0
 40
1.0
 40
1.0
 40
1.0
 10
2.000000000000007
 20
2.992688830855068
 30
0.0
 10
2.000000000000007
 20
2.505676465482916
 30
0.0
 10
2.000000000000007
 20
1.968520911501921
 30
0.0
 10
2.000000000000007
 20
0.8330753216585496
 30
0.0
 10
2.000000000000007
 20
0.2352183905006431
 30
0.0
 10
2.000000000000007
 20
-0.9642415580462664
 30
0.0
 10
2.000000000000007
 20
-1.565205453027408
 30
0.0
 10
2.000000000000007
 20
-2.712489578917411
 30
0.0
 10
2.000000000000007
 20
-3.258360077259146
 30
0.0
 10
2.000000000000007
 20
-3.756131498717471
 30
0.0
  0
SPLINE
  5
19E
330
1F
100
AcDbEntity
  8
외형선
  6
Continuous
370
    15
100
AcDbSpline
210
0.0
220
0.0
230
1.0
 70
    24
 71
     3
 72
    10
 73
     6
 74
     0
 42
0.000000001
 43
0.00000001
 40
0.0
 40
0.0
 40
0.0
 40
0.0
 40
0.5
 40
0.5
 40
1.0
 40
1.0
 40
1.0
 40
1.0
 10
2.000000000000007
 20
4.464653049026394
 30
0.0
 10
2.000000000000007
 20
4.310707723689772
 30
0.0
 10
2.000000000000007
 20
4.094634871367697
 30
0.0
 10
2.000000000000007
 20
3.583003836283781
 30
0.0
 10
2.000000000000007
 20
3.289121602635861
 30
0.0
 10
2.000000000000007
 20
2.992688830855068
 30
0.0
  0
SPLINE
  5
19F
330
1F
100
AcDbEntity
  8
외형선
  6
Continuous
370
    15
100
AcDbSpline
210
0.0
220
0.0
230
1.0
 70
    24
 71
     3
 72
    12
 73
     8
 74
     0
 42
0.000000001
 43
0.00000001
 40
0.0
 40
0.0
 40
0.0
 40
0.0
 40
0.1813025155515216
 40
0.3649689338549434
 40
0.6316714970557004
 40
0.9061084526569942
 40
1.0
 40
1.0
 40
1.0
 40
1.0
 10
2.000000000000021
 20
-3.756131498717471
 30
0.0
 10
2.000000000000021
 20
-3.902463849745134
 30
0.0
 10
2.000000000000021
 20
-4.197036498009775
 30
0.0
 10
2.000000000000021
 20
-4.595340297291022
 30
0.0
 10
2.000000000000021
 20
-4.91308896049537
 30
0.0
 10
2.000000000000021
 20
-5.07201898117914
 30
0.0
 10
2.000000000000021
 20
-5.053543967674999
 30
0.0
 10
2.000000000000021
 20
-5.048834455402071
 30
0.0
  0
SPLINE
  5
1A0
330
1F
100
AcDbEntity
  8
외형선
  6
Continuous
370
    15
100
AcDbSpline
210
0.0
220
0.0
230
1.0
 70
    24
 71
     3
 72
    10
 73
     6
 74
     0
 42
0.000000001
 43
0.00000001
 40
0.0
 40
0.0
 40
0.0
 40
0.0
 40
0.12846606693943
 40
0.7764936588857835
 40
1.0
 40
1.0
 40
1.0
 40
1.0
 10
2.000000000000021
 20
-5.102336767672069
 30
0.0
 10
2.000000000000021
 20
-5.122580348431219
 30
0.0
 10
2.000000000000021
 20
-5.244939602256855
 30
0.0
 10
2.000000000000007
 20
-5.387870867762837
 30
0.0
 10
2.000000000000007
 20
-5.507426376299721
 30
0.0
 10
2.000000000000021
 20
-5.53808658729035
 30
0.0
  0
SPLINE
  5
1A1
330
1F
100
AcDbEntity
  8
외형선
  6
Continuous
370
    15
100
AcDbSpline
210
0.0
220
0.0
230
1.0
 70
    24
 71
     3
 72
    10
 73
     6
 74
     0
 42
0.000000001
 43
0.00000001
 40
0.0
 40
0.0
 40
0.0
 40
0.0
 40
0.5000000000000002
 40
0.5000000000000002
 40
1.0
 40
1.0
 40
1.0
 40
1.0
 10
2.000000000000021
 20
4.46465304902639
 30
0.0
 10
2.000000000000021
 20
4.310707723689768
 30
0.0
 10
2.000000000000021
 20
4.094634871367697
 30
0.0
 10
2.000000000000021
 20
3.583003836283774
 30
0.0
 10
2.000000000000021
 20
3.289121602635861
 30
0.0
 10
2.000000000000021
 20
2.992688830855068
 30
0.0
  0
SPLINE
  5
1A2
330
1F
100
AcDbEntity
  8
외형선
  6
Continuous
370
    15
100
AcDbSpline
210
0.0
220
0.0
230
1.0
 70
    24
 71
     3
 72
    14
 73
    10
 74
     0
 42
0.000000001
 43
0.00000001
 40
0.0
 40
0.0
 40
0.0
 40
0.0
 40
0.25
 40
0.25
 40
0.5
 40
0.5
 40
0.75
 40
0.75
 40
1.0
 40
1.0
 40
1.0
 40
1.0
 10
2.000000000000007
 20
2.992688830855068
 30
0.0
 10
2.000000000000007
 20
2.505676465482916
 30
0.0
 10
2.000000000000007
 20
1.968520911501928
 30
0.0
 10
2.000000000000007
 20
0.8330753216585496
 30
0.0
 10
2.000000000000007
 20
0.2352183905006502
 30
0.0
 10
2.000000000000007
 20
-0.9642415580462664
 30
0.0
 10
2.000000000000007
 20
-1.565205453027401
 30
0.0
 10
2.000000000000007
 20
-2.712489578917411
 30
0.0
 10
2.000000000000007
 20
-3.258360077259146
 30
0.0
 10
2.000000000000007
 20
-3.756131498717471
 30
0.0
  0
SPLINE
  5
1A3
330
1F
100
AcDbEntity
  8
외형선
  6
Continuous
370
    15
100
AcDbSpline
210
0.0
220
0.0
230
1.0
 70
    24
 71
     3
 72
    12
 73
     8
 74
     0
 42
0.000000001
 43
0.00000001
 40
0.0
 40
0.0
 40
0.0
 40
0.0
 40
0.1814510693155813
 40
0.365267978293042
 40
0.6321890694581092
 40
0.906850890349482
 40
1.0
 40
1.0
 40
1.0
 40
1.0
 10
2.000000000000021
 20
-3.756131498717471
 30
0.0
 10
2.000000000000021
 20
-3.90246337116538
 30
0.0
 10
2.000000000000021
 20
-4.197035056030574
 30
0.0
 10
2.000000000000021
 20
-4.595347257570973
 30
0.0
 10
2.000000000000021
 20
-4.9130488969555
 30
0.0
 10
2.000000000000021
 20
-5.071923756608511
 30
0.0
 10
2.000000000000021
 20
-5.05354852823818
 30
0.0
 10
2.000000000000021
 20
-5.048894952120145
 30
0.0
  0
SPLINE
  5
1A4
330
1F
100
AcDbEntity
  8
외형선
  6
Continuous
370
    15
100
AcDbSpline
210
0.0
220
0.0
230
1.0
 70
    24
 71
     3
 72
    11
 73
     7
 74
     0
 42
0.000000001
 43
0.00000001
 40
0.0
 40
0.0
 40
0.0
 40
0.0
 40
0.1304332605396754
 40
0.4535392619829384
 40
0.7770223177559418
 40
1.0
 40
1.0
 40
1.0
 40
1.0
 10
2.000000000000021
 20
-5.102336767672073
 30
0.0
 10
2.000000000000021
 20
-5.122568908600149
 30
0.0
 10
2.000000000000021
 20
-5.192919601566741
 30
0.0
 10
2.000000000000021
 20
-5.30770931716353
 30
0.0
 10
2.000000000000021
 20
-5.432586613692129
 30
0.0
 10
2.000000000000021
 20
-5.507513458927773
 30
0.0
 10
2.000000000000021
 20
-5.538086587290346
 30
0.0
  0
LINE
  5
1A5
330
1F
100
AcDbEntity
  8
외형선
  6
Continuous
370
    15
100
AcDbLine
 10
-31.76612499999997
 20
4.825999999999988
 30
0.0
 11
-20.5901250000001
 21
4.825999999999988
 31
0.0
1001
PE_URL
1000

  0
LINE
  5
1A6
330
1F
100
AcDbEntity
  8
외형선
  6
Continuous
370
    15
100
AcDbLine
 10
-31.76612499999997
 20
4.825999999999988
 30
0.0
 11
-33.29012499999997
 21
6.349999999999989
 31
0.0
1001
PE_URL
1000

  0
LINE
  5
1A7
330
1F
100
AcDbEntity
  8
외형선
  6
Continuous
370
    15
100
AcDbLine
 10
-20.59012499999998
 20
4.825999999999988
 30
0.0
 11
-19.06612499999999
 21
6.349999999999989
 31
0.0
1001
PE_URL
1000

  0
LINE
  5
1A8
330
1F
100
AcDbEntity
  8
외형선
  6
Continuous
370
    15
100
AcDbLine
 10
-33.29012499999998
 20
6.350000000000003
 30
0.0
 11
-47.79999999999999
 21
6.35
 31
0.0
  0
ENDSEC
  0
SECTION
  2
OBJECTS
  0
DICTIONARY
  5
C
330
0
100
AcDbDictionary
281
     1
  3
ACAD_DETAILVIEWSTYLE
350
209
  3
ACAD_GROUP
350
D
  3
ACAD_IMAGE_VARS
350
25A
  3
ACAD_LAYOUT
350
1A
  3
ACAD_MLINESTYLE
350
17
  3
ACAD_PLOTSETTINGS
350
19
  3
ACAD_PLOTSTYLENAME
350
E
  3
ACAD_SCALELIST
350
47
  3
ACAD_SECTIONVIEWSTYLE
350
20A
  3
AcDbVariableDictionary
350
204
  3
APPDATA
350
13A
  3
DWGPROPS
350
25B
  0
DICTIONARY
  5
185
330
2
100
AcDbDictionary
280
     1
281
     1
  3
ACAD_LAYERSTATES
360
186
  0
DICTIONARY
  5
209
102
{ACAD_REACTORS
330
C
102
}
330
C
100
AcDbDictionary
281
     1
  0
DICTIONARY
  5
D
102
{ACAD_REACTORS
330
C
102
}
330
C
100
AcDbDictionary
281
     1
  0
RASTERVARIABLES
  5
25A
102
{ACAD_REACTORS
330
C
102
}
330
C
100
AcDbRasterVariables
 90
        0
 70
     1
 71
     1
 72
     1
  0
DICTIONARY
  5
1A
102
{ACAD_REACTORS
330
C
102
}
330
C
100
AcDbDictionary
281
     1
  3
Layout1
350
1E
  3
Layout2
350
26
  3
Model
350
22
  0
DICTIONARY
  5
17
102
{ACAD_REACTORS
330
C
102
}
330
C
100
AcDbDictionary
281
     1
  3
Standard
350
18
  0
DICTIONARY
  5
19
102
{ACAD_REACTORS
330
C
102
}
330
C
100
AcDbDictionary
281
     1
  0
ACDBDICTIONARYWDFLT
  5
E
102
{ACAD_REACTORS
330
C
102
}
330
C
100
AcDbDictionary
281
     1
  3
Normal
350
F
100
AcDbDictionaryWithDefault
340
F
  0
DICTIONARY
  5
47
102
{ACAD_REACTORS
330
C
102
}
330
C
100
AcDbDictionary
281
     1
  3
A0
350
48
  3
A1
350
49
  3
A2
350
4A
  3
A3
350
4B
  3
A4
350
4C
  3
A5
350
4D
  3
A6
350
4E
  3
A7
350
4F
  3
A8
350
50
  3
A9
350
51
  3
B0
350
52
  3
B1
350
53
  3
B2
350
54
  3
B3
350
55
  3
B4
350
56
  3
B5
350
57
  3
B6
350
58
  3
B7
350
59
  3
B8
350
5A
  3
B9
350
5B
  3
C0
350
5C
  3
C1
350
5D
  3
C2
350
5E
  3
C3
350
5F
  3
C4
350
60
  3
C5
350
61
  3
C6
350
62
  3
C7
350
63
  3
C8
350
64
  3
C9
350
65
  3
D0
350
66
  3
D1
350
67
  3
D2
350
68
  0
DICTIONARY
  5
20A
102
{ACAD_REACTORS
330
C
102
}
330
C
100
AcDbDictionary
281
     1
  0
DICTIONARY
  5
204
102
{ACAD_REACTORS
330
C
102
}
330
C
100
AcDbDictionary
281
     1
  0
DICTIONARY
  5
13A
102
{ACAD_REACTORS
330
C
102
}
330
C
100
AcDbDictionary
281
     1
  0
XRECORD
  5
25B
102
{ACAD_REACTORS
330
C
102
}
330
C
100
AcDbXrecord
280
     1
  1
DWGPROPS COOKIE
  2

  3

  4

  6

  7

  8
12016016
  9

300
=
301
=
302
=
303
=
304
=
305
=
306
=
307
=
308
=
309
=
 40
0.0
 41
2458311.190425301
 42
2458323.07810713
  1

 90
        0
  0
DICTIONARY
  5
186
102
{ACAD_REACTORS
330
185
102
}
330
185
100
AcDbDictionary
281
     1
  0
LAYOUT
  5
1E
102
{ACAD_REACTORS
330
1A
102
}
330
1A
100
AcDbPlotSettings
  1

  2
none_device
  4

  6

 40
0.0
 41
0.0
 42
0.0
 43
0.0
 44
0.0
 45
0.0
 46
0.0
 47
0.0
 48
0.0
 49
0.0
140
0.0
141
0.0
142
1.0
143
1.0
 70
   688
 72
     1
 73
     0
 74
     5
  7

 75
    16
147
1.0
148
0.0
149
0.0
100
AcDbLayout
  1
Layout1
 70
     1
 71
     1
 10
0.0
 20
0.0
 11
420.0
 21
297.0
 12
0.0
 22
0.0
 32
0.0
 14
1.000000000000000E+20
 24
1.000000000000000E+20
 34
1.000000000000000E+20
 15
-1.000000000000000E+20
 25
-1.000000000000000E+20
 35
-1.000000000000000E+20
146
0.0
 13
0.0
 23
0.0
 33
0.0
 16
1.0
 26
0.0
 36
0.0
 17
0.0
 27
1.0
 37
0.0
 76
     0
330
1B
  0
LAYOUT
  5
26
102
{ACAD_REACTORS
330
1A
102
}
330
1A
100
AcDbPlotSettings
  1

  2
none_device
  4

  6

 40
0.0
 41
0.0
 42
0.0
 43
0.0
 44
0.0
 45
0.0
 46
0.0
 47
0.0
 48
0.0
 49
0.0
140
0.0
141
0.0
142
1.0
143
1.0
 70
   688
 72
     1
 73
     0
 74
     5
  7

 75
    16
147
1.0
148
0.0
149
0.0
100
AcDbLayout
  1
Layout2
 70
     1
 71
     2
 10
0.0
 20
0.0
 11
0.0
 21
0.0
 12
0.0
 22
0.0
 32
0.0
 14
0.0
 24
0.0
 34
0.0
 15
0.0
 25
0.0
 35
0.0
146
0.0
 13
0.0
 23
0.0
 33
0.0
 16
1.0
 26
0.0
 36
0.0
 17
0.0
 27
1.0
 37
0.0
 76
     0
330
23
  0
LAYOUT
  5
22
102
{ACAD_REACTORS
330
1A
102
}
330
1A
100
AcDbPlotSettings
  1

  2
none_device
  4
ANSI_A_(11.00_x_8.50_Inches)
  6

 40
6.35
 41
19.05
 42
6.35000508
 43
19.05000254
 44
279.4
 45
215.9
 46
111.5354592427306
 47
97.62990263130112
 48
0.0
 49
0.0
140
0.0
141
0.0
142
0.0715194751484015
143
1.0
 70
  1696
 72
     0
 73
     0
 74
     0
  7

 75
     0
147
0.0235690232323232
148
0.0
149
0.0
100
AcDbLayout
  1
Model
 70
     1
 71
     0
 10
0.0
 20
0.0
 11
420.0
 21
297.0
 12
0.0
 22
0.0
 32
0.0
 14
-68.17500000000011
 24
-49.97180738881174
 34
0.0
 15
86.4010088153456
 25
42.53479134588537
 35
0.0
146
0.0
 13
0.0
 23
0.0
 33
0.0
 16
1.0
 26
0.0
 36
0.0
 17
0.0
 27
1.0
 37
0.0
 76
     0
330
1F
331
29
  0
MLINESTYLE
  5
18
102
{ACAD_REACTORS
330
17
102
}
330
17
100
AcDbMlineStyle
  2
Standard
 70
     0
  3

 62
   256
 51
90.0
 52
90.0
 71
     2
 49
0.5
 62
   256
  6
BYLAYER
 49
-0.5
 62
   256
  6
BYLAYER
  0
ACDBPLACEHOLDER
  5
F
102
{ACAD_REACTORS
330
E
102
}
330
E
  0
SCALE
  5
48
102
{ACAD_REACTORS
330
47
102
}
330
47
100
AcDbScale
 70
     0
300
1:1
140
1.0
141
1.0
290
     1
  0
SCALE
  5
49
102
{ACAD_REACTORS
330
47
102
}
330
47
100
AcDbScale
 70
     0
300
1:2
140
1.0
141
2.0
290
     0
  0
SCALE
  5
4A
102
{ACAD_REACTORS
330
47
102
}
330
47
100
AcDbScale
 70
     0
300
1:4
140
1.0
141
4.0
290
     0
  0
SCALE
  5
4B
102
{ACAD_REACTORS
330
47
102
}
330
47
100
AcDbScale
 70
     0
300
1:5
140
1.0
141
5.0
290
     0
  0
SCALE
  5
4C
102
{ACAD_REACTORS
330
47
102
}
330
47
100
AcDbScale
 70
     0
300
1:8
140
1.0
141
8.0
290
     0
  0
SCALE
  5
4D
102
{ACAD_REACTORS
330
47
102
}
330
47
100
AcDbScale
 70
     0
300
1:10
140
1.0
141
10.0
290
     0
  0
SCALE
  5
4E
102
{ACAD_REACTORS
330
47
102
}
330
47
100
AcDbScale
 70
     0
300
1:16
140
1.0
141
16.0
290
     0
  0
SCALE
  5
4F
102
{ACAD_REACTORS
330
47
102
}
330
47
100
AcDbScale
 70
     0
300
1:20
140
1.0
141
20.0
290
     0
  0
SCALE
  5
50
102
{ACAD_REACTORS
330
47
102
}
330
47
100
AcDbScale
 70
     0
300
1:30
140
1.0
141
30.0
290
     0
  0
SCALE
  5
51
102
{ACAD_REACTORS
330
47
102
}
330
47
100
AcDbScale
 70
     0
300
1:40
140
1.0
141
40.0
290
     0
  0
SCALE
  5
52
102
{ACAD_REACTORS
330
47
102
}
330
47
100
AcDbScale
 70
     0
300
1:50
140
1.0
141
50.0
290
     0
  0
SCALE
  5
53
102
{ACAD_REACTORS
330
47
102
}
330
47
100
AcDbScale
 70
     0
300
1:100
140
1.0
141
100.0
290
     0
  0
SCALE
  5
54
102
{ACAD_REACTORS
330
47
102
}
330
47
100
AcDbScale
 70
     0
300
2:1
140
2.0
141
1.0
290
     0
  0
SCALE
  5
55
102
{ACAD_REACTORS
330
47
102
}
330
47
100
AcDbScale
 70
     0
300
4:1
140
4.0
141
1.0
290
     0
  0
SCALE
  5
56
102
{ACAD_REACTORS
330
47
102
}
330
47
100
AcDbScale
 70
     0
300
8:1
140
8.0
141
1.0
290
     0
  0
SCALE
  5
57
102
{ACAD_REACTORS
330
47
102
}
330
47
100
AcDbScale
 70
     0
300
10:1
140
10.0
141
1.0
290
     0
  0
SCALE
  5
58
102
{ACAD_REACTORS
330
47
102
}
330
47
100
AcDbScale
 70
     0
300
100:1
140
100.0
141
1.0
290
     0
  0
SCALE
  5
59
102
{ACAD_REACTORS
330
47
102
}
330
47
100
AcDbScale
 70
     0
300
1/128" = 1'-0"
140
0.0078125
141
12.0
290
     0
  0
SCALE
  5
5A
102
{ACAD_REACTORS
330
47
102
}
330
47
100
AcDbScale
 70
     0
300
1/64" = 1'-0"
140
0.015625
141
12.0
290
     0
  0
SCALE
  5
5B
102
{ACAD_REACTORS
330
47
102
}
330
47
100
AcDbScale
 70
     0
300
1/32" = 1'-0"
140
0.03125
141
12.0
290
     0
  0
SCALE
  5
5C
102
{ACAD_REACTORS
330
47
102
}
330
47
100
AcDbScale
 70
     0
300
1/16" = 1'-0"
140
0.0625
141
12.0
290
     0
  0
SCALE
  5
5D
102
{ACAD_REACTORS
330
47
102
}
330
47
100
AcDbScale
 70
     0
300
3/32" = 1'-0"
140
0.09375
141
12.0
290
     0
  0
SCALE
  5
5E
102
{ACAD_REACTORS
330
47
102
}
330
47
100
AcDbScale
 70
     0
300
1/8" = 1'-0"
140
0.125
141
12.0
290
     0
  0
SCALE
  5
5F
102
{ACAD_REACTORS
330
47
102
}
330
47
100
AcDbScale
 70
     0
300
3/16" = 1'-0"
140
0.1875
141
12.0
290
     0
  0
SCALE
  5
60
102
{ACAD_REACTORS
330
47
102
}
330
47
100
AcDbScale
 70
     0
300
1/4" = 1'-0"
140
0.25
141
12.0
290
     0
  0
SCALE
  5
61
102
{ACAD_REACTORS
330
47
102
}
330
47
100
AcDbScale
 70
     0
300
3/8" = 1'-0"
140
0.375
141
12.0
290
     0
  0
SCALE
  5
62
102
{ACAD_REACTORS
330
47
102
}
330
47
100
AcDbScale
 70
     0
300
1/2" = 1'-0"
140
0.5
141
12.0
290
     0
  0
SCALE
  5
63
102
{ACAD_REACTORS
330
47
102
}
330
47
100
AcDbScale
 70
     0
300
3/4" = 1'-0"
140
0.75
141
12.0
290
     0
  0
SCALE
  5
64
102
{ACAD_REACTORS
330
47
102
}
330
47
100
AcDbScale
 70
     0
300
1" = 1'-0"
140
1.0
141
12.0
290
     0
  0
SCALE
  5
65
102
{ACAD_REACTORS
330
47
102
}
330
47
100
AcDbScale
 70
     0
300
1-1/2" = 1'-0"
140
1.5
141
12.0
290
     0
  0
SCALE
  5
66
102
{ACAD_REACTORS
330
47
102
}
330
47
100
AcDbScale
 70
     0
300
3" = 1'-0"
140
3.0
141
12.0
290
     0
  0
SCALE
  5
67
102
{ACAD_REACTORS
330
47
102
}
330
47
100
AcDbScale
 70
     0
300
6" = 1'-0"
140
6.0
141
12.0
290
     0
  0
SCALE
  5
68
102
{ACAD_REACTORS
330
47
102
}
330
47
100
AcDbScale
 70
     0
300
1'-0" = 1'-0"
140
12.0
141
12.0
290
     0
  0
ENDSEC
  0
EOF
