  0
SECTION
  2
HEADER
  9
$ACADVER
  1
AC1015
  9
$ACADMAINTVER
 70
     6
  9
$DWGCODEPAGE
  3
ANSI_949
  9
$INSBASE
 10
0.0
 20
0.0
 30
0.0
  9
$EXTMIN
 10
-68.1750000000001
 20
-49.97180738881175
 30
0.0
  9
$EXTMAX
 10
86.40100881534562
 20
43.68344961506243
 30
0.0
  9
$LIMMIN
 10
0.0
 20
0.0
  9
$LIMMAX
 10
420.0
 20
297.0
  9
$ORTHOMODE
 70
     1
  9
$REGENMODE
 70
     1
  9
$FILLMODE
 70
     1
  9
$QTEXTMODE
 70
     0
  9
$MIRRTEXT
 70
     1
  9
$LTSCALE
 40
1.0
  9
$ATTMODE
 70
     1
  9
$TEXTSIZE
 40
3.5
  9
$TRACEWID
 40
1.0
  9
$TEXTSTYLE
  7
Standard
  9
$CLAYER
  8
0
  9
$CELTYPE
  6
ByLayer
  9
$CECOLOR
 62
   256
  9
$CELTSCALE
 40
1.0
  9
$DISPSILH
 70
     0
  9
$DIMSCALE
 40
1.0
  9
$DIMASZ
 40
3.302
  9
$DIMEXO
 40
1.0
  9
$DIMDLI
 40
3.75
  9
$DIMRND
 40
0.0
  9
$DIMDLE
 40
0.0
  9
$DIMEXE
 40
1.0
  9
$DIMTP
 40
0.0
  9
$DIMTM
 40
0.0
  9
$DIMTXT
 40
3.5
  9
$DIMCEN
 40
2.5
  9
$DIMTSZ
 40
0.0
  9
$DIMTOL
 70
     0
  9
$DIMLIM
 70
     0
  9
$DIMTIH
 70
     1
  9
$DIMTOH
 70
     1
  9
$DIMSE1
 70
     0
  9
$DIMSE2
 70
     0
  9
$DIMTAD
 70
     1
  9
$DIMZIN
 70
     0
  9
$DIMBLK
  1

  9
$DIMASO
 70
     1
  9
$DIMSHO
 70
     1
  9
$DIMPOST
  1

  9
$DIMAPOST
  1

  9
$DIMALT
 70
     0
  9
$DIMALTD
 70
     3
  9
$DIMALTF
 40
0.0393700787401575
  9
$DIMLFAC
 40
1.0
  9
$DIMTOFL
 70
     1
  9
$DIMTVP
 40
0.0
  9
$DIMTIX
 70
     0
  9
$DIMSOXD
 70
     0
  9
$DIMSAH
 70
     0
  9
$DIMBLK1
  1

  9
$DIMBLK2
  1

  9
$DIMSTYLE
  2
ISO-25
  9
$DIMCLRD
 70
     0
  9
$DIMCLRE
 70
     0
  9
$DIMCLRT
 70
     0
  9
$DIMTFAC
 40
1.0
  9
$DIMGAP
 40
1.524
  9
$DIMJUST
 70
     0
  9
$DIMSD1
 70
     0
  9
$DIMSD2
 70
     0
  9
$DIMTOLJ
 70
     0
  9
$DIMTZIN
 70
     0
  9
$DIMALTZ
 70
     0
  9
$DIMALTTZ
 70
     0
  9
$DIMUPT
 70
     0
  9
$DIMDEC
 70
     2
  9
$DIMTDEC
 70
     2
  9
$DIMALTU
 70
     2
  9
$DIMALTTD
 70
     3
  9
$DIMTXSTY
  7
Standard
  9
$DIMAUNIT
 70
     0
  9
$DIMADEC
 70
     2
  9
$DIMALTRND
 40
0.0
  9
$DIMAZIN
 70
     0
  9
$DIMDSEP
 70
    44
  9
$DIMATFIT
 70
     3
  9
$DIMFRAC
 70
     0
  9
$DIMLDRBLK
  1

  9
$DIMLUNIT
 70
     2
  9
$DIMLWD
 70
    -2
  9
$DIMLWE
 70
    -2
  9
$DIMTMOVE
 70
     0
  9
$LUNITS
 70
     2
  9
$LUPREC
 70
     2
  9
$SKETCHINC
 40
1.0
  9
$FILLETRAD
 40
10.0
  9
$AUNITS
 70
     0
  9
$AUPREC
 70
     2
  9
$MENU
  1
.
  9
$ELEVATION
 40
0.0
  9
$PELEVATION
 40
0.0
  9
$THICKNESS
 40
0.0
  9
$LIMCHECK
 70
     0
  9
$CHAMFERA
 40
0.0
  9
$CHAMFERB
 40
0.0
  9
$CHAMFERC
 40
0.0
  9
$CHAMFERD
 40
0.0
  9
$SKPOLY
 70
     0
  9
$TDCREATE
 40
2458311.565848866
  9
$TDUCREATE
 40
2458311.190848866
  9
$TDUPDATE
 40
2458323.453009178
  9
$TDUUPDATE
 40
2458323.078009178
  9
$TDINDWG
 40
0.0028570602
  9
$TDUSRTIMER
 40
2458323.077623276
  9
$USRTIMER
 70
     1
  9
$ANGBASE
 50
0.0
  9
$ANGDIR
 70
     0
  9
$PDMODE
 70
     0
  9
$PDSIZE
 40
-1.0
  9
$PLINEWID
 40
0.0
  9
$SPLFRAME
 70
     0
  9
$SPLINETYPE
 70
     6
  9
$SPLINESEGS
 70
     8
  9
$HANDSEED
  5
246
  9
$SURFTAB1
 70
     6
  9
$SURFTAB2
 70
     6
  9
$SURFTYPE
 70
     6
  9
$SURFU
 70
     6
  9
$SURFV
 70
     6
  9
$UCSBASE
  2

  9
$UCSNAME
  2

  9
$UCSORG
 10
0.0
 20
0.0
 30
0.0
  9
$UCSXDIR
 10
1.0
 20
0.0
 30
0.0
  9
$UCSYDIR
 10
0.0
 20
1.0
 30
0.0
  9
$UCSORTHOREF
  2

  9
$UCSORTHOVIEW
 70
     0
  9
$UCSORGTOP
 10
0.0
 20
0.0
 30
0.0
  9
$UCSORGBOTTOM
 10
0.0
 20
0.0
 30
0.0
  9
$UCSORGLEFT
 10
0.0
 20
0.0
 30
0.0
  9
$UCSORGRIGHT
 10
0.0
 20
0.0
 30
0.0
  9
$UCSORGFRONT
 10
0.0
 20
0.0
 30
0.0
  9
$UCSORGBACK
 10
0.0
 20
0.0
 30
0.0
  9
$PUCSBASE
  2

  9
$PUCSNAME
  2

  9
$PUCSORG
 10
0.0
 20
0.0
 30
0.0
  9
$PUCSXDIR
 10
1.0
 20
0.0
 30
0.0
  9
$PUCSYDIR
 10
0.0
 20
1.0
 30
0.0
  9
$PUCSORTHOREF
  2

  9
$PUCSORTHOVIEW
 70
     0
  9
$PUCSORGTOP
 10
0.0
 20
0.0
 30
0.0
  9
$PUCSORGBOTTOM
 10
0.0
 20
0.0
 30
0.0
  9
$PUCSORGLEFT
 10
0.0
 20
0.0
 30
0.0
  9
$PUCSORGRIGHT
 10
0.0
 20
0.0
 30
0.0
  9
$PUCSORGFRONT
 10
0.0
 20
0.0
 30
0.0
  9
$PUCSORGBACK
 10
0.0
 20
0.0
 30
0.0
  9
$USERI1
 70
     0
  9
$USERI2
 70
     0
  9
$USERI3
 70
     0
  9
$USERI4
 70
     0
  9
$USERI5
 70
     0
  9
$USERR1
 40
0.0
  9
$USERR2
 40
0.0
  9
$USERR3
 40
0.0
  9
$USERR4
 40
0.0
  9
$USERR5
 40
0.0
  9
$WORLDVIEW
 70
     1
  9
$SHADEDGE
 70
     3
  9
$SHADEDIF
 70
    70
  9
$TILEMODE
 70
     1
  9
$MAXACTVP
 70
    64
  9
$PINSBASE
 10
0.0
 20
0.0
 30
0.0
  9
$PLIMCHECK
 70
     0
  9
$PEXTMIN
 10
1.000000000000000E+20
 20
1.000000000000000E+20
 30
1.000000000000000E+20
  9
$PEXTMAX
 10
-1.000000000000000E+20
 20
-1.000000000000000E+20
 30
-1.000000000000000E+20
  9
$PLIMMIN
 10
0.0
 20
0.0
  9
$PLIMMAX
 10
0.0
 20
0.0
  9
$UNITMODE
 70
     0
  9
$VISRETAIN
 70
     1
  9
$PLINEGEN
 70
     0
  9
$PSLTSCALE
 70
     1
  9
$TREEDEPTH
 70
  3020
  9
$CMLSTYLE
  2
Standard
  9
$CMLJUST
 70
     0
  9
$CMLSCALE
 40
20.0
  9
$PROXYGRAPHICS
 70
     1
  9
$MEASUREMENT
 70
     1
  9
$CELWEIGHT
370
    -1
  9
$ENDCAPS
280
     0
  9
$JOINSTYLE
280
     0
  9
$LWDISPLAY
290
     1
  9
$INSUNITS
 70
     4
  9
$HYPERLINKBASE
  1

  9
$STYLESHEET
  1

  9
$XEDIT
290
     1
  9
$CEPSNTYPE
380
     0
  9
$PSTYLEMODE
290
     1
  9
$FINGERPRINTGUID
  2
{5E64FC7C-417F-4FBE-89AD-7B2BDA58DAD3}
  9
$VERSIONGUID
  2
{FAEB1C32-E019-11D5-929B-00C0DF256EC4}
  9
$EXTNAMES
290
     1
  9
$PSVPSCALE
 40
0.0
  9
$OLESTARTUP
290
     0
  0
ENDSEC
  0
SECTION
  2
CLASSES
  0
CLASS
  1
ACDBDICTIONARYWDFLT
  2
AcDbDictionaryWithDefault
  3
ObjectDBX Classes
 90
        0
280
     0
281
     0
  0
CLASS
  1
VISUALSTYLE
  2
AcDbVisualStyle
  3
ObjectDBX Classes
 90
     4095
280
     0
281
     0
  0
CLASS
  1
MATERIAL
  2
AcDbMaterial
  3
ObjectDBX Classes
 90
     1153
280
     0
281
     0
  0
CLASS
  1
SCALE
  2
AcDbScale
  3
ObjectDBX Classes
 90
     1153
280
     0
281
     0
  0
CLASS
  1
SUN
  2
AcDbSun
  3
SCENEOE
 90
     1153
280
     0
281
     0
  0
CLASS
  1
ACDBPLACEHOLDER
  2
AcDbPlaceHolder
  3
ObjectDBX Classes
 90
        0
280
     0
281
     0
  0
CLASS
  1
LAYOUT
  2
AcDbLayout
  3
ObjectDBX Classes
 90
        0
280
     0
281
     0
  0
CLASS
  1
TABLESTYLE
  2
AcDbTableStyle
  3
ObjectDBX Classes
 90
     4095
280
     0
281
     0
  0
CLASS
  1
MLEADERSTYLE
  2
AcDbMLeaderStyle
  3
ACDB_MLEADERSTYLE_CLASS
 90
     4095
280
     0
281
     0
  0
CLASS
  1
RASTERVARIABLES
  2
AcDbRasterVariables
  3
ISM
 90
        0
280
     0
281
     0
  0
ENDSEC
  0
SECTION
  2
TABLES
  0
TABLE
  2
VPORT
  5
8
330
0
100
AcDbSymbolTable
 70
     1
  0
VPORT
  5
29
330
8
100
AcDbSymbolTableRecord
100
AcDbViewportTableRecord
  2
*Active
 70
     0
 10
0.0
 20
0.0
 11
1.0
 21
1.0
 12
9.113004407672761
 22
-3.144178886874663
 13
0.0
 23
0.0
 14
10.0
 24
10.0
 15
10.0
 25
10.0
 16
0.0
 26
0.0
 36
1.0
 17
0.0
 27
0.0
 37
0.0
 40
95.52836214395165
 41
1.782762691853601
 42
50.0
 43
0.0
 44
0.0
 50
0.0
 51
0.0
 71
    16
 72
  2000
 73
     1
 74
     3
 75
     0
 76
     0
 77
     0
 78
     0
281
     0
 65
     1
110
0.0
120
0.0
130
0.0
111
1.0
121
0.0
131
0.0
112
0.0
122
1.0
132
0.0
 79
     0
146
0.0
  0
ENDTAB
  0
TABLE
  2
LTYPE
  5
5
330
0
100
AcDbSymbolTable
 70
     6
  0
LTYPE
  5
14
330
5
100
AcDbSymbolTableRecord
100
AcDbLinetypeTableRecord
  2
ByBlock
 70
     0
  3

 72
    65
 73
     0
 40
0.0
  0
LTYPE
  5
15
330
5
100
AcDbSymbolTableRecord
100
AcDbLinetypeTableRecord
  2
ByLayer
 70
     0
  3

 72
    65
 73
     0
 40
0.0
  0
LTYPE
  5
16
330
5
100
AcDbSymbolTableRecord
100
AcDbLinetypeTableRecord
  2
Continuous
 70
     0
  3
Solid line
 72
    65
 73
     0
 40
0.0
  0
LTYPE
  5
6A
330
5
100
AcDbSymbolTableRecord
100
AcDbLinetypeTableRecord
  2
HIDDEN
 70
     0
  3
Hidden __ __ __ __ __ __ __ __ __ __ __ __ __ __
 72
    65
 73
     2
 40
1.905
 49
1.27
 74
     0
 49
-0.635
 74
     0
  0
LTYPE
  5
6B
330
5
100
AcDbSymbolTableRecord
100
AcDbLinetypeTableRecord
  2
PHANTOM
 70
     0
  3
Phantom ______  __  __  ______  __  __  ______
 72
    65
 73
     6
 40
12.7
 49
6.35
 74
     0
 49
-1.27
 74
     0
 49
1.27
 74
     0
 49
-1.27
 74
     0
 49
1.27
 74
     0
 49
-1.27
 74
     0
  0
LTYPE
  5
6C
330
5
100
AcDbSymbolTableRecord
100
AcDbLinetypeTableRecord
  2
CENTER
 70
     0
  3
Center ____ _ ____ _ ____ _ ____ _ ____ _ ____
 72
    65
 73
     4
 40
10.16
 49
6.35
 74
     0
 49
-1.27
 74
     0
 49
1.27
 74
     0
 49
-1.27
 74
     0
  0
LTYPE
  5
6D
330
5
100
AcDbSymbolTableRecord
100
AcDbLinetypeTableRecord
  2
CENTERX2
 70
     0
  3
Center (2x) ________  __  ________  __  _____
 72
    65
 73
     4
 40
20.32
 49
12.7
 74
     0
 49
-2.54
 74
     0
 49
2.54
 74
     0
 49
-2.54
 74
     0
  0
LTYPE
  5
6E
330
5
100
AcDbSymbolTableRecord
100
AcDbLinetypeTableRecord
  2
DOT2
 70
     0
  3
Dot (.5x) ........................................
 72
    65
 73
     2
 40
0.635
 49
0.0
 74
     0
 49
-0.635
 74
     0
  0
ENDTAB
  0
TABLE
  2
LAYER
  5
2
102
{ACAD_XDICTIONARY
360
17B
102
}
330
0
100
AcDbSymbolTable
 70
    18
  0
LAYER
  5
10
330
2
100
AcDbSymbolTableRecord
100
AcDbLayerTableRecord
  2
0
 70
     0
 62
     7
  6
Continuous
370
    -3
390
F
  0
LAYER
  5
6F
330
2
100
AcDbSymbolTableRecord
100
AcDbLayerTableRecord
  2
FORMAT
 70
     0
 62
     2
  6
Continuous
370
    -3
390
F
  0
LAYER
  5
70
330
2
100
AcDbSymbolTableRecord
100
AcDbLayerTableRecord
  2
외형선
 70
     0
 62
     4
  6
Continuous
370
    30
390
F
  0
LAYER
  5
71
330
2
100
AcDbSymbolTableRecord
100
AcDbLayerTableRecord
  2
숨은선
 70
     0
 62
     2
  6
HIDDEN
370
    15
390
F
  0
LAYER
  5
72
330
2
100
AcDbSymbolTableRecord
100
AcDbLayerTableRecord
  2
중심선
 70
     0
 62
     1
  6
CENTERX2
370
    -3
390
F
  0
LAYER
  5
73
330
2
100
AcDbSymbolTableRecord
100
AcDbLayerTableRecord
  2
파단선
 70
     0
 62
     4
  6
Continuous
370
    -3
390
F
  0
LAYER
  5
74
330
2
100
AcDbSymbolTableRecord
100
AcDbLayerTableRecord
  2
해칭선
 70
     0
 62
   100
  6
Continuous
370
    -3
390
F
  0
LAYER
  5
75
330
2
100
AcDbSymbolTableRecord
100
AcDbLayerTableRecord
  2
가는실선
 70
     0
 62
     4
  6
Continuous
370
    -3
390
F
  0
LAYER
  5
76
330
2
100
AcDbSymbolTableRecord
100
AcDbLayerTableRecord
  2
치수_보조선
 70
     0
 62
     4
  6
Continuous
370
    -3
390
F
  0
LAYER
  5
77
330
2
100
AcDbSymbolTableRecord
100
AcDbLayerTableRecord
  2
치수문자_일반주서
 70
     0
 62
     7
  6
Continuous
370
    15
390
F
  0
LAYER
  5
78
330
2
100
AcDbSymbolTableRecord
100
AcDbLayerTableRecord
  2
개별주서
 70
     0
 62
   100
  6
Continuous
370
    30
390
F
  0
LAYER
  5
79
330
2
100
AcDbSymbolTableRecord
100
AcDbLayerTableRecord
  2
중간선
 70
     0
 62
     2
  6
Continuous
370
    15
390
F
  0
LAYER
  5
7A
330
2
100
AcDbSymbolTableRecord
100
AcDbLayerTableRecord
  2
윤곽선
 70
     0
 62
     3
  6
Continuous
370
    40
390
F
  0
LAYER
  5
7B
330
2
100
AcDbSymbolTableRecord
100
AcDbLayerTableRecord
  2
중심마크
 70
     0
 62
   100
  6
Continuous
370
    30
390
F
  0
LAYER
  5
7C
330
2
100
AcDbSymbolTableRecord
100
AcDbLayerTableRecord
  2
가상선
 70
     0
 62
     4
  6
PHANTOM
370
    -3
390
F
  0
LAYER
  5
7D
330
2
100
AcDbSymbolTableRecord
100
AcDbLayerTableRecord
  2
특수지정선
 70
     0
 62
     5
  6
CENTERX2
370
    60
390
F
  0
LAYER
  5
7E
330
2
100
AcDbSymbolTableRecord
100
AcDbLayerTableRecord
  2
참조1
 70
     0
 62
    -4
  6
Continuous
370
    -3
390
F
  0
LAYER
  5
19E
330
2
100
AcDbSymbolTableRecord
100
AcDbLayerTableRecord
  2
Defpoints
 70
     0
 62
     7
  6
Continuous
290
     0
370
    -3
390
F
  0
ENDTAB
  0
TABLE
  2
STYLE
  5
3
330
0
100
AcDbSymbolTable
 70
     2
  0
STYLE
  5
11
330
3
100
AcDbSymbolTableRecord
100
AcDbTextStyleTableRecord
  2
Standard
 70
     0
 40
0.0
 41
1.0
 50
0.0
 71
     0
 42
3.5
  3
txt
  4

  0
STYLE
  5
94
330
3
100
AcDbSymbolTableRecord
100
AcDbTextStyleTableRecord
  2
SLDTEXTSTYLE0
 70
     0
 40
0.0
 41
0.75
 50
0.0
 71
     0
 42
3.5
  3
TXT
  4

  0
ENDTAB
  0
TABLE
  2
VIEW
  5
6
330
0
100
AcDbSymbolTable
 70
     0
  0
ENDTAB
  0
TABLE
  2
UCS
  5
7
330
0
100
AcDbSymbolTable
 70
     0
  0
ENDTAB
  0
TABLE
  2
APPID
  5
9
330
0
100
AcDbSymbolTable
 70
     2
  0
APPID
  5
12
330
9
100
AcDbSymbolTableRecord
100
AcDbRegAppTableRecord
  2
ACAD
 70
     0
  0
APPID
  5
13F
330
9
100
AcDbSymbolTableRecord
100
AcDbRegAppTableRecord
  2
PE_URL
 70
     0
  0
ENDTAB
  0
TABLE
  2
DIMSTYLE
  5
A
330
0
100
AcDbSymbolTable
 70
     5
100
AcDbDimStyleTable
  0
DIMSTYLE
105
27
330
A
100
AcDbSymbolTableRecord
100
AcDbDimStyleTableRecord
  2
ISO-25
 70
     0
 41
2.5
 42
0.625
 43
3.75
 44
1.25
 73
     0
 74
     0
 77
     1
 78
     8
140
2.5
141
2.5
143
0.03937007874016
147
0.625
171
     3
172
     1
178
     0
271
     2
272
     2
274
     3
278
    44
283
     0
284
     8
340
11
  0
DIMSTYLE
105
BF
330
A
100
AcDbSymbolTableRecord
100
AcDbDimStyleTableRecord
  2
SLDDIMSTYLE0
 70
     0
 41
3.302
 44
0.0
 45
0.000000001
 73
     0
 74
     0
 77
     1
 78
     4
 79
     1
140
3.5
147
0.875
172
     1
173
     1
178
     0
271
     2
272
     2
276
     2
284
    12
289
     0
340
94
  0
DIMSTYLE
105
CD
102
{ACAD_REACTORS
330
CC
330
E2
330
F6
330
BE
102
}
330
A
100
AcDbSymbolTableRecord
100
AcDbDimStyleTableRecord
  2
SLDDIMSTYLE1
 70
     0
 41
3.302
 44
0.0
 45
0.000000001
 73
     0
 74
     0
 77
     1
 78
     4
 79
     1
140
3.5
143
0.0393700787401575
147
0.875
148
0.000000001
170
     1
172
     1
173
     1
178
     0
271
     2
272
     2
276
     2
284
    12
289
     0
340
94
  0
DIMSTYLE
105
E3
330
A
100
AcDbSymbolTableRecord
100
AcDbDimStyleTableRecord
  2
SLDDIMSTYLE2
 70
     0
 41
3.302
 44
0.0
 45
0.000000001
 73
     0
 74
     0
 77
     1
 78
     4
 79
     1
140
3.5
143
0.0393700787401575
147
0.875
148
0.000000001
170
     1
173
     1
178
     0
271
     2
272
     2
276
     2
284
    12
340
94
  0
DIMSTYLE
105
F7
330
A
100
AcDbSymbolTableRecord
100
AcDbDimStyleTableRecord
  2
SLDDIMSTYLE3
 70
     0
 41
3.302
 44
0.0
 45
0.000000001
 73
     0
 74
     0
 77
     1
 78
    12
 79
     3
140
3.5
143
0.0393700787401575
147
0.875
148
0.000000001
170
     1
173
     1
178
     0
271
     2
272
     2
276
     2
284
    12
340
94
  0
ENDTAB
  0
TABLE
  2
BLOCK_RECORD
  5
1
330
0
100
AcDbSymbolTable
 70
     9
  0
BLOCK_RECORD
  5
1F
330
1
100
AcDbSymbolTableRecord
100
AcDbBlockTableRecord
  2
*Model_Space
340
22
  0
BLOCK_RECORD
  5
1B
330
1
100
AcDbSymbolTableRecord
100
AcDbBlockTableRecord
  2
*Paper_Space
340
1E
  0
BLOCK_RECORD
  5
23
330
1
100
AcDbSymbolTableRecord
100
AcDbBlockTableRecord
  2
*Paper_Space0
340
26
  0
BLOCK_RECORD
  5
7F
330
1
100
AcDbSymbolTableRecord
100
AcDbBlockTableRecord
  2
블럭10
340
0
102
{BLKREFS
331
B7
102
}
  0
BLOCK_RECORD
  5
C0
330
1
100
AcDbSymbolTableRecord
100
AcDbBlockTableRecord
  2
_D
340
0
  0
BLOCK_RECORD
  5
CE
330
1
100
AcDbSymbolTableRecord
100
AcDbBlockTableRecord
  2
_D_1
340
0
  0
BLOCK_RECORD
  5
E4
330
1
100
AcDbSymbolTableRecord
100
AcDbBlockTableRecord
  2
_D_2
340
0
  0
BLOCK_RECORD
  5
F8
330
1
100
AcDbSymbolTableRecord
100
AcDbBlockTableRecord
  2
_D_3
340
0
  0
BLOCK_RECORD
  5
111
330
1
100
AcDbSymbolTableRecord
100
AcDbBlockTableRecord
  2
SW_DOWELSYMBOL_0
340
0
102
{BLKREFS
331
117
102
}
  0
BLOCK_RECORD
  5
1D7
330
1
100
AcDbSymbolTableRecord
100
AcDbBlockTableRecord
  2
*D7
340
0
  0
BLOCK_RECORD
  5
1E9
330
1
100
AcDbSymbolTableRecord
100
AcDbBlockTableRecord
  2
*D8
340
0
  0
ENDTAB
  0
ENDSEC
  0
SECTION
  2
BLOCKS
  0
BLOCK
  5
20
330
1F
100
AcDbEntity
  8
0
100
AcDbBlockBegin
  2
*Model_Space
 70
     0
 10
0.0
 20
0.0
 30
0.0
  3
*Model_Space
  1
*Model_Space
  0
ENDBLK
  5
21
330
1F
100
AcDbEntity
  8
0
100
AcDbBlockEnd
  0
BLOCK
  5
1C
330
1B
100
AcDbEntity
 67
     1
  8
0
100
AcDbBlockBegin
  2
*Paper_Space
 70
     0
 10
0.0
 20
0.0
 30
0.0
  3
*Paper_Space
  1
*Paper_Space
  0
ENDBLK
  5
1D
330
1B
100
AcDbEntity
 67
     1
  8
0
100
AcDbBlockEnd
  0
BLOCK
  5
24
330
23
100
AcDbEntity
  8
0
100
AcDbBlockBegin
  2
*Paper_Space0
 70
     0
 10
0.0
 20
0.0
 30
0.0
  3
*Paper_Space0
  1
*Paper_Space0
  0
ENDBLK
  5
25
330
23
100
AcDbEntity
  8
0
100
AcDbBlockEnd
  0
BLOCK
  5
80
330
7F
100
AcDbEntity
  8
0
100
AcDbBlockBegin
  2
블럭10
 70
     2
 10
0.0
 20
0.0
 30
0.0
  3
블럭10
  1
블럭10
  0
ELLIPSE
  5
82
330
7F
100
AcDbEntity
  8
중심선
100
AcDbEllipse
 10
20.54032771741204
 20
12.0471743016438
 30
0.0
 11
6.600054785286829
 21
-1.261213355974178E-13
 31
0.0
210
0.0
220
0.0
230
1.0
 40
0.636358354079598
 41
0.9219305317359503
 42
6.513795318482858
  0
ELLIPSE
  5
83
330
7F
100
AcDbEntity
  8
중심선
100
AcDbEllipse
 10
20.54032771746488
 20
12.04717430159265
 30
0.0
 11
3.960054785062283
 21
1.540847449632565E-10
 31
0.0
210
0.0
220
0.0
230
1.0
 40
0.3939339440162632
 41
1.131841032648279
 42
5.62031148352944
  0
LINE
  5
84
330
7F
100
AcDbEntity
  8
중심선
100
AcDbLine
 10
2.268634060543552
 20
16.24717430164393
 30
0.0
 11
5.714909304380834
 21
16.24717430164393
 31
0.0
  0
LINE
  5
85
330
7F
100
AcDbEntity
  8
중심선
100
AcDbLine
 10
5.245725140726316
 20
7.84717430164391
 30
0.0
 11
8.692000384563599
 21
7.84717430164391
 31
0.0
  0
LINE
  5
86
330
7F
100
AcDbEntity
  8
중심선
100
AcDbLine
 10
15.74043728645272
 20
16.24717430164393
 30
0.0
 11
8.692000384563599
 21
7.84717430164391
 31
0.0
  0
LINE
  5
87
330
7F
100
AcDbEntity
  8
중심선
100
AcDbLine
 10
0.1404042013395286
 20
13.71084872107135
 30
0.0
 11
3.58671253028996
 21
13.71088815037384
 31
0.0
  0
LINE
  5
88
330
7F
100
AcDbEntity
  8
중심선
100
AcDbLine
 10
2.750260043222114
 20
10.84717430164391
 30
0.0
 11
6.196535287059397
 21
10.84717430164391
 31
0.0
  0
LINE
  5
89
330
7F
100
AcDbEntity
  8
중심선
100
AcDbLine
 10
12.29416204261559
 20
16.24717430164393
 30
0.0
 11
5.245725140726316
 21
7.84717430164391
 31
0.0
  0
LINE
  5
8A
330
7F
100
AcDbEntity
  8
중심선
100
AcDbLine
 10
10.72767329541681
 20
16.24717430164393
 30
0.0
 11
6.196535287059397
 21
10.84717430164391
 31
0.0
  0
LINE
  5
8B
330
7F
100
AcDbEntity
  8
중심선
100
AcDbLine
 10
7.28139805157953
 20
16.24717430164393
 30
0.0
 11
2.750260043222114
 21
10.84717430164391
 31
0.0
  0
LINE
  5
8C
330
7F
100
AcDbEntity
  8
중심선
100
AcDbLine
 10
5.714909304380834
 20
16.24717430164393
 30
0.0
 11
3.58671253028996
 21
13.71088815037384
 31
0.0
  0
LINE
  5
8D
330
7F
100
AcDbEntity
  8
중심선
100
AcDbLine
 10
2.268634060543552
 20
16.24717430164393
 30
0.0
 11
0.1404042013395286
 21
13.71084872107135
 31
0.0
  0
LINE
  5
8E
330
7F
100
AcDbEntity
  8
중심선
100
AcDbLine
 10
7.28139805157953
 20
16.24717430164393
 30
0.0
 11
10.72767329541681
 21
16.24717430164393
 31
0.0
  0
LINE
  5
8F
330
7F
100
AcDbEntity
  8
중심선
100
AcDbLine
 10
12.29416204261559
 20
16.24717430164393
 30
0.0
 11
15.74043728645272
 21
16.24717430164393
 31
0.0
  0
LINE
  5
90
330
7F
100
AcDbEntity
  8
중심선
100
AcDbLine
 10
19.22036997980202
 20
11.08717430171403
 30
0.0
 11
23.66174974927406
 21
11.08717430171406
 31
0.0
  0
LINE
  5
91
330
7F
100
AcDbEntity
  8
중심선
100
AcDbLine
 10
19.22039502424796
 20
13.00717430171391
 30
0.0
 11
19.22036997980202
 21
11.08717430171403
 31
0.0
  0
LINE
  5
92
330
7F
100
AcDbEntity
  8
중심선
100
AcDbLine
 10
19.22039502424796
 20
13.00717430171391
 30
0.0
 11
26.96566020931264
 21
13.00717430171391
 31
0.0
  0
LINE
  5
93
330
7F
100
AcDbEntity
  8
중심선
100
AcDbLine
 10
22.22332737316547
 20
13.45928029700563
 30
0.0
 11
24.52862924686651
 21
15.39360700705356
 31
0.0
  0
ATTDEF
  5
95
330
7F
100
AcDbEntity
  8
FORMAT
 62
     2
100
AcDbText
 10
4.408487351596664
 20
2.075366912832191
 30
0.0
 40
4.233333333333333
  1
E1030904
 41
0.75
  7
SLDTEXTSTYLE0
 11
4.408487351596664
 21
-0.0412997538344756
 31
0.0
100
AcDbAttributeDefinition
  3

  2
AUTOATTR0
 70
     0
 74
     1
  0
ENDBLK
  5
81
330
7F
100
AcDbEntity
  8
0
100
AcDbBlockEnd
  0
BLOCK
  5
C1
330
C0
100
AcDbEntity
  8
0
100
AcDbBlockBegin
  2
_D
 70
     0
 10
0.0
 20
0.0
 30
0.0
  3
_D
  1
_D
  0
LINE
  5
C3
330
C0
100
AcDbEntity
  8
치수문자_일반주서
 62
     0
370
    -2
100
AcDbLine
 10
-47.86249999999999
 20
6.349999999999993
 30
0.0
 11
-63.79999999999999
 21
6.349999999999934
 31
0.0
  0
LINE
  5
C4
330
C0
100
AcDbEntity
  8
치수문자_일반주서
 62
     0
370
    -2
100
AcDbLine
 10
-47.86249999999999
 20
-6.349999999999996
 30
0.0
 11
-63.79999999999995
 21
-6.350000000000051
 31
0.0
  0
LINE
  5
C5
330
C0
100
AcDbEntity
  8
치수문자_일반주서
 62
     0
370
    -2
100
AcDbLine
 10
-63.79999999999999
 20
6.349999999999934
 30
0.0
 11
-63.8000000000001
 21
39.64149999999994
 31
0.0
  0
LINE
  5
C6
330
C0
100
AcDbEntity
  8
치수문자_일반주서
 62
     0
370
    -2
100
AcDbLine
 10
-63.79999999999999
 20
6.349999999999934
 30
0.0
 11
-63.79999999999995
 21
-6.350000000000051
 31
0.0
  0
LINE
  5
C7
330
C0
100
AcDbEntity
  8
치수문자_일반주서
 62
     0
370
    -2
100
AcDbLine
 10
-63.8
 20
9.651999999999934
 30
0.0
 11
-63.80000000000002
 21
12.95399999999993
 31
0.0
  0
LINE
  5
C8
330
C0
100
AcDbEntity
  8
치수문자_일반주서
 62
     0
370
    -2
100
AcDbLine
 10
-63.79999999999993
 20
-9.65200000000005
 30
0.0
 11
-63.79999999999992
 21
-12.95400000000005
 31
0.0
  0
SOLID
  5
C9
330
C0
100
AcDbEntity
  8
치수문자_일반주서
 62
     0
100
AcDbTrace
 10
-64.35033333333334
 20
9.651999999999932
 30
0.0
 11
-63.24966666666667
 21
9.651999999999935
 31
0.0
 12
-63.79999999999999
 22
6.349999999999934
 32
0.0
 13
-63.79999999999999
 23
6.349999999999934
 33
0.0
  0
SOLID
  5
CA
330
C0
100
AcDbEntity
  8
치수문자_일반주서
 62
     0
100
AcDbTrace
 10
-63.2496666666666
 20
-9.652000000000049
 30
0.0
 11
-64.35033333333327
 21
-9.652000000000053
 31
0.0
 12
-63.79999999999995
 22
-6.350000000000051
 32
0.0
 13
-63.79999999999995
 23
-6.350000000000051
 33
0.0
  0
MTEXT
  5
CB
330
C0
100
AcDbEntity
  8
치수문자_일반주서
 62
     0
100
AcDbMText
 10
-68.17500000000005
 20
26.29774999999992
 30
0.0
 40
3.5
 41
0.0
 71
     2
 72
     1
  1
\A1;%%c12.70 [1/2]
  7
SLDTEXTSTYLE0
 11
-3.356894814614650E-15
 21
1.0
 31
0.0
 73
     1
 44
1.0
  0
POINT
  5
1FC
330
C0
100
AcDbEntity
  8
Defpoints
 62
     0
100
AcDbPoint
 10
-47.79999999999999
 20
6.349999999999993
 30
0.0
  0
POINT
  5
1FD
330
C0
100
AcDbEntity
  8
Defpoints
 62
     0
100
AcDbPoint
 10
-47.79999999999999
 20
-6.349999999999996
 30
0.0
  0
POINT
  5
1FE
330
C0
100
AcDbEntity
  8
Defpoints
 62
     0
100
AcDbPoint
 10
-63.79999999999995
 20
-6.350000000000056
 30
0.0
  0
ENDBLK
  5
C2
330
C0
100
AcDbEntity
  8
0
100
AcDbBlockEnd
  0
BLOCK
  5
CF
330
CE
100
AcDbEntity
  8
0
100
AcDbBlockBegin
  2
_D_1
 70
     0
 10
0.0
 20
0.0
 30
0.0
  3
_D_1
  1
_D_1
  0
LINE
  5
D1
330
CE
100
AcDbEntity
  8
치수문자_일반주서
 62
     0
370
    -2
100
AcDbLine
 10
35.33749999999935
 20
9.579449615062336
 30
0.0
 11
35.33749999999935
 21
21.34999999999999
 31
0.0
  0
LINE
  5
D2
330
CE
100
AcDbEntity
  8
치수문자_일반주서
 62
     0
370
    -2
100
AcDbLine
 10
2.000000000000017
 20
5.535349324069391
 30
0.0
 11
2.000000000000018
 21
21.34999999999999
 31
0.0
  0
LINE
  5
D3
330
CE
100
AcDbEntity
  8
치수문자_일반주서
 62
     0
370
    -2
100
AcDbLine
 10
32.03549999999935
 20
21.34999999999999
 30
0.0
 11
5.302000000000017
 21
21.34999999999999
 31
0.0
  0
SOLID
  5
D4
330
CE
100
AcDbEntity
  8
치수문자_일반주서
 62
     0
100
AcDbTrace
 10
32.03549999999935
 20
20.79966666666666
 30
0.0
 11
32.03549999999935
 21
21.90033333333333
 31
0.0
 12
35.33749999999935
 22
21.34999999999999
 32
0.0
 13
35.33749999999935
 23
21.34999999999999
 33
0.0
  0
SOLID
  5
D5
330
CE
100
AcDbEntity
  8
치수문자_일반주서
 62
     0
100
AcDbTrace
 10
5.302000000000017
 20
21.90033333333333
 30
0.0
 11
5.302000000000017
 21
20.79966666666666
 31
0.0
 12
2.000000000000018
 22
21.34999999999999
 32
0.0
 13
2.000000000000018
 23
21.34999999999999
 33
0.0
  0
MTEXT
  5
D6
330
CE
100
AcDbEntity
  8
치수문자_일반주서
 62
     0
100
AcDbMText
 10
18.66874999999968
 20
25.72499999999999
 30
0.0
 40
3.5
 41
0.0
 71
     2
 72
     1
  1
\A1;33.34 [1 5/16]
  7
SLDTEXTSTYLE0
 73
     1
 44
1.0
  0
POINT
  5
D7
330
CE
100
AcDbEntity
  8
Defpoints
 62
     0
100
AcDbPoint
 10
35.33749999999935
 20
9.516949615062336
 30
0.0
  0
POINT
  5
D8
330
CE
100
AcDbEntity
  8
Defpoints
 62
     0
100
AcDbPoint
 10
2.000000000000017
 20
5.472849324069391
 30
0.0
  0
POINT
  5
D9
330
CE
100
AcDbEntity
  8
Defpoints
 62
     0
100
AcDbPoint
 10
2.000000000000017
 20
21.34999999999999
 30
0.0
  0
ENDBLK
  5
D0
330
CE
100
AcDbEntity
  8
0
100
AcDbBlockEnd
  0
BLOCK
  5
E5
330
E4
100
AcDbEntity
  8
0
100
AcDbBlockBegin
  2
_D_2
 70
     0
 10
0.0
 20
0.0
 30
0.0
  3
_D_2
  1
_D_2
  0
LINE
  5
E7
330
E4
100
AcDbEntity
  8
치수문자_일반주서
 62
     0
370
    -2
100
AcDbLine
 10
35.33749999999935
 20
9.579449615062336
 30
0.0
 11
35.33749999999934
 21
36.34999999999999
 31
0.0
  0
LINE
  5
E8
330
E4
100
AcDbEntity
  8
치수문자_일반주서
 62
     0
370
    -2
100
AcDbLine
 10
-48.79999999999999
 20
5.412499999999993
 30
0.0
 11
-48.8
 21
36.34999999999999
 31
0.0
  0
LINE
  5
E9
330
E4
100
AcDbEntity
  8
치수문자_일반주서
 62
     0
370
    -2
100
AcDbLine
 10
32.03549999999935
 20
36.34999999999999
 30
0.0
 11
-45.498
 21
36.34999999999999
 31
0.0
  0
SOLID
  5
EA
330
E4
100
AcDbEntity
  8
치수문자_일반주서
 62
     0
100
AcDbTrace
 10
32.03549999999935
 20
35.79966666666665
 30
0.0
 11
32.03549999999935
 21
36.90033333333332
 31
0.0
 12
35.33749999999934
 22
36.34999999999999
 32
0.0
 13
35.33749999999934
 23
36.34999999999999
 33
0.0
  0
SOLID
  5
EB
330
E4
100
AcDbEntity
  8
치수문자_일반주서
 62
     0
100
AcDbTrace
 10
-45.498
 20
36.90033333333332
 30
0.0
 11
-45.498
 21
35.79966666666665
 31
0.0
 12
-48.8
 22
36.34999999999999
 32
0.0
 13
-48.8
 23
36.34999999999999
 33
0.0
  0
MTEXT
  5
EC
330
E4
100
AcDbEntity
  8
치수문자_일반주서
 62
     0
100
AcDbMText
 10
-6.73125000000033
 20
40.72499999999999
 30
0.0
 40
3.5
 41
0.0
 71
     2
 72
     1
  1
\A1;84.14 [3 5/16]
  7
SLDTEXTSTYLE0
 73
     1
 44
1.0
  0
POINT
  5
ED
330
E4
100
AcDbEntity
  8
Defpoints
 62
     0
100
AcDbPoint
 10
35.33749999999935
 20
9.516949615062336
 30
0.0
  0
POINT
  5
EE
330
E4
100
AcDbEntity
  8
Defpoints
 62
     0
100
AcDbPoint
 10
-48.79999999999999
 20
5.349999999999993
 30
0.0
  0
POINT
  5
EF
330
E4
100
AcDbEntity
  8
Defpoints
 62
     0
100
AcDbPoint
 10
-48.79999999999999
 20
36.34999999999999
 30
0.0
  0
ENDBLK
  5
E6
330
E4
100
AcDbEntity
  8
0
100
AcDbBlockEnd
  0
BLOCK
  5
F9
330
F8
100
AcDbEntity
  8
0
100
AcDbBlockBegin
  2
_D_3
 70
     0
 10
0.0
 20
0.0
 30
0.0
  3
_D_3
  1
_D_3
  0
LINE
  5
FB
330
F8
100
AcDbEntity
  8
치수문자_일반주서
 62
     0
370
    -2
100
AcDbLine
 10
35.40000000000003
 20
-9.516949615062359
 30
0.0
 11
50.33750000000008
 21
-9.516949615062302
 31
0.0
  0
LINE
  5
FC
330
F8
100
AcDbEntity
  8
치수문자_일반주서
 62
     0
370
    -2
100
AcDbLine
 10
35.40000000000003
 20
9.516949615062355
 30
0.0
 11
50.33750000000002
 21
9.516949615062412
 31
0.0
  0
LINE
  5
FD
330
F8
100
AcDbEntity
  8
치수문자_일반주서
 62
     0
370
    -2
100
AcDbLine
 10
50.33750000000002
 20
9.516949615062412
 30
0.0
 11
50.3374999999999
 21
43.68344961506241
 31
0.0
  0
LINE
  5
FE
330
F8
100
AcDbEntity
  8
치수문자_일반주서
 62
     0
370
    -2
100
AcDbLine
 10
50.33750000000008
 20
-9.516949615062302
 30
0.0
 11
50.33750000000002
 21
9.516949615062412
 31
0.0
  0
LINE
  5
FF
330
F8
100
AcDbEntity
  8
치수문자_일반주서
 62
     0
370
    -2
100
AcDbLine
 10
50.3375000000001
 20
-12.8189496150623
 30
0.0
 11
50.33750000000011
 21
-16.1209496150623
 31
0.0
  0
LINE
  5
100
330
F8
100
AcDbEntity
  8
치수문자_일반주서
 62
     0
370
    -2
100
AcDbLine
 10
50.33750000000001
 20
12.81894961506241
 30
0.0
 11
50.33749999999999
 21
16.12094961506241
 31
0.0
  0
SOLID
  5
101
330
F8
100
AcDbEntity
  8
치수문자_일반주서
 62
     0
100
AcDbTrace
 10
50.88783333333343
 20
-12.8189496150623
 30
0.0
 11
49.78716666666676
 21
-12.8189496150623
 31
0.0
 12
50.33750000000008
 22
-9.516949615062302
 32
0.0
 13
50.33750000000008
 23
-9.516949615062302
 33
0.0
  0
SOLID
  5
102
330
F8
100
AcDbEntity
  8
치수문자_일반주서
 62
     0
100
AcDbTrace
 10
49.78716666666667
 20
12.81894961506241
 30
0.0
 11
50.88783333333334
 21
12.81894961506241
 31
0.0
 12
50.33750000000002
 22
9.516949615062412
 32
0.0
 13
50.33750000000002
 23
9.516949615062412
 33
0.0
  0
MTEXT
  5
103
330
F8
100
AcDbEntity
  8
치수문자_일반주서
 62
     0
100
AcDbMText
 10
45.96249999999995
 20
29.9021996150624
 30
0.0
 40
3.5
 41
0.0
 71
     2
 72
     1
  1
\A1;%%c19.03 [3/4]
  7
SLDTEXTSTYLE0
 11
-3.359734410971241E-15
 21
1.0
 31
0.0
 73
     1
 44
1.0
  0
POINT
  5
104
330
F8
100
AcDbEntity
  8
Defpoints
 62
     0
100
AcDbPoint
 10
35.33750000000003
 20
-9.516949615062359
 30
0.0
  0
POINT
  5
105
330
F8
100
AcDbEntity
  8
Defpoints
 62
     0
100
AcDbPoint
 10
35.33750000000003
 20
9.516949615062355
 30
0.0
  0
POINT
  5
106
330
F8
100
AcDbEntity
  8
Defpoints
 62
     0
100
AcDbPoint
 10
50.33750000000001
 20
9.516949615062412
 30
0.0
  0
ENDBLK
  5
FA
330
F8
100
AcDbEntity
  8
0
100
AcDbBlockEnd
  0
BLOCK
  5
112
330
111
100
AcDbEntity
  8
0
100
AcDbBlockBegin
  2
SW_DOWELSYMBOL_0
 70
     0
 10
0.0
 20
0.0
 30
0.0
  3
SW_DOWELSYMBOL_0
  1
SW_DOWELSYMBOL_0
  0
CIRCLE
  5
114
330
111
100
AcDbEntity
  8
해칭선
 62
     0
100
AcDbCircle
 10
0.0
 20
0.0
 30
0.0
 40
3.000000000000001
  0
HATCH
  5
115
330
111
100
AcDbEntity
  8
0
  6
Continuous
 62
     0
370
     0
100
AcDbHatch
 10
0.0
 20
0.0
 30
0.0
210
0.0
220
0.0
230
1.0
  2
SOLID
 70
     1
 71
     0
 91
        1
 92
        0
 93
        3
 72
     2
 10
0.0
 20
0.0
 40
3.000000000000001
 50
0.0
 51
90.0
 73
     1
 72
     1
 10
0.0
 20
3.000000000000001
 11
0.0
 21
0.0
 72
     1
 10
0.0
 20
0.0
 11
3.000000000000001
 21
0.0
 97
        0
 75
     0
 76
     1
 98
        1
 10
0.0
 20
0.0
  0
HATCH
  5
116
330
111
100
AcDbEntity
  8
0
  6
Continuous
 62
     0
370
     0
100
AcDbHatch
 10
0.0
 20
0.0
 30
0.0
210
0.0
220
0.0
230
1.0
  2
SOLID
 70
     1
 71
     0
 91
        1
 92
        0
 93
        3
 72
     2
 10
0.0
 20
0.0
 40
3.000000000000001
 50
180.0
 51
270.0000000000007
 73
     1
 72
     1
 10
0.0
 20
-3.000000000000001
 11
0.0
 21
0.0
 72
     1
 10
0.0
 20
0.0
 11
-3.000000000000001
 21
0.0
 97
        0
 75
     0
 76
     1
 98
        1
 10
0.0
 20
0.0
  0
ENDBLK
  5
113
330
111
100
AcDbEntity
  8
0
100
AcDbBlockEnd
  0
BLOCK
  5
1D8
330
1D7
100
AcDbEntity
  8
0
100
AcDbBlockBegin
  2
*D7
 70
     1
 10
0.0
 20
0.0
 30
0.0
  3
*D7
  1
*D7
  0
LINE
  5
1DA
330
1D7
100
AcDbEntity
  8
치수문자_일반주서
 62
     0
370
    -2
100
AcDbLine
 10
39.94149999999952
 20
5.630443882041726
 30
0.0
 11
39.94149999999952
 21
19.18542231980357
 31
0.0
  0
LINE
  5
1DB
330
1D7
100
AcDbEntity
  8
치수문자_일반주서
 62
     0
370
    -2
100
AcDbLine
 10
6.603999999999999
 20
3.370771643872974
 30
0.0
 11
6.603999999999999
 21
19.18542231980357
 31
0.0
  0
LINE
  5
1DC
330
1D7
100
AcDbEntity
  8
치수문자_일반주서
 62
     0
370
    -2
100
AcDbLine
 10
39.94149999999952
 20
19.18542231980357
 30
0.0
 11
78.92049999999952
 21
19.18542231980357
 31
0.0
  0
LINE
  5
1DD
330
1D7
100
AcDbEntity
  8
치수문자_일반주서
 62
     0
370
    -2
100
AcDbLine
 10
39.94149999999952
 20
19.18542231980357
 30
0.0
 11
6.603999999999999
 21
19.18542231980357
 31
0.0
  0
LINE
  5
1DE
330
1D7
100
AcDbEntity
  8
치수문자_일반주서
 62
     0
370
    -2
100
AcDbLine
 10
43.24349999999952
 20
19.18542231980357
 30
0.0
 11
46.54549999999952
 21
19.18542231980357
 31
0.0
  0
LINE
  5
1DF
330
1D7
100
AcDbEntity
  8
치수문자_일반주서
 62
     0
370
    -2
100
AcDbLine
 10
3.302
 20
19.18542231980357
 30
0.0
 11
0.0
 21
19.18542231980357
 31
0.0
  0
SOLID
  5
1E0
330
1D7
100
AcDbEntity
  8
치수문자_일반주서
 62
     0
100
AcDbTrace
 10
43.24349999999952
 20
19.73575565313691
 30
0.0
 11
43.24349999999952
 21
18.63508898647024
 31
0.0
 12
39.94149999999952
 22
19.18542231980357
 32
0.0
 13
39.94149999999952
 23
19.18542231980357
 33
0.0
  0
SOLID
  5
1E1
330
1D7
100
AcDbEntity
  8
치수문자_일반주서
 62
     0
100
AcDbTrace
 10
3.302
 20
18.63508898647024
 30
0.0
 11
3.302
 21
19.73575565313691
 31
0.0
 12
6.603999999999999
 22
19.18542231980357
 32
0.0
 13
6.603999999999999
 23
19.18542231980357
 33
0.0
  0
MTEXT
  5
1E2
330
1D7
100
AcDbEntity
  8
치수문자_일반주서
 62
     0
100
AcDbMText
 10
62.73299999999952
 20
23.56042231980357
 30
0.0
 40
3.5
 41
0.0
 71
     2
 72
     1
  1
\A1;33.34 [1 5/16]
  7
SLDTEXTSTYLE0
 73
     1
 44
1.0
  0
POINT
  5
1E3
330
1D7
100
AcDbEntity
  8
Defpoints
 62
     0
100
AcDbPoint
 10
39.94149999999952
 20
5.567943882041726
 30
0.0
  0
POINT
  5
1E4
330
1D7
100
AcDbEntity
  8
Defpoints
 62
     0
100
AcDbPoint
 10
6.603999999999999
 20
3.308271643872974
 30
0.0
  0
POINT
  5
1E5
330
1D7
100
AcDbEntity
  8
Defpoints
 62
     0
100
AcDbPoint
 10
6.603999999999999
 20
19.18542231980357
 30
0.0
  0
ENDBLK
  5
1D9
330
1D7
100
AcDbEntity
  8
0
100
AcDbBlockEnd
  0
BLOCK
  5
1EA
330
1E9
100
AcDbEntity
  8
0
100
AcDbBlockBegin
  2
*D8
 70
     1
 10
0.0
 20
0.0
 30
0.0
  3
*D8
  1
*D8
  0
LINE
  5
1EC
330
1E9
100
AcDbEntity
  8
치수문자_일반주서
 62
     0
370
    -2
100
AcDbLine
 10
101.441686984341
 20
-29.20840299048017
 30
0.0
 11
101.441686984341
 21
-15.65342455271833
 31
0.0
  0
LINE
  5
1ED
330
1E9
100
AcDbEntity
  8
치수문자_일반주서
 62
     0
370
    -2
100
AcDbLine
 10
68.10418698434144
 20
-31.46807522864892
 30
0.0
 11
68.10418698434144
 21
-15.65342455271833
 31
0.0
  0
LINE
  5
1EE
330
1E9
100
AcDbEntity
  8
치수문자_일반주서
 62
     0
370
    -2
100
AcDbLine
 10
101.441686984341
 20
-15.65342455271833
 30
0.0
 11
140.420686984341
 21
-15.65342455271833
 31
0.0
  0
LINE
  5
1EF
330
1E9
100
AcDbEntity
  8
치수문자_일반주서
 62
     0
370
    -2
100
AcDbLine
 10
101.441686984341
 20
-15.65342455271833
 30
0.0
 11
68.10418698434144
 21
-15.65342455271833
 31
0.0
  0
LINE
  5
1F0
330
1E9
100
AcDbEntity
  8
치수문자_일반주서
 62
     0
370
    -2
100
AcDbLine
 10
104.743686984341
 20
-15.65342455271833
 30
0.0
 11
108.045686984341
 21
-15.65342455271833
 31
0.0
  0
LINE
  5
1F1
330
1E9
100
AcDbEntity
  8
치수문자_일반주서
 62
     0
370
    -2
100
AcDbLine
 10
64.80218698434143
 20
-15.65342455271833
 30
0.0
 11
61.50018698434143
 21
-15.65342455271833
 31
0.0
  0
SOLID
  5
1F2
330
1E9
100
AcDbEntity
  8
치수문자_일반주서
 62
     0
100
AcDbTrace
 10
104.743686984341
 20
-15.10309121938499
 30
0.0
 11
104.743686984341
 21
-16.20375788605166
 31
0.0
 12
101.441686984341
 22
-15.65342455271833
 32
0.0
 13
101.441686984341
 23
-15.65342455271833
 33
0.0
  0
SOLID
  5
1F3
330
1E9
100
AcDbEntity
  8
치수문자_일반주서
 62
     0
100
AcDbTrace
 10
64.80218698434143
 20
-16.20375788605166
 30
0.0
 11
64.80218698434143
 21
-15.10309121938499
 31
0.0
 12
68.10418698434144
 22
-15.65342455271833
 32
0.0
 13
68.10418698434144
 23
-15.65342455271833
 33
0.0
  0
MTEXT
  5
1F4
330
1E9
100
AcDbEntity
  8
치수문자_일반주서
 62
     0
100
AcDbMText
 10
124.233186984341
 20
-11.27842455271833
 30
0.0
 40
3.5
 41
0.0
 71
     2
 72
     1
  1
\A1;33.34 [1 5/16]
  7
SLDTEXTSTYLE0
 73
     1
 44
1.0
  0
POINT
  5
1F5
330
1E9
100
AcDbEntity
  8
Defpoints
 62
     0
100
AcDbPoint
 10
101.441686984341
 20
-29.27090299048017
 30
0.0
  0
POINT
  5
1F6
330
1E9
100
AcDbEntity
  8
Defpoints
 62
     0
100
AcDbPoint
 10
68.10418698434144
 20
-31.53057522864892
 30
0.0
  0
POINT
  5
1F7
330
1E9
100
AcDbEntity
  8
Defpoints
 62
     0
100
AcDbPoint
 10
68.10418698434144
 20
-15.65342455271833
 30
0.0
  0
ENDBLK
  5
1EB
330
1E9
100
AcDbEntity
  8
0
100
AcDbBlockEnd
  0
ENDSEC
  0
SECTION
  2
ENTITIES
  0
SPLINE
  5
96
330
1F
100
AcDbEntity
  8
0
  6
Continuous
 62
     1
370
    15
100
AcDbSpline
210
0.0
220
0.0
230
1.0
 70
     8
 71
     3
 72
    18
 73
    14
 74
     0
 42
0.000000001
 43
0.00000001
 40
0.0
 40
0.0
 40
0.0
 40
0.0
 40
0.1319271540442557
 40
0.2376906310507777
 40
0.3190149908704579
 40
0.3817362898684231
 40
0.4278523031590906
 40
0.4752883013873504
 40
0.5419838106380994
 40
0.6237938939248266
 40
0.7263681759516847
 40
0.8506410722837814
 40
0.9999999999999999
 40
0.9999999999999999
 40
0.9999999999999999
 40
0.9999999999999999
 10
10.66093438332206
 20
2.440776073472465
 30
0.0
 10
10.54795939611727
 20
2.493956747040335
 30
0.0
 10
10.34441452170385
 20
2.589771349815834
 30
0.0
 10
10.06345146152853
 20
2.724717329216761
 30
0.0
 10
9.836047490384866
 20
2.835268551845546
 30
0.0
 10
9.66445073921548
 20
2.919463723277905
 30
0.0
 10
9.527559325989678
 20
2.987108368839086
 30
0.0
 10
9.387346243832509
 20
3.056799580991881
 30
0.0
 10
9.215014105499284
 20
3.143066646859959
 30
0.0
 10
8.991370748785235
 20
3.256066337119269
 30
0.0
 10
8.711941350681844
 20
3.398865033312694
 30
0.0
 10
8.372457182463986
 20
3.574669761114031
 30
0.0
 10
8.143177933870133
 20
3.696098766554355
 30
0.0
 10
8.018028372642519
 20
3.762379456343606
 30
0.0
1001
PE_URL
1000

  0
SPLINE
  5
97
330
1F
100
AcDbEntity
  8
0
  6
Continuous
 62
     1
370
    15
100
AcDbSpline
210
0.0
220
0.0
230
1.0
 70
     8
 71
     3
 72
    25
 73
    21
 74
     0
 42
0.000000001
 43
0.00000001
 40
0.0
 40
0.0
 40
0.0
 40
0.0
 40
0.0692558708853383
 40
0.1299421286240518
 40
0.1825862534754927
 40
0.2400327428970294
 40
0.2920332374930349
 40
0.3447745553760834
 40
0.398938332672352
 40
0.4535210392184622
 40
0.5072046545880563
 40
0.5601512077558405
 40
0.637222525610574
 40
0.7036752458416223
 40
0.7612034602754593
 40
0.7925750439300443
 40
0.8230172220583747
 40
0.8660879536539285
 40
0.9251125266184546
 40
1.0
 40
1.0
 40
1.0
 40
1.0
 10
7.512541328981754
 20
7.568935674351313
 30
0.0
 10
7.396185867167256
 20
7.56270759312826
 30
0.0
 10
7.177872586402325
 20
7.551022083711925
 30
0.0
 10
6.856358053281758
 20
7.534650622777859
 30
0.0
 10
6.544727425773946
 20
7.520254230165268
 30
0.0
 10
6.237522353276443
 20
7.508417474007115
 30
0.0
 10
5.935344386022312
 20
7.497991588697539
 30
0.0
 10
5.635420717194277
 20
7.487628204103347
 30
0.0
 10
5.334333904269107
 20
7.478191106164388
 30
0.0
 10
5.034133938044247
 20
7.469753604674284
 30
0.0
 10
4.735728640765243
 20
7.462349447593414
 30
0.0
 10
4.396042730618737
 20
7.455052284042832
 30
0.0
 10
4.032772837668382
 20
7.448714980964573
 30
0.0
 10
3.660891213892398
 20
7.443878651413132
 30
0.0
 10
3.373452468515901
 20
7.441240851706526
 30
0.0
 10
3.152661439471183
 20
7.439821521859091
 30
0.0
 10
2.958605603193042
 20
7.438941658573735
 30
0.0
 10
2.713418290715936
 20
7.438402909246437
 30
0.0
 10
2.386064622103716
 20
7.438620667629371
 30
0.0
 10
2.138464897568087
 20
7.440122932986194
 30
0.0
 10
2.000000000000012
 20
7.440963043043435
 30
0.0
1001
PE_URL
1000

  0
SPLINE
  5
98
330
1F
100
AcDbEntity
  8
0
  6
Continuous
 62
     1
370
    15
100
AcDbSpline
210
0.0
220
0.0
230
1.0
 70
     8
 71
     3
 72
    50
 73
    46
 74
     0
 42
0.000000001
 43
0.00000001
 40
0.0
 40
0.0
 40
0.0
 40
0.0
 40
0.0280158210835794
 40
0.0523372002373389
 40
0.0729711500295054
 40
0.0900038296187599
 40
0.1036768846423941
 40
0.1165728157160898
 40
0.138431983513436
 40
0.1621456408141964
 40
0.1847619619493391
 40
0.2205169174854362
 40
0.2507306180160577
 40
0.2785594915141522
 40
0.3009477994453537
 40
0.3253453930579983
 40
0.352136263880472
 40
0.3820952164581332
 40
0.4151969221135718
 40
0.444873806775392
 40
0.4702545741215203
 40
0.4928268052740618
 40
0.5134239982507643
 40
0.5334915867815712
 40
0.5545770087950691
 40
0.5776309913655574
 40
0.6028229315822987
 40
0.6315208616598996
 40
0.6641816734990341
 40
0.6876374997498506
 40
0.707298015514915
 40
0.7241057311186967
 40
0.7401636177523905
 40
0.7555915216962816
 40
0.7712806091627343
 40
0.7960055026667446
 40
0.8218477949841954
 40
0.8485963788522326
 40
0.8770382433384921
 40
0.8929780080085737
 40
0.9097873005183518
 40
0.9282564537727305
 40
0.949219249725657
 40
0.9730655818811595
 40
1.0
 40
1.0
 40
1.0
 40
1.0
 10
31.79892053866519
 20
6.514648927309818
 30
0.0
 10
31.6513369137555
 20
6.502150708242272
 30
0.0
 10
31.37563149339296
 20
6.478802408294298
 30
0.0
 10
30.98349838024539
 20
6.448300637569897
 30
0.0
 10
30.6436540170992
 20
6.423793081971639
 30
0.0
 10
30.35539137504082
 20
6.404713889385453
 30
0.0
 10
30.10487836359973
 20
6.389650485214163
 30
0.0
 10
29.82720724792572
 20
6.373560702807289
 30
0.0
 10
29.49404390455499
 20
6.355287267300498
 30
0.0
 10
29.11501167813617
 20
6.336703073087967
 30
0.0
 10
28.65867285712425
 20
6.317036762080328
 30
0.0
 10
28.16610577815456
 20
6.299516494476145
 30
0.0
 10
27.64432781195513
 20
6.285364432689761
 30
0.0
 10
27.1965490247193
 20
6.276549457240522
 30
0.0
 10
26.78093844747313
 20
6.271048556894662
 30
0.0
 10
26.37134319224705
 20
6.268095665268336
 30
0.0
 10
25.92004022285602
 20
6.267833776649664
 30
0.0
 10
25.42008973706465
 20
6.27121462836782
 30
0.0
 10
24.90378083143009
 20
6.278893903700442
 30
0.0
 10
24.4130209092892
 20
6.290146106670696
 30
0.0
 10
23.98090442986904
 20
6.303106009759569
 30
0.0
 10
23.59941983944818
 20
6.316899388552618
 30
0.0
 10
23.24760556176496
 20
6.331580231647115
 30
0.0
 10
22.90409822073561
 20
6.347721808836906
 30
0.0
 10
22.54676600168787
 20
6.366342595981592
 30
0.0
 10
22.16084958293111
 20
6.388577653553227
 30
0.0
 10
21.7323936726758
 20
6.415830615035265
 30
0.0
 10
21.25064295522782
 20
6.449693433410158
 30
0.0
 10
20.77887640179996
 20
6.486445372375251
 30
0.0
 10
20.35721406837924
 20
6.522230451966631
 30
0.0
 10
20.02364776215776
 20
6.552358810151887
 30
0.0
 10
19.73102678039879
 20
6.580050229387494
 30
0.0
 10
19.46216840912442
 20
6.606518442677859
 30
0.0
 10
19.19951673125592
 20
6.633335461320467
 30
0.0
 10
18.88953037582357
 20
6.666104224266264
 30
0.0
 10
18.52451557381418
 20
6.706364370400585
 30
0.0
 10
18.09620155698945
 20
6.756074337770474
 30
0.0
 10
17.64504158132981
 20
6.811200385557202
 30
0.0
 10
17.24105968938182
 20
6.863248784522654
 30
0.0
 10
16.89228386948168
 20
6.90968791540951
 30
0.0
 10
16.60132954818326
 20
6.948558341264747
 30
0.0
 10
16.28052195902531
 20
6.993011274475252
 30
0.0
 10
15.93156339229538
 20
7.044148034221579
 30
0.0
 10
15.55073588209762
 20
7.102419450895303
 30
0.0
 10
15.29423876292098
 20
7.142710154991098
 30
0.0
 10
15.15819113430467
 20
7.164080588955853
 30
0.0
1001
PE_URL
1000

  0
SPLINE
  5
99
330
1F
100
AcDbEntity
  8
0
  6
Continuous
 62
     1
370
    15
100
AcDbSpline
210
0.0
220
0.0
230
1.0
 70
     8
 71
     3
 72
    24
 73
    20
 74
     0
 42
0.000000001
 43
0.00000001
 40
0.0
 40
0.0
 40
0.0
 40
0.0
 40
0.0684701204685158
 40
0.1283876177413023
 40
0.1804391052568672
 40
0.2259741113423876
 40
0.2679783206885292
 40
0.3442620424826218
 40
0.4149352748188511
 40
0.4954745503521288
 40
0.5708628616297816
 40
0.6445995638776698
 40
0.683822330183661
 40
0.7292877034994866
 40
0.7836551610108371
 40
0.8445631268877292
 40
0.9006061690392362
 40
0.9503493169216253
 40
1.0
 40
1.0
 40
1.0
 40
1.0
 10
15.15819113430467
 20
-7.164080588955857
 30
0.0
 10
15.30564569254383
 20
-7.140917965218884
 30
0.0
 10
15.58213621611648
 20
-7.097485967993242
 30
0.0
 10
15.99225168323506
 20
-7.035007178009663
 30
0.0
 10
16.36575968338992
 20
-6.98083639171964
 30
0.0
 10
16.70587771324496
 20
-6.934580489327952
 30
0.0
 10
17.10240243861326
 20
-6.881558323077019
 30
0.0
 10
17.56195059756248
 20
-6.82150373645661
 30
0.0
 10
18.10217591746311
 20
-6.755146256505107
 30
0.0
 10
18.6355314134455
 20
-6.693595246880502
 30
0.0
 10
19.17646611396203
 20
-6.635244467007084
 30
0.0
 10
19.62373007006825
 20
-6.590274015252485
 30
0.0
 10
19.99957689147925
 20
-6.554594436146387
 30
0.0
 10
20.32935467773846
 20
-6.524681819998765
 30
0.0
 10
20.71037104528108
 20
-6.492178720439117
 30
0.0
 10
21.11631183976581
 20
-6.459996055156164
 30
0.0
 10
21.51143344602139
 20
-6.43121069907624
 30
0.0
 10
21.88010153578841
 20
-6.406098751548185
 30
0.0
 10
22.11580887725094
 20
-6.39202739351454
 30
0.0
 10
22.23355291022639
 20
-6.384998259699516
 30
0.0
1001
PE_URL
1000

  0
SPLINE
  5
9A
330
1F
100
AcDbEntity
  8
0
  6
Continuous
 62
     1
370
    15
100
AcDbSpline
210
0.0
220
0.0
230
1.0
 70
     8
 71
     3
 72
    24
 73
    20
 74
     0
 42
0.000000001
 43
0.00000001
 40
0.0
 40
0.0
 40
0.0
 40
0.0
 40
0.0748851237729119
 40
0.133907844830302
 40
0.1769772250735088
 40
0.2074184480727484
 40
0.2387890474379629
 40
0.2963154569131991
 40
0.362766092177586
 40
0.439834991905152
 40
0.5224969894720255
 40
0.6071507022179282
 40
0.6904329987775826
 40
0.731037221896405
 40
0.7718444977793344
 40
0.8174194752027271
 40
0.8700619483347976
 40
0.930746302030703
 40
1.0
 40
1.0
 40
1.0
 40
1.0
 10
2.000000000000012
 20
-7.440963043043441
 30
0.0
 10
2.138464900157184
 20
-7.440122933121933
 30
0.0
 10
2.386064629322579
 20
-7.438620668007823
 30
0.0
 10
2.713418271228868
 20
-7.438402908224835
 30
0.0
 10
2.958605648744538
 20
-7.438941660961773
 30
0.0
 10
3.152661321407152
 20
-7.4398215156696
 30
0.0
 10
3.373453092561958
 20
-7.441240884422099
 30
0.0
 10
3.660886329283451
 20
-7.44387839533788
 30
0.0
 10
4.032795230619246
 20
-7.448716154913344
 30
0.0
 10
4.450889795347173
 20
-7.456005568988935
 30
0.0
 10
4.903318178892331
 20
-7.466157414465498
 30
0.0
 10
5.365518479392207
 20
-7.478882353386298
 30
0.0
 10
5.757314788218888
 20
-7.491697848754392
 30
0.0
 10
6.067086001722027
 20
-7.50264013959253
 30
0.0
 10
6.303908796830862
 20
-7.510831254209165
 30
0.0
 10
6.566400487456875
 20
-7.521288246000736
 30
0.0
 10
6.856353851272306
 20
-7.534639619273308
 30
0.0
 10
7.177873882208663
 20
-7.551025476948214
 30
0.0
 10
7.396186317684812
 20
-7.562708772866686
 30
0.0
 10
7.512541328981754
 20
-7.568935674351317
 30
0.0
1001
PE_URL
1000

  0
SPLINE
  5
9B
330
1F
100
AcDbEntity
  8
0
  6
Continuous
 62
     1
370
    15
100
AcDbSpline
210
0.0
220
0.0
230
1.0
 70
     8
 71
     3
 72
    50
 73
    46
 74
     0
 42
0.000000001
 43
0.00000001
 40
0.0
 40
0.0
 40
0.0
 40
0.0
 40
0.0624999999999998
 40
0.0624999999999998
 40
0.1249999999999997
 40
0.1249999999999997
 40
0.1562499999999997
 40
0.1562499999999997
 40
0.1874999999999997
 40
0.1874999999999997
 40
0.2499999999999996
 40
0.2499999999999996
 40
0.2812499999999993
 40
0.2812499999999993
 40
0.3124999999999992
 40
0.3124999999999992
 40
0.3437499999999991
 40
0.3437499999999991
 40
0.374999999999999
 40
0.374999999999999
 40
0.4374999999999988
 40
0.4374999999999988
 40
0.4687499999999988
 40
0.4687499999999988
 40
0.4999999999999988
 40
0.4999999999999988
 40
0.5312499999999988
 40
0.5312499999999988
 40
0.5624999999999988
 40
0.5624999999999988
 40
0.6249999999999988
 40
0.6249999999999988
 40
0.6562499999999989
 40
0.6562499999999989
 40
0.6874999999999989
 40
0.6874999999999989
 40
0.7499999999999991
 40
0.7499999999999991
 40
0.8124999999999993
 40
0.8124999999999993
 40
0.8749999999999996
 40
0.8749999999999996
 40
0.9374999999999998
 40
0.9374999999999998
 40
1.0
 40
1.0
 40
1.0
 40
1.0
 10
2.000000000000014
 20
4.491270090970858
 30
0.0
 10
2.692640636789981
 20
4.137983493227248
 30
0.0
 10
3.390566431656535
 20
3.77183671924619
 30
0.0
 10
4.780358387566267
 20
3.022481861255948
 30
0.0
 10
5.47144097334925
 20
2.639467690581625
 30
0.0
 10
6.515320412609286
 20
2.054620466080813
 30
0.0
 10
6.863486200421585
 20
1.858134615124139
 30
0.0
 10
7.558148234952046
 20
1.463269168920805
 30
0.0
 10
7.903634484603737
 20
1.265084051527102
 30
0.0
 10
8.94369100818418
 20
0.6677216974141096
 30
0.0
 10
9.641739279728737
 20
0.2657472689551084
 30
0.0
 10
10.68334787599234
 20
-0.3356294864151073
 30
0.0
 10
11.02868646742296
 20
-0.5356400020031276
 30
0.0
 10
11.7223893591898
 20
-0.9352663710115502
 30
0.0
 10
12.07033332770455
 20
-1.13480033558199
 30
0.0
 10
12.7663292294196
 20
-1.532112710561763
 30
0.0
 10
13.11437977822506
 20
-1.729890329946491
 30
0.0
 10
13.80850687266862
 20
-2.122511812459677
 30
0.0
 10
14.15378492858828
 20
-2.317208904745666
 30
0.0
 10
15.1948036944802
 20
-2.897269094498508
 30
0.0
 10
15.89288354739109
 20
-3.278029425516207
 30
0.0
 10
16.93362278030129
 20
-3.833445566334064
 30
0.0
 10
17.27892742991092
 20
-4.015880011753572
 30
0.0
 10
17.97322726886988
 20
-4.375821186279058
 30
0.0
 10
18.32131776801273
 20
-4.553163529524092
 30
0.0
 10
19.01729993226968
 20
-4.90151698988995
 30
0.0
 10
19.36519021317992
 20
-5.072527418933502
 30
0.0
 10
20.05869315883155
 20
-5.407217354493024
 30
0.0
 10
20.4041115284806
 20
-5.570875253316298
 30
0.0
 10
21.44595879746913
 20
-6.051301578353251
 30
0.0
 10
22.14397932267439
 20
-6.356816515377087
 30
0.0
 10
23.18371557307967
 20
-6.787522766537037
 30
0.0
 10
23.52933477692439
 20
-6.926555960965928
 30
0.0
 10
24.2241422801358
 20
-7.195708866730064
 30
0.0
 10
24.57233426376074
 20
-7.325688351220498
 30
0.0
 10
25.6161518933422
 20
-7.700647492998471
 30
0.0
 10
26.30708083140502
 20
-7.93022596268597
 30
0.0
 10
27.69713640045154
 20
-8.346977608039545
 30
0.0
 10
28.39500671472822
 20
-8.53390282556974
 30
0.0
 10
29.77980682035404
 20
-8.86056604060083
 30
0.0
 10
30.47552060111993
 20
-9.001029193618622
 30
0.0
 10
31.86689002676957
 20
-9.233312409901702
 30
0.0
 10
32.55751432277545
 20
-9.324952979381866
 30
0.0
 10
33.94831657685819
 20
-9.458655723668992
 30
0.0
 10
34.64594586241806
 20
-9.5004906307441
 30
0.0
 10
35.33750000000003
 20
-9.516949615062355
 30
0.0
1001
PE_URL
1000

  0
SPLINE
  5
9C
330
1F
100
AcDbEntity
  8
0
  6
Continuous
 62
     1
370
    15
100
AcDbSpline
210
0.0
220
0.0
230
1.0
 70
     8
 71
     3
 72
    12
 73
     8
 74
     0
 42
0.000000001
 43
0.00000001
 40
0.0
 40
0.0
 40
0.0
 40
0.0
 40
0.1874244354093509
 40
0.3754681086148303
 40
0.5836547895107626
 40
0.7916526546000905
 40
1.0
 40
1.0
 40
1.0
 40
1.0
 10
11.68197774918664
 20
-0.9104901829808445
 30
0.0
 10
11.07719611290267
 20
-0.6670355385694684
 30
0.0
 10
9.865634682267606
 20
-0.179321891888397
 30
0.0
 10
7.981740139436956
 20
0.5829181393304195
 30
0.0
 10
6.031635361365971
 20
1.363383986495834
 30
0.0
 10
4.016387099760699
 20
2.153961776685594
 30
0.0
 10
2.672505051602248
 20
2.650876306465207
 30
0.0
 10
2.000000000000017
 20
2.899542126467243
 30
0.0
1001
PE_URL
1000

  0
SPLINE
  5
9D
330
1F
100
AcDbEntity
  8
외형선
  6
Continuous
370
    15
100
AcDbSpline
210
0.0
220
0.0
230
1.0
 70
    24
 71
     3
 72
    10
 73
     6
 74
     0
 42
0.000000001
 43
0.00000001
 40
0.0
 40
0.0
 40
0.0
 40
0.0
 40
0.5
 40
0.5
 40
1.0
 40
1.0
 40
1.0
 40
1.0
 10
2.000000000000017
 20
4.491270090970856
 30
0.0
 10
2.000000000000017
 20
4.393734757633736
 30
0.0
 10
2.000000000000017
 20
4.196630948229542
 30
0.0
 10
2.000000000000017
 20
3.641432750666214
 30
0.0
 10
2.000000000000017
 20
3.285430923391351
 30
0.0
 10
2.000000000000017
 20
2.899542126467245
 30
0.0
  0
SPLINE
  5
9E
330
1F
100
AcDbEntity
  8
0
  6
Continuous
 62
     1
370
    15
100
AcDbSpline
210
0.0
220
0.0
230
1.0
 70
     8
 71
     3
 72
    50
 73
    46
 74
     0
 42
0.000000001
 43
0.00000001
 40
0.0
 40
0.0
 40
0.0
 40
0.0
 40
0.0625000000000002
 40
0.0625000000000002
 40
0.1250000000000003
 40
0.1250000000000003
 40
0.1875000000000005
 40
0.1875000000000005
 40
0.2500000000000007
 40
0.2500000000000007
 40
0.3125000000000009
 40
0.3125000000000009
 40
0.3437500000000009
 40
0.3437500000000009
 40
0.3750000000000009
 40
0.3750000000000009
 40
0.4375000000000007
 40
0.4375000000000007
 40
0.4687500000000006
 40
0.4687500000000006
 40
0.5000000000000004
 40
0.5000000000000004
 40
0.5312500000000004
 40
0.5312500000000004
 40
0.5625000000000002
 40
0.5625000000000002
 40
0.6250000000000002
 40
0.6250000000000002
 40
0.6562500000000002
 40
0.6562500000000002
 40
0.6875000000000001
 40
0.6875000000000001
 40
0.7187500000000001
 40
0.7187500000000001
 40
0.7500000000000001
 40
0.7500000000000001
 40
0.8125
 40
0.8125
 40
0.84375
 40
0.84375
 40
0.875
 40
0.875
 40
0.9375
 40
0.9375
 40
1.0
 40
1.0
 40
1.0
 40
1.0
 10
35.33750000000003
 20
-9.038661779433847
 30
0.0
 10
34.64594586241799
 20
-8.912351113052418
 30
0.0
 10
33.94831657685808
 20
-8.761616824435059
 30
0.0
 10
32.55751432277521
 20
-8.414633241713235
 30
0.0
 10
31.86689002676928
 20
-8.21873064773061
 30
0.0
 10
30.47552060111951
 20
-7.783360776025849
 30
0.0
 10
29.77980682035358
 20
-7.54433157693412
 30
0.0
 10
28.39500671472765
 20
-7.028341605424169
 30
0.0
 10
27.6971364004509
 20
-6.750262630258612
 30
0.0
 10
26.30708083140428
 20
-6.16042620630147
 30
0.0
 10
25.6161518933414
 20
-5.848945063899292
 30
0.0
 10
24.57233426375984
 20
-5.358546435162995
 30
0.0
 10
24.22414228013488
 20
-5.191362542071112
 30
0.0
 10
23.52933477692342
 20
-4.850570119486799
 30
0.0
 10
23.18371557307866
 20
-4.677132827914845
 30
0.0
 10
22.1439793226733
 20
-4.147384825941725
 30
0.0
 10
21.44595879746798
 20
-3.781401488503624
 30
0.0
 10
20.40411152847936
 20
-3.21971079650851
 30
0.0
 10
20.05869315883029
 20
-3.030555200823902
 30
0.0
 10
19.3651902131786
 20
-2.647990816262013
 30
0.0
 10
19.01729993226832
 20
-2.454612399272889
 30
0.0
 10
18.32131776801132
 20
-2.064806642576725
 30
0.0
 10
17.97322726886843
 20
-1.868380075898965
 30
0.0
 10
17.27892742990942
 20
-1.473660386629766
 30
0.0
 10
16.93362278029976
 20
-1.275541932463073
 30
0.0
 10
15.89288354738947
 20
-0.6781235836125366
 30
0.0
 10
15.19480369447852
 20
-0.2761645376378438
 30
0.0
 10
14.15378492858652
 20
0.325107779376888
 30
0.0
 10
13.80850687266683
 20
0.5251167276418532
 30
0.0
 10
13.11437977822321
 20
0.9248583531888467
 30
0.0
 10
12.76632922941772
 20
1.12443639600109
 30
0.0
 10
12.0703333277026
 20
1.521810076010795
 30
0.0
 10
11.72238935918783
 20
1.719604923496488
 30
0.0
 10
11.02868646742095
 20
2.112235548108623
 30
0.0
 10
10.6833478759903
 20
2.306995824598521
 30
0.0
 10
9.641739279726593
 20
2.887339680707227
 30
0.0
 10
8.94369100818198
 20
3.268234379044409
 30
0.0
 10
7.903634484601463
 20
3.823782762088878
 30
0.0
 10
7.558148234949739
 20
4.006340854340287
 30
0.0
 10
6.863486200419208
 20
4.366538715901852
 30
0.0
 10
6.515320412606885
 20
4.54399643905464
 30
0.0
 10
5.471440973346763
 20
5.066837968311424
 30
0.0
 10
4.780358387563734
 20
5.402048922973448
 30
0.0
 10
3.390566431653868
 20
6.043249328288358
 30
0.0
 10
2.692640636787262
 20
6.3490322936244
 30
0.0
 10
1.999999999997252
 20
6.636407126729275
 30
0.0
1001
PE_URL
1000

  0
SPLINE
  5
9F
330
1F
100
AcDbEntity
  8
0
  6
Continuous
 62
     1
370
    15
100
AcDbSpline
210
0.0
220
0.0
230
1.0
 70
     8
 71
     3
 72
    21
 73
    17
 74
     0
 42
0.000000001
 43
0.00000001
 40
0.0
 40
0.0
 40
0.0
 40
0.0
 40
0.0737109837894535
 40
0.1473352432289515
 40
0.2211129566839963
 40
0.2947337126149079
 40
0.3684550448871962
 40
0.4421555387694803
 40
0.5157838906730926
 40
0.5895607328150675
 40
0.6631785743389003
 40
0.7369093864329922
 40
0.8105999761897869
 40
0.8842330093425339
 40
0.9580081088993743
 40
1.0
 40
1.0
 40
1.0
 40
1.0
 10
35.33750000000003
 20
-7.514960818107261
 30
0.0
 10
34.73080243749406
 20
-7.39546353498284
 30
0.0
 10
33.51812111996404
 20
-7.156609562763106
 30
0.0
 10
31.69902471863555
 20
-6.68581503037339
 30
0.0
 10
29.87925391591393
 20
-6.142230019315661
 30
0.0
 10
28.06014309782682
 20
-5.520131971427494
 30
0.0
 10
26.24070376971622
 20
-4.832973474416372
 30
0.0
 10
24.42138458496771
 20
-4.086793163373729
 30
0.0
 10
22.60230040065148
 20
-3.289485443939991
 30
0.0
 10
20.78253508042121
 20
-2.455077607022963
 30
0.0
 10
18.96341213723512
 20
-1.58757238162837
 30
0.0
 10
17.14391757184153
 20
-0.7033307343650038
 30
0.0
 10
15.32465094691264
 20
0.1905726472495068
 30
0.0
 10
13.50557438022809
 20
1.082093522257291
 30
0.0
 10
11.94618005417525
 20
1.836667151514384
 30
0.0
 10
10.99366198447872
 20
2.281519775124004
 30
0.0
 10
10.64815732182042
 20
2.442880131995629
 30
0.0
1001
PE_URL
1000

  0
LINE
  5
A0
330
1F
100
AcDbEntity
  8
0
  6
Continuous
 62
     1
370
    15
100
AcDbLine
 10
35.33750000000003
 20
-9.03866177943385
 30
0.0
 11
35.33750000000003
 21
-7.514960818107261
 31
0.0
1001
PE_URL
1000

  0
LINE
  5
A1
330
1F
100
AcDbEntity
  8
외형선
  6
Continuous
370
    15
100
AcDbLine
 10
2.000000000000017
 20
4.491270090970856
 30
0.0
 11
2.000000000000017
 21
6.636407126722367
 31
0.0
  0
LINE
  5
A2
330
1F
100
AcDbEntity
  8
0
  6
Continuous
 62
     1
370
    15
100
AcDbLine
 10
35.33750000000003
 20
-9.516949615062359
 30
0.0
 11
35.33750000000003
 21
-9.03866177943385
 31
0.0
1001
PE_URL
1000

  0
SPLINE
  5
A3
330
1F
100
AcDbEntity
  8
0
  6
Continuous
 62
     1
370
    15
100
AcDbSpline
210
0.0
220
0.0
230
1.0
 70
     8
 71
     3
 72
    12
 73
     8
 74
     0
 42
0.000000001
 43
0.00000001
 40
0.0
 40
0.0
 40
0.0
 40
0.0
 40
0.4999999999999989
 40
0.4999999999999989
 40
0.7499999999999994
 40
0.7499999999999994
 40
1.0
 40
1.0
 40
1.0
 40
1.0
 10
35.33750000000003
 20
-2.545489060932366
 30
0.0
 10
34.47929496967376
 20
-1.870798261156448
 30
0.0
 10
33.63323740577398
 20
-1.172677160324455
 30
0.0
 10
32.3824240257446
 20
-0.0902502097417933
 30
0.0
 10
31.96857042667417
 20
0.2765076356954178
 30
0.0
 10
31.14748841918661
 20
1.02280214036635
 30
0.0
 10
30.73888535338718
 20
1.403657852354437
 30
0.0
 10
30.33750000000004
 20
1.788486169330863
 30
0.0
1001
PE_URL
1000

  0
LINE
  5
A4
330
1F
100
AcDbEntity
  8
0
  6
Continuous
 62
     1
370
    15
100
AcDbLine
 10
30.33750000000003
 20
2.93771943529659
 30
0.0
 11
35.33750000000003
 21
0.0000000000000022
 31
0.0
1001
PE_URL
1000

  0
LINE
  5
A5
330
1F
100
AcDbEntity
  8
0
  6
Continuous
 62
     1
370
    15
100
AcDbLine
 10
35.33750000000003
 20
0.0000000000000022
 30
0.0
 11
35.33750000000003
 21
-2.545489060932366
 31
0.0
1001
PE_URL
1000

  0
SPLINE
  5
A6
330
1F
100
AcDbEntity
  8
0
  6
Continuous
 62
     1
370
    15
100
AcDbSpline
210
0.0
220
0.0
230
1.0
 70
     8
 71
     3
 72
    21
 73
    17
 74
     0
 42
0.000000001
 43
0.00000001
 40
0.0
 40
0.0
 40
0.0
 40
0.0
 40
0.0597734343427311
 40
0.1196547134057928
 40
0.1794926549723524
 40
0.2592083652820695
 40
0.3388449578543855
 40
0.4186444043023856
 40
0.4982694671064944
 40
0.578018435325784
 40
0.6577232812134252
 40
0.7373650093452025
 40
0.817162543812711
 40
0.8967850562024301
 40
0.9765434696560764
 40
0.9999999999999999
 40
0.9999999999999999
 40
0.9999999999999999
 40
0.9999999999999999
 10
30.33750000000003
 20
2.273962504588739
 30
0.0
 10
29.88281424971783
 20
2.473148903259321
 30
0.0
 10
28.97262239378796
 20
2.871881077666476
 30
0.0
 10
27.60665618578228
 20
3.444997329907936
 30
0.0
 10
26.08940378077526
 20
4.057675111608972
 30
0.0
 10
24.42138285751003
 20
4.691099995976725
 30
0.0
 10
22.60228607465207
 20
5.326577752816942
 30
0.0
 10
20.78259147101162
 20
5.895172642318762
 30
0.0
 10
18.96340213840358
 20
6.394299428490848
 30
0.0
 10
17.14394912805903
 20
6.814244476220174
 30
0.0
 10
15.32468964444806
 20
7.152047127187488
 30
0.0
 10
13.50556457838987
 20
7.402802698961827
 30
0.0
 10
11.68587793355835
 20
7.564508119953476
 30
0.0
 10
9.866719509728492
 20
7.629366278586978
 30
0.0
 10
8.475093322979085
 20
7.623373133283278
 30
0.0
 10
7.689856457142231
 20
7.573091061713477
 30
0.0
 10
7.511404270927864
 20
7.561664005764626
 30
0.0
1001
PE_URL
1000

  0
SPLINE
  5
A7
330
1F
100
AcDbEntity
  8
0
  6
Continuous
 62
     1
370
    15
100
AcDbSpline
210
0.0
220
0.0
230
1.0
 70
    24
 71
     3
 72
     8
 73
     4
 74
     0
 42
0.000000001
 43
0.00000001
 40
0.0
 40
0.0
 40
0.0
 40
0.0
 40
1.0
 40
1.0
 40
1.0
 40
1.0
 10
30.33750000000003
 20
1.788486169330773
 30
0.0
 10
30.33750000000003
 20
1.951691093477692
 30
0.0
 10
30.33750000000003
 20
2.113595766767044
 30
0.0
 10
30.33750000000003
 20
2.273962504588741
 30
0.0
1001
PE_URL
1000

  0
SPLINE
  5
A8
330
1F
100
AcDbEntity
  8
0
  6
Continuous
 62
     1
370
    15
100
AcDbSpline
210
0.0
220
0.0
230
1.0
 70
    24
 71
     3
 72
    10
 73
     6
 74
     0
 42
0.000000001
 43
0.00000001
 40
0.0
 40
0.0
 40
0.0
 40
0.0
 40
0.5
 40
0.5
 40
1.0
 40
1.0
 40
1.0
 40
1.0
 10
35.33750000000003
 20
-7.514960818107259
 30
0.0
 10
35.33750000000003
 20
-6.938880480261243
 30
0.0
 10
35.33750000000003
 20
-6.210980884209115
 30
0.0
 10
35.33750000000001
 20
-4.518684375910226
 30
0.0
 10
35.33750000000003
 20
-3.555753395063726
 30
0.0
 10
35.33750000000003
 20
-2.54548906093267
 30
0.0
1001
PE_URL
1000

  0
SPLINE
  5
A9
330
1F
100
AcDbEntity
  8
외형선
  6
Continuous
370
    15
100
AcDbSpline
210
0.0
220
0.0
230
1.0
 70
    24
 71
     3
 72
    13
 73
     9
 74
     0
 42
0.000000001
 43
0.00000001
 40
0.0
 40
0.0
 40
0.0
 40
0.0
 40
0.1533974635005763
 40
0.3746934558472646
 40
0.595989448193953
 40
0.7902340694486739
 40
0.9844786907033949
 40
1.0
 40
1.0
 40
1.0
 40
1.0
 10
2.000000000000017
 20
7.433516081948301
 30
0.0
 10
2.000000000000017
 20
7.432930847759405
 30
0.0
 10
2.000000000000017
 20
7.431501336373015
 30
0.0
 10
2.000000000000017
 20
7.341731505345249
 30
0.0
 10
2.000000000000017
 20
7.184931406214111
 30
0.0
 10
2.000000000000017
 20
6.961323317910918
 30
0.0
 10
2.000000000000017
 20
6.790144912281255
 30
0.0
 10
2.000000000000017
 20
6.674270645715775
 30
0.0
 10
2.000000000000017
 20
6.66569670653436
 30
0.0
  0
SPLINE
  5
AA
330
1F
100
AcDbEntity
  8
0
  6
Continuous
 62
     1
370
    15
100
AcDbSpline
210
0.0
220
0.0
230
1.0
 70
    24
 71
     3
 72
    10
 73
     6
 74
     0
 42
0.000000001
 43
0.00000001
 40
0.0
 40
0.0
 40
0.0
 40
0.0
 40
0.5
 40
0.5
 40
1.0
 40
1.0
 40
1.0
 40
1.0
 10
30.33750000000003
 20
2.273962504588743
 30
0.0
 10
30.33750000000002
 20
2.80176724687018
 30
0.0
 10
30.33750000000003
 20
3.304266617507636
 30
0.0
 10
30.33750000000003
 20
4.221095501631603
 30
0.0
 10
30.33750000000003
 20
4.635160569708963
 30
0.0
 10
30.33750000000003
 20
4.9891594832221
 30
0.0
1001
PE_URL
1000

  0
SPLINE
  5
AB
330
1F
100
AcDbEntity
  8
0
  6
Continuous
 62
     1
370
    15
100
AcDbSpline
210
0.0
220
0.0
230
1.0
 70
     8
 71
     3
 72
     9
 73
     5
 74
     0
 42
0.000000001
 43
0.00000001
 40
0.0
 40
0.0
 40
0.0
 40
0.0
 40
0.5142197499679284
 40
1.0
 40
1.0
 40
1.0
 40
1.0
 10
35.33750000000003
 20
6.667499999999997
 30
0.0
 10
34.73082978582807
 20
6.660904576574224
 30
0.0
 10
33.55104193401997
 20
6.64807849701158
 30
0.0
 10
32.37147813192517
 20
6.556876685148307
 30
0.0
 10
31.79846933321478
 20
6.512572646177989
 30
0.0
1001
PE_URL
1000

  0
SPLINE
  5
AC
330
1F
100
AcDbEntity
  8
0
  6
Continuous
 62
     1
370
    15
100
AcDbSpline
210
0.0
220
0.0
230
1.0
 70
     8
 71
     3
 72
    10
 73
     6
 74
     0
 42
0.000000001
 43
0.00000001
 40
0.0
 40
0.0
 40
0.0
 40
0.0
 40
0.5
 40
0.5
 40
1.0
 40
1.0
 40
1.0
 40
1.0
 10
35.33750000000003
 20
6.667500000000001
 30
0.0
 10
34.4945541751478
 20
6.438941566832862
 30
0.0
 10
33.65592461786648
 20
6.186028406994861
 30
0.0
 10
31.98784462458524
 20
5.628489846077755
 30
0.0
 10
31.15924154135762
 20
5.324646660889366
 30
0.0
 10
30.33750000000003
 20
4.989159483222096
 30
0.0
1001
PE_URL
1000

  0
SPLINE
  5
AD
330
1F
100
AcDbEntity
  8
0
  6
Continuous
 62
     1
370
    15
100
AcDbSpline
210
0.0
220
0.0
230
1.0
 70
     8
 71
     3
 72
    15
 73
    11
 74
     0
 42
0.000000001
 43
0.00000001
 40
0.0
 40
0.0
 40
0.0
 40
0.0
 40
0.1256157494477322
 40
0.26403131665181
 40
0.4021432932708887
 40
0.5404910017703151
 40
0.6553062886939807
 40
0.7702456620319474
 40
0.8850523433969851
 40
1.0
 40
1.0
 40
1.0
 40
1.0
 10
15.15942717221723
 20
-7.160307791863445
 30
0.0
 10
14.60851942643219
 20
-7.241628455551032
 30
0.0
 10
13.45056830873554
 20
-7.41255608205353
 30
0.0
 10
11.68588354440505
 20
-7.562304948762968
 30
0.0
 10
9.866711131254789
 20
-7.633093393846456
 30
0.0
 10
8.149849253257708
 20
-7.610175438241384
 30
0.0
 10
6.535577520348561
 20
-7.514247808345483
 30
0.0
 10
5.023860831921917
 20
-7.360440082625797
 30
0.0
 10
3.51221468838815
 20
-7.148622366551728
 30
0.0
 10
2.50427771654522
 20
-6.95740184060622
 30
0.0
 10
2.000000000000017
 20
-6.861732912018293
 30
0.0
1001
PE_URL
1000

  0
SPLINE
  5
AE
330
1F
100
AcDbEntity
  8
외형선
  6
Continuous
370
    15
100
AcDbSpline
210
0.0
220
0.0
230
1.0
 70
    24
 71
     3
 72
    14
 73
    10
 74
     0
 42
0.000000001
 43
0.00000001
 40
0.0
 40
0.0
 40
0.0
 40
0.0
 40
0.25
 40
0.25
 40
0.5
 40
0.5
 40
0.75
 40
0.75
 40
1.0
 40
1.0
 40
1.0
 40
1.0
 10
2.0
 20
2.899542126467249
 30
0.0
 10
2.0
 20
2.079037481627664
 30
0.0
 10
2.0
 20
1.208066268783556
 30
0.0
 10
2.0
 20
-0.5619603268145784
 30
0.0
 10
2.0
 20
-1.460209842326084
 30
0.0
 10
2.0
 20
-3.195069845060176
 30
0.0
 10
2.0
 20
-4.030755926341897
 30
0.0
 10
2.0
 20
-5.56239562287467
 30
0.0
 10
2.0
 20
-6.2578781981457
 30
0.0
 10
2.0
 20
-6.861732912018284
 30
0.0
  0
LINE
  5
AF
330
1F
100
AcDbEntity
  8
0
  6
Continuous
 62
     1
370
    15
100
AcDbLine
 10
35.33750000000003
 20
0.0000000000000022
 30
0.0
 11
35.33750000000003
 21
6.667500000000002
 31
0.0
1001
PE_URL
1000

  0
SPLINE
  5
B0
330
1F
100
AcDbEntity
  8
외형선
  6
Continuous
370
    15
100
AcDbSpline
210
0.0
220
0.0
230
1.0
 70
    24
 71
     3
 72
    13
 73
     9
 74
     0
 42
0.000000001
 43
0.00000001
 40
0.0
 40
0.0
 40
0.0
 40
0.0
 40
0.1688622835398584
 40
0.3377245670797169
 40
0.5087848313880831
 40
0.6798450956964494
 40
0.9286668160052675
 40
1.0
 40
1.0
 40
1.0
 40
1.0
 10
2.000000000000016
 20
-6.861732912018293
 30
0.0
 10
2.000000000000016
 20
-6.92330230461738
 30
0.0
 10
2.000000000000016
 20
-7.046441089815554
 30
0.0
 10
2.000000000000017
 20
-7.191120770392033
 30
0.0
 10
2.000000000000017
 20
-7.306414341315773
 30
0.0
 10
2.000000000000017
 20
-7.396724695720179
 30
0.0
 10
2.000000000000017
 20
-7.445341437432211
 30
0.0
 10
2.000000000000017
 20
-7.435670784182551
 30
0.0
 10
2.000000000000017
 20
-7.433516081948305
 30
0.0
  0
SPLINE
  5
B1
330
1F
100
AcDbEntity
  8
0
  6
Continuous
 62
     1
370
    15
100
AcDbSpline
210
0.0
220
0.0
230
1.0
 70
    24
 71
     3
 72
    10
 73
     6
 74
     0
 42
0.000000001
 43
0.00000001
 40
0.0
 40
0.0
 40
0.0
 40
0.0
 40
0.5
 40
0.5
 40
1.0
 40
1.0
 40
1.0
 40
1.0
 10
35.33750000000003
 20
6.667499999999998
 30
0.0
 10
35.33750000000003
 20
7.07166724608966
 30
0.0
 10
35.33750000000003
 20
7.541347015959287
 30
0.0
 10
35.33750000000001
 20
8.52673390815215
 30
0.0
 10
35.33750000000003
 20
9.039924476009022
 30
0.0
 10
35.33750000000003
 20
9.516949615062353
 30
0.0
1001
PE_URL
1000

  0
SPLINE
  5
B2
330
1F
100
AcDbEntity
  8
0
  6
Continuous
 62
     1
370
    15
100
AcDbSpline
210
0.0
220
0.0
230
1.0
 70
     8
 71
     3
 72
    17
 73
    13
 74
     0
 42
0.000000001
 43
0.00000001
 40
0.0
 40
0.0
 40
0.0
 40
0.0
 40
0.0699453119977448
 40
0.175167998968132
 40
0.2766179724976338
 40
0.3782330886510415
 40
0.4800969343236405
 40
0.5821279967273562
 40
0.6862374847107818
 40
0.790525511579432
 40
0.8950824137591885
 40
1.0
 40
1.0
 40
1.0
 40
1.0
 10
22.22556971742645
 20
6.385216432077076
 30
0.0
 10
22.53122067449753
 20
6.514774695740628
 30
0.0
 10
23.29667964527974
 20
6.83923477959102
 30
0.0
 10
24.50555917705659
 20
7.307193893600822
 30
0.0
 10
25.85358320283904
 20
7.782447407463222
 30
0.0
 10
27.18541924354573
 20
8.202313087955167
 30
0.0
 10
28.52178147923836
 20
8.567904487629773
 30
0.0
 10
29.8668225899324
 20
8.881380534443286
 30
0.0
 10
31.22465533595359
 20
9.136473143183686
 30
0.0
 10
32.5916256557387
 20
9.330694298780305
 30
0.0
 10
33.96356133116188
 20
9.465195050498945
 30
0.0
 10
34.87899502994692
 20
9.499678301856418
 30
0.0
 10
35.33749999999935
 20
9.516949615062336
 30
0.0
1001
PE_URL
1000

  0
LINE
  5
B3
330
1F
100
AcDbEntity
  8
중심선
 62
     1
100
AcDbLine
 10
-55.79999999999998
 20
-0.0000000000000061
 30
0.0
 11
42.33750000000003
 21
0.0000000000000049
 31
0.0
  0
LINE
  5
B4
330
1F
100
AcDbEntity
  8
참조1
100
AcDbLine
 10
-6.731249999999978
 20
-0.0000000000000059
 30
0.0
 11
-6.731249999999973
 21
-40.00000000000001
 31
0.0
  0
LINE
  5
B5
330
1F
100
AcDbEntity
  8
참조1
100
AcDbLine
 10
-6.731249999999973
 20
-40.00000000000001
 30
0.0
 11
-24.27133181430866
 21
-40.0
 31
0.0
  0
CIRCLE
  5
B6
330
1F
100
AcDbEntity
  8
해칭선
100
AcDbCircle
 10
0.0
 20
0.0
 30
0.0
 40
3.000000000000001
  0
INSERT
  5
B7
330
1F
100
AcDbEntity
  8
0
  6
Continuous
 62
     7
100
AcDbBlockReference
 66
     1
  2
블럭10
 10
-20.67152293212519
 20
-52.04717430164393
 30
0.0
  0
ATTRIB
  5
B8
330
B7
100
AcDbEntity
  8
FORMAT
 62
     2
100
AcDbText
 10
-29.85281822086647
 20
-49.97180738881174
 30
0.0
 40
4.233333333333333
  1
E2030904 [ 2 FLUTE ]
 41
0.75
  7
SLDTEXTSTYLE0
 11
-29.85281822086647
 21
-52.08847405547841
 31
0.0
100
AcDbAttribute
  2
AUTOATTR0
 70
     0
 74
     1
  0
SEQEND
  5
B9
330
B7
100
AcDbEntity
  8
0
  6
Continuous
 62
     7
  0
HATCH
  5
BA
330
1F
100
AcDbEntity
  8
중심선
100
AcDbHatch
 10
0.0
 20
0.0
 30
0.0
210
0.0
220
0.0
230
1.0
  2
SOLID
 70
     1
 71
     0
 91
        1
 92
        0
 93
        4
 72
     1
 10
-14.95661362774434
 20
-35.8
 11
-18.40288887158162
 21
-35.8
 72
     1
 10
-18.40288887158162
 20
-35.8
 11
-20.53111873078565
 21
-38.3363255805726
 72
     1
 10
-20.53111873078565
 20
-38.3363255805726
 11
-17.08481040183521
 21
-38.33628615127011
 72
     1
 10
-17.08481040183521
 20
-38.33628615127011
 11
-14.95661362774434
 21
-35.8
 97
        0
 75
     0
 76
     1
 98
        1
 10
-1.740578832126921
 20
-0.0010749287238951
  0
HATCH
  5
BB
330
1F
100
AcDbEntity
  8
중심선
100
AcDbHatch
 10
0.0
 20
0.0
 30
0.0
210
0.0
220
0.0
230
1.0
  2
SOLID
 70
     1
 71
     0
 91
        1
 92
        0
 93
        4
 72
     1
 10
-9.943849636708336
 20
-35.8
 11
-13.39012488054562
 21
-35.8
 72
     1
 10
-13.39012488054562
 20
-35.8
 11
-17.92126288890306
 21
-41.20000000000002
 72
     1
 10
-17.92126288890306
 20
-41.20000000000002
 11
-14.47498764506578
 21
-41.20000000000002
 72
     1
 10
-14.47498764506578
 20
-41.20000000000002
 11
-9.943849636708336
 21
-35.8
 97
        0
 75
     0
 76
     1
 98
        1
 10
-1.740578832126921
 20
-0.0010749287238951
  0
HATCH
  5
BC
330
1F
100
AcDbEntity
  8
중심선
100
AcDbHatch
 10
0.0
 20
0.0
 30
0.0
210
0.0
220
0.0
230
1.0
  2
SOLID
 70
     1
 71
     0
 91
        1
 92
        0
 93
        4
 72
     1
 10
-4.931085645672467
 20
-35.8
 11
-8.37736088950961
 21
-35.80000000000003
 72
     1
 10
-8.37736088950961
 20
-35.80000000000003
 11
-15.42579779139886
 21
-44.20000000000002
 72
     1
 10
-15.42579779139886
 20
-44.20000000000002
 11
-11.97952254756158
 21
-44.20000000000002
 72
     1
 10
-11.97952254756158
 20
-44.20000000000002
 11
-4.931085645672468
 21
-35.8
 97
        0
 75
     0
 76
     1
 98
        1
 10
-1.740578832126921
 20
-0.0010749287238951
  0
HATCH
  5
BD
330
1F
100
AcDbEntity
  8
중심선
100
AcDbHatch
 10
0.0
 20
0.0
 30
0.0
210
0.0
220
0.0
230
1.0
  2
SOLID
 70
     1
 71
     0
 91
        1
 92
        0
 93
        6
 72
     3
 10
-0.1311952146602955
 20
-40.00000000005127
 11
3.960054785062283
 21
1.540882976769353E-10
 40
0.3939339440162628
 50
17.09539180608436
 51
320.0019657685078
 73
     0
 72
     1
 10
1.5518044410403
 20
-38.5878940046383
 11
3.857106314741366
 21
-36.65356729459038
 72
     3
 10
-0.1311952147131421
 20
-40.00000000000015
 11
6.600054785286829
 21
-1.278976924368180E-13
 40
0.6363583540795982
 50
39.99873849337386
 51
368.4976242363724
 73
     1
 72
     1
 10
6.294137277187467
 20
-39.03999999993002
 11
-1.45112790787722
 21
-39.03999999993002
 72
     1
 10
-1.45112790787722
 20
-39.03999999993002
 11
-1.451152952323153
 21
-40.95999999992991
 72
     1
 10
-1.451152952323153
 20
-40.95999999992991
 11
2.990226817148883
 21
-40.95999999992988
 97
        0
 75
     0
 76
     1
 98
        1
 10
-1.740578832126921
 20
-0.0010749287238951
  0
DIMENSION
  5
BE
330
1F
100
AcDbEntity
  8
치수문자_일반주서
100
AcDbDimension
  2
_D
 10
-63.79999999999995
 20
-6.350000000000051
 30
0.0
 11
-63.80000000000005
 21
26.29774999999993
 31
0.0
 70
   160
  1
%%c<>
 71
     2
 42
12.69999999999999
 52
-270.0
  3
SLDDIMSTYLE1
100
AcDbAlignedDimension
 13
-47.79999999999999
 23
6.349999999999993
 33
0.0
 14
-47.79999999999999
 24
-6.349999999999996
 34
0.0
 50
90.0000000000002
100
AcDbRotatedDimension
1001
PE_URL
1000

1001
ACAD
1000
DSTYLE
1002
{
1070
   171
1070
     8
1070
   273
1070
     7
1002
}
  0
DIMENSION
  5
CC
330
1F
100
AcDbEntity
  8
치수문자_일반주서
100
AcDbDimension
  2
_D_1
 10
2.000000000000018
 20
21.34999999999999
 30
0.0
 11
18.66874999999968
 21
21.34999999999999
 31
0.0
 70
   160
  1
<>
 71
     2
 42
33.33749999999934
  3
SLDDIMSTYLE1
100
AcDbAlignedDimension
 13
35.33749999999935
 23
9.516949615062336
 33
0.0
 14
2.000000000000017
 24
5.472849324069391
 34
0.0
100
AcDbRotatedDimension
1001
PE_URL
1000

1001
ACAD
1000
DSTYLE
1002
{
1070
   171
1070
     8
1070
   273
1070
     7
1002
}
  0
DIMENSION
  5
E2
330
1F
100
AcDbEntity
  8
치수문자_일반주서
100
AcDbDimension
  2
_D_2
 10
-48.8
 20
36.34999999999999
 30
0.0
 11
-6.73125000000033
 21
36.34999999999999
 31
0.0
 70
   160
  1
<>
 71
     2
 42
84.13749999999933
  3
SLDDIMSTYLE1
100
AcDbAlignedDimension
 13
35.33749999999935
 23
9.516949615062336
 33
0.0
 14
-48.79999999999999
 24
5.349999999999993
 34
0.0
 50
0.000000000000008
100
AcDbRotatedDimension
1001
PE_URL
1000

1001
ACAD
1000
DSTYLE
1002
{
1070
   171
1070
     8
1070
   273
1070
     7
1002
}
  0
DIMENSION
  5
F6
330
1F
100
AcDbEntity
  8
치수문자_일반주서
100
AcDbDimension
  2
_D_3
 10
50.33750000000002
 20
9.516949615062412
 30
0.0
 11
50.33749999999995
 21
29.90219961506241
 31
0.0
 70
   160
  1
%%c<>
 71
     2
 42
19.03389923012471
 52
-270.0
  3
SLDDIMSTYLE1
100
AcDbAlignedDimension
 13
35.33750000000003
 23
-9.516949615062359
 33
0.0
 14
35.33750000000003
 24
9.516949615062355
 34
0.0
 50
90.0000000000002
100
AcDbRotatedDimension
1001
PE_URL
1000

1001
ACAD
1000
DSTYLE
1002
{
1070
   171
1070
     8
1070
   273
1070
     7
1002
}
  0
LINE
  5
10A
330
1F
100
AcDbEntity
  8
참조1
100
AcDbLine
 10
73.70100881534562
 20
7.44
 30
0.0
 11
73.70100881534562
 21
-7.440000000000004
 31
0.0
  0
LINE
  5
10B
330
1F
100
AcDbEntity
  8
참조1
100
AcDbLine
 10
86.40100881534562
 20
5.44
 30
0.0
 11
73.70100881534562
 21
5.44
 31
0.0
  0
SOLID
  5
10C
330
1F
100
AcDbEntity
  8
참조1
100
AcDbTrace
 10
73.70100881534562
 20
5.44
 30
0.0
 11
80.05100881534561
 21
4.424
 31
0.0
 12
80.05100881534561
 22
6.456
 32
0.0
 13
80.05100881534561
 23
6.456
 33
0.0
  0
LINE
  5
10D
330
1F
100
AcDbEntity
  8
참조1
100
AcDbLine
 10
86.40100881534562
 20
-5.440000000000004
 30
0.0
 11
73.70100881534562
 21
-5.440000000000004
 31
0.0
  0
SOLID
  5
10E
330
1F
100
AcDbEntity
  8
참조1
100
AcDbTrace
 10
73.70100881534562
 20
-5.440000000000004
 30
0.0
 11
80.05100881534561
 21
-6.456000000000004
 31
0.0
 12
80.05100881534561
 22
-4.424000000000004
 32
0.0
 13
80.05100881534561
 23
-4.424000000000004
 33
0.0
  0
MTEXT
  5
10F
330
1F
100
AcDbEntity
  8
참조1
100
AcDbMText
 10
83.0853589479716
 20
11.01029177718833
 30
0.0
 40
3.5
 41
0.0
 71
     1
 72
     1
  1
A
  7
SLDTEXTSTYLE0
 73
     1
 44
1.0
  0
MTEXT
  5
110
330
1F
100
AcDbEntity
  8
참조1
100
AcDbMText
 10
83.0853589479716
 20
0.130291777188325
 30
0.0
 40
3.5
 41
0.0
 71
     1
 72
     1
  1
A
  7
SLDTEXTSTYLE0
 73
     1
 44
1.0
  0
INSERT
  5
117
330
1F
100
AcDbEntity
  8
해칭선
100
AcDbBlockReference
  2
SW_DOWELSYMBOL_0
 10
0.0
 20
0.0
 30
0.0
  0
LINE
  5
18A
330
1F
100
AcDbEntity
  8
외형선
  6
Continuous
370
    15
100
AcDbLine
 10
2.000000000000008
 20
6.350000000000001
 30
0.0
 11
-19.06612499999996
 21
6.350000000000001
 31
0.0
  0
LINE
  5
18B
330
1F
100
AcDbEntity
  8
외형선
  6
Continuous
370
    15
100
AcDbLine
 10
-47.79999999999998
 20
-6.350000000000001
 30
0.0
 11
2.000000000000008
 21
-6.349999999999998
 31
0.0
  0
LINE
  5
18C
330
1F
100
AcDbEntity
  8
외형선
  6
Continuous
370
    15
100
AcDbLine
 10
-47.79999999999998
 20
6.349999999999996
 30
0.0
 11
-48.79999999999998
 21
5.349999999999994
 31
0.0
  0
LINE
  5
18D
330
1F
100
AcDbEntity
  8
외형선
  6
Continuous
370
    15
100
AcDbLine
 10
-48.79999999999998
 20
-5.350000000000001
 30
0.0
 11
-47.79999999999998
 21
-6.349999999999998
 31
0.0
  0
LINE
  5
18F
330
1F
100
AcDbEntity
  8
외형선
  6
Continuous
370
    15
100
AcDbLine
 10
-47.79999999999998
 20
6.349999999999996
 30
0.0
 11
-47.79999999999998
 21
-6.349999999999991
 31
0.0
  0
LINE
  5
190
330
1F
100
AcDbEntity
  8
외형선
  6
Continuous
370
    15
100
AcDbLine
 10
-48.79999999999998
 20
5.349999999999994
 30
0.0
 11
-48.79999999999998
 21
-5.350000000000005
 31
0.0
  0
LINE
  5
199
330
1F
100
AcDbEntity
  8
외형선
  6
Continuous
370
    15
100
AcDbLine
 10
-31.76612499999996
 20
4.825999999999986
 30
0.0
 11
-20.59012500000009
 21
4.825999999999986
 31
0.0
1001
PE_URL
1000

  0
LINE
  5
19A
330
1F
100
AcDbEntity
  8
외형선
  6
Continuous
370
    15
100
AcDbLine
 10
-31.76612499999996
 20
4.825999999999986
 30
0.0
 11
-33.29012499999996
 21
6.349999999999987
 31
0.0
1001
PE_URL
1000

  0
LINE
  5
19B
330
1F
100
AcDbEntity
  8
외형선
  6
Continuous
370
    15
100
AcDbLine
 10
-20.59012499999997
 20
4.825999999999986
 30
0.0
 11
-19.06612499999998
 21
6.349999999999987
 31
0.0
1001
PE_URL
1000

  0
LINE
  5
19C
330
1F
100
AcDbEntity
  8
외형선
  6
Continuous
370
    15
100
AcDbLine
 10
-33.29012499999997
 20
6.350000000000001
 30
0.0
 11
-47.79999999999998
 21
6.349999999999998
 31
0.0
  0
ENDSEC
  0
SECTION
  2
OBJECTS
  0
DICTIONARY
  5
C
330
0
100
AcDbDictionary
281
     1
  3
ACAD_GROUP
350
D
  3
ACAD_IMAGE_VARS
350
244
  3
ACAD_LAYOUT
350
1A
  3
ACAD_MLINESTYLE
350
17
  3
ACAD_PLOTSETTINGS
350
19
  3
ACAD_PLOTSTYLENAME
350
E
  3
ACAD_SCALELIST
350
47
  3
APPDATA
350
139
  3
DWGPROPS
350
245
  0
DICTIONARY
  5
17B
330
2
100
AcDbDictionary
280
     1
281
     1
  3
ACAD_LAYERSTATES
360
17C
  0
DICTIONARY
  5
D
102
{ACAD_REACTORS
330
C
102
}
330
C
100
AcDbDictionary
281
     1
  0
RASTERVARIABLES
  5
244
102
{ACAD_REACTORS
330
C
102
}
330
C
100
AcDbRasterVariables
 90
        0
 70
     1
 71
     1
 72
     1
  0
DICTIONARY
  5
1A
102
{ACAD_REACTORS
330
C
102
}
330
C
100
AcDbDictionary
281
     1
  3
Layout1
350
1E
  3
Layout2
350
26
  3
Model
350
22
  0
DICTIONARY
  5
17
102
{ACAD_REACTORS
330
C
102
}
330
C
100
AcDbDictionary
281
     1
  3
Standard
350
18
  0
DICTIONARY
  5
19
102
{ACAD_REACTORS
330
C
102
}
330
C
100
AcDbDictionary
281
     1
  0
ACDBDICTIONARYWDFLT
  5
E
102
{ACAD_REACTORS
330
C
102
}
330
C
100
AcDbDictionary
281
     1
  3
Normal
350
F
100
AcDbDictionaryWithDefault
340
F
  0
DICTIONARY
  5
47
102
{ACAD_REACTORS
330
C
102
}
330
C
100
AcDbDictionary
281
     1
  3
A0
350
48
  3
A1
350
49
  3
A2
350
4A
  3
A3
350
4B
  3
A4
350
4C
  3
A5
350
4D
  3
A6
350
4E
  3
A7
350
4F
  3
A8
350
50
  3
A9
350
51
  3
B0
350
52
  3
B1
350
53
  3
B2
350
54
  3
B3
350
55
  3
B4
350
56
  3
B5
350
57
  3
B6
350
58
  3
B7
350
59
  3
B8
350
5A
  3
B9
350
5B
  3
C0
350
5C
  3
C1
350
5D
  3
C2
350
5E
  3
C3
350
5F
  3
C4
350
60
  3
C5
350
61
  3
C6
350
62
  3
C7
350
63
  3
C8
350
64
  3
C9
350
65
  3
D0
350
66
  3
D1
350
67
  3
D2
350
68
  0
DICTIONARY
  5
139
102
{ACAD_REACTORS
330
C
102
}
330
C
100
AcDbDictionary
281
     1
  0
XRECORD
  5
245
102
{ACAD_REACTORS
330
C
102
}
330
C
100
AcDbXrecord
280
     1
  1
DWGPROPS COOKIE
  2

  3

  4

  6

  7

  8
12016016
  9

300
=
301
=
302
=
303
=
304
=
305
=
306
=
307
=
308
=
309
=
 40
0.0
 41
2458311.190848866
 42
2458323.078009178
  1

 90
        0
  0
DICTIONARY
  5
17C
102
{ACAD_REACTORS
330
17B
102
}
330
17B
100
AcDbDictionary
281
     1
  0
LAYOUT
  5
1E
102
{ACAD_REACTORS
330
1A
102
}
330
1A
100
AcDbPlotSettings
  1

  2
none_device
  4

  6

 40
0.0
 41
0.0
 42
0.0
 43
0.0
 44
0.0
 45
0.0
 46
0.0
 47
0.0
 48
0.0
 49
0.0
140
0.0
141
0.0
142
1.0
143
1.0
 70
   688
 72
     1
 73
     0
 74
     5
  7

 75
    16
147
1.0
148
0.0
149
0.0
100
AcDbLayout
  1
Layout1
 70
     1
 71
     1
 10
0.0
 20
0.0
 11
420.0
 21
297.0
 12
0.0
 22
0.0
 32
0.0
 14
1.000000000000000E+20
 24
1.000000000000000E+20
 34
1.000000000000000E+20
 15
-1.000000000000000E+20
 25
-1.000000000000000E+20
 35
-1.000000000000000E+20
146
0.0
 13
0.0
 23
0.0
 33
0.0
 16
1.0
 26
0.0
 36
0.0
 17
0.0
 27
1.0
 37
0.0
 76
     0
330
1B
  0
LAYOUT
  5
26
102
{ACAD_REACTORS
330
1A
102
}
330
1A
100
AcDbPlotSettings
  1

  2
none_device
  4

  6

 40
0.0
 41
0.0
 42
0.0
 43
0.0
 44
0.0
 45
0.0
 46
0.0
 47
0.0
 48
0.0
 49
0.0
140
0.0
141
0.0
142
1.0
143
1.0
 70
   688
 72
     1
 73
     0
 74
     5
  7

 75
    16
147
1.0
148
0.0
149
0.0
100
AcDbLayout
  1
Layout2
 70
     1
 71
     2
 10
0.0
 20
0.0
 11
0.0
 21
0.0
 12
0.0
 22
0.0
 32
0.0
 14
0.0
 24
0.0
 34
0.0
 15
0.0
 25
0.0
 35
0.0
146
0.0
 13
0.0
 23
0.0
 33
0.0
 16
1.0
 26
0.0
 36
0.0
 17
0.0
 27
1.0
 37
0.0
 76
     0
330
23
  0
LAYOUT
  5
22
102
{ACAD_REACTORS
330
1A
102
}
330
1A
100
AcDbPlotSettings
  1

  2
none_device
  4
ANSI_A_(11.00_x_8.50_Inches)
  6

 40
6.35
 41
19.05
 42
6.35000508
 43
19.05000254
 44
279.4
 45
215.9
 46
111.5354592427306
 47
97.62990263130112
 48
0.0
 49
0.0
140
0.0
141
0.0
142
0.0715194751484015
143
1.0
 70
  1696
 72
     0
 73
     0
 74
     0
  7

 75
     0
147
0.0235690232323232
148
0.0
149
0.0
100
AcDbLayout
  1
Model
 70
     1
 71
     0
 10
0.0
 20
0.0
 11
420.0
 21
297.0
 12
0.0
 22
0.0
 32
0.0
 14
-68.1750000000001
 24
-49.97180738881175
 34
0.0
 15
86.40100881534562
 25
43.68344961506243
 35
0.0
146
0.0
 13
0.0
 23
0.0
 33
0.0
 16
1.0
 26
0.0
 36
0.0
 17
0.0
 27
1.0
 37
0.0
 76
     0
330
1F
331
29
  0
MLINESTYLE
  5
18
102
{ACAD_REACTORS
330
17
102
}
330
17
100
AcDbMlineStyle
  2
Standard
 70
     0
  3

 62
   256
 51
90.0
 52
90.0
 71
     2
 49
0.5
 62
   256
  6
BYLAYER
 49
-0.5
 62
   256
  6
BYLAYER
  0
ACDBPLACEHOLDER
  5
F
102
{ACAD_REACTORS
330
E
102
}
330
E
  0
SCALE
  5
48
102
{ACAD_REACTORS
330
47
102
}
330
47
100
AcDbScale
 70
     0
300
1:1
140
1.0
141
1.0
290
     1
  0
SCALE
  5
49
102
{ACAD_REACTORS
330
47
102
}
330
47
100
AcDbScale
 70
     0
300
1:2
140
1.0
141
2.0
290
     0
  0
SCALE
  5
4A
102
{ACAD_REACTORS
330
47
102
}
330
47
100
AcDbScale
 70
     0
300
1:4
140
1.0
141
4.0
290
     0
  0
SCALE
  5
4B
102
{ACAD_REACTORS
330
47
102
}
330
47
100
AcDbScale
 70
     0
300
1:5
140
1.0
141
5.0
290
     0
  0
SCALE
  5
4C
102
{ACAD_REACTORS
330
47
102
}
330
47
100
AcDbScale
 70
     0
300
1:8
140
1.0
141
8.0
290
     0
  0
SCALE
  5
4D
102
{ACAD_REACTORS
330
47
102
}
330
47
100
AcDbScale
 70
     0
300
1:10
140
1.0
141
10.0
290
     0
  0
SCALE
  5
4E
102
{ACAD_REACTORS
330
47
102
}
330
47
100
AcDbScale
 70
     0
300
1:16
140
1.0
141
16.0
290
     0
  0
SCALE
  5
4F
102
{ACAD_REACTORS
330
47
102
}
330
47
100
AcDbScale
 70
     0
300
1:20
140
1.0
141
20.0
290
     0
  0
SCALE
  5
50
102
{ACAD_REACTORS
330
47
102
}
330
47
100
AcDbScale
 70
     0
300
1:30
140
1.0
141
30.0
290
     0
  0
SCALE
  5
51
102
{ACAD_REACTORS
330
47
102
}
330
47
100
AcDbScale
 70
     0
300
1:40
140
1.0
141
40.0
290
     0
  0
SCALE
  5
52
102
{ACAD_REACTORS
330
47
102
}
330
47
100
AcDbScale
 70
     0
300
1:50
140
1.0
141
50.0
290
     0
  0
SCALE
  5
53
102
{ACAD_REACTORS
330
47
102
}
330
47
100
AcDbScale
 70
     0
300
1:100
140
1.0
141
100.0
290
     0
  0
SCALE
  5
54
102
{ACAD_REACTORS
330
47
102
}
330
47
100
AcDbScale
 70
     0
300
2:1
140
2.0
141
1.0
290
     0
  0
SCALE
  5
55
102
{ACAD_REACTORS
330
47
102
}
330
47
100
AcDbScale
 70
     0
300
4:1
140
4.0
141
1.0
290
     0
  0
SCALE
  5
56
102
{ACAD_REACTORS
330
47
102
}
330
47
100
AcDbScale
 70
     0
300
8:1
140
8.0
141
1.0
290
     0
  0
SCALE
  5
57
102
{ACAD_REACTORS
330
47
102
}
330
47
100
AcDbScale
 70
     0
300
10:1
140
10.0
141
1.0
290
     0
  0
SCALE
  5
58
102
{ACAD_REACTORS
330
47
102
}
330
47
100
AcDbScale
 70
     0
300
100:1
140
100.0
141
1.0
290
     0
  0
SCALE
  5
59
102
{ACAD_REACTORS
330
47
102
}
330
47
100
AcDbScale
 70
     0
300
1/128" = 1'-0"
140
0.0078125
141
12.0
290
     0
  0
SCALE
  5
5A
102
{ACAD_REACTORS
330
47
102
}
330
47
100
AcDbScale
 70
     0
300
1/64" = 1'-0"
140
0.015625
141
12.0
290
     0
  0
SCALE
  5
5B
102
{ACAD_REACTORS
330
47
102
}
330
47
100
AcDbScale
 70
     0
300
1/32" = 1'-0"
140
0.03125
141
12.0
290
     0
  0
SCALE
  5
5C
102
{ACAD_REACTORS
330
47
102
}
330
47
100
AcDbScale
 70
     0
300
1/16" = 1'-0"
140
0.0625
141
12.0
290
     0
  0
SCALE
  5
5D
102
{ACAD_REACTORS
330
47
102
}
330
47
100
AcDbScale
 70
     0
300
3/32" = 1'-0"
140
0.09375
141
12.0
290
     0
  0
SCALE
  5
5E
102
{ACAD_REACTORS
330
47
102
}
330
47
100
AcDbScale
 70
     0
300
1/8" = 1'-0"
140
0.125
141
12.0
290
     0
  0
SCALE
  5
5F
102
{ACAD_REACTORS
330
47
102
}
330
47
100
AcDbScale
 70
     0
300
3/16" = 1'-0"
140
0.1875
141
12.0
290
     0
  0
SCALE
  5
60
102
{ACAD_REACTORS
330
47
102
}
330
47
100
AcDbScale
 70
     0
300
1/4" = 1'-0"
140
0.25
141
12.0
290
     0
  0
SCALE
  5
61
102
{ACAD_REACTORS
330
47
102
}
330
47
100
AcDbScale
 70
     0
300
3/8" = 1'-0"
140
0.375
141
12.0
290
     0
  0
SCALE
  5
62
102
{ACAD_REACTORS
330
47
102
}
330
47
100
AcDbScale
 70
     0
300
1/2" = 1'-0"
140
0.5
141
12.0
290
     0
  0
SCALE
  5
63
102
{ACAD_REACTORS
330
47
102
}
330
47
100
AcDbScale
 70
     0
300
3/4" = 1'-0"
140
0.75
141
12.0
290
     0
  0
SCALE
  5
64
102
{ACAD_REACTORS
330
47
102
}
330
47
100
AcDbScale
 70
     0
300
1" = 1'-0"
140
1.0
141
12.0
290
     0
  0
SCALE
  5
65
102
{ACAD_REACTORS
330
47
102
}
330
47
100
AcDbScale
 70
     0
300
1-1/2" = 1'-0"
140
1.5
141
12.0
290
     0
  0
SCALE
  5
66
102
{ACAD_REACTORS
330
47
102
}
330
47
100
AcDbScale
 70
     0
300
3" = 1'-0"
140
3.0
141
12.0
290
     0
  0
SCALE
  5
67
102
{ACAD_REACTORS
330
47
102
}
330
47
100
AcDbScale
 70
     0
300
6" = 1'-0"
140
6.0
141
12.0
290
     0
  0
SCALE
  5
68
102
{ACAD_REACTORS
330
47
102
}
330
47
100
AcDbScale
 70
     0
300
1'-0" = 1'-0"
140
12.0
141
12.0
290
     0
  0
ENDSEC
  0
EOF
