  0
SECTION
  2
HEADER
  9
$ACADVER
  1
AC1015
  9
$ACADMAINTVER
 70
     6
  9
$DWGCODEPAGE
  3
ANSI_949
  9
$INSBASE
 10
0.0
 20
0.0
 30
0.0
  9
$EXTMIN
 10
-68.80001236127869
 20
-49.97180738881175
 30
0.0
  9
$EXTMAX
 10
89.4509964540677
 20
44.76694961506242
 30
0.0
  9
$LIMMIN
 10
0.0
 20
0.0
  9
$LIMMAX
 10
420.0
 20
297.0
  9
$ORTHOMODE
 70
     1
  9
$REGENMODE
 70
     1
  9
$FILLMODE
 70
     1
  9
$QTEXTMODE
 70
     0
  9
$MIRRTEXT
 70
     1
  9
$LTSCALE
 40
1.0
  9
$ATTMODE
 70
     1
  9
$TEXTSIZE
 40
3.5
  9
$TRACEWID
 40
1.0
  9
$TEXTSTYLE
  7
Standard
  9
$CLAYER
  8
0
  9
$CELTYPE
  6
ByLayer
  9
$CECOLOR
 62
   256
  9
$CELTSCALE
 40
1.0
  9
$DISPSILH
 70
     0
  9
$DIMSCALE
 40
1.0
  9
$DIMASZ
 40
3.302
  9
$DIMEXO
 40
1.0
  9
$DIMDLI
 40
3.75
  9
$DIMRND
 40
0.0
  9
$DIMDLE
 40
0.0
  9
$DIMEXE
 40
1.0
  9
$DIMTP
 40
0.0
  9
$DIMTM
 40
0.0
  9
$DIMTXT
 40
3.5
  9
$DIMCEN
 40
2.5
  9
$DIMTSZ
 40
0.0
  9
$DIMTOL
 70
     0
  9
$DIMLIM
 70
     0
  9
$DIMTIH
 70
     1
  9
$DIMTOH
 70
     1
  9
$DIMSE1
 70
     0
  9
$DIMSE2
 70
     0
  9
$DIMTAD
 70
     1
  9
$DIMZIN
 70
     0
  9
$DIMBLK
  1

  9
$DIMASO
 70
     1
  9
$DIMSHO
 70
     1
  9
$DIMPOST
  1

  9
$DIMAPOST
  1

  9
$DIMALT
 70
     0
  9
$DIMALTD
 70
     3
  9
$DIMALTF
 40
0.0393700787401575
  9
$DIMLFAC
 40
1.0
  9
$DIMTOFL
 70
     1
  9
$DIMTVP
 40
0.0
  9
$DIMTIX
 70
     0
  9
$DIMSOXD
 70
     0
  9
$DIMSAH
 70
     0
  9
$DIMBLK1
  1

  9
$DIMBLK2
  1

  9
$DIMSTYLE
  2
ISO-25
  9
$DIMCLRD
 70
     0
  9
$DIMCLRE
 70
     0
  9
$DIMCLRT
 70
     0
  9
$DIMTFAC
 40
1.0
  9
$DIMGAP
 40
1.524
  9
$DIMJUST
 70
     0
  9
$DIMSD1
 70
     0
  9
$DIMSD2
 70
     0
  9
$DIMTOLJ
 70
     0
  9
$DIMTZIN
 70
     0
  9
$DIMALTZ
 70
     0
  9
$DIMALTTZ
 70
     0
  9
$DIMUPT
 70
     0
  9
$DIMDEC
 70
     2
  9
$DIMTDEC
 70
     2
  9
$DIMALTU
 70
     2
  9
$DIMALTTD
 70
     3
  9
$DIMTXSTY
  7
Standard
  9
$DIMAUNIT
 70
     0
  9
$DIMADEC
 70
     2
  9
$DIMALTRND
 40
0.0
  9
$DIMAZIN
 70
     0
  9
$DIMDSEP
 70
    44
  9
$DIMATFIT
 70
     3
  9
$DIMFRAC
 70
     0
  9
$DIMLDRBLK
  1

  9
$DIMLUNIT
 70
     2
  9
$DIMLWD
 70
    -2
  9
$DIMLWE
 70
    -2
  9
$DIMTMOVE
 70
     0
  9
$LUNITS
 70
     2
  9
$LUPREC
 70
     2
  9
$SKETCHINC
 40
1.0
  9
$FILLETRAD
 40
10.0
  9
$AUNITS
 70
     0
  9
$AUPREC
 70
     2
  9
$MENU
  1
.
  9
$ELEVATION
 40
0.0
  9
$PELEVATION
 40
0.0
  9
$THICKNESS
 40
0.0
  9
$LIMCHECK
 70
     0
  9
$CHAMFERA
 40
0.0
  9
$CHAMFERB
 40
0.0
  9
$CHAMFERC
 40
0.0
  9
$CHAMFERD
 40
0.0
  9
$SKPOLY
 70
     0
  9
$TDCREATE
 40
2458311.56606066
  9
$TDUCREATE
 40
2458311.19106066
  9
$TDUPDATE
 40
2458323.454536886
  9
$TDUUPDATE
 40
2458323.079536886
  9
$TDINDWG
 40
0.0007825463
  9
$TDUSRTIMER
 40
2458323.079499838
  9
$USRTIMER
 70
     1
  9
$ANGBASE
 50
0.0
  9
$ANGDIR
 70
     0
  9
$PDMODE
 70
     0
  9
$PDSIZE
 40
-1.0
  9
$PLINEWID
 40
0.0
  9
$SPLFRAME
 70
     0
  9
$SPLINETYPE
 70
     6
  9
$SPLINESEGS
 70
     8
  9
$HANDSEED
  5
295
  9
$SURFTAB1
 70
     6
  9
$SURFTAB2
 70
     6
  9
$SURFTYPE
 70
     6
  9
$SURFU
 70
     6
  9
$SURFV
 70
     6
  9
$UCSBASE
  2

  9
$UCSNAME
  2

  9
$UCSORG
 10
0.0
 20
0.0
 30
0.0
  9
$UCSXDIR
 10
1.0
 20
0.0
 30
0.0
  9
$UCSYDIR
 10
0.0
 20
1.0
 30
0.0
  9
$UCSORTHOREF
  2

  9
$UCSORTHOVIEW
 70
     0
  9
$UCSORGTOP
 10
0.0
 20
0.0
 30
0.0
  9
$UCSORGBOTTOM
 10
0.0
 20
0.0
 30
0.0
  9
$UCSORGLEFT
 10
0.0
 20
0.0
 30
0.0
  9
$UCSORGRIGHT
 10
0.0
 20
0.0
 30
0.0
  9
$UCSORGFRONT
 10
0.0
 20
0.0
 30
0.0
  9
$UCSORGBACK
 10
0.0
 20
0.0
 30
0.0
  9
$PUCSBASE
  2

  9
$PUCSNAME
  2

  9
$PUCSORG
 10
0.0
 20
0.0
 30
0.0
  9
$PUCSXDIR
 10
1.0
 20
0.0
 30
0.0
  9
$PUCSYDIR
 10
0.0
 20
1.0
 30
0.0
  9
$PUCSORTHOREF
  2

  9
$PUCSORTHOVIEW
 70
     0
  9
$PUCSORGTOP
 10
0.0
 20
0.0
 30
0.0
  9
$PUCSORGBOTTOM
 10
0.0
 20
0.0
 30
0.0
  9
$PUCSORGLEFT
 10
0.0
 20
0.0
 30
0.0
  9
$PUCSORGRIGHT
 10
0.0
 20
0.0
 30
0.0
  9
$PUCSORGFRONT
 10
0.0
 20
0.0
 30
0.0
  9
$PUCSORGBACK
 10
0.0
 20
0.0
 30
0.0
  9
$USERI1
 70
     0
  9
$USERI2
 70
     0
  9
$USERI3
 70
     0
  9
$USERI4
 70
     0
  9
$USERI5
 70
     0
  9
$USERR1
 40
0.0
  9
$USERR2
 40
0.0
  9
$USERR3
 40
0.0
  9
$USERR4
 40
0.0
  9
$USERR5
 40
0.0
  9
$WORLDVIEW
 70
     1
  9
$SHADEDGE
 70
     3
  9
$SHADEDIF
 70
    70
  9
$TILEMODE
 70
     1
  9
$MAXACTVP
 70
    64
  9
$PINSBASE
 10
0.0
 20
0.0
 30
0.0
  9
$PLIMCHECK
 70
     0
  9
$PEXTMIN
 10
1.000000000000000E+20
 20
1.000000000000000E+20
 30
1.000000000000000E+20
  9
$PEXTMAX
 10
-1.000000000000000E+20
 20
-1.000000000000000E+20
 30
-1.000000000000000E+20
  9
$PLIMMIN
 10
0.0
 20
0.0
  9
$PLIMMAX
 10
0.0
 20
0.0
  9
$UNITMODE
 70
     0
  9
$VISRETAIN
 70
     1
  9
$PLINEGEN
 70
     0
  9
$PSLTSCALE
 70
     1
  9
$TREEDEPTH
 70
  3020
  9
$CMLSTYLE
  2
Standard
  9
$CMLJUST
 70
     0
  9
$CMLSCALE
 40
20.0
  9
$PROXYGRAPHICS
 70
     1
  9
$MEASUREMENT
 70
     1
  9
$CELWEIGHT
370
    -1
  9
$ENDCAPS
280
     0
  9
$JOINSTYLE
280
     0
  9
$LWDISPLAY
290
     1
  9
$INSUNITS
 70
     4
  9
$HYPERLINKBASE
  1

  9
$STYLESHEET
  1

  9
$XEDIT
290
     1
  9
$CEPSNTYPE
380
     0
  9
$PSTYLEMODE
290
     1
  9
$FINGERPRINTGUID
  2
{46CF1BF9-94D5-4613-B561-36877703934C}
  9
$VERSIONGUID
  2
{FAEB1C32-E019-11D5-929B-00C0DF256EC4}
  9
$EXTNAMES
290
     1
  9
$PSVPSCALE
 40
0.0
  9
$OLESTARTUP
290
     0
  0
ENDSEC
  0
SECTION
  2
CLASSES
  0
CLASS
  1
ACDBDICTIONARYWDFLT
  2
AcDbDictionaryWithDefault
  3
ObjectDBX Classes
 90
        0
280
     0
281
     0
  0
CLASS
  1
VISUALSTYLE
  2
AcDbVisualStyle
  3
ObjectDBX Classes
 90
     4095
280
     0
281
     0
  0
CLASS
  1
MATERIAL
  2
AcDbMaterial
  3
ObjectDBX Classes
 90
     1153
280
     0
281
     0
  0
CLASS
  1
SCALE
  2
AcDbScale
  3
ObjectDBX Classes
 90
     1153
280
     0
281
     0
  0
CLASS
  1
SUN
  2
AcDbSun
  3
SCENEOE
 90
     1153
280
     0
281
     0
  0
CLASS
  1
ACDBPLACEHOLDER
  2
AcDbPlaceHolder
  3
ObjectDBX Classes
 90
        0
280
     0
281
     0
  0
CLASS
  1
LAYOUT
  2
AcDbLayout
  3
ObjectDBX Classes
 90
        0
280
     0
281
     0
  0
CLASS
  1
TABLESTYLE
  2
AcDbTableStyle
  3
ObjectDBX Classes
 90
     4095
280
     0
281
     0
  0
CLASS
  1
MLEADERSTYLE
  2
AcDbMLeaderStyle
  3
ACDB_MLEADERSTYLE_CLASS
 90
     4095
280
     0
281
     0
  0
CLASS
  1
DICTIONARYVAR
  2
AcDbDictionaryVar
  3
ObjectDBX Classes
 90
        0
280
     0
281
     0
  0
CLASS
  1
RASTERVARIABLES
  2
AcDbRasterVariables
  3
ISM
 90
        0
280
     0
281
     0
  0
ENDSEC
  0
SECTION
  2
TABLES
  0
TABLE
  2
VPORT
  5
8
330
0
100
AcDbSymbolTable
 70
     1
  0
VPORT
  5
29
330
8
100
AcDbSymbolTableRecord
100
AcDbViewportTableRecord
  2
*Active
 70
     0
 10
0.0
 20
0.0
 11
1.0
 21
1.0
 12
10.3254920463945
 22
-2.602428886874605
 13
0.0
 23
0.0
 14
10.0
 24
10.0
 15
10.0
 25
10.0
 16
0.0
 26
0.0
 36
1.0
 17
0.0
 27
0.0
 37
0.0
 40
96.63353214395177
 41
1.782762691853601
 42
50.0
 43
0.0
 44
0.0
 50
0.0
 51
0.0
 71
    16
 72
  2000
 73
     1
 74
     3
 75
     0
 76
     0
 77
     0
 78
     0
281
     0
 65
     1
110
0.0
120
0.0
130
0.0
111
1.0
121
0.0
131
0.0
112
0.0
122
1.0
132
0.0
 79
     0
146
0.0
  0
ENDTAB
  0
TABLE
  2
LTYPE
  5
5
330
0
100
AcDbSymbolTable
 70
     6
  0
LTYPE
  5
14
330
5
100
AcDbSymbolTableRecord
100
AcDbLinetypeTableRecord
  2
ByBlock
 70
     0
  3

 72
    65
 73
     0
 40
0.0
  0
LTYPE
  5
15
330
5
100
AcDbSymbolTableRecord
100
AcDbLinetypeTableRecord
  2
ByLayer
 70
     0
  3

 72
    65
 73
     0
 40
0.0
  0
LTYPE
  5
16
330
5
100
AcDbSymbolTableRecord
100
AcDbLinetypeTableRecord
  2
Continuous
 70
     0
  3
Solid line
 72
    65
 73
     0
 40
0.0
  0
LTYPE
  5
6A
330
5
100
AcDbSymbolTableRecord
100
AcDbLinetypeTableRecord
  2
HIDDEN
 70
     0
  3
Hidden __ __ __ __ __ __ __ __ __ __ __ __ __ __
 72
    65
 73
     2
 40
1.905
 49
1.27
 74
     0
 49
-0.635
 74
     0
  0
LTYPE
  5
6B
330
5
100
AcDbSymbolTableRecord
100
AcDbLinetypeTableRecord
  2
PHANTOM
 70
     0
  3
Phantom ______  __  __  ______  __  __  ______
 72
    65
 73
     6
 40
12.7
 49
6.35
 74
     0
 49
-1.27
 74
     0
 49
1.27
 74
     0
 49
-1.27
 74
     0
 49
1.27
 74
     0
 49
-1.27
 74
     0
  0
LTYPE
  5
6C
330
5
100
AcDbSymbolTableRecord
100
AcDbLinetypeTableRecord
  2
CENTER
 70
     0
  3
Center ____ _ ____ _ ____ _ ____ _ ____ _ ____
 72
    65
 73
     4
 40
10.16
 49
6.35
 74
     0
 49
-1.27
 74
     0
 49
1.27
 74
     0
 49
-1.27
 74
     0
  0
LTYPE
  5
6D
330
5
100
AcDbSymbolTableRecord
100
AcDbLinetypeTableRecord
  2
CENTERX2
 70
     0
  3
Center (2x) ________  __  ________  __  _____
 72
    65
 73
     4
 40
20.32
 49
12.7
 74
     0
 49
-2.54
 74
     0
 49
2.54
 74
     0
 49
-2.54
 74
     0
  0
LTYPE
  5
6E
330
5
100
AcDbSymbolTableRecord
100
AcDbLinetypeTableRecord
  2
DOT2
 70
     0
  3
Dot (.5x) ........................................
 72
    65
 73
     2
 40
0.635
 49
0.0
 74
     0
 49
-0.635
 74
     0
  0
ENDTAB
  0
TABLE
  2
LAYER
  5
2
102
{ACAD_XDICTIONARY
360
183
102
}
330
0
100
AcDbSymbolTable
 70
    18
  0
LAYER
  5
10
330
2
100
AcDbSymbolTableRecord
100
AcDbLayerTableRecord
  2
0
 70
     0
 62
     7
  6
Continuous
370
    -3
390
F
  0
LAYER
  5
6F
330
2
100
AcDbSymbolTableRecord
100
AcDbLayerTableRecord
  2
FORMAT
 70
     0
 62
     2
  6
Continuous
370
    -3
390
F
  0
LAYER
  5
70
330
2
100
AcDbSymbolTableRecord
100
AcDbLayerTableRecord
  2
외형선
 70
     0
 62
     4
  6
Continuous
370
    30
390
F
  0
LAYER
  5
71
330
2
100
AcDbSymbolTableRecord
100
AcDbLayerTableRecord
  2
숨은선
 70
     0
 62
     2
  6
HIDDEN
370
    15
390
F
  0
LAYER
  5
72
330
2
100
AcDbSymbolTableRecord
100
AcDbLayerTableRecord
  2
중심선
 70
     0
 62
     1
  6
CENTERX2
370
    -3
390
F
  0
LAYER
  5
73
330
2
100
AcDbSymbolTableRecord
100
AcDbLayerTableRecord
  2
파단선
 70
     0
 62
     4
  6
Continuous
370
    -3
390
F
  0
LAYER
  5
74
330
2
100
AcDbSymbolTableRecord
100
AcDbLayerTableRecord
  2
해칭선
 70
     0
 62
   100
  6
Continuous
370
    -3
390
F
  0
LAYER
  5
75
330
2
100
AcDbSymbolTableRecord
100
AcDbLayerTableRecord
  2
가는실선
 70
     0
 62
     4
  6
Continuous
370
    -3
390
F
  0
LAYER
  5
76
330
2
100
AcDbSymbolTableRecord
100
AcDbLayerTableRecord
  2
치수_보조선
 70
     0
 62
     4
  6
Continuous
370
    -3
390
F
  0
LAYER
  5
77
330
2
100
AcDbSymbolTableRecord
100
AcDbLayerTableRecord
  2
치수문자_일반주서
 70
     0
 62
     7
  6
Continuous
370
    15
390
F
  0
LAYER
  5
78
330
2
100
AcDbSymbolTableRecord
100
AcDbLayerTableRecord
  2
개별주서
 70
     0
 62
   100
  6
Continuous
370
    30
390
F
  0
LAYER
  5
79
330
2
100
AcDbSymbolTableRecord
100
AcDbLayerTableRecord
  2
중간선
 70
     0
 62
     2
  6
Continuous
370
    15
390
F
  0
LAYER
  5
7A
330
2
100
AcDbSymbolTableRecord
100
AcDbLayerTableRecord
  2
윤곽선
 70
     0
 62
     3
  6
Continuous
370
    40
390
F
  0
LAYER
  5
7B
330
2
100
AcDbSymbolTableRecord
100
AcDbLayerTableRecord
  2
중심마크
 70
     0
 62
   100
  6
Continuous
370
    30
390
F
  0
LAYER
  5
7C
330
2
100
AcDbSymbolTableRecord
100
AcDbLayerTableRecord
  2
가상선
 70
     0
 62
     4
  6
PHANTOM
370
    -3
390
F
  0
LAYER
  5
7D
330
2
100
AcDbSymbolTableRecord
100
AcDbLayerTableRecord
  2
특수지정선
 70
     0
 62
     5
  6
CENTERX2
370
    60
390
F
  0
LAYER
  5
7E
330
2
100
AcDbSymbolTableRecord
100
AcDbLayerTableRecord
  2
참조1
 70
     0
 62
    -4
  6
Continuous
370
    -3
390
F
  0
LAYER
  5
1A7
330
2
100
AcDbSymbolTableRecord
100
AcDbLayerTableRecord
  2
Defpoints
 70
     0
 62
     7
  6
Continuous
290
     0
370
    -3
390
F
  0
ENDTAB
  0
TABLE
  2
STYLE
  5
3
330
0
100
AcDbSymbolTable
 70
     2
  0
STYLE
  5
11
330
3
100
AcDbSymbolTableRecord
100
AcDbTextStyleTableRecord
  2
Standard
 70
     0
 40
0.0
 41
1.0
 50
0.0
 71
     0
 42
3.5
  3
txt
  4

  0
STYLE
  5
94
330
3
100
AcDbSymbolTableRecord
100
AcDbTextStyleTableRecord
  2
SLDTEXTSTYLE0
 70
     0
 40
0.0
 41
0.75
 50
0.0
 71
     0
 42
3.5
  3
TXT
  4

  0
ENDTAB
  0
TABLE
  2
VIEW
  5
6
330
0
100
AcDbSymbolTable
 70
     0
  0
ENDTAB
  0
TABLE
  2
UCS
  5
7
330
0
100
AcDbSymbolTable
 70
     0
  0
ENDTAB
  0
TABLE
  2
APPID
  5
9
330
0
100
AcDbSymbolTable
 70
     4
  0
APPID
  5
12
330
9
100
AcDbSymbolTableRecord
100
AcDbRegAppTableRecord
  2
ACAD
 70
     0
  0
APPID
  5
140
330
9
100
AcDbSymbolTableRecord
100
AcDbRegAppTableRecord
  2
PE_URL
 70
     0
  0
APPID
  5
26F
330
9
100
AcDbSymbolTableRecord
100
AcDbRegAppTableRecord
  2
ACAD_DSTYLE_DIMFLIPARROW_SYMBOL
 70
     0
  0
APPID
  5
270
330
9
100
AcDbSymbolTableRecord
100
AcDbRegAppTableRecord
  2
ACAD_DSTYLE_DIMFLIPARROW_WHICH_SYMBOL
 70
     0
  0
ENDTAB
  0
TABLE
  2
DIMSTYLE
  5
A
330
0
100
AcDbSymbolTable
 70
     5
100
AcDbDimStyleTable
  0
DIMSTYLE
105
27
330
A
100
AcDbSymbolTableRecord
100
AcDbDimStyleTableRecord
  2
ISO-25
 70
     0
 41
2.5
 42
0.625
 43
3.75
 44
1.25
 73
     0
 74
     0
 77
     1
 78
     8
140
2.5
141
2.5
143
0.03937007874016
147
0.625
171
     3
172
     1
178
     0
271
     2
272
     2
274
     3
278
    44
283
     0
284
     8
340
11
  0
DIMSTYLE
105
BF
330
A
100
AcDbSymbolTableRecord
100
AcDbDimStyleTableRecord
  2
SLDDIMSTYLE0
 70
     0
 41
3.302
 44
0.0
 45
0.000000001
 73
     0
 74
     0
 77
     1
 78
     4
 79
     1
140
3.5
147
0.875
172
     1
173
     1
178
     0
271
     2
272
     2
276
     2
284
    12
289
     0
340
94
  0
DIMSTYLE
105
CD
102
{ACAD_REACTORS
102
}
330
A
100
AcDbSymbolTableRecord
100
AcDbDimStyleTableRecord
  2
SLDDIMSTYLE1
 70
     0
 41
3.302
 44
0.0
 45
0.000000001
 73
     0
 74
     0
 77
     1
 78
     4
 79
     1
140
3.5
143
0.0393700787401575
147
0.875
148
0.000000001
170
     1
172
     1
173
     1
178
     0
271
     2
272
     2
276
     2
284
    12
289
     0
340
94
  0
DIMSTYLE
105
E3
102
{ACAD_REACTORS
330
E2
330
CC
330
F6
330
BE
102
}
330
A
100
AcDbSymbolTableRecord
100
AcDbDimStyleTableRecord
  2
SLDDIMSTYLE2
 70
     0
 41
3.302
 44
0.0
 45
0.000000001
 73
     0
 74
     0
 77
     1
 78
     4
 79
     1
140
3.5
143
0.0393700787401575
147
0.875
148
0.000000001
170
     1
173
     1
178
     0
271
     2
272
     2
276
     2
284
    12
340
94
  0
DIMSTYLE
105
F7
330
A
100
AcDbSymbolTableRecord
100
AcDbDimStyleTableRecord
  2
SLDDIMSTYLE3
 70
     0
 41
3.302
 44
0.0
 45
0.000000001
 73
     0
 74
     0
 77
     1
 78
    12
 79
     3
140
3.5
143
0.0393700787401575
147
0.875
148
0.000000001
170
     1
173
     1
178
     0
271
     2
272
     2
276
     2
284
    12
340
94
  0
ENDTAB
  0
TABLE
  2
BLOCK_RECORD
  5
1
330
0
100
AcDbSymbolTable
 70
    11
  0
BLOCK_RECORD
  5
1F
330
1
100
AcDbSymbolTableRecord
100
AcDbBlockTableRecord
  2
*Model_Space
340
22
  0
BLOCK_RECORD
  5
1B
330
1
100
AcDbSymbolTableRecord
100
AcDbBlockTableRecord
  2
*Paper_Space
340
1E
  0
BLOCK_RECORD
  5
23
330
1
100
AcDbSymbolTableRecord
100
AcDbBlockTableRecord
  2
*Paper_Space0
340
26
  0
BLOCK_RECORD
  5
7F
330
1
100
AcDbSymbolTableRecord
100
AcDbBlockTableRecord
  2
블럭10
340
0
102
{BLKREFS
331
B7
102
}
  0
BLOCK_RECORD
  5
C0
330
1
100
AcDbSymbolTableRecord
100
AcDbBlockTableRecord
  2
_D
340
0
  0
BLOCK_RECORD
  5
CE
330
1
100
AcDbSymbolTableRecord
100
AcDbBlockTableRecord
  2
_D_1
340
0
  0
BLOCK_RECORD
  5
E4
330
1
100
AcDbSymbolTableRecord
100
AcDbBlockTableRecord
  2
_D_2
340
0
  0
BLOCK_RECORD
  5
F8
330
1
100
AcDbSymbolTableRecord
100
AcDbBlockTableRecord
  2
_D_3
340
0
  0
BLOCK_RECORD
  5
111
330
1
100
AcDbSymbolTableRecord
100
AcDbBlockTableRecord
  2
SW_DOWELSYMBOL_0
340
0
102
{BLKREFS
331
1A1
102
}
  0
BLOCK_RECORD
  5
1DE
330
1
100
AcDbSymbolTableRecord
100
AcDbBlockTableRecord
  2
*D7
340
0
  0
BLOCK_RECORD
  5
1F0
330
1
100
AcDbSymbolTableRecord
100
AcDbBlockTableRecord
  2
*D8
340
0
  0
BLOCK_RECORD
  5
238
330
1
100
AcDbSymbolTableRecord
100
AcDbBlockTableRecord
  2
*D9
340
0
  0
BLOCK_RECORD
  5
24A
330
1
100
AcDbSymbolTableRecord
100
AcDbBlockTableRecord
  2
*D10
340
0
  0
ENDTAB
  0
ENDSEC
  0
SECTION
  2
BLOCKS
  0
BLOCK
  5
20
330
1F
100
AcDbEntity
  8
0
100
AcDbBlockBegin
  2
*Model_Space
 70
     0
 10
0.0
 20
0.0
 30
0.0
  3
*Model_Space
  1
*Model_Space
  0
ENDBLK
  5
21
330
1F
100
AcDbEntity
  8
0
100
AcDbBlockEnd
  0
BLOCK
  5
1C
330
1B
100
AcDbEntity
 67
     1
  8
0
100
AcDbBlockBegin
  2
*Paper_Space
 70
     0
 10
0.0
 20
0.0
 30
0.0
  3
*Paper_Space
  1
*Paper_Space
  0
ENDBLK
  5
1D
330
1B
100
AcDbEntity
 67
     1
  8
0
100
AcDbBlockEnd
  0
BLOCK
  5
24
330
23
100
AcDbEntity
  8
0
100
AcDbBlockBegin
  2
*Paper_Space0
 70
     0
 10
0.0
 20
0.0
 30
0.0
  3
*Paper_Space0
  1
*Paper_Space0
  0
ENDBLK
  5
25
330
23
100
AcDbEntity
  8
0
100
AcDbBlockEnd
  0
BLOCK
  5
80
330
7F
100
AcDbEntity
  8
0
100
AcDbBlockBegin
  2
블럭10
 70
     2
 10
0.0
 20
0.0
 30
0.0
  3
블럭10
  1
블럭10
  0
ELLIPSE
  5
82
330
7F
100
AcDbEntity
  8
중심선
100
AcDbEllipse
 10
20.54032771741204
 20
12.0471743016438
 30
0.0
 11
6.600054785286829
 21
-1.261213355974178E-13
 31
0.0
210
0.0
220
0.0
230
1.0
 40
0.636358354079598
 41
0.9219305317359503
 42
6.513795318482858
  0
ELLIPSE
  5
83
330
7F
100
AcDbEntity
  8
중심선
100
AcDbEllipse
 10
20.54032771746488
 20
12.04717430159265
 30
0.0
 11
3.960054785062283
 21
1.540847449632565E-10
 31
0.0
210
0.0
220
0.0
230
1.0
 40
0.3939339440162632
 41
1.131841032648279
 42
5.62031148352944
  0
LINE
  5
84
330
7F
100
AcDbEntity
  8
중심선
100
AcDbLine
 10
2.268634060543552
 20
16.24717430164393
 30
0.0
 11
5.714909304380834
 21
16.24717430164393
 31
0.0
  0
LINE
  5
85
330
7F
100
AcDbEntity
  8
중심선
100
AcDbLine
 10
5.245725140726316
 20
7.84717430164391
 30
0.0
 11
8.692000384563599
 21
7.84717430164391
 31
0.0
  0
LINE
  5
86
330
7F
100
AcDbEntity
  8
중심선
100
AcDbLine
 10
15.74043728645272
 20
16.24717430164393
 30
0.0
 11
8.692000384563599
 21
7.84717430164391
 31
0.0
  0
LINE
  5
87
330
7F
100
AcDbEntity
  8
중심선
100
AcDbLine
 10
0.1404042013395286
 20
13.71084872107135
 30
0.0
 11
3.58671253028996
 21
13.71088815037384
 31
0.0
  0
LINE
  5
88
330
7F
100
AcDbEntity
  8
중심선
100
AcDbLine
 10
2.750260043222114
 20
10.84717430164391
 30
0.0
 11
6.196535287059397
 21
10.84717430164391
 31
0.0
  0
LINE
  5
89
330
7F
100
AcDbEntity
  8
중심선
100
AcDbLine
 10
12.29416204261559
 20
16.24717430164393
 30
0.0
 11
5.245725140726316
 21
7.84717430164391
 31
0.0
  0
LINE
  5
8A
330
7F
100
AcDbEntity
  8
중심선
100
AcDbLine
 10
10.72767329541681
 20
16.24717430164393
 30
0.0
 11
6.196535287059397
 21
10.84717430164391
 31
0.0
  0
LINE
  5
8B
330
7F
100
AcDbEntity
  8
중심선
100
AcDbLine
 10
7.28139805157953
 20
16.24717430164393
 30
0.0
 11
2.750260043222114
 21
10.84717430164391
 31
0.0
  0
LINE
  5
8C
330
7F
100
AcDbEntity
  8
중심선
100
AcDbLine
 10
5.714909304380834
 20
16.24717430164393
 30
0.0
 11
3.58671253028996
 21
13.71088815037384
 31
0.0
  0
LINE
  5
8D
330
7F
100
AcDbEntity
  8
중심선
100
AcDbLine
 10
2.268634060543552
 20
16.24717430164393
 30
0.0
 11
0.1404042013395286
 21
13.71084872107135
 31
0.0
  0
LINE
  5
8E
330
7F
100
AcDbEntity
  8
중심선
100
AcDbLine
 10
7.28139805157953
 20
16.24717430164393
 30
0.0
 11
10.72767329541681
 21
16.24717430164393
 31
0.0
  0
LINE
  5
8F
330
7F
100
AcDbEntity
  8
중심선
100
AcDbLine
 10
12.29416204261559
 20
16.24717430164393
 30
0.0
 11
15.74043728645272
 21
16.24717430164393
 31
0.0
  0
LINE
  5
90
330
7F
100
AcDbEntity
  8
중심선
100
AcDbLine
 10
19.22036997980202
 20
11.08717430171403
 30
0.0
 11
23.66174974927406
 21
11.08717430171406
 31
0.0
  0
LINE
  5
91
330
7F
100
AcDbEntity
  8
중심선
100
AcDbLine
 10
19.22039502424796
 20
13.00717430171391
 30
0.0
 11
19.22036997980202
 21
11.08717430171403
 31
0.0
  0
LINE
  5
92
330
7F
100
AcDbEntity
  8
중심선
100
AcDbLine
 10
19.22039502424796
 20
13.00717430171391
 30
0.0
 11
26.96566020931264
 21
13.00717430171391
 31
0.0
  0
LINE
  5
93
330
7F
100
AcDbEntity
  8
중심선
100
AcDbLine
 10
22.22332737316547
 20
13.45928029700563
 30
0.0
 11
24.52862924686651
 21
15.39360700705356
 31
0.0
  0
ATTDEF
  5
95
330
7F
100
AcDbEntity
  8
FORMAT
 62
     2
100
AcDbText
 10
4.408487351596664
 20
2.075366912832191
 30
0.0
 40
4.233333333333333
  1
E1030905
 41
0.75
  7
SLDTEXTSTYLE0
 11
4.408487351596664
 21
-0.0412997538344756
 31
0.0
100
AcDbAttributeDefinition
  3

  2
AUTOATTR0
 70
     0
 74
     1
  0
ENDBLK
  5
81
330
7F
100
AcDbEntity
  8
0
100
AcDbBlockEnd
  0
BLOCK
  5
C1
330
C0
100
AcDbEntity
  8
0
100
AcDbBlockBegin
  2
_D
 70
     0
 10
0.0
 20
0.0
 30
0.0
  3
_D
  1
_D
  0
LINE
  5
C3
330
C0
100
AcDbEntity
  8
치수문자_일반주서
 62
     0
370
    -2
100
AcDbLine
 10
-47.98751236127854
 20
7.937499999999995
 30
0.0
 11
-63.92501236127856
 21
7.937499999999932
 31
0.0
  0
LINE
  5
C4
330
C0
100
AcDbEntity
  8
치수문자_일반주서
 62
     0
370
    -2
100
AcDbLine
 10
-47.92501236127854
 20
-7.937500000000002
 30
0.0
 11
-63.9250123612785
 21
-7.937500000000064
 31
0.0
  0
LINE
  5
C5
330
C0
100
AcDbEntity
  8
치수문자_일반주서
 62
     0
370
    -2
100
AcDbLine
 10
-63.92501236127856
 20
7.937499999999932
 30
0.0
 11
-63.92501236127869
 21
43.68749999999993
 31
0.0
  0
LINE
  5
C6
330
C0
100
AcDbEntity
  8
치수문자_일반주서
 62
     0
370
    -2
100
AcDbLine
 10
-63.92501236127856
 20
7.937499999999932
 30
0.0
 11
-63.9250123612785
 21
-7.937500000000064
 31
0.0
  0
LINE
  5
C7
330
C0
100
AcDbEntity
  8
치수문자_일반주서
 62
     0
370
    -2
100
AcDbLine
 10
-63.92501236127858
 20
11.93749999999993
 30
0.0
 11
-63.92501236127859
 21
15.93749999999993
 31
0.0
  0
LINE
  5
C8
330
C0
100
AcDbEntity
  8
치수문자_일반주서
 62
     0
370
    -2
100
AcDbLine
 10
-63.92501236127849
 20
-11.93750000000006
 30
0.0
 11
-63.92501236127848
 21
-15.93750000000006
 31
0.0
  0
SOLID
  5
C9
330
C0
100
AcDbEntity
  8
치수문자_일반주서
 62
     0
100
AcDbTrace
 10
-64.59167902794525
 20
11.93749999999993
 30
0.0
 11
-63.25834569461191
 21
11.93749999999993
 31
0.0
 12
-63.92501236127856
 22
7.937499999999932
 32
0.0
 13
-63.92501236127856
 23
7.937499999999932
 33
0.0
  0
SOLID
  5
CA
330
C0
100
AcDbEntity
  8
치수문자_일반주서
 62
     0
100
AcDbTrace
 10
-63.25834569461183
 20
-11.93750000000006
 30
0.0
 11
-64.59167902794516
 21
-11.93750000000007
 31
0.0
 12
-63.9250123612785
 22
-7.937500000000064
 32
0.0
 13
-63.9250123612785
 23
-7.937500000000064
 33
0.0
  0
MTEXT
  5
CB
330
C0
100
AcDbEntity
  8
치수문자_일반주서
 62
     0
100
AcDbMText
 10
-68.80001236127863
 20
27.81249999999991
 30
0.0
 40
4.0
 41
0.0
 71
     2
 72
     1
  1
\A1;%%c15.88 [5/8]
  7
SLDTEXTSTYLE0
 11
-3.580687802255624E-15
 21
1.0
 31
0.0
 73
     1
 44
1.0
  0
POINT
  5
26B
330
C0
100
AcDbEntity
  8
Defpoints
 62
     0
100
AcDbPoint
 10
-47.92501236127854
 20
7.937499999999995
 30
0.0
  0
POINT
  5
26C
330
C0
100
AcDbEntity
  8
Defpoints
 62
     0
100
AcDbPoint
 10
-47.86251236127854
 20
-7.937500000000002
 30
0.0
  0
POINT
  5
26D
330
C0
100
AcDbEntity
  8
Defpoints
 62
     0
100
AcDbPoint
 10
-63.9250123612785
 20
-7.937500000000062
 30
0.0
  0
ENDBLK
  5
C2
330
C0
100
AcDbEntity
  8
0
100
AcDbBlockEnd
  0
BLOCK
  5
CF
330
CE
100
AcDbEntity
  8
0
100
AcDbBlockBegin
  2
_D_1
 70
     0
 10
0.0
 20
0.0
 30
0.0
  3
_D_1
  1
_D_1
  0
LINE
  5
D1
330
CE
100
AcDbEntity
  8
치수문자_일반주서
 62
     0
370
    -2
100
AcDbLine
 10
38.38748763872145
 20
9.579449615062337
 30
0.0
 11
38.38748763872145
 21
22.9375
 31
0.0
  0
LINE
  5
D2
330
CE
100
AcDbEntity
  8
치수문자_일반주서
 62
     0
370
    -2
100
AcDbLine
 10
5.049987638722111
 20
5.535349324069393
 30
0.0
 11
5.049987638722108
 21
22.9375
 31
0.0
  0
LINE
  5
D3
330
CE
100
AcDbEntity
  8
치수문자_일반주서
 62
     0
370
    -2
100
AcDbLine
 10
38.38748763872145
 20
22.9375
 30
0.0
 11
79.13748763872144
 21
22.9375
 31
0.0
  0
LINE
  5
D4
330
CE
100
AcDbEntity
  8
치수문자_일반주서
 62
     0
370
    -2
100
AcDbLine
 10
34.38748763872145
 20
22.9375
 30
0.0
 11
9.049987638722108
 21
22.9375
 31
0.0
  0
SOLID
  5
D5
330
CE
100
AcDbEntity
  8
치수문자_일반주서
 62
     0
100
AcDbTrace
 10
34.38748763872145
 20
22.27083333333333
 30
0.0
 11
34.38748763872145
 21
23.60416666666667
 31
0.0
 12
38.38748763872145
 22
22.9375
 32
0.0
 13
38.38748763872145
 23
22.9375
 33
0.0
  0
SOLID
  5
D6
330
CE
100
AcDbEntity
  8
치수문자_일반주서
 62
     0
100
AcDbTrace
 10
9.049987638722108
 20
23.60416666666667
 30
0.0
 11
9.049987638722108
 21
22.27083333333333
 31
0.0
 12
5.049987638722108
 22
22.9375
 32
0.0
 13
5.049987638722108
 23
22.9375
 33
0.0
  0
MTEXT
  5
D7
330
CE
100
AcDbEntity
  8
치수문자_일반주서
 62
     0
100
AcDbMText
 10
60.76248763872145
 20
27.8125
 30
0.0
 40
4.0
 41
0.0
 71
     2
 72
     1
  1
\A1;33.34 [1 5/16]
  7
SLDTEXTSTYLE0
 73
     1
 44
1.0
  0
POINT
  5
D8
330
CE
100
AcDbEntity
  8
Defpoints
 62
     0
100
AcDbPoint
 10
38.38748763872145
 20
9.516949615062337
 30
0.0
  0
POINT
  5
D9
330
CE
100
AcDbEntity
  8
Defpoints
 62
     0
100
AcDbPoint
 10
5.049987638722111
 20
5.472849324069393
 30
0.0
  0
POINT
  5
268
330
CE
100
AcDbEntity
  8
Defpoints
 62
     0
100
AcDbPoint
 10
5.049987638722111
 20
22.9375
 30
0.0
  0
ENDBLK
  5
D0
330
CE
100
AcDbEntity
  8
0
100
AcDbBlockEnd
  0
BLOCK
  5
E5
330
E4
100
AcDbEntity
  8
0
100
AcDbBlockBegin
  2
_D_2
 70
     0
 10
0.0
 20
0.0
 30
0.0
  3
_D_2
  1
_D_2
  0
LINE
  5
E7
330
E4
100
AcDbEntity
  8
치수문자_일반주서
 62
     0
370
    -2
100
AcDbLine
 10
38.38748763872145
 20
9.579449615062337
 30
0.0
 11
38.38748763872144
 21
37.9375
 31
0.0
  0
LINE
  5
E8
330
E4
100
AcDbEntity
  8
치수문자_일반주서
 62
     0
370
    -2
100
AcDbLine
 10
-48.92501236127856
 20
6.999999999999995
 30
0.0
 11
-48.92501236127857
 21
37.9375
 31
0.0
  0
LINE
  5
E9
330
E4
100
AcDbEntity
  8
치수문자_일반주서
 62
     0
370
    -2
100
AcDbLine
 10
34.38748763872144
 20
37.9375
 30
0.0
 11
-44.92501236127857
 21
37.9375
 31
0.0
  0
SOLID
  5
EA
330
E4
100
AcDbEntity
  8
치수문자_일반주서
 62
     0
100
AcDbTrace
 10
34.38748763872144
 20
37.27083333333334
 30
0.0
 11
34.38748763872144
 21
38.60416666666666
 31
0.0
 12
38.38748763872144
 22
37.9375
 32
0.0
 13
38.38748763872144
 23
37.9375
 33
0.0
  0
SOLID
  5
EB
330
E4
100
AcDbEntity
  8
치수문자_일반주서
 62
     0
100
AcDbTrace
 10
-44.92501236127857
 20
38.60416666666666
 30
0.0
 11
-44.92501236127857
 21
37.27083333333334
 31
0.0
 12
-48.92501236127857
 22
37.9375
 32
0.0
 13
-48.92501236127857
 23
37.9375
 33
0.0
  0
MTEXT
  5
EC
330
E4
100
AcDbEntity
  8
치수문자_일반주서
 62
     0
100
AcDbMText
 10
-5.268762361278561
 20
42.8125
 30
0.0
 40
4.0
 41
0.0
 71
     2
 72
     1
  1
\A1;87.31 [3 7/16]
  7
SLDTEXTSTYLE0
 73
     1
 44
1.0
  0
POINT
  5
ED
330
E4
100
AcDbEntity
  8
Defpoints
 62
     0
100
AcDbPoint
 10
38.38748763872145
 20
9.516949615062337
 30
0.0
  0
POINT
  5
EE
330
E4
100
AcDbEntity
  8
Defpoints
 62
     0
100
AcDbPoint
 10
-48.92501236127856
 20
6.937499999999995
 30
0.0
  0
POINT
  5
EF
330
E4
100
AcDbEntity
  8
Defpoints
 62
     0
100
AcDbPoint
 10
-48.92501236127856
 20
37.9375
 30
0.0
  0
ENDBLK
  5
E6
330
E4
100
AcDbEntity
  8
0
100
AcDbBlockEnd
  0
BLOCK
  5
F9
330
F8
100
AcDbEntity
  8
0
100
AcDbBlockBegin
  2
_D_3
 70
     0
 10
0.0
 20
0.0
 30
0.0
  3
_D_3
  1
_D_3
  0
LINE
  5
FB
330
F8
100
AcDbEntity
  8
치수문자_일반주서
 62
     0
370
    -2
100
AcDbLine
 10
38.44998763872212
 20
-9.516949615062357
 30
0.0
 11
86.29415391684716
 21
-9.516949615062181
 31
0.0
  0
LINE
  5
FC
330
F8
100
AcDbEntity
  8
치수문자_일반주서
 62
     0
370
    -2
100
AcDbLine
 10
38.44998763872212
 20
9.516949615062357
 30
0.0
 11
86.2941539168471
 21
9.516949615062533
 31
0.0
  0
LINE
  5
FD
330
F8
100
AcDbEntity
  8
치수문자_일반주서
 62
     0
370
    -2
100
AcDbLine
 10
86.2941539168471
 20
9.516949615062533
 30
0.0
 11
86.29415391684697
 21
44.76694961506254
 31
0.0
  0
LINE
  5
FE
330
F8
100
AcDbEntity
  8
치수문자_일반주서
 62
     0
370
    -2
100
AcDbLine
 10
86.29415391684716
 20
-9.516949615062181
 30
0.0
 11
86.2941539168471
 21
9.516949615062533
 31
0.0
  0
LINE
  5
FF
330
F8
100
AcDbEntity
  8
치수문자_일반주서
 62
     0
370
    -2
100
AcDbLine
 10
86.29415391684718
 20
-13.51694961506218
 30
0.0
 11
86.2941539168472
 21
-17.51694961506218
 31
0.0
  0
LINE
  5
100
330
F8
100
AcDbEntity
  8
치수문자_일반주서
 62
     0
370
    -2
100
AcDbLine
 10
86.29415391684708
 20
13.51694961506253
 30
0.0
 11
86.29415391684707
 21
17.51694961506253
 31
0.0
  0
SOLID
  5
101
330
F8
100
AcDbEntity
  8
치수문자_일반주서
 62
     0
100
AcDbTrace
 10
86.96082058351385
 20
-13.51694961506218
 30
0.0
 11
85.62748725018051
 21
-13.51694961506218
 31
0.0
 12
86.29415391684716
 22
-9.516949615062181
 32
0.0
 13
86.29415391684716
 23
-9.516949615062181
 33
0.0
  0
SOLID
  5
102
330
F8
100
AcDbEntity
  8
치수문자_일반주서
 62
     0
100
AcDbTrace
 10
85.62748725018041
 20
13.51694961506253
 30
0.0
 11
86.96082058351375
 21
13.51694961506253
 31
0.0
 12
86.2941539168471
 22
9.516949615062533
 32
0.0
 13
86.2941539168471
 23
9.516949615062533
 33
0.0
  0
MTEXT
  5
103
330
F8
100
AcDbEntity
  8
치수문자_일반주서
 62
     0
100
AcDbMText
 10
81.41915391684702
 20
29.14194961506252
 30
0.0
 40
4.0
 41
0.0
 71
     2
 72
     1
  1
\A1;%%c19.03 [3/4]
  7
SLDTEXTSTYLE0
 11
-3.733038234412489E-15
 21
1.0
 31
0.0
 73
     1
 44
1.0
  0
POINT
  5
104
330
F8
100
AcDbEntity
  8
Defpoints
 62
     0
100
AcDbPoint
 10
38.38748763872212
 20
-9.516949615062357
 30
0.0
  0
POINT
  5
269
330
F8
100
AcDbEntity
  8
Defpoints
 62
     0
100
AcDbPoint
 10
38.38748763872212
 20
9.516949615062357
 30
0.0
  0
POINT
  5
26A
330
F8
100
AcDbEntity
  8
Defpoints
 62
     0
100
AcDbPoint
 10
86.2941539168471
 20
9.516949615062536
 30
0.0
  0
ENDBLK
  5
FA
330
F8
100
AcDbEntity
  8
0
100
AcDbBlockEnd
  0
BLOCK
  5
112
330
111
100
AcDbEntity
  8
0
100
AcDbBlockBegin
  2
SW_DOWELSYMBOL_0
 70
     0
 10
0.0
 20
0.0
 30
0.0
  3
SW_DOWELSYMBOL_0
  1
SW_DOWELSYMBOL_0
  0
CIRCLE
  5
114
330
111
100
AcDbEntity
  8
해칭선
 62
     0
100
AcDbCircle
 10
0.0
 20
0.0
 30
0.0
 40
3.000000000000001
  0
HATCH
  5
115
330
111
100
AcDbEntity
  8
0
  6
Continuous
 62
     0
370
     0
100
AcDbHatch
 10
0.0
 20
0.0
 30
0.0
210
0.0
220
0.0
230
1.0
  2
SOLID
 70
     1
 71
     0
 91
        1
 92
        0
 93
        3
 72
     2
 10
0.0
 20
0.0
 40
3.000000000000001
 50
0.0
 51
90.0
 73
     1
 72
     1
 10
0.0
 20
3.000000000000001
 11
0.0
 21
0.0
 72
     1
 10
0.0
 20
0.0
 11
3.000000000000001
 21
0.0
 97
        0
 75
     0
 76
     1
 98
        1
 10
0.0
 20
0.0
  0
HATCH
  5
116
330
111
100
AcDbEntity
  8
0
  6
Continuous
 62
     0
370
     0
100
AcDbHatch
 10
0.0
 20
0.0
 30
0.0
210
0.0
220
0.0
230
1.0
  2
SOLID
 70
     1
 71
     0
 91
        1
 92
        0
 93
        3
 72
     2
 10
0.0
 20
0.0
 40
3.000000000000001
 50
180.0
 51
270.0000000000007
 73
     1
 72
     1
 10
0.0
 20
-3.000000000000001
 11
0.0
 21
0.0
 72
     1
 10
0.0
 20
0.0
 11
-3.000000000000001
 21
0.0
 97
        0
 75
     0
 76
     1
 98
        1
 10
0.0
 20
0.0
  0
ENDBLK
  5
113
330
111
100
AcDbEntity
  8
0
100
AcDbBlockEnd
  0
BLOCK
  5
1DF
330
1DE
100
AcDbEntity
  8
0
100
AcDbBlockBegin
  2
*D7
 70
     1
 10
0.0
 20
0.0
 30
0.0
  3
*D7
  1
*D7
  0
LINE
  5
1E1
330
1DE
100
AcDbEntity
  8
치수문자_일반주서
 62
     0
370
    -2
100
AcDbLine
 10
33.33749999999999
 20
5.77321167388916
 30
0.0
 11
33.33749999999999
 21
20.71742032800385
 31
0.0
  0
LINE
  5
1E2
330
1DE
100
AcDbEntity
  8
치수문자_일반주서
 62
     0
370
    -2
100
AcDbLine
 10
0.0
 20
5.166432959446345
 30
0.0
 11
0.0
 21
20.71742032800385
 31
0.0
  0
LINE
  5
1E3
330
1DE
100
AcDbEntity
  8
치수문자_일반주서
 62
     0
370
    -2
100
AcDbLine
 10
33.33749999999999
 20
20.71742032800385
 30
0.0
 11
72.31649999999999
 21
20.71742032800385
 31
0.0
  0
LINE
  5
1E4
330
1DE
100
AcDbEntity
  8
치수문자_일반주서
 62
     0
370
    -2
100
AcDbLine
 10
33.33749999999999
 20
20.71742032800385
 30
0.0
 11
0.0
 21
20.71742032800385
 31
0.0
  0
LINE
  5
1E5
330
1DE
100
AcDbEntity
  8
치수문자_일반주서
 62
     0
370
    -2
100
AcDbLine
 10
36.63949999999999
 20
20.71742032800385
 30
0.0
 11
39.94149999999999
 21
20.71742032800385
 31
0.0
  0
LINE
  5
1E6
330
1DE
100
AcDbEntity
  8
치수문자_일반주서
 62
     0
370
    -2
100
AcDbLine
 10
-3.302
 20
20.71742032800385
 30
0.0
 11
-6.603999999999999
 21
20.71742032800385
 31
0.0
  0
SOLID
  5
1E7
330
1DE
100
AcDbEntity
  8
치수문자_일반주서
 62
     0
100
AcDbTrace
 10
36.63949999999999
 20
21.26775366133718
 30
0.0
 11
36.63949999999999
 21
20.16708699467051
 31
0.0
 12
33.33749999999999
 22
20.71742032800385
 32
0.0
 13
33.33749999999999
 23
20.71742032800385
 33
0.0
  0
SOLID
  5
1E8
330
1DE
100
AcDbEntity
  8
치수문자_일반주서
 62
     0
100
AcDbTrace
 10
-3.302
 20
20.16708699467051
 30
0.0
 11
-3.302
 21
21.26775366133718
 31
0.0
 12
0.0
 22
20.71742032800385
 32
0.0
 13
0.0
 23
20.71742032800385
 33
0.0
  0
MTEXT
  5
1E9
330
1DE
100
AcDbEntity
  8
치수문자_일반주서
 62
     0
100
AcDbMText
 10
56.12899999999999
 20
25.09242032800385
 30
0.0
 40
3.5
 41
0.0
 71
     2
 72
     1
  1
\A1;33.34 [1 5/16]
  7
SLDTEXTSTYLE0
 73
     1
 44
1.0
  0
POINT
  5
1EA
330
1DE
100
AcDbEntity
  8
Defpoints
 62
     0
100
AcDbPoint
 10
33.33749999999999
 20
5.71071167388916
 30
0.0
  0
POINT
  5
1EB
330
1DE
100
AcDbEntity
  8
Defpoints
 62
     0
100
AcDbPoint
 10
0.0
 20
5.103932959446345
 30
0.0
  0
POINT
  5
1EC
330
1DE
100
AcDbEntity
  8
Defpoints
 62
     0
100
AcDbPoint
 10
0.0
 20
20.71742032800385
 30
0.0
  0
ENDBLK
  5
1E0
330
1DE
100
AcDbEntity
  8
0
100
AcDbBlockEnd
  0
BLOCK
  5
1F1
330
1F0
100
AcDbEntity
  8
0
100
AcDbBlockBegin
  2
*D8
 70
     1
 10
0.0
 20
0.0
 30
0.0
  3
*D8
  1
*D8
  0
LINE
  5
1F3
330
1F0
100
AcDbEntity
  8
치수문자_일반주서
 62
     0
370
    -2
100
AcDbLine
 10
77.44280204848522
 20
-31.19791141657639
 30
0.0
 11
77.44280204848522
 21
-16.25370276246171
 31
0.0
  0
LINE
  5
1F4
330
1F0
100
AcDbEntity
  8
치수문자_일반주서
 62
     0
370
    -2
100
AcDbLine
 10
44.10530204848523
 20
-31.80469013101921
 30
0.0
 11
44.10530204848523
 21
-16.25370276246171
 31
0.0
  0
LINE
  5
1F5
330
1F0
100
AcDbEntity
  8
치수문자_일반주서
 62
     0
370
    -2
100
AcDbLine
 10
77.44280204848522
 20
-16.25370276246171
 30
0.0
 11
116.4218020484852
 21
-16.25370276246171
 31
0.0
  0
LINE
  5
1F6
330
1F0
100
AcDbEntity
  8
치수문자_일반주서
 62
     0
370
    -2
100
AcDbLine
 10
77.44280204848522
 20
-16.25370276246171
 30
0.0
 11
44.10530204848523
 21
-16.25370276246171
 31
0.0
  0
LINE
  5
1F7
330
1F0
100
AcDbEntity
  8
치수문자_일반주서
 62
     0
370
    -2
100
AcDbLine
 10
80.74480204848521
 20
-16.25370276246171
 30
0.0
 11
84.0468020484852
 21
-16.25370276246171
 31
0.0
  0
LINE
  5
1F8
330
1F0
100
AcDbEntity
  8
치수문자_일반주서
 62
     0
370
    -2
100
AcDbLine
 10
40.80330204848523
 20
-16.25370276246171
 30
0.0
 11
37.50130204848523
 21
-16.25370276246171
 31
0.0
  0
SOLID
  5
1F9
330
1F0
100
AcDbEntity
  8
치수문자_일반주서
 62
     0
100
AcDbTrace
 10
80.74480204848521
 20
-15.70336942912837
 30
0.0
 11
80.74480204848521
 21
-16.80403609579504
 31
0.0
 12
77.44280204848522
 22
-16.25370276246171
 32
0.0
 13
77.44280204848522
 23
-16.25370276246171
 33
0.0
  0
SOLID
  5
1FA
330
1F0
100
AcDbEntity
  8
치수문자_일반주서
 62
     0
100
AcDbTrace
 10
40.80330204848523
 20
-16.80403609579504
 30
0.0
 11
40.80330204848523
 21
-15.70336942912837
 31
0.0
 12
44.10530204848523
 22
-16.25370276246171
 32
0.0
 13
44.10530204848523
 23
-16.25370276246171
 33
0.0
  0
MTEXT
  5
1FB
330
1F0
100
AcDbEntity
  8
치수문자_일반주서
 62
     0
100
AcDbMText
 10
100.2343020484852
 20
-11.87870276246171
 30
0.0
 40
3.5
 41
0.0
 71
     2
 72
     1
  1
\A1;33.34 [1 5/16]
  7
SLDTEXTSTYLE0
 73
     1
 44
1.0
  0
POINT
  5
1FC
330
1F0
100
AcDbEntity
  8
Defpoints
 62
     0
100
AcDbPoint
 10
77.44280204848522
 20
-31.26041141657639
 30
0.0
  0
POINT
  5
1FD
330
1F0
100
AcDbEntity
  8
Defpoints
 62
     0
100
AcDbPoint
 10
44.10530204848523
 20
-31.86719013101921
 30
0.0
  0
POINT
  5
1FE
330
1F0
100
AcDbEntity
  8
Defpoints
 62
     0
100
AcDbPoint
 10
44.10530204848523
 20
-16.25370276246171
 30
0.0
  0
ENDBLK
  5
1F2
330
1F0
100
AcDbEntity
  8
0
100
AcDbBlockEnd
  0
BLOCK
  5
239
330
238
100
AcDbEntity
  8
0
100
AcDbBlockBegin
  2
*D9
 70
     1
 10
0.0
 20
0.0
 30
0.0
  3
*D9
  1
*D9
  0
LINE
  5
23B
330
238
100
AcDbEntity
  8
치수문자_일반주서
 62
     0
370
    -2
100
AcDbLine
 10
46.10000000000001
 20
19.93306217203122
 30
0.0
 11
46.10000000000001
 21
34.91636210612472
 31
0.0
  0
LINE
  5
23C
330
238
100
AcDbEntity
  8
치수문자_일반주서
 62
     0
370
    -2
100
AcDbLine
 10
8.0
 20
17.50823696624771
 30
0.0
 11
8.0
 21
34.91636210612472
 31
0.0
  0
LINE
  5
23D
330
238
100
AcDbEntity
  8
치수문자_일반주서
 62
     0
370
    -2
100
AcDbLine
 10
46.10000000000001
 20
34.91636210612472
 30
0.0
 11
82.35000000000001
 21
34.91636210612472
 31
0.0
  0
LINE
  5
23E
330
238
100
AcDbEntity
  8
치수문자_일반주서
 62
     0
370
    -2
100
AcDbLine
 10
46.10000000000001
 20
34.91636210612472
 30
0.0
 11
8.0
 21
34.91636210612472
 31
0.0
  0
LINE
  5
23F
330
238
100
AcDbEntity
  8
치수문자_일반주서
 62
     0
370
    -2
100
AcDbLine
 10
50.10000000000001
 20
34.91636210612472
 30
0.0
 11
54.10000000000001
 21
34.91636210612472
 31
0.0
  0
LINE
  5
240
330
238
100
AcDbEntity
  8
치수문자_일반주서
 62
     0
370
    -2
100
AcDbLine
 10
4.0
 20
34.91636210612472
 30
0.0
 11
0.0
 21
34.91636210612472
 31
0.0
  0
SOLID
  5
241
330
238
100
AcDbEntity
  8
치수문자_일반주서
 62
     0
100
AcDbTrace
 10
50.10000000000001
 20
35.58302877279139
 30
0.0
 11
50.10000000000001
 21
34.24969543945806
 31
0.0
 12
46.10000000000001
 22
34.91636210612472
 32
0.0
 13
46.10000000000001
 23
34.91636210612472
 33
0.0
  0
SOLID
  5
242
330
238
100
AcDbEntity
  8
치수문자_일반주서
 62
     0
100
AcDbTrace
 10
4.0
 20
34.24969543945806
 30
0.0
 11
4.0
 21
35.58302877279139
 31
0.0
 12
8.0
 22
34.91636210612472
 32
0.0
 13
8.0
 23
34.91636210612472
 33
0.0
  0
MTEXT
  5
243
330
238
100
AcDbEntity
  8
치수문자_일반주서
 62
     0
100
AcDbMText
 10
66.22500000000001
 20
39.79136210612472
 30
0.0
 40
4.0
 41
0.0
 71
     2
 72
     1
  1
\A1;38.10 [1 1/2]
  7
SLDTEXTSTYLE0
 73
     1
 44
1.0
  0
POINT
  5
244
330
238
100
AcDbEntity
  8
Defpoints
 62
     0
100
AcDbPoint
 10
46.10000000000001
 20
19.87056217203122
 30
0.0
  0
POINT
  5
245
330
238
100
AcDbEntity
  8
Defpoints
 62
     0
100
AcDbPoint
 10
8.0
 20
17.44573696624771
 30
0.0
  0
POINT
  5
246
330
238
100
AcDbEntity
  8
Defpoints
 62
     0
100
AcDbPoint
 10
8.0
 20
34.91636210612472
 30
0.0
  0
ENDBLK
  5
23A
330
238
100
AcDbEntity
  8
0
100
AcDbBlockEnd
  0
BLOCK
  5
24B
330
24A
100
AcDbEntity
  8
0
100
AcDbBlockBegin
  2
*D10
 70
     1
 10
0.0
 20
0.0
 30
0.0
  3
*D10
  1
*D10
  0
LINE
  5
24D
330
24A
100
AcDbEntity
  8
치수문자_일반주서
 62
     0
370
    -2
100
AcDbLine
 10
120.3763091257374
 20
14.39197109671553
 30
0.0
 11
120.3763091257374
 21
29.37527103080904
 31
0.0
  0
LINE
  5
24E
330
24A
100
AcDbEntity
  8
치수문자_일반주서
 62
     0
370
    -2
100
AcDbLine
 10
82.27630912573743
 20
11.96714589093203
 30
0.0
 11
82.27630912573743
 21
29.37527103080904
 31
0.0
  0
LINE
  5
24F
330
24A
100
AcDbEntity
  8
치수문자_일반주서
 62
     0
370
    -2
100
AcDbLine
 10
120.3763091257374
 20
29.37527103080904
 30
0.0
 11
156.6263091257374
 21
29.37527103080904
 31
0.0
  0
LINE
  5
250
330
24A
100
AcDbEntity
  8
치수문자_일반주서
 62
     0
370
    -2
100
AcDbLine
 10
120.3763091257374
 20
29.37527103080904
 30
0.0
 11
82.27630912573743
 21
29.37527103080904
 31
0.0
  0
LINE
  5
251
330
24A
100
AcDbEntity
  8
치수문자_일반주서
 62
     0
370
    -2
100
AcDbLine
 10
124.3763091257374
 20
29.37527103080904
 30
0.0
 11
128.3763091257374
 21
29.37527103080904
 31
0.0
  0
LINE
  5
252
330
24A
100
AcDbEntity
  8
치수문자_일반주서
 62
     0
370
    -2
100
AcDbLine
 10
78.27630912573743
 20
29.37527103080904
 30
0.0
 11
74.27630912573743
 21
29.37527103080904
 31
0.0
  0
SOLID
  5
253
330
24A
100
AcDbEntity
  8
치수문자_일반주서
 62
     0
100
AcDbTrace
 10
124.3763091257374
 20
30.04193769747571
 30
0.0
 11
124.3763091257374
 21
28.70860436414237
 31
0.0
 12
120.3763091257374
 22
29.37527103080904
 32
0.0
 13
120.3763091257374
 23
29.37527103080904
 33
0.0
  0
SOLID
  5
254
330
24A
100
AcDbEntity
  8
치수문자_일반주서
 62
     0
100
AcDbTrace
 10
78.27630912573743
 20
28.70860436414237
 30
0.0
 11
78.27630912573743
 21
30.04193769747571
 31
0.0
 12
82.27630912573743
 22
29.37527103080904
 32
0.0
 13
82.27630912573743
 23
29.37527103080904
 33
0.0
  0
MTEXT
  5
255
330
24A
100
AcDbEntity
  8
치수문자_일반주서
 62
     0
100
AcDbMText
 10
140.5013091257374
 20
34.25027103080904
 30
0.0
 40
4.0
 41
0.0
 71
     2
 72
     1
  1
\A1;38.10 [1 1/2]
  7
SLDTEXTSTYLE0
 73
     1
 44
1.0
  0
POINT
  5
256
330
24A
100
AcDbEntity
  8
Defpoints
 62
     0
100
AcDbPoint
 10
120.3763091257374
 20
14.32947109671553
 30
0.0
  0
POINT
  5
257
330
24A
100
AcDbEntity
  8
Defpoints
 62
     0
100
AcDbPoint
 10
82.27630912573743
 20
11.90464589093203
 30
0.0
  0
POINT
  5
258
330
24A
100
AcDbEntity
  8
Defpoints
 62
     0
100
AcDbPoint
 10
82.27630912573743
 20
29.37527103080904
 30
0.0
  0
ENDBLK
  5
24C
330
24A
100
AcDbEntity
  8
0
100
AcDbBlockEnd
  0
ENDSEC
  0
SECTION
  2
ENTITIES
  0
SPLINE
  5
96
330
1F
100
AcDbEntity
  8
0
  6
Continuous
 62
     1
370
    15
100
AcDbSpline
210
0.0
220
0.0
230
1.0
 70
     8
 71
     3
 72
    18
 73
    14
 74
     0
 42
0.000000001
 43
0.00000001
 40
0.0
 40
0.0
 40
0.0
 40
0.0
 40
0.1319271540442557
 40
0.2376906310507777
 40
0.3190149908704579
 40
0.3817362898684231
 40
0.4278523031590906
 40
0.4752883013873504
 40
0.5419838106380994
 40
0.6237938939248266
 40
0.7263681759516847
 40
0.8506410722837814
 40
0.9999999999999999
 40
0.9999999999999999
 40
0.9999999999999999
 40
0.9999999999999999
 10
13.71092202204415
 20
2.440776073472467
 30
0.0
 10
13.59794703483937
 20
2.493956747040337
 30
0.0
 10
13.39440216042594
 20
2.589771349815837
 30
0.0
 10
13.11343910025063
 20
2.724717329216763
 30
0.0
 10
12.88603512910696
 20
2.835268551845548
 30
0.0
 10
12.71443837793757
 20
2.919463723277907
 30
0.0
 10
12.57754696471177
 20
2.987108368839088
 30
0.0
 10
12.4373338825546
 20
3.056799580991883
 30
0.0
 10
12.26500174422138
 20
3.14306664685996
 30
0.0
 10
12.04135838750733
 20
3.256066337119271
 30
0.0
 10
11.76192898940394
 20
3.398865033312696
 30
0.0
 10
11.42244482118608
 20
3.574669761114033
 30
0.0
 10
11.19316557259223
 20
3.696098766554357
 30
0.0
 10
11.06801601136461
 20
3.762379456343608
 30
0.0
1001
PE_URL
1000

  0
SPLINE
  5
97
330
1F
100
AcDbEntity
  8
0
  6
Continuous
 62
     1
370
    15
100
AcDbSpline
210
0.0
220
0.0
230
1.0
 70
     8
 71
     3
 72
    25
 73
    21
 74
     0
 42
0.000000001
 43
0.00000001
 40
0.0
 40
0.0
 40
0.0
 40
0.0
 40
0.0692558708853383
 40
0.1299421286240518
 40
0.1825862534754927
 40
0.2400327428970294
 40
0.2920332374930349
 40
0.3447745553760834
 40
0.398938332672352
 40
0.4535210392184622
 40
0.5072046545880563
 40
0.5601512077558405
 40
0.637222525610574
 40
0.7036752458416223
 40
0.7612034602754593
 40
0.7925750439300443
 40
0.8230172220583747
 40
0.8660879536539285
 40
0.9251125266184546
 40
1.0
 40
1.0
 40
1.0
 40
1.0
 10
10.56252896770385
 20
7.568935674351315
 30
0.0
 10
10.44617350588935
 20
7.562707593128262
 30
0.0
 10
10.22786022512442
 20
7.551022083711927
 30
0.0
 10
9.906345692003852
 20
7.53465062277786
 30
0.0
 10
9.59471506449604
 20
7.52025423016527
 30
0.0
 10
9.287509991998537
 20
7.508417474007117
 30
0.0
 10
8.985332024744405
 20
7.49799158869754
 30
0.0
 10
8.685408355916369
 20
7.487628204103348
 30
0.0
 10
8.3843215429912
 20
7.47819110616439
 30
0.0
 10
8.084121576766341
 20
7.469753604674286
 30
0.0
 10
7.785716279487336
 20
7.462349447593415
 30
0.0
 10
7.446030369340829
 20
7.455052284042834
 30
0.0
 10
7.082760476390476
 20
7.448714980964574
 30
0.0
 10
6.710878852614491
 20
7.443878651413134
 30
0.0
 10
6.423440107237994
 20
7.441240851706528
 30
0.0
 10
6.202649078193276
 20
7.439821521859093
 30
0.0
 10
6.008593241915135
 20
7.438941658573737
 30
0.0
 10
5.763405929438029
 20
7.438402909246439
 30
0.0
 10
5.436052260825809
 20
7.438620667629372
 30
0.0
 10
5.18845253629018
 20
7.440122932986196
 30
0.0
 10
5.049987638722105
 20
7.440963043043436
 30
0.0
1001
PE_URL
1000

  0
SPLINE
  5
98
330
1F
100
AcDbEntity
  8
0
  6
Continuous
 62
     1
370
    15
100
AcDbSpline
210
0.0
220
0.0
230
1.0
 70
     8
 71
     3
 72
    50
 73
    46
 74
     0
 42
0.000000001
 43
0.00000001
 40
0.0
 40
0.0
 40
0.0
 40
0.0
 40
0.0280158210835794
 40
0.0523372002373389
 40
0.0729711500295054
 40
0.0900038296187599
 40
0.1036768846423941
 40
0.1165728157160898
 40
0.138431983513436
 40
0.1621456408141964
 40
0.1847619619493391
 40
0.2205169174854362
 40
0.2507306180160577
 40
0.2785594915141522
 40
0.3009477994453537
 40
0.3253453930579983
 40
0.352136263880472
 40
0.3820952164581332
 40
0.4151969221135718
 40
0.444873806775392
 40
0.4702545741215203
 40
0.4928268052740618
 40
0.5134239982507643
 40
0.5334915867815712
 40
0.5545770087950691
 40
0.5776309913655574
 40
0.6028229315822987
 40
0.6315208616598996
 40
0.6641816734990341
 40
0.6876374997498506
 40
0.707298015514915
 40
0.7241057311186967
 40
0.7401636177523905
 40
0.7555915216962816
 40
0.7712806091627343
 40
0.7960055026667446
 40
0.8218477949841954
 40
0.8485963788522326
 40
0.8770382433384921
 40
0.8929780080085737
 40
0.9097873005183518
 40
0.9282564537727305
 40
0.949219249725657
 40
0.9730655818811595
 40
1.0
 40
1.0
 40
1.0
 40
1.0
 10
34.84890817738728
 20
6.51464892730982
 30
0.0
 10
34.70132455247759
 20
6.502150708242274
 30
0.0
 10
34.42561913211505
 20
6.4788024082943
 30
0.0
 10
34.03348601896748
 20
6.448300637569899
 30
0.0
 10
33.6936416558213
 20
6.423793081971641
 30
0.0
 10
33.40537901376292
 20
6.404713889385455
 30
0.0
 10
33.15486600232182
 20
6.389650485214164
 30
0.0
 10
32.87719488664781
 20
6.373560702807291
 30
0.0
 10
32.54403154327708
 20
6.3552872673005
 30
0.0
 10
32.16499931685826
 20
6.336703073087969
 30
0.0
 10
31.70866049584635
 20
6.31703676208033
 30
0.0
 10
31.21609341687665
 20
6.299516494476147
 30
0.0
 10
30.69431545067723
 20
6.285364432689763
 30
0.0
 10
30.2465366634414
 20
6.276549457240524
 30
0.0
 10
29.83092608619523
 20
6.271048556894664
 30
0.0
 10
29.42133083096914
 20
6.268095665268338
 30
0.0
 10
28.97002786157812
 20
6.267833776649666
 30
0.0
 10
28.47007737578674
 20
6.271214628367821
 30
0.0
 10
27.95376847015219
 20
6.278893903700443
 30
0.0
 10
27.4630085480113
 20
6.290146106670698
 30
0.0
 10
27.03089206859113
 20
6.303106009759571
 30
0.0
 10
26.64940747817027
 20
6.31689938855262
 30
0.0
 10
26.29759320048705
 20
6.331580231647117
 30
0.0
 10
25.9540858594577
 20
6.347721808836908
 30
0.0
 10
25.59675364040996
 20
6.366342595981594
 30
0.0
 10
25.2108372216532
 20
6.388577653553229
 30
0.0
 10
24.7823813113979
 20
6.415830615035267
 30
0.0
 10
24.30063059394991
 20
6.44969343341016
 30
0.0
 10
23.82886404052205
 20
6.486445372375253
 30
0.0
 10
23.40720170710133
 20
6.522230451966633
 30
0.0
 10
23.07363540087986
 20
6.552358810151889
 30
0.0
 10
22.78101441912088
 20
6.580050229387496
 30
0.0
 10
22.51215604784651
 20
6.606518442677861
 30
0.0
 10
22.24950436997802
 20
6.633335461320469
 30
0.0
 10
21.93951801454567
 20
6.666104224266266
 30
0.0
 10
21.57450321253627
 20
6.706364370400586
 30
0.0
 10
21.14618919571154
 20
6.756074337770476
 30
0.0
 10
20.6950292200519
 20
6.811200385557203
 30
0.0
 10
20.29104732810391
 20
6.863248784522655
 30
0.0
 10
19.94227150820378
 20
6.909687915409512
 30
0.0
 10
19.65131718690535
 20
6.948558341264749
 30
0.0
 10
19.3305095977474
 20
6.993011274475254
 30
0.0
 10
18.98155103101747
 20
7.044148034221581
 30
0.0
 10
18.60072352081972
 20
7.102419450895304
 30
0.0
 10
18.34422640164308
 20
7.1427101549911
 30
0.0
 10
18.20817877302676
 20
7.164080588955855
 30
0.0
1001
PE_URL
1000

  0
SPLINE
  5
99
330
1F
100
AcDbEntity
  8
0
  6
Continuous
 62
     1
370
    15
100
AcDbSpline
210
0.0
220
0.0
230
1.0
 70
     8
 71
     3
 72
    24
 73
    20
 74
     0
 42
0.000000001
 43
0.00000001
 40
0.0
 40
0.0
 40
0.0
 40
0.0
 40
0.0684701204685158
 40
0.1283876177413023
 40
0.1804391052568672
 40
0.2259741113423876
 40
0.2679783206885292
 40
0.3442620424826218
 40
0.4149352748188511
 40
0.4954745503521288
 40
0.5708628616297816
 40
0.6445995638776698
 40
0.683822330183661
 40
0.7292877034994866
 40
0.7836551610108371
 40
0.8445631268877292
 40
0.9006061690392362
 40
0.9503493169216253
 40
1.0
 40
1.0
 40
1.0
 40
1.0
 10
18.20817877302676
 20
-7.164080588955855
 30
0.0
 10
18.35563333126592
 20
-7.140917965218883
 30
0.0
 10
18.63212385483858
 20
-7.09748596799324
 30
0.0
 10
19.04223932195715
 20
-7.035007178009661
 30
0.0
 10
19.41574732211201
 20
-6.980836391719638
 30
0.0
 10
19.75586535196705
 20
-6.93458048932795
 30
0.0
 10
20.15239007733535
 20
-6.881558323077018
 30
0.0
 10
20.61193823628457
 20
-6.821503736456608
 30
0.0
 10
21.15216355618521
 20
-6.755146256505105
 30
0.0
 10
21.68551905216759
 20
-6.6935952468805
 30
0.0
 10
22.22645375268412
 20
-6.635244467007082
 30
0.0
 10
22.67371770879034
 20
-6.590274015252483
 30
0.0
 10
23.04956453020135
 20
-6.554594436146385
 30
0.0
 10
23.37934231646056
 20
-6.524681819998763
 30
0.0
 10
23.76035868400317
 20
-6.492178720439115
 30
0.0
 10
24.16629947848791
 20
-6.459996055156163
 30
0.0
 10
24.56142108474349
 20
-6.431210699076238
 30
0.0
 10
24.93008917451051
 20
-6.406098751548183
 30
0.0
 10
25.16579651597303
 20
-6.392027393514538
 30
0.0
 10
25.28354054894849
 20
-6.384998259699514
 30
0.0
1001
PE_URL
1000

  0
SPLINE
  5
9A
330
1F
100
AcDbEntity
  8
0
  6
Continuous
 62
     1
370
    15
100
AcDbSpline
210
0.0
220
0.0
230
1.0
 70
     8
 71
     3
 72
    24
 73
    20
 74
     0
 42
0.000000001
 43
0.00000001
 40
0.0
 40
0.0
 40
0.0
 40
0.0
 40
0.0748851237729119
 40
0.133907844830302
 40
0.1769772250735088
 40
0.2074184480727484
 40
0.2387890474379629
 40
0.2963154569131991
 40
0.362766092177586
 40
0.439834991905152
 40
0.5224969894720255
 40
0.6071507022179282
 40
0.6904329987775826
 40
0.731037221896405
 40
0.7718444977793344
 40
0.8174194752027271
 40
0.8700619483347976
 40
0.930746302030703
 40
1.0
 40
1.0
 40
1.0
 40
1.0
 10
5.049987638722105
 20
-7.440963043043439
 30
0.0
 10
5.188452538879277
 20
-7.440122933121931
 30
0.0
 10
5.436052268044672
 20
-7.438620668007821
 30
0.0
 10
5.763405909950961
 20
-7.438402908224833
 30
0.0
 10
6.008593287466631
 20
-7.438941660961771
 30
0.0
 10
6.202648960129245
 20
-7.439821515669598
 30
0.0
 10
6.423440731284051
 20
-7.441240884422097
 30
0.0
 10
6.710873968005544
 20
-7.443878395337879
 30
0.0
 10
7.082782869341339
 20
-7.448716154913342
 30
0.0
 10
7.500877434069266
 20
-7.456005568988934
 30
0.0
 10
7.953305817614424
 20
-7.466157414465497
 30
0.0
 10
8.415506118114301
 20
-7.478882353386297
 30
0.0
 10
8.807302426940982
 20
-7.491697848754391
 30
0.0
 10
9.117073640444119
 20
-7.502640139592528
 30
0.0
 10
9.353896435552956
 20
-7.510831254209164
 30
0.0
 10
9.616388126178968
 20
-7.521288246000735
 30
0.0
 10
9.9063414899944
 20
-7.534639619273306
 30
0.0
 10
10.22786152093076
 20
-7.551025476948213
 30
0.0
 10
10.44617395640691
 20
-7.562708772866684
 30
0.0
 10
10.56252896770385
 20
-7.568935674351315
 30
0.0
1001
PE_URL
1000

  0
SPLINE
  5
9B
330
1F
100
AcDbEntity
  8
0
  6
Continuous
 62
     1
370
    15
100
AcDbSpline
210
0.0
220
0.0
230
1.0
 70
     8
 71
     3
 72
    50
 73
    46
 74
     0
 42
0.000000001
 43
0.00000001
 40
0.0
 40
0.0
 40
0.0
 40
0.0
 40
0.0624999999999998
 40
0.0624999999999998
 40
0.1249999999999997
 40
0.1249999999999997
 40
0.1562499999999997
 40
0.1562499999999997
 40
0.1874999999999997
 40
0.1874999999999997
 40
0.2499999999999996
 40
0.2499999999999996
 40
0.2812499999999993
 40
0.2812499999999993
 40
0.3124999999999992
 40
0.3124999999999992
 40
0.3437499999999991
 40
0.3437499999999991
 40
0.374999999999999
 40
0.374999999999999
 40
0.4374999999999988
 40
0.4374999999999988
 40
0.4687499999999988
 40
0.4687499999999988
 40
0.4999999999999988
 40
0.4999999999999988
 40
0.5312499999999988
 40
0.5312499999999988
 40
0.5624999999999988
 40
0.5624999999999988
 40
0.6249999999999988
 40
0.6249999999999988
 40
0.6562499999999989
 40
0.6562499999999989
 40
0.6874999999999989
 40
0.6874999999999989
 40
0.7499999999999991
 40
0.7499999999999991
 40
0.8124999999999993
 40
0.8124999999999993
 40
0.8749999999999996
 40
0.8749999999999996
 40
0.9374999999999998
 40
0.9374999999999998
 40
1.0
 40
1.0
 40
1.0
 40
1.0
 10
5.049987638722107
 20
4.491270090970859
 30
0.0
 10
5.742628275512074
 20
4.137983493227249
 30
0.0
 10
6.440554070378628
 20
3.771836719246192
 30
0.0
 10
7.83034602628836
 20
3.02248186125595
 30
0.0
 10
8.521428612071343
 20
2.639467690581627
 30
0.0
 10
9.56530805133138
 20
2.054620466080815
 30
0.0
 10
9.913473839143679
 20
1.858134615124141
 30
0.0
 10
10.60813587367414
 20
1.463269168920807
 30
0.0
 10
10.95362212332583
 20
1.265084051527104
 30
0.0
 10
11.99367864690627
 20
0.6677216974141116
 30
0.0
 10
12.69172691845083
 20
0.2657472689551104
 30
0.0
 10
13.73333551471443
 20
-0.3356294864151053
 30
0.0
 10
14.07867410614505
 20
-0.5356400020031256
 30
0.0
 10
14.77237699791189
 20
-0.9352663710115482
 30
0.0
 10
15.12032096642664
 20
-1.134800335581988
 30
0.0
 10
15.81631686814169
 20
-1.532112710561761
 30
0.0
 10
16.16436741694716
 20
-1.729890329946489
 30
0.0
 10
16.85849451139071
 20
-2.122511812459675
 30
0.0
 10
17.20377256731037
 20
-2.317208904745664
 30
0.0
 10
18.2447913332023
 20
-2.897269094498506
 30
0.0
 10
18.94287118611318
 20
-3.278029425516205
 30
0.0
 10
19.98361041902339
 20
-3.833445566334063
 30
0.0
 10
20.32891506863301
 20
-4.01588001175357
 30
0.0
 10
21.02321490759197
 20
-4.375821186279056
 30
0.0
 10
21.37130540673482
 20
-4.55316352952409
 30
0.0
 10
22.06728757099177
 20
-4.901516989889948
 30
0.0
 10
22.41517785190201
 20
-5.0725274189335
 30
0.0
 10
23.10868079755365
 20
-5.407217354493023
 30
0.0
 10
23.4540991672027
 20
-5.570875253316296
 30
0.0
 10
24.49594643619122
 20
-6.051301578353249
 30
0.0
 10
25.19396696139648
 20
-6.356816515377085
 30
0.0
 10
26.23370321180176
 20
-6.787522766537035
 30
0.0
 10
26.57932241564649
 20
-6.926555960965926
 30
0.0
 10
27.27412991885789
 20
-7.195708866730063
 30
0.0
 10
27.62232190248283
 20
-7.325688351220496
 30
0.0
 10
28.6661395320643
 20
-7.70064749299847
 30
0.0
 10
29.35706847012711
 20
-7.930225962685968
 30
0.0
 10
30.74712403917363
 20
-8.346977608039543
 30
0.0
 10
31.44499435345032
 20
-8.533902825569738
 30
0.0
 10
32.82979445907613
 20
-8.860566040600828
 30
0.0
 10
33.52550823984203
 20
-9.00102919361862
 30
0.0
 10
34.91687766549167
 20
-9.2333124099017
 30
0.0
 10
35.60750196149754
 20
-9.324952979381864
 30
0.0
 10
36.99830421558028
 20
-9.45865572366899
 30
0.0
 10
37.69593350114015
 20
-9.500490630744098
 30
0.0
 10
38.38748763872212
 20
-9.516949615062353
 30
0.0
1001
PE_URL
1000

  0
SPLINE
  5
9C
330
1F
100
AcDbEntity
  8
0
  6
Continuous
 62
     1
370
    15
100
AcDbSpline
210
0.0
220
0.0
230
1.0
 70
     8
 71
     3
 72
    12
 73
     8
 74
     0
 42
0.000000001
 43
0.00000001
 40
0.0
 40
0.0
 40
0.0
 40
0.0
 40
0.1874244354093509
 40
0.3754681086148303
 40
0.5836547895107626
 40
0.7916526546000905
 40
1.0
 40
1.0
 40
1.0
 40
1.0
 10
14.73196538790874
 20
-0.9104901829808425
 30
0.0
 10
14.12718375162477
 20
-0.6670355385694664
 30
0.0
 10
12.9156223209897
 20
-0.179321891888395
 30
0.0
 10
11.03172777815905
 20
0.5829181393304215
 30
0.0
 10
9.081623000088065
 20
1.363383986495836
 30
0.0
 10
7.066374738482793
 20
2.153961776685597
 30
0.0
 10
5.722492690324342
 20
2.650876306465209
 30
0.0
 10
5.049987638722111
 20
2.899542126467245
 30
0.0
1001
PE_URL
1000

  0
SPLINE
  5
9D
330
1F
100
AcDbEntity
  8
외형선
  6
Continuous
370
    15
100
AcDbSpline
210
0.0
220
0.0
230
1.0
 70
    24
 71
     3
 72
    10
 73
     6
 74
     0
 42
0.000000001
 43
0.00000001
 40
0.0
 40
0.0
 40
0.0
 40
0.0
 40
0.5
 40
0.5
 40
1.0
 40
1.0
 40
1.0
 40
1.0
 10
5.049987638722111
 20
4.491270090970858
 30
0.0
 10
5.049987638722111
 20
4.393734757633738
 30
0.0
 10
5.049987638722111
 20
4.196630948229544
 30
0.0
 10
5.049987638722111
 20
3.641432750666215
 30
0.0
 10
5.049987638722111
 20
3.285430923391353
 30
0.0
 10
5.049987638722111
 20
2.899542126467247
 30
0.0
  0
SPLINE
  5
9E
330
1F
100
AcDbEntity
  8
0
  6
Continuous
 62
     1
370
    15
100
AcDbSpline
210
0.0
220
0.0
230
1.0
 70
     8
 71
     3
 72
    50
 73
    46
 74
     0
 42
0.000000001
 43
0.00000001
 40
0.0
 40
0.0
 40
0.0
 40
0.0
 40
0.0625000000000002
 40
0.0625000000000002
 40
0.1250000000000003
 40
0.1250000000000003
 40
0.1875000000000005
 40
0.1875000000000005
 40
0.2500000000000007
 40
0.2500000000000007
 40
0.3125000000000009
 40
0.3125000000000009
 40
0.3437500000000009
 40
0.3437500000000009
 40
0.3750000000000009
 40
0.3750000000000009
 40
0.4375000000000007
 40
0.4375000000000007
 40
0.4687500000000006
 40
0.4687500000000006
 40
0.5000000000000004
 40
0.5000000000000004
 40
0.5312500000000004
 40
0.5312500000000004
 40
0.5625000000000002
 40
0.5625000000000002
 40
0.6250000000000002
 40
0.6250000000000002
 40
0.6562500000000002
 40
0.6562500000000002
 40
0.6875000000000001
 40
0.6875000000000001
 40
0.7187500000000001
 40
0.7187500000000001
 40
0.7500000000000001
 40
0.7500000000000001
 40
0.8125
 40
0.8125
 40
0.84375
 40
0.84375
 40
0.875
 40
0.875
 40
0.9375
 40
0.9375
 40
1.0
 40
1.0
 40
1.0
 40
1.0
 10
38.38748763872212
 20
-9.038661779433845
 30
0.0
 10
37.69593350114008
 20
-8.912351113052416
 30
0.0
 10
36.99830421558017
 20
-8.761616824435057
 30
0.0
 10
35.60750196149731
 20
-8.414633241713233
 30
0.0
 10
34.91687766549137
 20
-8.218730647730608
 30
0.0
 10
33.52550823984161
 20
-7.783360776025847
 30
0.0
 10
32.82979445907567
 20
-7.544331576934118
 30
0.0
 10
31.44499435344975
 20
-7.028341605424167
 30
0.0
 10
30.74712403917299
 20
-6.75026263025861
 30
0.0
 10
29.35706847012637
 20
-6.160426206301469
 30
0.0
 10
28.66613953206349
 20
-5.84894506389929
 30
0.0
 10
27.62232190248194
 20
-5.358546435162993
 30
0.0
 10
27.27412991885697
 20
-5.19136254207111
 30
0.0
 10
26.57932241564551
 20
-4.850570119486798
 30
0.0
 10
26.23370321180075
 20
-4.677132827914843
 30
0.0
 10
25.19396696139539
 20
-4.147384825941723
 30
0.0
 10
24.49594643619008
 20
-3.781401488503622
 30
0.0
 10
23.45409916720146
 20
-3.219710796508508
 30
0.0
 10
23.10868079755238
 20
-3.030555200823899
 30
0.0
 10
22.41517785190069
 20
-2.647990816262011
 30
0.0
 10
22.06728757099042
 20
-2.454612399272887
 30
0.0
 10
21.37130540673341
 20
-2.064806642576722
 30
0.0
 10
21.02321490759053
 20
-1.868380075898963
 30
0.0
 10
20.32891506863151
 20
-1.473660386629764
 30
0.0
 10
19.98361041902185
 20
-1.275541932463071
 30
0.0
 10
18.94287118611156
 20
-0.6781235836125346
 30
0.0
 10
18.24479133320061
 20
-0.2761645376378418
 30
0.0
 10
17.20377256730861
 20
0.3251077793768899
 30
0.0
 10
16.85849451138893
 20
0.5251167276418552
 30
0.0
 10
16.1643674169453
 20
0.9248583531888487
 30
0.0
 10
15.81631686813981
 20
1.124436396001092
 30
0.0
 10
15.12032096642469
 20
1.521810076010797
 30
0.0
 10
14.77237699790993
 20
1.71960492349649
 30
0.0
 10
14.07867410614304
 20
2.112235548108625
 30
0.0
 10
13.73333551471239
 20
2.306995824598523
 30
0.0
 10
12.69172691844869
 20
2.887339680707229
 30
0.0
 10
11.99367864690407
 20
3.268234379044411
 30
0.0
 10
10.95362212332356
 20
3.82378276208888
 30
0.0
 10
10.60813587367183
 20
4.006340854340289
 30
0.0
 10
9.913473839141302
 20
4.366538715901854
 30
0.0
 10
9.565308051328978
 20
4.543996439054641
 30
0.0
 10
8.521428612068856
 20
5.066837968311425
 30
0.0
 10
7.830346026285826
 20
5.402048922973449
 30
0.0
 10
6.440554070375962
 20
6.043249328288359
 30
0.0
 10
5.742628275509355
 20
6.349032293624401
 30
0.0
 10
5.049987638719346
 20
6.636407126729277
 30
0.0
1001
PE_URL
1000

  0
SPLINE
  5
9F
330
1F
100
AcDbEntity
  8
0
  6
Continuous
 62
     1
370
    15
100
AcDbSpline
210
0.0
220
0.0
230
1.0
 70
     8
 71
     3
 72
    21
 73
    17
 74
     0
 42
0.000000001
 43
0.00000001
 40
0.0
 40
0.0
 40
0.0
 40
0.0
 40
0.0737109837894535
 40
0.1473352432289515
 40
0.2211129566839963
 40
0.2947337126149079
 40
0.3684550448871962
 40
0.4421555387694803
 40
0.5157838906730926
 40
0.5895607328150675
 40
0.6631785743389003
 40
0.7369093864329922
 40
0.8105999761897869
 40
0.8842330093425339
 40
0.9580081088993743
 40
1.0
 40
1.0
 40
1.0
 40
1.0
 10
38.38748763872212
 20
-7.51496081810726
 30
0.0
 10
37.78079007621615
 20
-7.395463534982838
 30
0.0
 10
36.56810875868614
 20
-7.156609562763104
 30
0.0
 10
34.74901235735764
 20
-6.685815030373388
 30
0.0
 10
32.92924155463602
 20
-6.142230019315659
 30
0.0
 10
31.11013073654891
 20
-5.520131971427492
 30
0.0
 10
29.29069140843831
 20
-4.83297347441637
 30
0.0
 10
27.47137222368981
 20
-4.086793163373727
 30
0.0
 10
25.65228803937358
 20
-3.289485443939989
 30
0.0
 10
23.83252271914331
 20
-2.455077607022961
 30
0.0
 10
22.01339977595722
 20
-1.587572381628368
 30
0.0
 10
20.19390521056362
 20
-0.7033307343650018
 30
0.0
 10
18.37463858563473
 20
0.1905726472495088
 30
0.0
 10
16.55556201895018
 20
1.082093522257293
 30
0.0
 10
14.99616769289734
 20
1.836667151514386
 30
0.0
 10
14.04364962320081
 20
2.281519775124006
 30
0.0
 10
13.69814496054251
 20
2.442880131995631
 30
0.0
1001
PE_URL
1000

  0
LINE
  5
A0
330
1F
100
AcDbEntity
  8
0
  6
Continuous
 62
     1
370
    15
100
AcDbLine
 10
38.38748763872212
 20
-9.038661779433848
 30
0.0
 11
38.38748763872212
 21
-7.51496081810726
 31
0.0
1001
PE_URL
1000

  0
LINE
  5
A1
330
1F
100
AcDbEntity
  8
외형선
  6
Continuous
370
    15
100
AcDbLine
 10
5.049987638722111
 20
4.491270090970858
 30
0.0
 11
5.049987638722111
 21
6.636407126722369
 31
0.0
  0
LINE
  5
A2
330
1F
100
AcDbEntity
  8
0
  6
Continuous
 62
     1
370
    15
100
AcDbLine
 10
38.38748763872212
 20
-9.516949615062357
 30
0.0
 11
38.38748763872212
 21
-9.038661779433848
 31
0.0
1001
PE_URL
1000

  0
SPLINE
  5
A3
330
1F
100
AcDbEntity
  8
0
  6
Continuous
 62
     1
370
    15
100
AcDbSpline
210
0.0
220
0.0
230
1.0
 70
     8
 71
     3
 72
    12
 73
     8
 74
     0
 42
0.000000001
 43
0.00000001
 40
0.0
 40
0.0
 40
0.0
 40
0.0
 40
0.4999999999999989
 40
0.4999999999999989
 40
0.7499999999999994
 40
0.7499999999999994
 40
1.0
 40
1.0
 40
1.0
 40
1.0
 10
38.38748763872212
 20
-2.545489060932364
 30
0.0
 10
37.52928260839585
 20
-1.870798261156446
 30
0.0
 10
36.68322504449607
 20
-1.172677160324453
 30
0.0
 10
35.4324116644667
 20
-0.0902502097417913
 30
0.0
 10
35.01855806539626
 20
0.2765076356954198
 30
0.0
 10
34.1974760579087
 20
1.022802140366352
 30
0.0
 10
33.78887299210928
 20
1.403657852354439
 30
0.0
 10
33.38748763872213
 20
1.788486169330865
 30
0.0
1001
PE_URL
1000

  0
LINE
  5
A4
330
1F
100
AcDbEntity
  8
0
  6
Continuous
 62
     1
370
    15
100
AcDbLine
 10
33.38748763872212
 20
2.937719435296592
 30
0.0
 11
38.38748763872212
 21
0.0000000000000042
 31
0.0
1001
PE_URL
1000

  0
LINE
  5
A5
330
1F
100
AcDbEntity
  8
0
  6
Continuous
 62
     1
370
    15
100
AcDbLine
 10
38.38748763872212
 20
0.0000000000000042
 30
0.0
 11
38.38748763872212
 21
-2.545489060932364
 31
0.0
1001
PE_URL
1000

  0
SPLINE
  5
A6
330
1F
100
AcDbEntity
  8
0
  6
Continuous
 62
     1
370
    15
100
AcDbSpline
210
0.0
220
0.0
230
1.0
 70
     8
 71
     3
 72
    21
 73
    17
 74
     0
 42
0.000000001
 43
0.00000001
 40
0.0
 40
0.0
 40
0.0
 40
0.0
 40
0.0597734343427311
 40
0.1196547134057928
 40
0.1794926549723524
 40
0.2592083652820695
 40
0.3388449578543855
 40
0.4186444043023856
 40
0.4982694671064944
 40
0.578018435325784
 40
0.6577232812134252
 40
0.7373650093452025
 40
0.817162543812711
 40
0.8967850562024301
 40
0.9765434696560764
 40
0.9999999999999999
 40
0.9999999999999999
 40
0.9999999999999999
 40
0.9999999999999999
 10
33.38748763872212
 20
2.273962504588741
 30
0.0
 10
32.93280188843993
 20
2.473148903259323
 30
0.0
 10
32.02261003251005
 20
2.871881077666479
 30
0.0
 10
30.65664382450437
 20
3.444997329907938
 30
0.0
 10
29.13939141949735
 20
4.057675111608973
 30
0.0
 10
27.47137049623212
 20
4.691099995976726
 30
0.0
 10
25.65227371337416
 20
5.326577752816944
 30
0.0
 10
23.83257910973371
 20
5.895172642318764
 30
0.0
 10
22.01338977712567
 20
6.39429942849085
 30
0.0
 10
20.19393676678112
 20
6.814244476220176
 30
0.0
 10
18.37467728317015
 20
7.152047127187489
 30
0.0
 10
16.55555221711196
 20
7.402802698961829
 30
0.0
 10
14.73586557228045
 20
7.564508119953477
 30
0.0
 10
12.91670714845059
 20
7.629366278586979
 30
0.0
 10
11.52508096170118
 20
7.623373133283279
 30
0.0
 10
10.73984409586432
 20
7.573091061713479
 30
0.0
 10
10.56139190964996
 20
7.561664005764627
 30
0.0
1001
PE_URL
1000

  0
SPLINE
  5
A7
330
1F
100
AcDbEntity
  8
0
  6
Continuous
 62
     1
370
    15
100
AcDbSpline
210
0.0
220
0.0
230
1.0
 70
    24
 71
     3
 72
     8
 73
     4
 74
     0
 42
0.000000001
 43
0.00000001
 40
0.0
 40
0.0
 40
0.0
 40
0.0
 40
1.0
 40
1.0
 40
1.0
 40
1.0
 10
33.38748763872212
 20
1.788486169330775
 30
0.0
 10
33.38748763872212
 20
1.951691093477694
 30
0.0
 10
33.38748763872212
 20
2.113595766767046
 30
0.0
 10
33.38748763872212
 20
2.273962504588742
 30
0.0
1001
PE_URL
1000

  0
SPLINE
  5
A8
330
1F
100
AcDbEntity
  8
0
  6
Continuous
 62
     1
370
    15
100
AcDbSpline
210
0.0
220
0.0
230
1.0
 70
    24
 71
     3
 72
    10
 73
     6
 74
     0
 42
0.000000001
 43
0.00000001
 40
0.0
 40
0.0
 40
0.0
 40
0.0
 40
0.5
 40
0.5
 40
1.0
 40
1.0
 40
1.0
 40
1.0
 10
38.38748763872212
 20
-7.514960818107257
 30
0.0
 10
38.38748763872212
 20
-6.938880480261242
 30
0.0
 10
38.38748763872212
 20
-6.210980884209113
 30
0.0
 10
38.38748763872211
 20
-4.518684375910224
 30
0.0
 10
38.38748763872212
 20
-3.555753395063724
 30
0.0
 10
38.38748763872212
 20
-2.545489060932668
 30
0.0
1001
PE_URL
1000

  0
SPLINE
  5
A9
330
1F
100
AcDbEntity
  8
외형선
  6
Continuous
370
    15
100
AcDbSpline
210
0.0
220
0.0
230
1.0
 70
    24
 71
     3
 72
    13
 73
     9
 74
     0
 42
0.000000001
 43
0.00000001
 40
0.0
 40
0.0
 40
0.0
 40
0.0
 40
0.1533974635005763
 40
0.3746934558472646
 40
0.595989448193953
 40
0.7902340694486739
 40
0.9844786907033949
 40
1.0
 40
1.0
 40
1.0
 40
1.0
 10
5.049987638722111
 20
7.433516081948303
 30
0.0
 10
5.049987638722111
 20
7.432930847759406
 30
0.0
 10
5.049987638722111
 20
7.431501336373016
 30
0.0
 10
5.049987638722111
 20
7.341731505345251
 30
0.0
 10
5.049987638722111
 20
7.184931406214113
 30
0.0
 10
5.049987638722111
 20
6.96132331791092
 30
0.0
 10
5.049987638722111
 20
6.790144912281256
 30
0.0
 10
5.049987638722111
 20
6.674270645715777
 30
0.0
 10
5.049987638722111
 20
6.665696706534362
 30
0.0
  0
SPLINE
  5
AA
330
1F
100
AcDbEntity
  8
0
  6
Continuous
 62
     1
370
    15
100
AcDbSpline
210
0.0
220
0.0
230
1.0
 70
    24
 71
     3
 72
    10
 73
     6
 74
     0
 42
0.000000001
 43
0.00000001
 40
0.0
 40
0.0
 40
0.0
 40
0.0
 40
0.5
 40
0.5
 40
1.0
 40
1.0
 40
1.0
 40
1.0
 10
33.38748763872212
 20
2.273962504588745
 30
0.0
 10
33.38748763872211
 20
2.801767246870182
 30
0.0
 10
33.38748763872212
 20
3.304266617507638
 30
0.0
 10
33.38748763872212
 20
4.221095501631605
 30
0.0
 10
33.38748763872212
 20
4.635160569708964
 30
0.0
 10
33.38748763872212
 20
4.989159483222101
 30
0.0
1001
PE_URL
1000

  0
SPLINE
  5
AB
330
1F
100
AcDbEntity
  8
0
  6
Continuous
 62
     1
370
    15
100
AcDbSpline
210
0.0
220
0.0
230
1.0
 70
     8
 71
     3
 72
     9
 73
     5
 74
     0
 42
0.000000001
 43
0.00000001
 40
0.0
 40
0.0
 40
0.0
 40
0.0
 40
0.5142197499679284
 40
1.0
 40
1.0
 40
1.0
 40
1.0
 10
38.38748763872212
 20
6.667499999999999
 30
0.0
 10
37.78081742455016
 20
6.660904576574226
 30
0.0
 10
36.60102957274206
 20
6.648078497011582
 30
0.0
 10
35.42146577064726
 20
6.556876685148309
 30
0.0
 10
34.84845697193687
 20
6.512572646177991
 30
0.0
1001
PE_URL
1000

  0
SPLINE
  5
AC
330
1F
100
AcDbEntity
  8
0
  6
Continuous
 62
     1
370
    15
100
AcDbSpline
210
0.0
220
0.0
230
1.0
 70
     8
 71
     3
 72
    10
 73
     6
 74
     0
 42
0.000000001
 43
0.00000001
 40
0.0
 40
0.0
 40
0.0
 40
0.0
 40
0.5
 40
0.5
 40
1.0
 40
1.0
 40
1.0
 40
1.0
 10
38.38748763872212
 20
6.667500000000003
 30
0.0
 10
37.5445418138699
 20
6.438941566832864
 30
0.0
 10
36.70591225658857
 20
6.186028406994863
 30
0.0
 10
35.03783226330734
 20
5.628489846077757
 30
0.0
 10
34.20922918007971
 20
5.324646660889368
 30
0.0
 10
33.38748763872212
 20
4.989159483222098
 30
0.0
1001
PE_URL
1000

  0
SPLINE
  5
AD
330
1F
100
AcDbEntity
  8
0
  6
Continuous
 62
     1
370
    15
100
AcDbSpline
210
0.0
220
0.0
230
1.0
 70
     8
 71
     3
 72
    15
 73
    11
 74
     0
 42
0.000000001
 43
0.00000001
 40
0.0
 40
0.0
 40
0.0
 40
0.0
 40
0.1256157494477322
 40
0.26403131665181
 40
0.4021432932708887
 40
0.5404910017703151
 40
0.6553062886939807
 40
0.7702456620319474
 40
0.8850523433969851
 40
1.0
 40
1.0
 40
1.0
 40
1.0
 10
18.20941481093933
 20
-7.160307791863443
 30
0.0
 10
17.65850706515428
 20
-7.24162845555103
 30
0.0
 10
16.50055594745763
 20
-7.412556082053528
 30
0.0
 10
14.73587118312714
 20
-7.562304948762966
 30
0.0
 10
12.91669876997688
 20
-7.633093393846454
 30
0.0
 10
11.1998368919798
 20
-7.610175438241382
 30
0.0
 10
9.585565159070654
 20
-7.514247808345481
 30
0.0
 10
8.073848470644009
 20
-7.360440082625795
 30
0.0
 10
6.562202327110243
 20
-7.148622366551726
 30
0.0
 10
5.554265355267313
 20
-6.957401840606218
 30
0.0
 10
5.049987638722111
 20
-6.861732912018291
 30
0.0
1001
PE_URL
1000

  0
SPLINE
  5
AE
330
1F
100
AcDbEntity
  8
외형선
  6
Continuous
370
    15
100
AcDbSpline
210
0.0
220
0.0
230
1.0
 70
    24
 71
     3
 72
    14
 73
    10
 74
     0
 42
0.000000001
 43
0.00000001
 40
0.0
 40
0.0
 40
0.0
 40
0.0
 40
0.25
 40
0.25
 40
0.5
 40
0.5
 40
0.75
 40
0.75
 40
1.0
 40
1.0
 40
1.0
 40
1.0
 10
5.049987638722094
 20
2.899542126467251
 30
0.0
 10
5.049987638722094
 20
2.079037481627666
 30
0.0
 10
5.049987638722094
 20
1.208066268783558
 30
0.0
 10
5.049987638722094
 20
-0.5619603268145764
 30
0.0
 10
5.049987638722094
 20
-1.460209842326082
 30
0.0
 10
5.049987638722094
 20
-3.195069845060174
 30
0.0
 10
5.049987638722094
 20
-4.030755926341895
 30
0.0
 10
5.049987638722094
 20
-5.562395622874669
 30
0.0
 10
5.049987638722094
 20
-6.257878198145698
 30
0.0
 10
5.049987638722094
 20
-6.861732912018282
 30
0.0
  0
LINE
  5
AF
330
1F
100
AcDbEntity
  8
0
  6
Continuous
 62
     1
370
    15
100
AcDbLine
 10
38.38748763872212
 20
0.0000000000000042
 30
0.0
 11
38.38748763872212
 21
6.667500000000004
 31
0.0
1001
PE_URL
1000

  0
SPLINE
  5
B0
330
1F
100
AcDbEntity
  8
외형선
  6
Continuous
370
    15
100
AcDbSpline
210
0.0
220
0.0
230
1.0
 70
    24
 71
     3
 72
    13
 73
     9
 74
     0
 42
0.000000001
 43
0.00000001
 40
0.0
 40
0.0
 40
0.0
 40
0.0
 40
0.1688622835398584
 40
0.3377245670797169
 40
0.5087848313880831
 40
0.6798450956964494
 40
0.9286668160052675
 40
1.0
 40
1.0
 40
1.0
 40
1.0
 10
5.049987638722109
 20
-6.861732912018291
 30
0.0
 10
5.049987638722109
 20
-6.923302304617378
 30
0.0
 10
5.049987638722109
 20
-7.046441089815552
 30
0.0
 10
5.049987638722111
 20
-7.191120770392032
 30
0.0
 10
5.049987638722111
 20
-7.306414341315771
 30
0.0
 10
5.049987638722111
 20
-7.396724695720177
 30
0.0
 10
5.049987638722111
 20
-7.44534143743221
 30
0.0
 10
5.049987638722111
 20
-7.435670784182549
 30
0.0
 10
5.049987638722111
 20
-7.433516081948303
 30
0.0
  0
SPLINE
  5
B1
330
1F
100
AcDbEntity
  8
0
  6
Continuous
 62
     1
370
    15
100
AcDbSpline
210
0.0
220
0.0
230
1.0
 70
    24
 71
     3
 72
    10
 73
     6
 74
     0
 42
0.000000001
 43
0.00000001
 40
0.0
 40
0.0
 40
0.0
 40
0.0
 40
0.5
 40
0.5
 40
1.0
 40
1.0
 40
1.0
 40
1.0
 10
38.38748763872212
 20
6.6675
 30
0.0
 10
38.38748763872212
 20
7.071667246089662
 30
0.0
 10
38.38748763872212
 20
7.541347015959289
 30
0.0
 10
38.38748763872211
 20
8.526733908152151
 30
0.0
 10
38.38748763872212
 20
9.039924476009023
 30
0.0
 10
38.38748763872212
 20
9.516949615062355
 30
0.0
1001
PE_URL
1000

  0
SPLINE
  5
B2
330
1F
100
AcDbEntity
  8
0
  6
Continuous
 62
     1
370
    15
100
AcDbSpline
210
0.0
220
0.0
230
1.0
 70
     8
 71
     3
 72
    17
 73
    13
 74
     0
 42
0.000000001
 43
0.00000001
 40
0.0
 40
0.0
 40
0.0
 40
0.0
 40
0.0699453119977448
 40
0.175167998968132
 40
0.2766179724976338
 40
0.3782330886510415
 40
0.4800969343236405
 40
0.5821279967273562
 40
0.6862374847107818
 40
0.790525511579432
 40
0.8950824137591885
 40
1.0
 40
1.0
 40
1.0
 40
1.0
 10
25.27555735614854
 20
6.385216432077078
 30
0.0
 10
25.58120831321962
 20
6.51477469574063
 30
0.0
 10
26.34666728400184
 20
6.839234779591021
 30
0.0
 10
27.55554681577868
 20
7.307193893600823
 30
0.0
 10
28.90357084156114
 20
7.782447407463223
 30
0.0
 10
30.23540688226783
 20
8.202313087955169
 30
0.0
 10
31.57176911796045
 20
8.567904487629775
 30
0.0
 10
32.9168102286545
 20
8.881380534443288
 30
0.0
 10
34.27464297467569
 20
9.136473143183688
 30
0.0
 10
35.64161329446079
 20
9.330694298780307
 30
0.0
 10
37.01354896988398
 20
9.465195050498947
 30
0.0
 10
37.92898266866901
 20
9.49967830185642
 30
0.0
 10
38.38748763872145
 20
9.516949615062337
 30
0.0
1001
PE_URL
1000

  0
LINE
  5
B3
330
1F
100
AcDbEntity
  8
중심선
 62
     1
100
AcDbLine
 10
-55.92501236127856
 20
-0.0000000000000052
 30
0.0
 11
45.38748763872212
 21
0.0000000000000043
 31
0.0
  0
LINE
  5
B4
330
1F
100
AcDbEntity
  8
참조1
100
AcDbLine
 10
-3.681262361277885
 20
-0.0000000000000039
 30
0.0
 11
-3.68126236127788
 21
-40.00000000000001
 31
0.0
  0
LINE
  5
B5
330
1F
100
AcDbEntity
  8
참조1
100
AcDbLine
 10
-3.68126236127788
 20
-40.00000000000001
 30
0.0
 11
-21.22134417558657
 21
-40.0
 31
0.0
  0
INSERT
  5
B7
330
1F
100
AcDbEntity
  8
0
  6
Continuous
 62
     7
100
AcDbBlockReference
 66
     1
  2
블럭10
 10
-17.62153529340309
 20
-52.04717430164393
 30
0.0
  0
ATTRIB
  5
B8
330
B7
100
AcDbEntity
  8
FORMAT
 62
     2
100
AcDbText
 10
-26.80283058214437
 20
-49.97180738881174
 30
0.0
 40
4.233333333333333
  1
E2030905 [ 2 FLUTE ]
 41
0.75
  7
SLDTEXTSTYLE0
 11
-26.80283058214437
 21
-52.08847405547841
 31
0.0
100
AcDbAttribute
  2
AUTOATTR0
 70
     0
 74
     1
  0
SEQEND
  5
B9
330
B7
100
AcDbEntity
  8
0
  6
Continuous
 62
     7
  0
HATCH
  5
BA
330
1F
100
AcDbEntity
  8
중심선
100
AcDbHatch
 10
0.0
 20
0.0
 30
0.0
210
0.0
220
0.0
230
1.0
  2
SOLID
 70
     1
 71
     0
 91
        1
 92
        0
 93
        4
 72
     1
 10
-11.90662598902225
 20
-35.8
 11
-15.35290123285953
 21
-35.8
 72
     1
 10
-15.35290123285953
 20
-35.8
 11
-17.48113109206355
 21
-38.3363255805726
 72
     1
 10
-17.48113109206355
 20
-38.3363255805726
 11
-14.03482276311312
 21
-38.33628615127011
 72
     1
 10
-14.03482276311312
 20
-38.33628615127011
 11
-11.90662598902225
 21
-35.8
 97
        0
 75
     0
 76
     1
 98
        1
 10
1.309408806595172
 20
-0.0010749287238931
  0
HATCH
  5
BB
330
1F
100
AcDbEntity
  8
중심선
100
AcDbHatch
 10
0.0
 20
0.0
 30
0.0
210
0.0
220
0.0
230
1.0
  2
SOLID
 70
     1
 71
     0
 91
        1
 92
        0
 93
        4
 72
     1
 10
-6.893861997986242
 20
-35.8
 11
-10.34013724182352
 21
-35.8
 72
     1
 10
-10.34013724182352
 20
-35.8
 11
-14.87127525018097
 21
-41.20000000000002
 72
     1
 10
-14.87127525018097
 20
-41.20000000000002
 11
-11.42500000634369
 21
-41.20000000000002
 72
     1
 10
-11.42500000634369
 20
-41.20000000000002
 11
-6.893861997986242
 21
-35.8
 97
        0
 75
     0
 76
     1
 98
        1
 10
1.309408806595172
 20
-0.0010749287238931
  0
HATCH
  5
BC
330
1F
100
AcDbEntity
  8
중심선
100
AcDbHatch
 10
0.0
 20
0.0
 30
0.0
210
0.0
220
0.0
230
1.0
  2
SOLID
 70
     1
 71
     0
 91
        1
 92
        0
 93
        4
 72
     1
 10
-1.881098006950374
 20
-35.8
 11
-5.327373250787518
 21
-35.80000000000003
 72
     1
 10
-5.327373250787518
 20
-35.80000000000003
 11
-12.37581015267677
 21
-44.20000000000002
 72
     1
 10
-12.37581015267677
 20
-44.20000000000002
 11
-8.929534908839484
 21
-44.20000000000002
 72
     1
 10
-8.929534908839484
 20
-44.20000000000002
 11
-1.881098006950374
 21
-35.8
 97
        0
 75
     0
 76
     1
 98
        1
 10
1.309408806595172
 20
-0.0010749287238931
  0
HATCH
  5
BD
330
1F
100
AcDbEntity
  8
중심선
100
AcDbHatch
 10
0.0
 20
0.0
 30
0.0
210
0.0
220
0.0
230
1.0
  2
SOLID
 70
     1
 71
     0
 91
        1
 92
        0
 93
        6
 72
     3
 10
2.918792424061798
 20
-40.00000000005127
 11
3.960054785062283
 21
1.540882976769353E-10
 40
0.3939339440162628
 50
17.09539180608436
 51
320.0019657685078
 73
     0
 72
     1
 10
4.601792079762394
 20
-38.5878940046383
 11
6.907093953463459
 21
-36.65356729459038
 72
     3
 10
2.918792424008951
 20
-40.00000000000015
 11
6.600054785286829
 21
-1.278976924368180E-13
 40
0.6363583540795982
 50
39.99873849337386
 51
368.4976242363724
 73
     1
 72
     1
 10
9.34412491590956
 20
-39.03999999993002
 11
1.598859730844874
 21
-39.03999999993002
 72
     1
 10
1.598859730844874
 20
-39.03999999993002
 11
1.59883468639894
 21
-40.95999999992991
 72
     1
 10
1.59883468639894
 20
-40.95999999992991
 11
6.040214455870977
 21
-40.95999999992988
 97
        0
 75
     0
 76
     1
 98
        1
 10
1.309408806595172
 20
-0.0010749287238931
  0
DIMENSION
  5
BE
330
1F
100
AcDbEntity
  8
치수문자_일반주서
100
AcDbDimension
  2
_D
 10
-63.9250123612785
 20
-7.937500000000064
 30
0.0
 11
-63.92501236127863
 21
27.81249999999993
 31
0.0
 70
   160
  1
%%c<>
 71
     2
 42
15.875
 52
-270.0
  3
SLDDIMSTYLE2
100
AcDbAlignedDimension
 13
-47.92501236127854
 23
7.937499999999995
 33
0.0
 14
-47.86251236127854
 24
-7.937500000000002
 34
0.0
 50
90.0000000000002
100
AcDbRotatedDimension
1001
PE_URL
1000

1001
ACAD
1000
DSTYLE
1002
{
1070
   171
1070
     8
1070
   273
1070
     7
1070
    41
1040
4.0
1070
   140
1040
4.0
1002
}
1001
ACAD_DSTYLE_DIMFLIPARROW_SYMBOL
1070
   385
1070
     0
1001
ACAD_DSTYLE_DIMFLIPARROW_WHICH_SYMBOL
1070
   386
1070
     3
  0
DIMENSION
  5
CC
330
1F
100
AcDbEntity
  8
치수문자_일반주서
100
AcDbDimension
  2
_D_1
 10
5.049987638722108
 20
22.9375
 30
0.0
 11
60.76248763872145
 21
22.9375
 31
0.0
 70
   160
  1
<>
 71
     2
 42
33.33749999999934
  3
SLDDIMSTYLE2
100
AcDbAlignedDimension
 13
38.38748763872145
 23
9.516949615062337
 33
0.0
 14
5.049987638722111
 24
5.472849324069393
 34
0.0
100
AcDbRotatedDimension
1001
PE_URL
1000

1001
ACAD
1000
DSTYLE
1002
{
1070
   171
1070
     8
1070
   273
1070
     7
1070
    41
1040
4.0
1070
   140
1040
4.0
1002
}
  0
DIMENSION
  5
E2
330
1F
100
AcDbEntity
  8
치수문자_일반주서
100
AcDbDimension
  2
_D_2
 10
-48.92501236127857
 20
37.9375
 30
0.0
 11
-5.268762361278561
 21
37.9375
 31
0.0
 70
   160
  1
<>
 71
     2
 42
87.3125
  3
SLDDIMSTYLE2
100
AcDbAlignedDimension
 13
38.38748763872145
 23
9.516949615062337
 33
0.0
 14
-48.92501236127856
 24
6.937499999999995
 34
0.0
 50
0.000000000000008
100
AcDbRotatedDimension
1001
PE_URL
1000

1001
ACAD
1000
DSTYLE
1002
{
1070
   171
1070
     8
1070
   273
1070
     7
1070
    41
1040
4.0
1070
   140
1040
4.0
1002
}
  0
DIMENSION
  5
F6
330
1F
100
AcDbEntity
  8
치수문자_일반주서
100
AcDbDimension
  2
_D_3
 10
86.2941539168471
 20
9.516949615062533
 30
0.0
 11
86.29415391684702
 21
29.14194961506254
 31
0.0
 70
   160
  1
%%c<>
 71
     2
 42
19.03389923012471
 52
-270.0
  3
SLDDIMSTYLE2
100
AcDbAlignedDimension
 13
38.38748763872212
 23
-9.516949615062357
 33
0.0
 14
38.38748763872212
 24
9.516949615062357
 34
0.0
 50
90.0000000000002
100
AcDbRotatedDimension
1001
PE_URL
1000

1001
ACAD
1000
DSTYLE
1002
{
1070
   171
1070
     8
1070
   273
1070
     7
1070
    41
1040
4.0
1070
   140
1040
4.0
1002
}
1001
ACAD_DSTYLE_DIMFLIPARROW_SYMBOL
1070
   385
1070
     0
1001
ACAD_DSTYLE_DIMFLIPARROW_WHICH_SYMBOL
1070
   386
1070
     3
  0
LINE
  5
10A
330
1F
100
AcDbEntity
  8
참조1
100
AcDbLine
 10
76.7509964540677
 20
7.440000000000002
 30
0.0
 11
76.7509964540677
 21
-7.440000000000002
 31
0.0
  0
LINE
  5
10B
330
1F
100
AcDbEntity
  8
참조1
100
AcDbLine
 10
89.4509964540677
 20
5.440000000000002
 30
0.0
 11
76.7509964540677
 21
5.440000000000002
 31
0.0
  0
SOLID
  5
10C
330
1F
100
AcDbEntity
  8
참조1
100
AcDbTrace
 10
76.7509964540677
 20
5.440000000000002
 30
0.0
 11
83.1009964540677
 21
4.424000000000002
 31
0.0
 12
83.1009964540677
 22
6.456000000000002
 32
0.0
 13
83.1009964540677
 23
6.456000000000002
 33
0.0
  0
LINE
  5
10D
330
1F
100
AcDbEntity
  8
참조1
100
AcDbLine
 10
89.4509964540677
 20
-5.440000000000002
 30
0.0
 11
76.7509964540677
 21
-5.440000000000002
 31
0.0
  0
SOLID
  5
10E
330
1F
100
AcDbEntity
  8
참조1
100
AcDbTrace
 10
76.7509964540677
 20
-5.440000000000002
 30
0.0
 11
83.1009964540677
 21
-6.456000000000002
 31
0.0
 12
83.1009964540677
 22
-4.424000000000002
 32
0.0
 13
83.1009964540677
 23
-4.424000000000002
 33
0.0
  0
MTEXT
  5
10F
330
1F
100
AcDbEntity
  8
참조1
100
AcDbMText
 10
86.13534658669369
 20
11.01029177718833
 30
0.0
 40
3.5
 41
0.0
 71
     1
 72
     1
  1
A
  7
SLDTEXTSTYLE0
 73
     1
 44
1.0
  0
MTEXT
  5
110
330
1F
100
AcDbEntity
  8
참조1
100
AcDbMText
 10
86.13534658669369
 20
0.130291777188327
 30
0.0
 40
3.5
 41
0.0
 71
     1
 72
     1
  1
A
  7
SLDTEXTSTYLE0
 73
     1
 44
1.0
  0
LINE
  5
188
330
1F
100
AcDbEntity
  8
외형선
  6
Continuous
370
    15
100
AcDbLine
 10
2.0
 20
7.937500000000002
 30
0.0
 11
-17.97193736127863
 21
7.9375
 31
0.0
  0
LINE
  5
189
330
1F
100
AcDbEntity
  8
외형선
  6
Continuous
370
    15
100
AcDbLine
 10
-47.92501236127854
 20
-7.937500000000002
 30
0.0
 11
2.0
 21
-7.937499999999998
 31
0.0
  0
LINE
  5
18A
330
1F
100
AcDbEntity
  8
외형선
  6
Continuous
370
    15
100
AcDbLine
 10
-47.92501236127854
 20
7.937499999999995
 30
0.0
 11
-48.92501236127856
 21
6.937499999999995
 31
0.0
  0
LINE
  5
18B
330
1F
100
AcDbEntity
  8
외형선
  6
Continuous
370
    15
100
AcDbLine
 10
-48.92501236127856
 20
-6.937499999999998
 30
0.0
 11
-47.92501236127854
 21
-7.937499999999998
 31
0.0
  0
SPLINE
  5
18C
330
1F
100
AcDbEntity
  8
외형선
  6
Continuous
370
    15
100
AcDbSpline
210
0.0
220
0.0
230
1.0
 70
     8
 71
     3
 72
     9
 73
     5
 74
     0
 42
0.000000001
 43
0.00000001
 40
0.0
 40
0.0
 40
0.0
 40
0.0
 40
0.4989829524466181
 40
1.0
 40
1.0
 40
1.0
 40
1.0
 10
3.261371354567577
 20
-7.601595039512762
 30
0.0
 10
3.559003380319749
 20
-7.572499609885138
 30
0.0
 10
4.15548072346908
 20
-7.5141901436299
 30
0.0
 10
4.751414604907038
 20
-7.465405154341592
 30
0.0
 10
5.049987638722105
 20
-7.440963043043439
 30
0.0
  0
SPLINE
  5
18D
330
1F
100
AcDbEntity
  8
외형선
  6
Continuous
370
    15
100
AcDbSpline
210
0.0
220
0.0
230
1.0
 70
     8
 71
     3
 72
    10
 73
     6
 74
     0
 42
0.000000001
 43
0.00000001
 40
0.0
 40
0.0
 40
0.0
 40
0.0
 40
0.5
 40
0.5
 40
1.0
 40
1.0
 40
1.0
 40
1.0
 10
5.049987638722111
 20
6.665696706534366
 30
0.0
 10
4.540889484701419
 20
6.778871397353001
 30
0.0
 10
4.030546367067937
 20
6.877061977616124
 30
0.0
 10
3.016752269479265
 20
7.041800952637725
 30
0.0
 10
2.509436424185675
 20
7.10860198715749
 30
0.0
 10
2.000012954999593
 20
7.159419830056699
 30
0.0
  0
LINE
  5
18E
330
1F
100
AcDbEntity
  8
외형선
  6
Continuous
370
    15
100
AcDbLine
 10
5.049987638721447
 20
7.324012631452552
 30
0.0
 11
5.049987638721447
 21
6.194075739295057
 31
0.0
  0
SPLINE
  5
18F
330
1F
100
AcDbEntity
  8
외형선
  6
Continuous
370
    15
100
AcDbSpline
210
0.0
220
0.0
230
1.0
 70
     8
 71
     3
 72
    10
 73
     6
 74
     0
 42
0.000000001
 43
0.00000001
 40
0.0
 40
0.0
 40
0.0
 40
0.0
 40
0.5
 40
0.5
 40
1.0
 40
1.0
 40
1.0
 40
1.0
 10
5.049987638722111
 20
4.491270090970858
 30
0.0
 10
4.540887326913771
 20
4.674858979440131
 30
0.0
 10
4.030542041007361
 20
4.845846180535204
 30
0.0
 10
3.016743704789984
 20
5.159585942157625
 30
0.0
 10
2.509425631225002
 20
5.302775087390895
 30
0.0
 10
2.000000000000656
 20
5.431492392008977
 30
0.0
  0
LINE
  5
191
330
1F
100
AcDbEntity
  8
외형선
  6
Continuous
370
    15
100
AcDbLine
 10
2.0
 20
7.817794618563655
 30
0.0
 11
2.0
 21
7.937500000000002
 31
0.0
  0
LINE
  5
192
330
1F
100
AcDbEntity
  8
외형선
  6
Continuous
370
    15
100
AcDbLine
 10
-47.92501236127854
 20
7.937499999999995
 30
0.0
 11
-47.92501236127854
 21
-7.937500000000002
 31
0.0
  0
LINE
  5
193
330
1F
100
AcDbEntity
  8
외형선
  6
Continuous
370
    15
100
AcDbLine
 10
2.0
 20
-7.937499999999998
 30
0.0
 11
2.0
 21
7.817794618563655
 31
0.0
  0
LINE
  5
194
330
1F
100
AcDbEntity
  8
외형선
  6
Continuous
370
    15
100
AcDbLine
 10
-48.92501236127856
 20
6.937499999999995
 30
0.0
 11
-48.92501236127856
 21
-6.937499999999998
 31
0.0
  0
SPLINE
  5
195
330
1F
100
AcDbEntity
  8
외형선
  6
Continuous
370
    15
100
AcDbSpline
210
0.0
220
0.0
230
1.0
 70
    24
 71
     3
 72
    14
 73
    10
 74
     0
 42
0.000000001
 43
0.00000001
 40
0.0
 40
0.0
 40
0.0
 40
0.0
 40
0.2500000000000001
 40
0.2500000000000001
 40
0.5000000000000002
 40
0.5000000000000002
 40
0.7500000000000001
 40
0.7500000000000001
 40
1.0
 40
1.0
 40
1.0
 40
1.0
 10
5.049987638721447
 20
4.189366811097356
 30
0.0
 10
5.049987638721447
 20
3.6252053252945
 30
0.0
 10
5.049987638721447
 20
2.991485487838142
 30
0.0
 10
5.049987638721447
 20
1.627960375546335
 30
0.0
 10
5.049987638721447
 20
0.8986311196507926
 30
0.0
 10
5.049987638721447
 20
-0.5872848660725098
 30
0.0
 10
5.049987638721447
 20
-1.343079837739571
 30
0.0
 10
5.049987638721447
 20
-2.807447878364639
 30
0.0
 10
5.049987638721447
 20
-3.515403289048672
 30
0.0
 10
5.049987638721447
 20
-4.171212485139167
 30
0.0
  0
SPLINE
  5
196
330
1F
100
AcDbEntity
  8
외형선
  6
Continuous
370
    15
100
AcDbSpline
210
0.0
220
0.0
230
1.0
 70
     8
 71
     3
 72
    10
 73
     6
 74
     0
 42
0.000000001
 43
0.00000001
 40
0.0
 40
0.0
 40
0.0
 40
0.0
 40
0.5
 40
0.5
 40
1.0
 40
1.0
 40
1.0
 40
1.0
 10
5.049987638722111
 20
-6.861732912018291
 30
0.0
 10
4.540888114702201
 20
-6.684644877659452
 30
0.0
 10
4.030543620412298
 20
-6.498828334193299
 30
0.0
 10
3.016746831679181
 20
-6.113225561966225
 30
0.0
 10
2.509429571635766
 20
-5.912970490544525
 30
0.0
 10
2.000004729751633
 20
-5.706235894115797
 30
0.0
  0
SPLINE
  5
197
330
1F
100
AcDbEntity
  8
외형선
  6
Continuous
370
    15
100
AcDbSpline
210
0.0
220
0.0
230
1.0
 70
     8
 71
     3
 72
    10
 73
     6
 74
     0
 42
0.000000001
 43
0.00000001
 40
0.0
 40
0.0
 40
0.0
 40
0.0
 40
0.5
 40
0.5
 40
1.0
 40
1.0
 40
1.0
 40
1.0
 10
5.049987638722111
 20
2.899542126467247
 30
0.0
 10
4.540887846712041
 20
3.034537684341474
 30
0.0
 10
4.030543083129753
 20
3.161018823573316
 30
0.0
 10
3.01674576797286
 20
3.394703053875195
 30
0.0
 10
2.509428231185399
 20
3.502228887479309
 30
0.0
 10
2.000003120783215
 20
3.599849134670735
 30
0.0
  0
LINE
  5
198
330
1F
100
AcDbEntity
  8
외형선
  6
Continuous
370
    15
100
AcDbLine
 10
3.262766638292267
 20
-7.595613446873429
 30
0.0
 11
2.000012954999609
 21
-7.699872319042374
 31
0.0
  0
SPLINE
  5
199
330
1F
100
AcDbEntity
  8
외형선
  6
Continuous
370
    15
100
AcDbSpline
210
0.0
220
0.0
230
1.0
 70
    24
 71
     3
 72
    14
 73
    10
 74
     0
 42
0.000000001
 43
0.00000001
 40
0.0
 40
0.0
 40
0.0
 40
0.0
 40
0.15266884771503
 40
0.3053376954300597
 40
0.5286179486179072
 40
0.6436004399011238
 40
0.7585829311843406
 40
0.9602124568226299
 40
1.0
 40
1.0
 40
1.0
 40
1.0
 10
5.049987638721447
 20
-4.171212485139167
 30
0.0
 10
5.049987638721447
 20
-4.385636162098203
 30
0.0
 10
5.049987638721447
 20
-4.81448351601628
 30
0.0
 10
5.049987638721447
 20
-5.426462652250214
 30
0.0
 10
5.049987638721447
 20
-5.870685787494901
 30
0.0
 10
5.049987638721447
 20
-6.16423869889107
 30
0.0
 10
5.049987638721447
 20
-6.358071935670941
 30
0.0
 10
5.049987638721447
 20
-6.467747353414913
 30
0.0
 10
5.049987638721447
 20
-6.433994082628038
 30
0.0
 10
5.049987638721447
 20
-6.428431262544938
 30
0.0
  0
SPLINE
  5
19A
330
1F
100
AcDbEntity
  8
외형선
  6
Continuous
370
    15
100
AcDbSpline
210
0.0
220
0.0
230
1.0
 70
    24
 71
     3
 72
    10
 73
     6
 74
     0
 42
0.000000001
 43
0.00000001
 40
0.0
 40
0.0
 40
0.0
 40
0.0
 40
0.5000000000000002
 40
0.5000000000000002
 40
1.0
 40
1.0
 40
1.0
 40
1.0
 10
5.049987638721447
 20
6.194075739295057
 30
0.0
 10
5.049987638721447
 20
5.961163101808038
 30
0.0
 10
5.049987638721447
 20
5.654560272547082
 30
0.0
 10
5.049987638721447
 20
4.958409812769895
 30
0.0
 10
5.049987638721447
 20
4.571050182116585
 30
0.0
 10
5.049987638721447
 20
4.189366811097356
 30
0.0
  0
SPLINE
  5
19B
330
1F
100
AcDbEntity
  8
외형선
  6
Continuous
370
    15
100
AcDbSpline
210
0.0
220
0.0
230
1.0
 70
    24
 71
     3
 72
    10
 73
     6
 74
     0
 42
0.000000001
 43
0.00000001
 40
0.0
 40
0.0
 40
0.0
 40
0.0
 40
0.3801611154143867
 40
0.8405054771075369
 40
1.0
 40
1.0
 40
1.0
 40
1.0
 10
5.049987638721447
 20
-6.444458990414978
 30
0.0
 10
5.049987638721447
 20
-6.562009617694967
 30
0.0
 10
5.049987638721433
 20
-6.82190454660836
 30
0.0
 10
5.049987638721433
 20
-7.109745139057049
 30
0.0
 10
5.049987638721447
 20
-7.280161705585263
 30
0.0
 10
5.049987638721447
 20
-7.324012631442487
 30
0.0
  0
SPLINE
  5
19C
330
1F
100
AcDbEntity
  8
외형선
  6
Continuous
370
    15
100
AcDbSpline
210
0.0
220
0.0
230
1.0
 70
    24
 71
     3
 72
    10
 73
     6
 74
     0
 42
0.000000001
 43
0.00000001
 40
0.0
 40
0.0
 40
0.0
 40
0.0
 40
0.5
 40
0.5
 40
1.0
 40
1.0
 40
1.0
 40
1.0
 10
5.049987638721447
 20
6.194075739295057
 30
0.0
 10
5.049987638721447
 20
5.961163101808031
 30
0.0
 10
5.049987638721447
 20
5.654560272547082
 30
0.0
 10
5.049987638721447
 20
4.958409812769892
 30
0.0
 10
5.049987638721447
 20
4.571050182116585
 30
0.0
 10
5.049987638721447
 20
4.189366811097356
 30
0.0
  0
SPLINE
  5
19D
330
1F
100
AcDbEntity
  8
외형선
  6
Continuous
370
    15
100
AcDbSpline
210
0.0
220
0.0
230
1.0
 70
    24
 71
     3
 72
    14
 73
    10
 74
     0
 42
0.000000001
 43
0.00000001
 40
0.0
 40
0.0
 40
0.0
 40
0.0
 40
0.25
 40
0.25
 40
0.5
 40
0.5
 40
0.75
 40
0.75
 40
1.0
 40
1.0
 40
1.0
 40
1.0
 10
5.049987638721447
 20
4.189366811097353
 30
0.0
 10
5.049987638721447
 20
3.6252053252945
 30
0.0
 10
5.049987638721447
 20
2.991485487838139
 30
0.0
 10
5.049987638721447
 20
1.627960375546332
 30
0.0
 10
5.049987638721447
 20
0.8986311196507855
 30
0.0
 10
5.049987638721447
 20
-0.5872848660725134
 30
0.0
 10
5.049987638721447
 20
-1.343079837739575
 30
0.0
 10
5.049987638721447
 20
-2.807447878364643
 30
0.0
 10
5.049987638721447
 20
-3.515403289048672
 30
0.0
 10
5.049987638721447
 20
-4.171212485139167
 30
0.0
  0
SPLINE
  5
19E
330
1F
100
AcDbEntity
  8
외형선
  6
Continuous
370
    15
100
AcDbSpline
210
0.0
220
0.0
230
1.0
 70
    24
 71
     3
 72
    14
 73
    10
 74
     0
 42
0.000000001
 43
0.00000001
 40
0.0
 40
0.0
 40
0.0
 40
0.0
 40
0.152720611185259
 40
0.3054412223705178
 40
0.528797180333187
 40
0.6438186572565883
 40
0.7588401341799896
 40
0.9605380237582963
 40
1.0
 40
1.0
 40
1.0
 40
1.0
 10
5.049987638721447
 20
-4.171212485139167
 30
0.0
 10
5.049987638721447
 20
-4.38563613147994
 30
0.0
 10
5.049987638721447
 20
-4.814483424161486
 30
0.0
 10
5.049987638721433
 20
-5.426463090476199
 30
0.0
 10
5.049987638721433
 20
-5.870683808560338
 30
0.0
 10
5.049987638721433
 20
-6.164242213956465
 30
0.0
 10
5.049987638721433
 20
-6.358054294229229
 30
0.0
 10
5.049987638721447
 20
-6.467722163749253
 30
0.0
 10
5.049987638721433
 20
-6.434057169096283
 30
0.0
 10
5.049987638721433
 20
-6.428548428184291
 30
0.0
  0
SPLINE
  5
19F
330
1F
100
AcDbEntity
  8
외형선
  6
Continuous
370
    15
100
AcDbSpline
210
0.0
220
0.0
230
1.0
 70
    24
 71
     3
 72
    12
 73
     8
 74
     0
 42
0.000000001
 43
0.00000001
 40
0.0
 40
0.0
 40
0.0
 40
0.0
 40
0.1507779048362684
 40
0.3808403659354424
 40
0.6106350219769504
 40
0.8406974830761241
 40
0.9999999999999999
 40
0.9999999999999999
 40
0.9999999999999999
 40
0.9999999999999999
 10
5.049987638721447
 20
-6.444458990414978
 30
0.0
 10
5.049987638721447
 20
-6.491488629208353
 30
0.0
 10
5.049987638721433
 20
-6.61027781696985
 30
0.0
 10
5.049987638721447
 20
-6.79423893099362
 30
0.0
 10
5.049987638721433
 20
-6.996788996758207
 30
0.0
 10
5.049987638721433
 20
-7.173100179932097
 30
0.0
 10
5.049987638721447
 20
-7.280196051123498
 30
0.0
 10
5.049987638721447
 20
-7.324012631442477
 30
0.0
  0
CIRCLE
  5
1A0
330
1F
100
AcDbEntity
  8
해칭선
100
AcDbCircle
 10
0.0
 20
0.0
 30
0.0
 40
2.999999999999993
  0
INSERT
  5
1A1
330
1F
100
AcDbEntity
  8
해칭선
100
AcDbBlockReference
  2
SW_DOWELSYMBOL_0
 10
0.0
 20
0.0
 30
0.0
  0
LINE
  5
1A2
330
1F
100
AcDbEntity
  8
외형선
  6
Continuous
370
    15
100
AcDbLine
 10
-29.80833736127857
 20
6.286499999999959
 30
0.0
 11
-19.62293736127856
 21
6.286499999999959
 31
0.0
1001
PE_URL
1000

  0
LINE
  5
1A3
330
1F
100
AcDbEntity
  8
외형선
  6
Continuous
370
    15
100
AcDbLine
 10
-29.80833736127857
 20
6.286500000000059
 30
0.0
 11
-31.45933736127853
 21
7.93749999999997
 31
0.0
1001
PE_URL
1000

  0
LINE
  5
1A4
330
1F
100
AcDbEntity
  8
외형선
  6
Continuous
370
    15
100
AcDbLine
 10
-19.62293736127867
 20
6.286500000000059
 30
0.0
 11
-17.97193736127866
 21
7.93749999999997
 31
0.0
1001
PE_URL
1000

  0
LINE
  5
1A5
330
1F
100
AcDbEntity
  8
외형선
  6
Continuous
370
    15
100
AcDbLine
 10
-31.45933736127856
 20
7.937499999999998
 30
0.0
 11
-47.92501236127854
 21
7.937499999999998
 31
0.0
  0
SPLINE
  5
25D
330
1F
100
AcDbEntity
  8
외형선
  6
Continuous
370
    15
100
AcDbSpline
210
0.0
220
0.0
230
1.0
 70
     8
 71
     3
 72
     9
 73
     5
 74
     0
 42
0.000000001
 43
0.0000000001
 40
0.0
 40
0.0
 40
0.0
 40
0.0
 40
1.567475747234471
 40
3.051937507849128
 40
3.051937507849128
 40
3.051937507849128
 40
3.051937507849128
 10
5.049987638722105
 20
7.440963043043436
 30
0.0
 10
4.527385330319264
 20
7.454927126812945
 30
0.0
 10
3.509857888815198
 20
7.482115752279143
 30
0.0
 10
2.616887758740964
 20
7.602998200179628
 30
0.0
 10
2.0
 20
7.673175625947129
 30
0.0
1001
PE_URL
1000

  0
ENDSEC
  0
SECTION
  2
OBJECTS
  0
DICTIONARY
  5
C
330
0
100
AcDbDictionary
281
     1
  3
ACAD_DETAILVIEWSTYLE
350
263
  3
ACAD_GROUP
350
D
  3
ACAD_IMAGE_VARS
350
293
  3
ACAD_LAYOUT
350
1A
  3
ACAD_MLINESTYLE
350
17
  3
ACAD_PLOTSETTINGS
350
19
  3
ACAD_PLOTSTYLENAME
350
E
  3
ACAD_SCALELIST
350
47
  3
ACAD_SECTIONVIEWSTYLE
350
264
  3
AcDbVariableDictionary
350
25E
  3
APPDATA
350
139
  3
DWGPROPS
350
294
  0
DICTIONARY
  5
183
330
2
100
AcDbDictionary
280
     1
281
     1
  3
ACAD_LAYERSTATES
360
184
  0
DICTIONARY
  5
263
102
{ACAD_REACTORS
330
C
102
}
330
C
100
AcDbDictionary
281
     1
  0
DICTIONARY
  5
D
102
{ACAD_REACTORS
330
C
102
}
330
C
100
AcDbDictionary
281
     1
  0
RASTERVARIABLES
  5
293
102
{ACAD_REACTORS
330
C
102
}
330
C
100
AcDbRasterVariables
 90
        0
 70
     1
 71
     1
 72
     1
  0
DICTIONARY
  5
1A
102
{ACAD_REACTORS
330
C
102
}
330
C
100
AcDbDictionary
281
     1
  3
Layout1
350
1E
  3
Layout2
350
26
  3
Model
350
22
  0
DICTIONARY
  5
17
102
{ACAD_REACTORS
330
C
102
}
330
C
100
AcDbDictionary
281
     1
  3
Standard
350
18
  0
DICTIONARY
  5
19
102
{ACAD_REACTORS
330
C
102
}
330
C
100
AcDbDictionary
281
     1
  0
ACDBDICTIONARYWDFLT
  5
E
102
{ACAD_REACTORS
330
C
102
}
330
C
100
AcDbDictionary
281
     1
  3
Normal
350
F
100
AcDbDictionaryWithDefault
340
F
  0
DICTIONARY
  5
47
102
{ACAD_REACTORS
330
C
102
}
330
C
100
AcDbDictionary
281
     1
  3
A0
350
48
  3
A1
350
49
  3
A2
350
4A
  3
A3
350
4B
  3
A4
350
4C
  3
A5
350
4D
  3
A6
350
4E
  3
A7
350
4F
  3
A8
350
50
  3
A9
350
51
  3
B0
350
52
  3
B1
350
53
  3
B2
350
54
  3
B3
350
55
  3
B4
350
56
  3
B5
350
57
  3
B6
350
58
  3
B7
350
59
  3
B8
350
5A
  3
B9
350
5B
  3
C0
350
5C
  3
C1
350
5D
  3
C2
350
5E
  3
C3
350
5F
  3
C4
350
60
  3
C5
350
61
  3
C6
350
62
  3
C7
350
63
  3
C8
350
64
  3
C9
350
65
  3
D0
350
66
  3
D1
350
67
  3
D2
350
68
  0
DICTIONARY
  5
264
102
{ACAD_REACTORS
330
C
102
}
330
C
100
AcDbDictionary
281
     1
  0
DICTIONARY
  5
25E
102
{ACAD_REACTORS
330
C
102
}
330
C
100
AcDbDictionary
281
     1
  0
DICTIONARY
  5
139
102
{ACAD_REACTORS
330
C
102
}
330
C
100
AcDbDictionary
281
     1
  0
XRECORD
  5
294
102
{ACAD_REACTORS
330
C
102
}
330
C
100
AcDbXrecord
280
     1
  1
DWGPROPS COOKIE
  2

  3

  4

  6

  7

  8
12016016
  9

300
=
301
=
302
=
303
=
304
=
305
=
306
=
307
=
308
=
309
=
 40
0.0
 41
2458311.19106066
 42
2458323.079536886
  1

 90
        0
  0
DICTIONARY
  5
184
102
{ACAD_REACTORS
330
183
102
}
330
183
100
AcDbDictionary
281
     1
  0
LAYOUT
  5
1E
102
{ACAD_REACTORS
330
1A
102
}
330
1A
100
AcDbPlotSettings
  1

  2
none_device
  4

  6

 40
0.0
 41
0.0
 42
0.0
 43
0.0
 44
0.0
 45
0.0
 46
0.0
 47
0.0
 48
0.0
 49
0.0
140
0.0
141
0.0
142
1.0
143
1.0
 70
   688
 72
     1
 73
     0
 74
     5
  7

 75
    16
147
1.0
148
0.0
149
0.0
100
AcDbLayout
  1
Layout1
 70
     1
 71
     1
 10
0.0
 20
0.0
 11
420.0
 21
297.0
 12
0.0
 22
0.0
 32
0.0
 14
1.000000000000000E+20
 24
1.000000000000000E+20
 34
1.000000000000000E+20
 15
-1.000000000000000E+20
 25
-1.000000000000000E+20
 35
-1.000000000000000E+20
146
0.0
 13
0.0
 23
0.0
 33
0.0
 16
1.0
 26
0.0
 36
0.0
 17
0.0
 27
1.0
 37
0.0
 76
     0
330
1B
  0
LAYOUT
  5
26
102
{ACAD_REACTORS
330
1A
102
}
330
1A
100
AcDbPlotSettings
  1

  2
none_device
  4

  6

 40
0.0
 41
0.0
 42
0.0
 43
0.0
 44
0.0
 45
0.0
 46
0.0
 47
0.0
 48
0.0
 49
0.0
140
0.0
141
0.0
142
1.0
143
1.0
 70
   688
 72
     1
 73
     0
 74
     5
  7

 75
    16
147
1.0
148
0.0
149
0.0
100
AcDbLayout
  1
Layout2
 70
     1
 71
     2
 10
0.0
 20
0.0
 11
0.0
 21
0.0
 12
0.0
 22
0.0
 32
0.0
 14
0.0
 24
0.0
 34
0.0
 15
0.0
 25
0.0
 35
0.0
146
0.0
 13
0.0
 23
0.0
 33
0.0
 16
1.0
 26
0.0
 36
0.0
 17
0.0
 27
1.0
 37
0.0
 76
     0
330
23
  0
LAYOUT
  5
22
102
{ACAD_REACTORS
330
1A
102
}
330
1A
100
AcDbPlotSettings
  1

  2
none_device
  4
ANSI_A_(11.00_x_8.50_Inches)
  6

 40
6.35
 41
19.05
 42
6.35000508
 43
19.05000254
 44
279.4
 45
215.9
 46
111.5354592427306
 47
97.62990263130112
 48
0.0
 49
0.0
140
0.0
141
0.0
142
0.0715194751484015
143
1.0
 70
  1696
 72
     0
 73
     0
 74
     0
  7

 75
     0
147
0.0235690232323232
148
0.0
149
0.0
100
AcDbLayout
  1
Model
 70
     1
 71
     0
 10
0.0
 20
0.0
 11
420.0
 21
297.0
 12
0.0
 22
0.0
 32
0.0
 14
-68.80001236127869
 24
-49.97180738881175
 34
0.0
 15
89.4509964540677
 25
44.76694961506242
 35
0.0
146
0.0
 13
0.0
 23
0.0
 33
0.0
 16
1.0
 26
0.0
 36
0.0
 17
0.0
 27
1.0
 37
0.0
 76
     0
330
1F
331
29
  0
MLINESTYLE
  5
18
102
{ACAD_REACTORS
330
17
102
}
330
17
100
AcDbMlineStyle
  2
Standard
 70
     0
  3

 62
   256
 51
90.0
 52
90.0
 71
     2
 49
0.5
 62
   256
  6
BYLAYER
 49
-0.5
 62
   256
  6
BYLAYER
  0
ACDBPLACEHOLDER
  5
F
102
{ACAD_REACTORS
330
E
102
}
330
E
  0
SCALE
  5
48
102
{ACAD_REACTORS
330
47
102
}
330
47
100
AcDbScale
 70
     0
300
1:1
140
1.0
141
1.0
290
     1
  0
SCALE
  5
49
102
{ACAD_REACTORS
330
47
102
}
330
47
100
AcDbScale
 70
     0
300
1:2
140
1.0
141
2.0
290
     0
  0
SCALE
  5
4A
102
{ACAD_REACTORS
330
47
102
}
330
47
100
AcDbScale
 70
     0
300
1:4
140
1.0
141
4.0
290
     0
  0
SCALE
  5
4B
102
{ACAD_REACTORS
330
47
102
}
330
47
100
AcDbScale
 70
     0
300
1:5
140
1.0
141
5.0
290
     0
  0
SCALE
  5
4C
102
{ACAD_REACTORS
330
47
102
}
330
47
100
AcDbScale
 70
     0
300
1:8
140
1.0
141
8.0
290
     0
  0
SCALE
  5
4D
102
{ACAD_REACTORS
330
47
102
}
330
47
100
AcDbScale
 70
     0
300
1:10
140
1.0
141
10.0
290
     0
  0
SCALE
  5
4E
102
{ACAD_REACTORS
330
47
102
}
330
47
100
AcDbScale
 70
     0
300
1:16
140
1.0
141
16.0
290
     0
  0
SCALE
  5
4F
102
{ACAD_REACTORS
330
47
102
}
330
47
100
AcDbScale
 70
     0
300
1:20
140
1.0
141
20.0
290
     0
  0
SCALE
  5
50
102
{ACAD_REACTORS
330
47
102
}
330
47
100
AcDbScale
 70
     0
300
1:30
140
1.0
141
30.0
290
     0
  0
SCALE
  5
51
102
{ACAD_REACTORS
330
47
102
}
330
47
100
AcDbScale
 70
     0
300
1:40
140
1.0
141
40.0
290
     0
  0
SCALE
  5
52
102
{ACAD_REACTORS
330
47
102
}
330
47
100
AcDbScale
 70
     0
300
1:50
140
1.0
141
50.0
290
     0
  0
SCALE
  5
53
102
{ACAD_REACTORS
330
47
102
}
330
47
100
AcDbScale
 70
     0
300
1:100
140
1.0
141
100.0
290
     0
  0
SCALE
  5
54
102
{ACAD_REACTORS
330
47
102
}
330
47
100
AcDbScale
 70
     0
300
2:1
140
2.0
141
1.0
290
     0
  0
SCALE
  5
55
102
{ACAD_REACTORS
330
47
102
}
330
47
100
AcDbScale
 70
     0
300
4:1
140
4.0
141
1.0
290
     0
  0
SCALE
  5
56
102
{ACAD_REACTORS
330
47
102
}
330
47
100
AcDbScale
 70
     0
300
8:1
140
8.0
141
1.0
290
     0
  0
SCALE
  5
57
102
{ACAD_REACTORS
330
47
102
}
330
47
100
AcDbScale
 70
     0
300
10:1
140
10.0
141
1.0
290
     0
  0
SCALE
  5
58
102
{ACAD_REACTORS
330
47
102
}
330
47
100
AcDbScale
 70
     0
300
100:1
140
100.0
141
1.0
290
     0
  0
SCALE
  5
59
102
{ACAD_REACTORS
330
47
102
}
330
47
100
AcDbScale
 70
     0
300
1/128" = 1'-0"
140
0.0078125
141
12.0
290
     0
  0
SCALE
  5
5A
102
{ACAD_REACTORS
330
47
102
}
330
47
100
AcDbScale
 70
     0
300
1/64" = 1'-0"
140
0.015625
141
12.0
290
     0
  0
SCALE
  5
5B
102
{ACAD_REACTORS
330
47
102
}
330
47
100
AcDbScale
 70
     0
300
1/32" = 1'-0"
140
0.03125
141
12.0
290
     0
  0
SCALE
  5
5C
102
{ACAD_REACTORS
330
47
102
}
330
47
100
AcDbScale
 70
     0
300
1/16" = 1'-0"
140
0.0625
141
12.0
290
     0
  0
SCALE
  5
5D
102
{ACAD_REACTORS
330
47
102
}
330
47
100
AcDbScale
 70
     0
300
3/32" = 1'-0"
140
0.09375
141
12.0
290
     0
  0
SCALE
  5
5E
102
{ACAD_REACTORS
330
47
102
}
330
47
100
AcDbScale
 70
     0
300
1/8" = 1'-0"
140
0.125
141
12.0
290
     0
  0
SCALE
  5
5F
102
{ACAD_REACTORS
330
47
102
}
330
47
100
AcDbScale
 70
     0
300
3/16" = 1'-0"
140
0.1875
141
12.0
290
     0
  0
SCALE
  5
60
102
{ACAD_REACTORS
330
47
102
}
330
47
100
AcDbScale
 70
     0
300
1/4" = 1'-0"
140
0.25
141
12.0
290
     0
  0
SCALE
  5
61
102
{ACAD_REACTORS
330
47
102
}
330
47
100
AcDbScale
 70
     0
300
3/8" = 1'-0"
140
0.375
141
12.0
290
     0
  0
SCALE
  5
62
102
{ACAD_REACTORS
330
47
102
}
330
47
100
AcDbScale
 70
     0
300
1/2" = 1'-0"
140
0.5
141
12.0
290
     0
  0
SCALE
  5
63
102
{ACAD_REACTORS
330
47
102
}
330
47
100
AcDbScale
 70
     0
300
3/4" = 1'-0"
140
0.75
141
12.0
290
     0
  0
SCALE
  5
64
102
{ACAD_REACTORS
330
47
102
}
330
47
100
AcDbScale
 70
     0
300
1" = 1'-0"
140
1.0
141
12.0
290
     0
  0
SCALE
  5
65
102
{ACAD_REACTORS
330
47
102
}
330
47
100
AcDbScale
 70
     0
300
1-1/2" = 1'-0"
140
1.5
141
12.0
290
     0
  0
SCALE
  5
66
102
{ACAD_REACTORS
330
47
102
}
330
47
100
AcDbScale
 70
     0
300
3" = 1'-0"
140
3.0
141
12.0
290
     0
  0
SCALE
  5
67
102
{ACAD_REACTORS
330
47
102
}
330
47
100
AcDbScale
 70
     0
300
6" = 1'-0"
140
6.0
141
12.0
290
     0
  0
SCALE
  5
68
102
{ACAD_REACTORS
330
47
102
}
330
47
100
AcDbScale
 70
     0
300
1'-0" = 1'-0"
140
12.0
141
12.0
290
     0
  0
ENDSEC
  0
EOF
