  0
SECTION
  2
HEADER
  9
$ACADVER
  1
AC1015
  9
$ACADMAINTVER
 70
     6
  9
$DWGCODEPAGE
  3
ANSI_949
  9
$INSBASE
 10
0.0
 20
0.0
 30
0.0
  9
$EXTMIN
 10
-75.0250000000001
 20
-49.97180738881175
 30
0.0
  9
$EXTMAX
 10
86.40100881534559
 20
46.85310788423946
 30
0.0
  9
$LIMMIN
 10
0.0
 20
0.0
  9
$LIMMAX
 10
420.0
 20
297.0
  9
$ORTHOMODE
 70
     1
  9
$REGENMODE
 70
     1
  9
$FILLMODE
 70
     1
  9
$QTEXTMODE
 70
     0
  9
$MIRRTEXT
 70
     1
  9
$LTSCALE
 40
1.0
  9
$ATTMODE
 70
     1
  9
$TEXTSIZE
 40
3.5
  9
$TRACEWID
 40
1.0
  9
$TEXTSTYLE
  7
Standard
  9
$CLAYER
  8
0
  9
$CELTYPE
  6
ByLayer
  9
$CECOLOR
 62
   256
  9
$CELTSCALE
 40
1.0
  9
$DISPSILH
 70
     0
  9
$DIMSCALE
 40
1.0
  9
$DIMASZ
 40
3.302
  9
$DIMEXO
 40
1.0
  9
$DIMDLI
 40
3.75
  9
$DIMRND
 40
0.0
  9
$DIMDLE
 40
0.0
  9
$DIMEXE
 40
1.0
  9
$DIMTP
 40
0.0
  9
$DIMTM
 40
0.0
  9
$DIMTXT
 40
3.5
  9
$DIMCEN
 40
2.5
  9
$DIMTSZ
 40
0.0
  9
$DIMTOL
 70
     0
  9
$DIMLIM
 70
     0
  9
$DIMTIH
 70
     1
  9
$DIMTOH
 70
     1
  9
$DIMSE1
 70
     0
  9
$DIMSE2
 70
     0
  9
$DIMTAD
 70
     1
  9
$DIMZIN
 70
     0
  9
$DIMBLK
  1

  9
$DIMASO
 70
     1
  9
$DIMSHO
 70
     1
  9
$DIMPOST
  1

  9
$DIMAPOST
  1

  9
$DIMALT
 70
     0
  9
$DIMALTD
 70
     3
  9
$DIMALTF
 40
0.0393700787401575
  9
$DIMLFAC
 40
1.0
  9
$DIMTOFL
 70
     1
  9
$DIMTVP
 40
0.0
  9
$DIMTIX
 70
     0
  9
$DIMSOXD
 70
     0
  9
$DIMSAH
 70
     0
  9
$DIMBLK1
  1

  9
$DIMBLK2
  1

  9
$DIMSTYLE
  2
ISO-25
  9
$DIMCLRD
 70
     0
  9
$DIMCLRE
 70
     0
  9
$DIMCLRT
 70
     0
  9
$DIMTFAC
 40
1.0
  9
$DIMGAP
 40
1.524
  9
$DIMJUST
 70
     0
  9
$DIMSD1
 70
     0
  9
$DIMSD2
 70
     0
  9
$DIMTOLJ
 70
     0
  9
$DIMTZIN
 70
     0
  9
$DIMALTZ
 70
     0
  9
$DIMALTTZ
 70
     0
  9
$DIMUPT
 70
     0
  9
$DIMDEC
 70
     2
  9
$DIMTDEC
 70
     2
  9
$DIMALTU
 70
     2
  9
$DIMALTTD
 70
     3
  9
$DIMTXSTY
  7
Standard
  9
$DIMAUNIT
 70
     0
  9
$DIMADEC
 70
     2
  9
$DIMALTRND
 40
0.0
  9
$DIMAZIN
 70
     0
  9
$DIMDSEP
 70
    44
  9
$DIMATFIT
 70
     3
  9
$DIMFRAC
 70
     0
  9
$DIMLDRBLK
  1

  9
$DIMLUNIT
 70
     2
  9
$DIMLWD
 70
    -2
  9
$DIMLWE
 70
    -2
  9
$DIMTMOVE
 70
     0
  9
$LUNITS
 70
     2
  9
$LUPREC
 70
     2
  9
$SKETCHINC
 40
1.0
  9
$FILLETRAD
 40
10.0
  9
$AUNITS
 70
     0
  9
$AUPREC
 70
     2
  9
$MENU
  1
.
  9
$ELEVATION
 40
0.0
  9
$PELEVATION
 40
0.0
  9
$THICKNESS
 40
0.0
  9
$LIMCHECK
 70
     0
  9
$CHAMFERA
 40
0.0
  9
$CHAMFERB
 40
0.0
  9
$CHAMFERC
 40
0.0
  9
$CHAMFERD
 40
0.0
  9
$SKPOLY
 70
     0
  9
$TDCREATE
 40
2458311.566484074
  9
$TDUCREATE
 40
2458311.191484074
  9
$TDUPDATE
 40
2458323.454446262
  9
$TDUUPDATE
 40
2458323.079446262
  9
$TDINDWG
 40
0.0032892708
  9
$TDUSRTIMER
 40
2458323.079409143
  9
$USRTIMER
 70
     1
  9
$ANGBASE
 50
0.0
  9
$ANGDIR
 70
     0
  9
$PDMODE
 70
     0
  9
$PDSIZE
 40
-1.0
  9
$PLINEWID
 40
0.0
  9
$SPLFRAME
 70
     0
  9
$SPLINETYPE
 70
     6
  9
$SPLINESEGS
 70
     8
  9
$HANDSEED
  5
25C
  9
$SURFTAB1
 70
     6
  9
$SURFTAB2
 70
     6
  9
$SURFTYPE
 70
     6
  9
$SURFU
 70
     6
  9
$SURFV
 70
     6
  9
$UCSBASE
  2

  9
$UCSNAME
  2

  9
$UCSORG
 10
0.0
 20
0.0
 30
0.0
  9
$UCSXDIR
 10
1.0
 20
0.0
 30
0.0
  9
$UCSYDIR
 10
0.0
 20
1.0
 30
0.0
  9
$UCSORTHOREF
  2

  9
$UCSORTHOVIEW
 70
     0
  9
$UCSORGTOP
 10
0.0
 20
0.0
 30
0.0
  9
$UCSORGBOTTOM
 10
0.0
 20
0.0
 30
0.0
  9
$UCSORGLEFT
 10
0.0
 20
0.0
 30
0.0
  9
$UCSORGRIGHT
 10
0.0
 20
0.0
 30
0.0
  9
$UCSORGFRONT
 10
0.0
 20
0.0
 30
0.0
  9
$UCSORGBACK
 10
0.0
 20
0.0
 30
0.0
  9
$PUCSBASE
  2

  9
$PUCSNAME
  2

  9
$PUCSORG
 10
0.0
 20
0.0
 30
0.0
  9
$PUCSXDIR
 10
1.0
 20
0.0
 30
0.0
  9
$PUCSYDIR
 10
0.0
 20
1.0
 30
0.0
  9
$PUCSORTHOREF
  2

  9
$PUCSORTHOVIEW
 70
     0
  9
$PUCSORGTOP
 10
0.0
 20
0.0
 30
0.0
  9
$PUCSORGBOTTOM
 10
0.0
 20
0.0
 30
0.0
  9
$PUCSORGLEFT
 10
0.0
 20
0.0
 30
0.0
  9
$PUCSORGRIGHT
 10
0.0
 20
0.0
 30
0.0
  9
$PUCSORGFRONT
 10
0.0
 20
0.0
 30
0.0
  9
$PUCSORGBACK
 10
0.0
 20
0.0
 30
0.0
  9
$USERI1
 70
     0
  9
$USERI2
 70
     0
  9
$USERI3
 70
     0
  9
$USERI4
 70
     0
  9
$USERI5
 70
     0
  9
$USERR1
 40
0.0
  9
$USERR2
 40
0.0
  9
$USERR3
 40
0.0
  9
$USERR4
 40
0.0
  9
$USERR5
 40
0.0
  9
$WORLDVIEW
 70
     1
  9
$SHADEDGE
 70
     3
  9
$SHADEDIF
 70
    70
  9
$TILEMODE
 70
     1
  9
$MAXACTVP
 70
    64
  9
$PINSBASE
 10
0.0
 20
0.0
 30
0.0
  9
$PLIMCHECK
 70
     0
  9
$PEXTMIN
 10
1.000000000000000E+20
 20
1.000000000000000E+20
 30
1.000000000000000E+20
  9
$PEXTMAX
 10
-1.000000000000000E+20
 20
-1.000000000000000E+20
 30
-1.000000000000000E+20
  9
$PLIMMIN
 10
0.0
 20
0.0
  9
$PLIMMAX
 10
0.0
 20
0.0
  9
$UNITMODE
 70
     0
  9
$VISRETAIN
 70
     1
  9
$PLINEGEN
 70
     0
  9
$PSLTSCALE
 70
     1
  9
$TREEDEPTH
 70
  3020
  9
$CMLSTYLE
  2
Standard
  9
$CMLJUST
 70
     0
  9
$CMLSCALE
 40
20.0
  9
$PROXYGRAPHICS
 70
     1
  9
$MEASUREMENT
 70
     1
  9
$CELWEIGHT
370
    -1
  9
$ENDCAPS
280
     0
  9
$JOINSTYLE
280
     0
  9
$LWDISPLAY
290
     1
  9
$INSUNITS
 70
     4
  9
$HYPERLINKBASE
  1

  9
$STYLESHEET
  1

  9
$XEDIT
290
     1
  9
$CEPSNTYPE
380
     0
  9
$PSTYLEMODE
290
     1
  9
$FINGERPRINTGUID
  2
{76A91AA1-1932-4AF2-9307-28112C4F1F06}
  9
$VERSIONGUID
  2
{FAEB1C32-E019-11D5-929B-00C0DF256EC4}
  9
$EXTNAMES
290
     1
  9
$PSVPSCALE
 40
0.0
  9
$OLESTARTUP
290
     0
  0
ENDSEC
  0
SECTION
  2
CLASSES
  0
CLASS
  1
ACDBDICTIONARYWDFLT
  2
AcDbDictionaryWithDefault
  3
ObjectDBX Classes
 90
        0
280
     0
281
     0
  0
CLASS
  1
VISUALSTYLE
  2
AcDbVisualStyle
  3
ObjectDBX Classes
 90
     4095
280
     0
281
     0
  0
CLASS
  1
MATERIAL
  2
AcDbMaterial
  3
ObjectDBX Classes
 90
     1153
280
     0
281
     0
  0
CLASS
  1
SCALE
  2
AcDbScale
  3
ObjectDBX Classes
 90
     1153
280
     0
281
     0
  0
CLASS
  1
SUN
  2
AcDbSun
  3
SCENEOE
 90
     1153
280
     0
281
     0
  0
CLASS
  1
ACDBPLACEHOLDER
  2
AcDbPlaceHolder
  3
ObjectDBX Classes
 90
        0
280
     0
281
     0
  0
CLASS
  1
LAYOUT
  2
AcDbLayout
  3
ObjectDBX Classes
 90
        0
280
     0
281
     0
  0
CLASS
  1
TABLESTYLE
  2
AcDbTableStyle
  3
ObjectDBX Classes
 90
     4095
280
     0
281
     0
  0
CLASS
  1
MLEADERSTYLE
  2
AcDbMLeaderStyle
  3
ACDB_MLEADERSTYLE_CLASS
 90
     4095
280
     0
281
     0
  0
CLASS
  1
DICTIONARYVAR
  2
AcDbDictionaryVar
  3
ObjectDBX Classes
 90
        0
280
     0
281
     0
  0
CLASS
  1
RASTERVARIABLES
  2
AcDbRasterVariables
  3
ISM
 90
        0
280
     0
281
     0
  0
ENDSEC
  0
SECTION
  2
TABLES
  0
TABLE
  2
VPORT
  5
8
330
0
100
AcDbSymbolTable
 70
     1
  0
VPORT
  5
29
330
8
100
AcDbSymbolTableRecord
100
AcDbViewportTableRecord
  2
*Active
 70
     0
 10
0.0
 20
0.0
 11
1.0
 21
1.0
 12
5.688004407672736
 22
-1.559349752286138
 13
0.0
 23
0.0
 14
10.0
 24
10.0
 15
10.0
 25
10.0
 16
0.0
 26
0.0
 36
1.0
 17
0.0
 27
0.0
 37
0.0
 40
98.76141357851223
 41
1.782762691853601
 42
50.0
 43
0.0
 44
0.0
 50
0.0
 51
0.0
 71
    16
 72
  2000
 73
     1
 74
     3
 75
     0
 76
     0
 77
     0
 78
     0
281
     0
 65
     1
110
0.0
120
0.0
130
0.0
111
1.0
121
0.0
131
0.0
112
0.0
122
1.0
132
0.0
 79
     0
146
0.0
  0
ENDTAB
  0
TABLE
  2
LTYPE
  5
5
330
0
100
AcDbSymbolTable
 70
     6
  0
LTYPE
  5
14
330
5
100
AcDbSymbolTableRecord
100
AcDbLinetypeTableRecord
  2
ByBlock
 70
     0
  3

 72
    65
 73
     0
 40
0.0
  0
LTYPE
  5
15
330
5
100
AcDbSymbolTableRecord
100
AcDbLinetypeTableRecord
  2
ByLayer
 70
     0
  3

 72
    65
 73
     0
 40
0.0
  0
LTYPE
  5
16
330
5
100
AcDbSymbolTableRecord
100
AcDbLinetypeTableRecord
  2
Continuous
 70
     0
  3
Solid line
 72
    65
 73
     0
 40
0.0
  0
LTYPE
  5
6A
330
5
100
AcDbSymbolTableRecord
100
AcDbLinetypeTableRecord
  2
HIDDEN
 70
     0
  3
Hidden __ __ __ __ __ __ __ __ __ __ __ __ __ __
 72
    65
 73
     2
 40
1.905
 49
1.27
 74
     0
 49
-0.635
 74
     0
  0
LTYPE
  5
6B
330
5
100
AcDbSymbolTableRecord
100
AcDbLinetypeTableRecord
  2
PHANTOM
 70
     0
  3
Phantom ______  __  __  ______  __  __  ______
 72
    65
 73
     6
 40
12.7
 49
6.35
 74
     0
 49
-1.27
 74
     0
 49
1.27
 74
     0
 49
-1.27
 74
     0
 49
1.27
 74
     0
 49
-1.27
 74
     0
  0
LTYPE
  5
6C
330
5
100
AcDbSymbolTableRecord
100
AcDbLinetypeTableRecord
  2
CENTER
 70
     0
  3
Center ____ _ ____ _ ____ _ ____ _ ____ _ ____
 72
    65
 73
     4
 40
10.16
 49
6.35
 74
     0
 49
-1.27
 74
     0
 49
1.27
 74
     0
 49
-1.27
 74
     0
  0
LTYPE
  5
6D
330
5
100
AcDbSymbolTableRecord
100
AcDbLinetypeTableRecord
  2
CENTERX2
 70
     0
  3
Center (2x) ________  __  ________  __  _____
 72
    65
 73
     4
 40
20.32
 49
12.7
 74
     0
 49
-2.54
 74
     0
 49
2.54
 74
     0
 49
-2.54
 74
     0
  0
LTYPE
  5
6E
330
5
100
AcDbSymbolTableRecord
100
AcDbLinetypeTableRecord
  2
DOT2
 70
     0
  3
Dot (.5x) ........................................
 72
    65
 73
     2
 40
0.635
 49
0.0
 74
     0
 49
-0.635
 74
     0
  0
ENDTAB
  0
TABLE
  2
LAYER
  5
2
102
{ACAD_XDICTIONARY
360
186
102
}
330
0
100
AcDbSymbolTable
 70
    18
  0
LAYER
  5
10
330
2
100
AcDbSymbolTableRecord
100
AcDbLayerTableRecord
  2
0
 70
     0
 62
     7
  6
Continuous
370
    -3
390
F
  0
LAYER
  5
6F
330
2
100
AcDbSymbolTableRecord
100
AcDbLayerTableRecord
  2
FORMAT
 70
     0
 62
     2
  6
Continuous
370
    -3
390
F
  0
LAYER
  5
70
330
2
100
AcDbSymbolTableRecord
100
AcDbLayerTableRecord
  2
외형선
 70
     0
 62
     4
  6
Continuous
370
    30
390
F
  0
LAYER
  5
71
330
2
100
AcDbSymbolTableRecord
100
AcDbLayerTableRecord
  2
숨은선
 70
     0
 62
     2
  6
HIDDEN
370
    15
390
F
  0
LAYER
  5
72
330
2
100
AcDbSymbolTableRecord
100
AcDbLayerTableRecord
  2
중심선
 70
     0
 62
     1
  6
CENTERX2
370
    -3
390
F
  0
LAYER
  5
73
330
2
100
AcDbSymbolTableRecord
100
AcDbLayerTableRecord
  2
파단선
 70
     0
 62
     4
  6
Continuous
370
    -3
390
F
  0
LAYER
  5
74
330
2
100
AcDbSymbolTableRecord
100
AcDbLayerTableRecord
  2
해칭선
 70
     0
 62
   100
  6
Continuous
370
    -3
390
F
  0
LAYER
  5
75
330
2
100
AcDbSymbolTableRecord
100
AcDbLayerTableRecord
  2
가는실선
 70
     0
 62
     4
  6
Continuous
370
    -3
390
F
  0
LAYER
  5
76
330
2
100
AcDbSymbolTableRecord
100
AcDbLayerTableRecord
  2
치수_보조선
 70
     0
 62
     4
  6
Continuous
370
    -3
390
F
  0
LAYER
  5
77
330
2
100
AcDbSymbolTableRecord
100
AcDbLayerTableRecord
  2
치수문자_일반주서
 70
     0
 62
     7
  6
Continuous
370
    15
390
F
  0
LAYER
  5
78
330
2
100
AcDbSymbolTableRecord
100
AcDbLayerTableRecord
  2
개별주서
 70
     0
 62
   100
  6
Continuous
370
    30
390
F
  0
LAYER
  5
79
330
2
100
AcDbSymbolTableRecord
100
AcDbLayerTableRecord
  2
중간선
 70
     0
 62
     2
  6
Continuous
370
    15
390
F
  0
LAYER
  5
7A
330
2
100
AcDbSymbolTableRecord
100
AcDbLayerTableRecord
  2
윤곽선
 70
     0
 62
     3
  6
Continuous
370
    40
390
F
  0
LAYER
  5
7B
330
2
100
AcDbSymbolTableRecord
100
AcDbLayerTableRecord
  2
중심마크
 70
     0
 62
   100
  6
Continuous
370
    30
390
F
  0
LAYER
  5
7C
330
2
100
AcDbSymbolTableRecord
100
AcDbLayerTableRecord
  2
가상선
 70
     0
 62
     4
  6
PHANTOM
370
    -3
390
F
  0
LAYER
  5
7D
330
2
100
AcDbSymbolTableRecord
100
AcDbLayerTableRecord
  2
특수지정선
 70
     0
 62
     5
  6
CENTERX2
370
    60
390
F
  0
LAYER
  5
7E
330
2
100
AcDbSymbolTableRecord
100
AcDbLayerTableRecord
  2
참조1
 70
     0
 62
    -4
  6
Continuous
370
    -3
390
F
  0
LAYER
  5
1AB
330
2
100
AcDbSymbolTableRecord
100
AcDbLayerTableRecord
  2
Defpoints
 70
     0
 62
     7
  6
Continuous
290
     0
370
    -3
390
F
  0
ENDTAB
  0
TABLE
  2
STYLE
  5
3
330
0
100
AcDbSymbolTable
 70
     2
  0
STYLE
  5
11
330
3
100
AcDbSymbolTableRecord
100
AcDbTextStyleTableRecord
  2
Standard
 70
     0
 40
0.0
 41
1.0
 50
0.0
 71
     0
 42
3.5
  3
txt
  4

  0
STYLE
  5
94
330
3
100
AcDbSymbolTableRecord
100
AcDbTextStyleTableRecord
  2
SLDTEXTSTYLE0
 70
     0
 40
0.0
 41
0.75
 50
0.0
 71
     0
 42
3.5
  3
TXT
  4

  0
ENDTAB
  0
TABLE
  2
VIEW
  5
6
330
0
100
AcDbSymbolTable
 70
     0
  0
ENDTAB
  0
TABLE
  2
UCS
  5
7
330
0
100
AcDbSymbolTable
 70
     0
  0
ENDTAB
  0
TABLE
  2
APPID
  5
9
330
0
100
AcDbSymbolTable
 70
     4
  0
APPID
  5
12
330
9
100
AcDbSymbolTableRecord
100
AcDbRegAppTableRecord
  2
ACAD
 70
     0
  0
APPID
  5
142
330
9
100
AcDbSymbolTableRecord
100
AcDbRegAppTableRecord
  2
PE_URL
 70
     0
  0
APPID
  5
214
330
9
100
AcDbSymbolTableRecord
100
AcDbRegAppTableRecord
  2
ACAD_DSTYLE_DIMFLIPARROW_SYMBOL
 70
     0
  0
APPID
  5
215
330
9
100
AcDbSymbolTableRecord
100
AcDbRegAppTableRecord
  2
ACAD_DSTYLE_DIMFLIPARROW_WHICH_SYMBOL
 70
     0
  0
ENDTAB
  0
TABLE
  2
DIMSTYLE
  5
A
330
0
100
AcDbSymbolTable
 70
     5
100
AcDbDimStyleTable
  0
DIMSTYLE
105
27
330
A
100
AcDbSymbolTableRecord
100
AcDbDimStyleTableRecord
  2
ISO-25
 70
     0
 41
2.5
 42
0.625
 43
3.75
 44
1.25
 73
     0
 74
     0
 77
     1
 78
     8
140
2.5
141
2.5
143
0.03937007874016
147
0.625
171
     3
172
     1
178
     0
271
     2
272
     2
274
     3
278
    44
283
     0
284
     8
340
11
  0
DIMSTYLE
105
C1
330
A
100
AcDbSymbolTableRecord
100
AcDbDimStyleTableRecord
  2
SLDDIMSTYLE0
 70
     0
 41
3.302
 44
0.0
 45
0.000000001
 73
     0
 74
     0
 77
     1
 78
     4
 79
     1
140
3.5
147
0.875
172
     1
173
     1
178
     0
271
     2
272
     2
276
     2
284
    12
289
     0
340
94
  0
DIMSTYLE
105
CF
330
A
100
AcDbSymbolTableRecord
100
AcDbDimStyleTableRecord
  2
SLDDIMSTYLE1
 70
     0
 41
3.302
 44
0.0
 45
0.000000001
 73
     0
 74
     0
 77
     1
 78
     4
 79
     1
140
3.5
143
0.0393700787401575
147
0.875
148
0.000000001
170
     1
172
     1
173
     1
178
     0
271
     2
272
     2
276
     2
284
    12
289
     0
340
94
  0
DIMSTYLE
105
E5
102
{ACAD_REACTORS
330
E4
330
F8
330
CE
330
C0
102
}
330
A
100
AcDbSymbolTableRecord
100
AcDbDimStyleTableRecord
  2
SLDDIMSTYLE2
 70
     0
 41
3.302
 44
0.0
 45
0.000000001
 73
     0
 74
     0
 77
     1
 78
     4
 79
     1
140
3.5
143
0.0393700787401575
147
0.875
148
0.000000001
170
     1
173
     1
178
     0
271
     2
272
     2
276
     2
284
    12
340
94
  0
DIMSTYLE
105
F9
330
A
100
AcDbSymbolTableRecord
100
AcDbDimStyleTableRecord
  2
SLDDIMSTYLE3
 70
     0
 41
3.302
 44
0.0
 45
0.000000001
 73
     0
 74
     0
 77
     1
 78
    12
 79
     3
140
3.5
143
0.0393700787401575
147
0.875
148
0.000000001
170
     1
173
     1
178
     0
271
     2
272
     2
276
     2
284
    12
340
94
  0
ENDTAB
  0
TABLE
  2
BLOCK_RECORD
  5
1
330
0
100
AcDbSymbolTable
 70
     9
  0
BLOCK_RECORD
  5
1F
330
1
100
AcDbSymbolTableRecord
100
AcDbBlockTableRecord
  2
*Model_Space
340
22
  0
BLOCK_RECORD
  5
1B
330
1
100
AcDbSymbolTableRecord
100
AcDbBlockTableRecord
  2
*Paper_Space
340
1E
  0
BLOCK_RECORD
  5
23
330
1
100
AcDbSymbolTableRecord
100
AcDbBlockTableRecord
  2
*Paper_Space0
340
26
  0
BLOCK_RECORD
  5
7F
330
1
100
AcDbSymbolTableRecord
100
AcDbBlockTableRecord
  2
블럭10
340
0
102
{BLKREFS
331
B9
102
}
  0
BLOCK_RECORD
  5
C2
330
1
100
AcDbSymbolTableRecord
100
AcDbBlockTableRecord
  2
_D
340
0
  0
BLOCK_RECORD
  5
D0
330
1
100
AcDbSymbolTableRecord
100
AcDbBlockTableRecord
  2
_D_1
340
0
  0
BLOCK_RECORD
  5
E6
330
1
100
AcDbSymbolTableRecord
100
AcDbBlockTableRecord
  2
_D_2
340
0
  0
BLOCK_RECORD
  5
FA
330
1
100
AcDbSymbolTableRecord
100
AcDbBlockTableRecord
  2
_D_3
340
0
  0
BLOCK_RECORD
  5
113
330
1
100
AcDbSymbolTableRecord
100
AcDbBlockTableRecord
  2
SW_DOWELSYMBOL_0
340
0
102
{BLKREFS
331
1A5
102
}
  0
BLOCK_RECORD
  5
1E2
330
1
100
AcDbSymbolTableRecord
100
AcDbBlockTableRecord
  2
*D7
340
0
  0
BLOCK_RECORD
  5
1F2
330
1
100
AcDbSymbolTableRecord
100
AcDbBlockTableRecord
  2
*D8
340
0
  0
ENDTAB
  0
ENDSEC
  0
SECTION
  2
BLOCKS
  0
BLOCK
  5
20
330
1F
100
AcDbEntity
  8
0
100
AcDbBlockBegin
  2
*Model_Space
 70
     0
 10
0.0
 20
0.0
 30
0.0
  3
*Model_Space
  1
*Model_Space
  0
ENDBLK
  5
21
330
1F
100
AcDbEntity
  8
0
100
AcDbBlockEnd
  0
BLOCK
  5
1C
330
1B
100
AcDbEntity
 67
     1
  8
0
100
AcDbBlockBegin
  2
*Paper_Space
 70
     0
 10
0.0
 20
0.0
 30
0.0
  3
*Paper_Space
  1
*Paper_Space
  0
ENDBLK
  5
1D
330
1B
100
AcDbEntity
 67
     1
  8
0
100
AcDbBlockEnd
  0
BLOCK
  5
24
330
23
100
AcDbEntity
  8
0
100
AcDbBlockBegin
  2
*Paper_Space0
 70
     0
 10
0.0
 20
0.0
 30
0.0
  3
*Paper_Space0
  1
*Paper_Space0
  0
ENDBLK
  5
25
330
23
100
AcDbEntity
  8
0
100
AcDbBlockEnd
  0
BLOCK
  5
80
330
7F
100
AcDbEntity
  8
0
100
AcDbBlockBegin
  2
블럭10
 70
     2
 10
0.0
 20
0.0
 30
0.0
  3
블럭10
  1
블럭10
  0
ELLIPSE
  5
82
330
7F
100
AcDbEntity
  8
중심선
100
AcDbEllipse
 10
20.54032771741204
 20
12.0471743016438
 30
0.0
 11
6.600054785286829
 21
-1.261213355974178E-13
 31
0.0
210
0.0
220
0.0
230
1.0
 40
0.636358354079598
 41
0.9219305317359503
 42
6.513795318482858
  0
ELLIPSE
  5
83
330
7F
100
AcDbEntity
  8
중심선
100
AcDbEllipse
 10
20.54032771746488
 20
12.04717430159265
 30
0.0
 11
3.960054785062283
 21
1.540847449632565E-10
 31
0.0
210
0.0
220
0.0
230
1.0
 40
0.3939339440162632
 41
1.131841032648279
 42
5.62031148352944
  0
LINE
  5
84
330
7F
100
AcDbEntity
  8
중심선
100
AcDbLine
 10
2.268634060543552
 20
16.24717430164393
 30
0.0
 11
5.714909304380834
 21
16.24717430164393
 31
0.0
  0
LINE
  5
85
330
7F
100
AcDbEntity
  8
중심선
100
AcDbLine
 10
5.245725140726316
 20
7.84717430164391
 30
0.0
 11
8.692000384563599
 21
7.84717430164391
 31
0.0
  0
LINE
  5
86
330
7F
100
AcDbEntity
  8
중심선
100
AcDbLine
 10
15.74043728645272
 20
16.24717430164393
 30
0.0
 11
8.692000384563599
 21
7.84717430164391
 31
0.0
  0
LINE
  5
87
330
7F
100
AcDbEntity
  8
중심선
100
AcDbLine
 10
0.1404042013395286
 20
13.71084872107135
 30
0.0
 11
3.58671253028996
 21
13.71088815037384
 31
0.0
  0
LINE
  5
88
330
7F
100
AcDbEntity
  8
중심선
100
AcDbLine
 10
2.750260043222114
 20
10.84717430164391
 30
0.0
 11
6.196535287059397
 21
10.84717430164391
 31
0.0
  0
LINE
  5
89
330
7F
100
AcDbEntity
  8
중심선
100
AcDbLine
 10
12.29416204261559
 20
16.24717430164393
 30
0.0
 11
5.245725140726316
 21
7.84717430164391
 31
0.0
  0
LINE
  5
8A
330
7F
100
AcDbEntity
  8
중심선
100
AcDbLine
 10
10.72767329541681
 20
16.24717430164393
 30
0.0
 11
6.196535287059397
 21
10.84717430164391
 31
0.0
  0
LINE
  5
8B
330
7F
100
AcDbEntity
  8
중심선
100
AcDbLine
 10
7.28139805157953
 20
16.24717430164393
 30
0.0
 11
2.750260043222114
 21
10.84717430164391
 31
0.0
  0
LINE
  5
8C
330
7F
100
AcDbEntity
  8
중심선
100
AcDbLine
 10
5.714909304380834
 20
16.24717430164393
 30
0.0
 11
3.58671253028996
 21
13.71088815037384
 31
0.0
  0
LINE
  5
8D
330
7F
100
AcDbEntity
  8
중심선
100
AcDbLine
 10
2.268634060543552
 20
16.24717430164393
 30
0.0
 11
0.1404042013395286
 21
13.71084872107135
 31
0.0
  0
LINE
  5
8E
330
7F
100
AcDbEntity
  8
중심선
100
AcDbLine
 10
7.28139805157953
 20
16.24717430164393
 30
0.0
 11
10.72767329541681
 21
16.24717430164393
 31
0.0
  0
LINE
  5
8F
330
7F
100
AcDbEntity
  8
중심선
100
AcDbLine
 10
12.29416204261559
 20
16.24717430164393
 30
0.0
 11
15.74043728645272
 21
16.24717430164393
 31
0.0
  0
LINE
  5
90
330
7F
100
AcDbEntity
  8
중심선
100
AcDbLine
 10
19.22036997980202
 20
11.08717430171403
 30
0.0
 11
23.66174974927406
 21
11.08717430171406
 31
0.0
  0
LINE
  5
91
330
7F
100
AcDbEntity
  8
중심선
100
AcDbLine
 10
19.22039502424796
 20
13.00717430171391
 30
0.0
 11
19.22036997980202
 21
11.08717430171403
 31
0.0
  0
LINE
  5
92
330
7F
100
AcDbEntity
  8
중심선
100
AcDbLine
 10
19.22039502424796
 20
13.00717430171391
 30
0.0
 11
26.96566020931264
 21
13.00717430171391
 31
0.0
  0
LINE
  5
93
330
7F
100
AcDbEntity
  8
중심선
100
AcDbLine
 10
22.22332737316547
 20
13.45928029700563
 30
0.0
 11
24.52862924686651
 21
15.39360700705356
 31
0.0
  0
ATTDEF
  5
95
330
7F
100
AcDbEntity
  8
FORMAT
 62
     2
100
AcDbText
 10
4.408487351596664
 20
2.075366912832191
 30
0.0
 40
4.233333333333333
  1
E1030907
 41
0.75
  7
SLDTEXTSTYLE0
 11
4.408487351596664
 21
-0.0412997538344756
 31
0.0
100
AcDbAttributeDefinition
  3

  2
AUTOATTR0
 70
     0
 74
     1
  0
ENDBLK
  5
81
330
7F
100
AcDbEntity
  8
0
100
AcDbBlockEnd
  0
BLOCK
  5
C3
330
C2
100
AcDbEntity
  8
0
100
AcDbBlockBegin
  2
_D
 70
     0
 10
0.0
 20
0.0
 30
0.0
  3
_D
  1
_D
  0
LINE
  5
C5
330
C2
100
AcDbEntity
  8
치수문자_일반주서
 62
     0
370
    -2
100
AcDbLine
 10
-54.21249999999999
 20
9.524999999999995
 30
0.0
 11
-70.14999999999998
 21
9.524999999999935
 31
0.0
  0
LINE
  5
C6
330
C2
100
AcDbEntity
  8
치수문자_일반주서
 62
     0
370
    -2
100
AcDbLine
 10
-54.21249999999999
 20
-9.525000000000002
 30
0.0
 11
-70.1499999999999
 21
-9.525000000000066
 31
0.0
  0
LINE
  5
C7
330
C2
100
AcDbEntity
  8
치수문자_일반주서
 62
     0
370
    -2
100
AcDbLine
 10
-70.14999999999998
 20
9.524999999999935
 30
0.0
 11
-70.1500000000001
 21
44.77499999999993
 31
0.0
  0
LINE
  5
C8
330
C2
100
AcDbEntity
  8
치수문자_일반주서
 62
     0
370
    -2
100
AcDbLine
 10
-70.14999999999998
 20
9.524999999999935
 30
0.0
 11
-70.1499999999999
 21
-9.525000000000066
 31
0.0
  0
LINE
  5
C9
330
C2
100
AcDbEntity
  8
치수문자_일반주서
 62
     0
370
    -2
100
AcDbLine
 10
-70.14999999999999
 20
13.52499999999993
 30
0.0
 11
-70.15
 21
17.52499999999993
 31
0.0
  0
LINE
  5
CA
330
C2
100
AcDbEntity
  8
치수문자_일반주서
 62
     0
370
    -2
100
AcDbLine
 10
-70.14999999999989
 20
-13.52500000000007
 30
0.0
 11
-70.14999999999988
 21
-17.52500000000007
 31
0.0
  0
SOLID
  5
CB
330
C2
100
AcDbEntity
  8
치수문자_일반주서
 62
     0
100
AcDbTrace
 10
-70.81666666666666
 20
13.52499999999993
 30
0.0
 11
-69.48333333333332
 21
13.52499999999994
 31
0.0
 12
-70.14999999999998
 22
9.524999999999935
 32
0.0
 13
-70.14999999999998
 23
9.524999999999935
 33
0.0
  0
SOLID
  5
CC
330
C2
100
AcDbEntity
  8
치수문자_일반주서
 62
     0
100
AcDbTrace
 10
-69.48333333333322
 20
-13.52500000000006
 30
0.0
 11
-70.81666666666656
 21
-13.52500000000007
 31
0.0
 12
-70.1499999999999
 22
-9.525000000000066
 32
0.0
 13
-70.1499999999999
 23
-9.525000000000066
 33
0.0
  0
MTEXT
  5
CD
330
C2
100
AcDbEntity
  8
치수문자_일반주서
 62
     0
100
AcDbMText
 10
-75.02500000000005
 20
29.14999999999992
 30
0.0
 40
4.0
 41
0.0
 71
     2
 72
     1
  1
\A1;%%c19.05 [3/4]
  7
SLDTEXTSTYLE0
 11
-3.729883127349608E-15
 21
1.0
 31
0.0
 73
     1
 44
1.0
  0
POINT
  5
20E
330
C2
100
AcDbEntity
  8
Defpoints
 62
     0
100
AcDbPoint
 10
-54.14999999999999
 20
9.524999999999995
 30
0.0
  0
POINT
  5
20F
330
C2
100
AcDbEntity
  8
Defpoints
 62
     0
100
AcDbPoint
 10
-54.14999999999999
 20
-9.525000000000002
 30
0.0
  0
POINT
  5
210
330
C2
100
AcDbEntity
  8
Defpoints
 62
     0
100
AcDbPoint
 10
-70.1499999999999
 20
-9.525000000000063
 30
0.0
  0
ENDBLK
  5
C4
330
C2
100
AcDbEntity
  8
0
100
AcDbBlockEnd
  0
BLOCK
  5
D1
330
D0
100
AcDbEntity
  8
0
100
AcDbBlockBegin
  2
_D_1
 70
     0
 10
0.0
 20
0.0
 30
0.0
  3
_D_1
  1
_D_1
  0
LINE
  5
D3
330
D0
100
AcDbEntity
  8
치수문자_일반주서
 62
     0
370
    -2
100
AcDbLine
 10
40.1
 20
11.16560788423941
 30
0.0
 11
40.1
 21
24.52500000000001
 31
0.0
  0
LINE
  5
D4
330
D0
100
AcDbEntity
  8
치수문자_일반주서
 62
     0
370
    -2
100
AcDbLine
 10
2.000000000000003
 20
5.535349324069391
 30
0.0
 11
2.000000000000004
 21
24.52500000000001
 31
0.0
  0
LINE
  5
D5
330
D0
100
AcDbEntity
  8
치수문자_일반주서
 62
     0
370
    -2
100
AcDbLine
 10
36.1
 20
24.52500000000001
 30
0.0
 11
6.000000000000004
 21
24.52500000000001
 31
0.0
  0
SOLID
  5
D6
330
D0
100
AcDbEntity
  8
치수문자_일반주서
 62
     0
100
AcDbTrace
 10
36.1
 20
23.85833333333334
 30
0.0
 11
36.1
 21
25.19166666666668
 31
0.0
 12
40.1
 22
24.52500000000001
 32
0.0
 13
40.1
 23
24.52500000000001
 33
0.0
  0
SOLID
  5
D7
330
D0
100
AcDbEntity
  8
치수문자_일반주서
 62
     0
100
AcDbTrace
 10
6.000000000000004
 20
25.19166666666668
 30
0.0
 11
6.000000000000004
 21
23.85833333333334
 31
0.0
 12
2.000000000000004
 22
24.52500000000001
 32
0.0
 13
2.000000000000004
 23
24.52500000000001
 33
0.0
  0
MTEXT
  5
D8
330
D0
100
AcDbEntity
  8
치수문자_일반주서
 62
     0
100
AcDbMText
 10
21.05
 20
29.40000000000001
 30
0.0
 40
4.0
 41
0.0
 71
     2
 72
     1
  1
\A1;38.10 [1 1/2]
  7
SLDTEXTSTYLE0
 73
     1
 44
1.0
  0
POINT
  5
D9
330
D0
100
AcDbEntity
  8
Defpoints
 62
     0
100
AcDbPoint
 10
40.1
 20
11.10310788423941
 30
0.0
  0
POINT
  5
DA
330
D0
100
AcDbEntity
  8
Defpoints
 62
     0
100
AcDbPoint
 10
2.000000000000003
 20
5.472849324069391
 30
0.0
  0
POINT
  5
DB
330
D0
100
AcDbEntity
  8
Defpoints
 62
     0
100
AcDbPoint
 10
2.000000000000003
 20
24.52500000000001
 30
0.0
  0
ENDBLK
  5
D2
330
D0
100
AcDbEntity
  8
0
100
AcDbBlockEnd
  0
BLOCK
  5
E7
330
E6
100
AcDbEntity
  8
0
100
AcDbBlockBegin
  2
_D_2
 70
     0
 10
0.0
 20
0.0
 30
0.0
  3
_D_2
  1
_D_2
  0
LINE
  5
E9
330
E6
100
AcDbEntity
  8
치수문자_일반주서
 62
     0
370
    -2
100
AcDbLine
 10
40.1
 20
11.16560788423941
 30
0.0
 11
40.10000000000001
 21
39.52500000000001
 31
0.0
  0
LINE
  5
EA
330
E6
100
AcDbEntity
  8
치수문자_일반주서
 62
     0
370
    -2
100
AcDbLine
 10
-55.14999999999999
 20
8.587499999999995
 30
0.0
 11
-55.14999999999998
 21
39.52500000000001
 31
0.0
  0
LINE
  5
EB
330
E6
100
AcDbEntity
  8
치수문자_일반주서
 62
     0
370
    -2
100
AcDbLine
 10
36.10000000000001
 20
39.52500000000001
 30
0.0
 11
-51.14999999999998
 21
39.52500000000001
 31
0.0
  0
SOLID
  5
EC
330
E6
100
AcDbEntity
  8
치수문자_일반주서
 62
     0
100
AcDbTrace
 10
36.10000000000001
 20
38.85833333333335
 30
0.0
 11
36.10000000000001
 21
40.19166666666668
 31
0.0
 12
40.10000000000001
 22
39.52500000000001
 32
0.0
 13
40.10000000000001
 23
39.52500000000001
 33
0.0
  0
SOLID
  5
ED
330
E6
100
AcDbEntity
  8
치수문자_일반주서
 62
     0
100
AcDbTrace
 10
-51.14999999999998
 20
40.19166666666668
 30
0.0
 11
-51.14999999999998
 21
38.85833333333335
 31
0.0
 12
-55.14999999999998
 22
39.52500000000001
 32
0.0
 13
-55.14999999999998
 23
39.52500000000001
 33
0.0
  0
MTEXT
  5
EE
330
E6
100
AcDbEntity
  8
치수문자_일반주서
 62
     0
100
AcDbMText
 10
-7.524999999999991
 20
44.40000000000001
 30
0.0
 40
4.0
 41
0.0
 71
     2
 72
     1
  1
\A1;95.25 [3 3/4]
  7
SLDTEXTSTYLE0
 73
     1
 44
1.0
  0
POINT
  5
EF
330
E6
100
AcDbEntity
  8
Defpoints
 62
     0
100
AcDbPoint
 10
40.1
 20
11.10310788423941
 30
0.0
  0
POINT
  5
F0
330
E6
100
AcDbEntity
  8
Defpoints
 62
     0
100
AcDbPoint
 10
-55.14999999999999
 20
8.524999999999995
 30
0.0
  0
POINT
  5
F1
330
E6
100
AcDbEntity
  8
Defpoints
 62
     0
100
AcDbPoint
 10
-55.14999999999999
 20
39.52500000000001
 30
0.0
  0
ENDBLK
  5
E8
330
E6
100
AcDbEntity
  8
0
100
AcDbBlockEnd
  0
BLOCK
  5
FB
330
FA
100
AcDbEntity
  8
0
100
AcDbBlockBegin
  2
_D_3
 70
     0
 10
0.0
 20
0.0
 30
0.0
  3
_D_3
  1
_D_3
  0
LINE
  5
FD
330
FA
100
AcDbEntity
  8
치수문자_일반주서
 62
     0
370
    -2
100
AcDbLine
 10
40.1625
 20
-11.10310788423941
 30
0.0
 11
55.10000000000007
 21
-11.10310788423935
 31
0.0
  0
LINE
  5
FE
330
FA
100
AcDbEntity
  8
치수문자_일반주서
 62
     0
370
    -2
100
AcDbLine
 10
40.1625
 20
11.10310788423941
 30
0.0
 11
55.09999999999999
 21
11.10310788423947
 31
0.0
  0
LINE
  5
FF
330
FA
100
AcDbEntity
  8
치수문자_일반주서
 62
     0
370
    -2
100
AcDbLine
 10
55.09999999999999
 20
11.10310788423947
 30
0.0
 11
55.09999999999987
 21
46.85310788423946
 31
0.0
  0
LINE
  5
100
330
FA
100
AcDbEntity
  8
치수문자_일반주서
 62
     0
370
    -2
100
AcDbLine
 10
55.10000000000007
 20
-11.10310788423935
 30
0.0
 11
55.09999999999999
 21
11.10310788423947
 31
0.0
  0
LINE
  5
101
330
FA
100
AcDbEntity
  8
치수문자_일반주서
 62
     0
370
    -2
100
AcDbLine
 10
55.10000000000009
 20
-15.10310788423935
 30
0.0
 11
55.1000000000001
 21
-19.10310788423935
 31
0.0
  0
LINE
  5
102
330
FA
100
AcDbEntity
  8
치수문자_일반주서
 62
     0
370
    -2
100
AcDbLine
 10
55.09999999999998
 20
15.10310788423947
 30
0.0
 11
55.09999999999997
 21
19.10310788423947
 31
0.0
  0
SOLID
  5
103
330
FA
100
AcDbEntity
  8
치수문자_일반주서
 62
     0
100
AcDbTrace
 10
55.76666666666675
 20
-15.10310788423935
 30
0.0
 11
54.43333333333342
 21
-15.10310788423936
 31
0.0
 12
55.10000000000007
 22
-11.10310788423935
 32
0.0
 13
55.10000000000007
 23
-11.10310788423935
 33
0.0
  0
SOLID
  5
104
330
FA
100
AcDbEntity
  8
치수문자_일반주서
 62
     0
100
AcDbTrace
 10
54.43333333333332
 20
15.10310788423947
 30
0.0
 11
55.76666666666664
 21
15.10310788423947
 31
0.0
 12
55.09999999999999
 22
11.10310788423947
 32
0.0
 13
55.09999999999999
 23
11.10310788423947
 33
0.0
  0
MTEXT
  5
105
330
FA
100
AcDbEntity
  8
치수문자_일반주서
 62
     0
100
AcDbMText
 10
50.22499999999992
 20
30.97810788423945
 30
0.0
 40
4.0
 41
0.0
 71
     2
 72
     1
  1
\A1;%%c22.21 [7/8]
  7
SLDTEXTSTYLE0
 11
-3.519721763874635E-15
 21
1.0
 31
0.0
 73
     1
 44
1.0
  0
POINT
  5
106
330
FA
100
AcDbEntity
  8
Defpoints
 62
     0
100
AcDbPoint
 10
40.1
 20
-11.10310788423941
 30
0.0
  0
POINT
  5
211
330
FA
100
AcDbEntity
  8
Defpoints
 62
     0
100
AcDbPoint
 10
40.1
 20
11.10310788423941
 30
0.0
  0
POINT
  5
212
330
FA
100
AcDbEntity
  8
Defpoints
 62
     0
100
AcDbPoint
 10
55.09999999999999
 20
11.10310788423947
 30
0.0
  0
ENDBLK
  5
FC
330
FA
100
AcDbEntity
  8
0
100
AcDbBlockEnd
  0
BLOCK
  5
114
330
113
100
AcDbEntity
  8
0
100
AcDbBlockBegin
  2
SW_DOWELSYMBOL_0
 70
     0
 10
0.0
 20
0.0
 30
0.0
  3
SW_DOWELSYMBOL_0
  1
SW_DOWELSYMBOL_0
  0
CIRCLE
  5
116
330
113
100
AcDbEntity
  8
해칭선
 62
     0
100
AcDbCircle
 10
0.0
 20
0.0
 30
0.0
 40
3.000000000000001
  0
HATCH
  5
117
330
113
100
AcDbEntity
  8
0
  6
Continuous
 62
     0
370
     0
100
AcDbHatch
 10
0.0
 20
0.0
 30
0.0
210
0.0
220
0.0
230
1.0
  2
SOLID
 70
     1
 71
     0
 91
        1
 92
        0
 93
        3
 72
     2
 10
0.0
 20
0.0
 40
3.000000000000001
 50
0.0
 51
90.0
 73
     1
 72
     1
 10
0.0
 20
3.000000000000001
 11
0.0
 21
0.0
 72
     1
 10
0.0
 20
0.0
 11
3.000000000000001
 21
0.0
 97
        0
 75
     0
 76
     1
 98
        1
 10
0.0
 20
0.0
  0
HATCH
  5
118
330
113
100
AcDbEntity
  8
0
  6
Continuous
 62
     0
370
     0
100
AcDbHatch
 10
0.0
 20
0.0
 30
0.0
210
0.0
220
0.0
230
1.0
  2
SOLID
 70
     1
 71
     0
 91
        1
 92
        0
 93
        3
 72
     2
 10
0.0
 20
0.0
 40
3.000000000000001
 50
180.0
 51
270.0000000000007
 73
     1
 72
     1
 10
0.0
 20
-3.000000000000001
 11
0.0
 21
0.0
 72
     1
 10
0.0
 20
0.0
 11
-3.000000000000001
 21
0.0
 97
        0
 75
     0
 76
     1
 98
        1
 10
0.0
 20
0.0
  0
ENDBLK
  5
115
330
113
100
AcDbEntity
  8
0
100
AcDbBlockEnd
  0
BLOCK
  5
1E3
330
1E2
100
AcDbEntity
  8
0
100
AcDbBlockBegin
  2
*D7
 70
     1
 10
0.0
 20
0.0
 30
0.0
  3
*D7
  1
*D7
  0
LINE
  5
1E5
330
1E2
100
AcDbEntity
  8
치수문자_일반주서
 62
     0
370
    -2
100
AcDbLine
 10
33.3375
 20
7.305487110473621
 30
0.0
 11
33.3375
 21
22.27826230294244
 31
0.0
  0
LINE
  5
1E6
330
1E2
100
AcDbEntity
  8
치수문자_일반주서
 62
     0
370
    -2
100
AcDbLine
 10
0.0
 20
5.229500539435875
 30
0.0
 11
0.0
 21
22.27826230294244
 31
0.0
  0
LINE
  5
1E7
330
1E2
100
AcDbEntity
  8
치수문자_일반주서
 62
     0
370
    -2
100
AcDbLine
 10
33.3375
 20
22.27826230294244
 30
0.0
 11
74.0875
 21
22.27826230294244
 31
0.0
  0
LINE
  5
1E8
330
1E2
100
AcDbEntity
  8
치수문자_일반주서
 62
     0
370
    -2
100
AcDbLine
 10
29.3375
 20
22.27826230294244
 30
0.0
 11
4.0
 21
22.27826230294244
 31
0.0
  0
SOLID
  5
1E9
330
1E2
100
AcDbEntity
  8
치수문자_일반주서
 62
     0
100
AcDbTrace
 10
29.3375
 20
21.61159563627578
 30
0.0
 11
29.3375
 21
22.94492896960911
 31
0.0
 12
33.3375
 22
22.27826230294244
 32
0.0
 13
33.3375
 23
22.27826230294244
 33
0.0
  0
SOLID
  5
1EA
330
1E2
100
AcDbEntity
  8
치수문자_일반주서
 62
     0
100
AcDbTrace
 10
4.0
 20
22.94492896960911
 30
0.0
 11
4.0
 21
21.61159563627578
 31
0.0
 12
0.0
 22
22.27826230294244
 32
0.0
 13
0.0
 23
22.27826230294244
 33
0.0
  0
MTEXT
  5
1EB
330
1E2
100
AcDbEntity
  8
치수문자_일반주서
 62
     0
100
AcDbMText
 10
55.71250000000001
 20
27.15326230294244
 30
0.0
 40
4.0
 41
0.0
 71
     2
 72
     1
  1
\A1;33.34 [1 5/16]
  7
SLDTEXTSTYLE0
 73
     1
 44
1.0
  0
POINT
  5
1EC
330
1E2
100
AcDbEntity
  8
Defpoints
 62
     0
100
AcDbPoint
 10
33.3375
 20
7.242987110473621
 30
0.0
  0
POINT
  5
1ED
330
1E2
100
AcDbEntity
  8
Defpoints
 62
     0
100
AcDbPoint
 10
0.0
 20
5.167000539435875
 30
0.0
  0
POINT
  5
1EE
330
1E2
100
AcDbEntity
  8
Defpoints
 62
     0
100
AcDbPoint
 10
0.0
 20
22.27826230294244
 30
0.0
  0
ENDBLK
  5
1E4
330
1E2
100
AcDbEntity
  8
0
100
AcDbBlockEnd
  0
BLOCK
  5
1F3
330
1F2
100
AcDbEntity
  8
0
100
AcDbBlockBegin
  2
*D8
 70
     1
 10
0.0
 20
0.0
 30
0.0
  3
*D8
  1
*D8
  0
LINE
  5
1F5
330
1F2
100
AcDbEntity
  8
치수문자_일반주서
 62
     0
370
    -2
100
AcDbLine
 10
85.60300040548617
 20
-38.99764256014316
 30
0.0
 11
85.60300040548617
 21
-24.02486736767434
 31
0.0
  0
LINE
  5
1F6
330
1F2
100
AcDbEntity
  8
치수문자_일반주서
 62
     0
370
    -2
100
AcDbLine
 10
52.26550040548616
 20
-41.07362913118091
 30
0.0
 11
52.26550040548616
 21
-24.02486736767434
 31
0.0
  0
LINE
  5
1F7
330
1F2
100
AcDbEntity
  8
치수문자_일반주서
 62
     0
370
    -2
100
AcDbLine
 10
85.60300040548617
 20
-24.02486736767434
 30
0.0
 11
126.3530004054862
 21
-24.02486736767434
 31
0.0
  0
LINE
  5
1F8
330
1F2
100
AcDbEntity
  8
치수문자_일반주서
 62
     0
370
    -2
100
AcDbLine
 10
81.60300040548617
 20
-24.02486736767434
 30
0.0
 11
56.26550040548616
 21
-24.02486736767434
 31
0.0
  0
SOLID
  5
1F9
330
1F2
100
AcDbEntity
  8
치수문자_일반주서
 62
     0
100
AcDbTrace
 10
81.60300040548617
 20
-24.69153403434101
 30
0.0
 11
81.60300040548617
 21
-23.35820070100767
 31
0.0
 12
85.60300040548617
 22
-24.02486736767434
 32
0.0
 13
85.60300040548617
 23
-24.02486736767434
 33
0.0
  0
SOLID
  5
1FA
330
1F2
100
AcDbEntity
  8
치수문자_일반주서
 62
     0
100
AcDbTrace
 10
56.26550040548616
 20
-23.35820070100767
 30
0.0
 11
56.26550040548616
 21
-24.69153403434101
 31
0.0
 12
52.26550040548616
 22
-24.02486736767434
 32
0.0
 13
52.26550040548616
 23
-24.02486736767434
 33
0.0
  0
MTEXT
  5
1FB
330
1F2
100
AcDbEntity
  8
치수문자_일반주서
 62
     0
100
AcDbMText
 10
107.9780004054862
 20
-19.14986736767434
 30
0.0
 40
4.0
 41
0.0
 71
     2
 72
     1
  1
\A1;33.34 [1 5/16]
  7
SLDTEXTSTYLE0
 73
     1
 44
1.0
  0
POINT
  5
1FC
330
1F2
100
AcDbEntity
  8
Defpoints
 62
     0
100
AcDbPoint
 10
85.60300040548617
 20
-39.06014256014316
 30
0.0
  0
POINT
  5
1FD
330
1F2
100
AcDbEntity
  8
Defpoints
 62
     0
100
AcDbPoint
 10
52.26550040548616
 20
-41.13612913118091
 30
0.0
  0
POINT
  5
1FE
330
1F2
100
AcDbEntity
  8
Defpoints
 62
     0
100
AcDbPoint
 10
52.26550040548616
 20
-24.02486736767434
 30
0.0
  0
ENDBLK
  5
1F4
330
1F2
100
AcDbEntity
  8
0
100
AcDbBlockEnd
  0
ENDSEC
  0
SECTION
  2
ENTITIES
  0
LINE
  5
96
330
1F
100
AcDbEntity
  8
외형선
  6
Continuous
370
    15
100
AcDbLine
 10
5.075281805175414
 20
3.178065254723542
 30
0.0
 11
5.045060204840113
 21
3.194839728751193
 31
0.0
  0
SPLINE
  5
97
330
1F
100
AcDbEntity
  8
0
  6
Continuous
 62
     1
370
    15
100
AcDbSpline
210
0.0
220
0.0
230
1.0
 70
     8
 71
     3
 72
    19
 73
    15
 74
     0
 42
0.000000001
 43
0.00000001
 40
0.0
 40
0.0
 40
0.0
 40
0.0
 40
0.1311621815748773
 40
0.2348274276172554
 40
0.3135116734073691
 40
0.3746641626714958
 40
0.4209832178284718
 40
0.4695863801142929
 40
0.5263016769199893
 40
0.5920310556852514
 40
0.6688239092908713
 40
0.7570824674073148
 40
0.8655566994856599
 40
0.9999999999999999
 40
0.9999999999999999
 40
0.9999999999999999
 40
0.9999999999999999
 10
11.30966706380362
 20
2.847577496498138
 30
0.0
 10
11.17840488120211
 20
2.909232762748645
 30
0.0
 10
10.94339841581986
 20
3.019617840206345
 30
0.0
 10
10.61847602828495
 20
3.175689948588503
 30
0.0
 10
10.35656545131586
 20
3.303075331176621
 30
0.0
 10
10.1588148910813
 20
3.400219523504911
 30
0.0
 10
10.00496569707812
 20
3.476485803314716
 30
0.0
 10
9.854096158030234
 20
3.551712226394514
 30
0.0
 10
9.679625790671704
 20
3.639251770234512
 30
0.0
 10
9.473786725388123
 20
3.743222542359099
 30
0.0
 10
9.232573577865125
 20
3.866033816616222
 30
0.0
 10
8.942756858066202
 20
4.014878144978022
 30
0.0
 10
8.601196700084111
 20
4.192232284463525
 30
0.0
 10
8.360764186206065
 20
4.319179158310186
 30
0.0
 10
8.227696225356462
 20
4.389438215068105
 30
0.0
1001
PE_URL
1000

  0
SPLINE
  5
98
330
1F
100
AcDbEntity
  8
0
  6
Continuous
 62
     1
370
    15
100
AcDbSpline
210
0.0
220
0.0
230
1.0
 70
     8
 71
     3
 72
    21
 73
    17
 74
     0
 42
0.000000001
 43
0.00000001
 40
0.0
 40
0.0
 40
0.0
 40
0.0
 40
0.0774038726804044
 40
0.1421431682250546
 40
0.1991560692859298
 40
0.291761887936013
 40
0.3829340205259393
 40
0.4716242733432429
 40
0.573584747119232
 40
0.667339947946801
 40
0.6960186589927445
 40
0.7294189130243396
 40
0.7764157025232625
 40
0.8370740020715057
 40
0.9115827600499552
 40
1.0
 40
1.0
 40
1.0
 40
1.0
 10
7.636083192520113
 20
8.830424732813347
 30
0.0
 10
7.523360461758948
 20
8.823976970104987
 30
0.0
 10
7.316358337362297
 20
8.812136407254675
 30
0.0
 10
6.964710656793217
 20
8.791528106965105
 30
0.0
 10
6.541970691948647
 20
8.77335883762285
 30
0.0
 10
6.081507691525645
 20
8.757949364038565
 30
0.0
 10
5.549904925257463
 20
8.738742427578163
 30
0.0
 10
5.000129249373315
 20
8.721292956356217
 30
0.0
 10
4.458283670349557
 20
8.707167680511722
 30
0.0
 10
4.035844497424066
 20
8.698337983125896
 30
0.0
 10
3.737942269638296
 20
8.693060026057475
 30
0.0
 10
3.528917648494111
 20
8.689714573249452
 30
0.0
 10
3.258723841796067
 20
8.685977380681914
 30
0.0
 10
2.90977377037865
 20
8.682207810241632
 30
0.0
 10
2.481462809427321
 20
8.679048426950958
 30
0.0
 10
2.169368442562711
 20
8.678552033601472
 30
0.0
 10
1.999999999999994
 20
8.678282649154243
 30
0.0
1001
PE_URL
1000

  0
SPLINE
  5
99
330
1F
100
AcDbEntity
  8
0
  6
Continuous
 62
     1
370
    15
100
AcDbSpline
210
0.0
220
0.0
230
1.0
 70
     8
 71
     3
 72
    50
 73
    46
 74
     0
 42
0.000000001
 43
0.00000001
 40
0.0
 40
0.0
 40
0.0
 40
0.0
 40
0.0285982826294736
 40
0.0531130080871927
 40
0.0736009589686207
 40
0.0902557316662878
 40
0.1042192309327547
 40
0.1192552720034871
 40
0.1390899366690451
 40
0.1606817662172394
 40
0.1800322219236909
 40
0.1964765816627942
 40
0.2203300683162077
 40
0.2427576713153681
 40
0.2660551577935048
 40
0.2923815765123047
 40
0.3195705175140918
 40
0.3510511278237605
 40
0.382156810708936
 40
0.4093079208855547
 40
0.4338046292403177
 40
0.4560785015941275
 40
0.4767897076514177
 40
0.4966528412867355
 40
0.5204138042354345
 40
0.5478061212409022
 40
0.5794110767529624
 40
0.6141723401341435
 40
0.6459017694294255
 40
0.674295050659261
 40
0.6999780318022991
 40
0.723668529883459
 40
0.7417903479340712
 40
0.7613989829192062
 40
0.784908758317212
 40
0.8106790794357207
 40
0.8362319102656057
 40
0.8520080660350388
 40
0.867097237761016
 40
0.8815380021230701
 40
0.8959360108222717
 40
0.9142859065723229
 40
0.9377037124804128
 40
0.9662849069920418
 40
1.0
 40
1.0
 40
1.0
 40
1.0
 10
35.97153409778775
 20
7.600422705364345
 30
0.0
 10
35.79877072715681
 20
7.585755575456145
 30
0.0
 10
35.4779129183024
 20
7.558515639424906
 30
0.0
 10
35.02030193324297
 20
7.52261778380125
 30
0.0
 10
34.6263519847631
 20
7.49411049736454
 30
0.0
 10
34.28831994128041
 20
7.472004207843591
 30
0.0
 10
33.98245201287876
 20
7.453875587069572
 30
0.0
 10
33.65672267179259
 20
7.434892789037213
 30
0.0
 10
33.28360725772249
 20
7.414584117442676
 30
0.0
 10
32.88825603703372
 20
7.395112500486347
 30
0.0
 10
32.51481661483029
 20
7.378694464558525
 30
0.0
 10
32.12735190669259
 20
7.363437597478032
 30
0.0
 10
31.72094987354836
 20
7.349530634795498
 30
0.0
 10
31.27012795103651
 20
7.336759054816408
 30
0.0
 10
30.80139286525182
 20
7.326222014273519
 30
0.0
 10
30.29617817581368
 20
7.318046703488784
 30
0.0
 10
29.74220196572042
 20
7.312970597610401
 30
0.0
 10
29.16581058890444
 20
7.312192018269606
 30
0.0
 10
28.58963527618254
 20
7.315910668799953
 30
0.0
 10
28.05210236122917
 20
7.323375440989823
 30
0.0
 10
27.57214636050191
 20
7.333242440166322
 30
0.0
 10
27.13490856675662
 20
7.344863069792865
 30
0.0
 10
26.72803725154931
 20
7.3579353000008
 30
0.0
 10
26.31109933264175
 20
7.373510534269132
 30
0.0
 10
25.85056410620949
 20
7.393241017691321
 30
0.0
 10
25.31393210177331
 20
7.419685035363244
 30
0.0
 10
24.7056618258999
 20
7.454158690939317
 30
0.0
 10
24.06921617061304
 20
7.4955208913327
 30
0.0
 10
23.45240621590883
 20
7.540778738012901
 30
0.0
 10
22.89467377879667
 20
7.585926179960346
 30
0.0
 10
22.39121175602587
 20
7.629898117836539
 30
0.0
 10
21.95487555227603
 20
7.67055857472854
 30
0.0
 10
21.55659488988066
 20
7.709638739142997
 30
0.0
 10
21.15942813595313
 20
7.750385522649546
 30
0.0
 10
20.71291932884908
 20
7.798477002479572
 30
0.0
 10
20.22837446685643
 20
7.853488324467182
 30
0.0
 10
19.7953826658622
 20
7.905321137750676
 30
0.0
 10
19.4323386309755
 20
7.950368559935145
 30
0.0
 10
19.13477865698821
 20
7.988340280207919
 30
0.0
 10
18.84347154016919
 20
8.026464616046493
 30
0.0
 10
18.52985926010023
 20
8.067969354338025
 30
0.0
 10
18.15947612004342
 20
8.118587789914848
 30
0.0
 10
17.70535378728798
 20
8.18331175548819
 30
0.0
 10
17.16016069258869
 20
8.264118665898602
 30
0.0
 10
16.76953213742212
 20
8.325092345736891
 30
0.0
 10
16.55812181758783
 20
8.358091636202456
 30
0.0
1001
PE_URL
1000

  0
SPLINE
  5
9A
330
1F
100
AcDbEntity
  8
0
  6
Continuous
 62
     1
370
    15
100
AcDbSpline
210
0.0
220
0.0
230
1.0
 70
     8
 71
     3
 72
    25
 73
    21
 74
     0
 42
0.000000001
 43
0.00000001
 40
0.0
 40
0.0
 40
0.0
 40
0.0
 40
0.04303232317544
 40
0.0844433104926918
 40
0.1257088210499177
 40
0.1683858622127476
 40
0.2328287174714933
 40
0.2867418258992509
 40
0.328559411225296
 40
0.3664168066523907
 40
0.4086565937182013
 40
0.4552322898542797
 40
0.5138674117786816
 40
0.5768990237717081
 40
0.6443602410755755
 40
0.7142682504925744
 40
0.8091911091986941
 40
0.8885076588664675
 40
0.9580011267533283
 40
1.0
 40
1.0
 40
1.0
 40
1.0
 10
16.55812181758783
 20
-8.358091636202461
 30
0.0
 10
16.64934429202849
 20
-8.343427281421171
 30
0.0
 10
16.82835223686333
 20
-8.314651083145215
 30
0.0
 10
17.14488905893897
 20
-8.263558586787111
 30
0.0
 10
17.48650190228521
 20
-8.211463456954315
 30
0.0
 10
17.9096971792122
 20
-8.15113326021371
 30
0.0
 10
18.36774351388181
 20
-8.089770552484014
 30
0.0
 10
18.82410631185715
 20
-8.028900211471564
 30
0.0
 10
19.20574576686586
 20
-7.979102813416251
 30
0.0
 10
19.55127599693223
 20
-7.935269100636142
 30
0.0
 10
19.8971834088345
 20
-7.89303816947458
 30
0.0
 10
20.28847184583287
 20
-7.846642797564023
 30
0.0
 10
20.75559354889052
 20
-7.79360214544435
 30
0.0
 10
21.2894406653391
 20
-7.736562064313924
 30
0.0
 10
21.85118997882784
 20
-7.680187946412776
 30
0.0
 10
22.49870858791716
 20
-7.619782473461744
 30
0.0
 10
23.17885872691095
 20
-7.561932140232807
 30
0.0
 10
23.85820551557878
 20
-7.510603790204289
 30
0.0
 10
24.38846040295131
 20
-7.474149774638046
 30
0.0
 10
24.69618187514585
 20
-7.456052873766917
 30
0.0
 10
24.81209974873771
 20
-7.449235818549341
 30
0.0
1001
PE_URL
1000

  0
SPLINE
  5
9B
330
1F
100
AcDbEntity
  8
0
  6
Continuous
 62
     1
370
    15
100
AcDbSpline
210
0.0
220
0.0
230
1.0
 70
     8
 71
     3
 72
    25
 73
    21
 74
     0
 42
0.000000001
 43
0.00000001
 40
0.0
 40
0.0
 40
0.0
 40
0.0
 40
0.0930345285113331
 40
0.1714342520540096
 40
0.2352602242508181
 40
0.2898815982535763
 40
0.3272739373002461
 40
0.3616955103351043
 40
0.3978301017124539
 40
0.4356891853259801
 40
0.4751632686781153
 40
0.5153191073158219
 40
0.5560750676513699
 40
0.6684595918960392
 40
0.7840581475629427
 40
0.8133335678634626
 40
0.842725889466438
 40
0.9027160946827354
 40
0.9708361789621736
 40
1.0
 40
1.0
 40
1.0
 40
1.0
 10
1.999999999999994
 20
-8.678282649154246
 30
0.0
 10
2.169368622182924
 20
-8.678552049514336
 30
0.0
 10
2.481463320032786
 20
-8.679048472186368
 30
0.0
 10
2.909772224269199
 20
-8.682207673269165
 30
0.0
 10
3.268140866664692
 20
-8.68607944792425
 30
0.0
 10
3.551822377984189
 20
-8.690041198987487
 30
0.0
 10
3.78212526804549
 20
-8.693803357513675
 30
0.0
 10
3.977839138471309
 20
-8.697364853919229
 30
0.0
 10
4.173377351457003
 20
-8.701270705178377
 30
0.0
 10
4.377178835367721
 20
-8.705714760868593
 30
0.0
 10
4.586664931891054
 20
-8.710647755144606
 30
0.0
 10
4.80485434496178
 20
-8.71626415743661
 30
0.0
 10
5.158785639230089
 20
-8.726210455009893
 30
0.0
 10
5.657454975539207
 20
-8.742400451472594
 30
0.0
 10
6.132890880391781
 20
-8.759552796912399
 30
0.0
 10
6.452174250523031
 20
-8.771050087699363
 30
0.0
 10
6.668920973680153
 20
-8.77859031956766
 30
0.0
 10
6.963706610571684
 20
-8.791547444529318
 30
0.0
 10
7.23271141772585
 20
-8.807252984179556
 30
0.0
 10
7.369597534302226
 20
-8.815107278687927
 30
0.0
 10
7.410633327359434
 20
-8.817461843285983
 30
0.0
1001
PE_URL
1000

  0
LINE
  5
9C
330
1F
100
AcDbEntity
  8
0
  6
Continuous
 62
     1
370
    15
100
AcDbLine
 10
7.44288604404484
 20
-8.819316306153157
 30
0.0
 11
7.636083192520113
 21
-8.83042473281335
 31
0.0
1001
PE_URL
1000

  0
SPLINE
  5
9D
330
1F
100
AcDbEntity
  8
0
  6
Continuous
 62
     1
370
    15
100
AcDbSpline
210
0.0
220
0.0
230
1.0
 70
     8
 71
     3
 72
    50
 73
    46
 74
     0
 42
0.000000001
 43
0.00000001
 40
0.0
 40
0.0
 40
0.0
 40
0.0
 40
0.0625000000000003
 40
0.0625000000000003
 40
0.1250000000000006
 40
0.1250000000000006
 40
0.1562500000000005
 40
0.1562500000000005
 40
0.1875000000000004
 40
0.1875000000000004
 40
0.2500000000000001
 40
0.2500000000000001
 40
0.28125
 40
0.28125
 40
0.3124999999999999
 40
0.3124999999999999
 40
0.3437499999999998
 40
0.3437499999999998
 40
0.3749999999999998
 40
0.3749999999999998
 40
0.4374999999999999
 40
0.4374999999999999
 40
0.5000000000000001
 40
0.5000000000000001
 40
0.5625000000000002
 40
0.5625000000000002
 40
0.5937500000000003
 40
0.5937500000000003
 40
0.6250000000000003
 40
0.6250000000000003
 40
0.6875000000000003
 40
0.6875000000000003
 40
0.7187500000000004
 40
0.7187500000000004
 40
0.7500000000000004
 40
0.7500000000000004
 40
0.7812500000000004
 40
0.7812500000000004
 40
0.8125000000000004
 40
0.8125000000000004
 40
0.8750000000000003
 40
0.8750000000000003
 40
0.9375000000000001
 40
0.9375000000000001
 40
1.0
 40
1.0
 40
1.0
 40
1.0
 10
40.1
 20
-11.10310788423941
 30
0.0
 10
39.30925155013438
 20
-11.08429388261008
 30
0.0
 10
38.51207819221349
 20
-11.03706699982465
 30
0.0
 10
36.92310038164947
 20
-10.88660281274129
 30
0.0
 10
36.13305764939571
 20
-10.78356795277192
 30
0.0
 10
34.94031911425358
 20
-10.58783879780453
 30
0.0
 10
34.54247473793088
 20
-10.51577249942561
 30
0.0
 10
33.74853898049226
 20
-10.35842772816313
 30
0.0
 10
33.3535107484644
 20
-10.2732360668802
 30
0.0
 10
32.16438549621027
 20
-9.99791522255234
 30
0.0
 10
31.36682968652308
 20
-9.787947541289164
 30
0.0
 10
30.17697323024659
 20
-9.43694519945429
 30
0.0
 10
29.78210731565305
 20
-9.314036526409938
 30
0.0
 10
28.9885723804869
 20
-9.05611359314463
 30
0.0
 10
28.59080675239724
 20
-8.92118148360687
 30
0.0
 10
27.79556039665091
 20
-8.640125562449072
 30
0.0
 10
27.39808112518383
 20
-8.494002275805489
 30
0.0
 10
26.605686154194
 20
-8.191442124870061
 30
0.0
 10
26.21044065456923
 20
-8.034974820464113
 30
0.0
 10
25.01917819293437
 20
-7.549771551095537
 30
0.0
 10
24.22182855973159
 20
-7.2057065814877
 30
0.0
 10
22.63901201811047
 20
-6.484385074352456
 30
0.0
 10
21.84332862816251
 20
-6.105600899476181
 30
0.0
 10
20.25382725041118
 20
-5.319081494050315
 30
0.0
 10
19.46398201120486
 20
-4.912068050358656
 30
0.0
 10
18.2714529157114
 20
-4.282999171711257
 30
0.0
 10
17.87355599621111
 20
-4.070370506027486
 30
0.0
 10
17.07927144266283
 20
-3.640460521848171
 30
0.0
 10
16.68388645596203
 20
-3.423365451507849
 30
0.0
 10
15.49557005814866
 20
-2.765566623269237
 30
0.0
 10
14.69806706693002
 20
-2.317867331104511
 30
0.0
 10
13.50755721683404
 20
-1.640232362668048
 30
0.0
 10
13.11265914700136
 20
-1.413533713620006
 30
0.0
 10
12.31957697258174
 20
-0.9579987654934585
 30
0.0
 10
11.92191628047284
 20
-0.7292605139518442
 30
0.0
 10
11.12663490567151
 20
-0.2711516747475624
 30
0.0
 10
10.72901567961699
 20
-0.0417819262441829
 30
0.0
 10
9.936098578398674
 20
0.4162719535330227
 30
0.0
 10
9.541145542528858
 20
0.6448902013739881
 30
0.0
 10
8.350432094966127
 20
1.330199787873587
 30
0.0
 10
7.552958959277923
 20
1.785533609430819
 30
0.0
 10
5.968925724016485
 20
2.682723812997766
 30
0.0
 10
5.174564683872765
 20
3.12605943676144
 30
0.0
 10
3.584644148162334
 20
3.994741182931421
 30
0.0
 10
2.794827507059106
 20
4.419067291902849
 30
0.0
 10
1.999999999999991
 20
4.831942169735827
 30
0.0
1001
PE_URL
1000

  0
SPLINE
  5
9E
330
1F
100
AcDbEntity
  8
0
  6
Continuous
 62
     1
370
    15
100
AcDbSpline
210
0.0
220
0.0
230
1.0
 70
     8
 71
     3
 72
    12
 73
     8
 74
     0
 42
0.000000001
 43
0.00000001
 40
0.0
 40
0.0
 40
0.0
 40
0.0
 40
0.1144557856531213
 40
0.3103618801322195
 40
0.5404142726963095
 40
0.770272392321374
 40
1.0
 40
1.0
 40
1.0
 40
1.0
 10
12.4949987186376
 20
-1.057816079192278
 30
0.0
 10
12.09458526700099
 20
-0.8976829814526377
 30
0.0
 10
11.00881165607318
 20
-0.4634610764412701
 30
0.0
 10
9.118616764869946
 20
0.3038783144929755
 30
0.0
 10
6.823865994886724
 20
1.226468652377166
 30
0.0
 10
4.411328357368189
 20
2.182854715369743
 30
0.0
 10
2.803623935231192
 20
2.788716626506191
 30
0.0
 10
2.000000000000001
 20
3.091561556538157
 30
0.0
1001
PE_URL
1000

  0
SPLINE
  5
9F
330
1F
100
AcDbEntity
  8
외형선
  6
Continuous
370
    15
100
AcDbSpline
210
0.0
220
0.0
230
1.0
 70
    24
 71
     3
 72
    10
 73
     6
 74
     0
 42
0.000000001
 43
0.00000001
 40
0.0
 40
0.0
 40
0.0
 40
0.0
 40
0.5
 40
0.5
 40
1.0
 40
1.0
 40
1.0
 40
1.0
 10
2.000000000000001
 20
4.831942169735821
 30
0.0
 10
2.000000000000001
 20
4.741428194083584
 30
0.0
 10
2.000000000000001
 20
4.534468936711312
 30
0.0
 10
2.000000000000001
 20
3.926966611916775
 30
0.0
 10
2.000000000000001
 20
3.528777107320649
 30
0.0
 10
2.000000000000001
 20
3.091561556538158
 30
0.0
  0
SPLINE
  5
A0
330
1F
100
AcDbEntity
  8
0
  6
Continuous
 62
     1
370
    15
100
AcDbSpline
210
0.0
220
0.0
230
1.0
 70
     8
 71
     3
 72
    50
 73
    46
 74
     0
 42
0.000000001
 43
0.00000001
 40
0.0
 40
0.0
 40
0.0
 40
0.0
 40
0.0625000000000006
 40
0.0625000000000006
 40
0.1250000000000012
 40
0.1250000000000012
 40
0.1562500000000013
 40
0.1562500000000013
 40
0.1875000000000013
 40
0.1875000000000013
 40
0.2500000000000015
 40
0.2500000000000015
 40
0.2812500000000014
 40
0.2812500000000014
 40
0.3125000000000014
 40
0.3125000000000014
 40
0.3437500000000014
 40
0.3437500000000014
 40
0.3750000000000013
 40
0.3750000000000013
 40
0.4375000000000013
 40
0.4375000000000013
 40
0.5000000000000013
 40
0.5000000000000013
 40
0.5625000000000013
 40
0.5625000000000013
 40
0.5937500000000013
 40
0.5937500000000013
 40
0.6250000000000013
 40
0.6250000000000013
 40
0.6875000000000011
 40
0.6875000000000011
 40
0.7187500000000011
 40
0.7187500000000011
 40
0.750000000000001
 40
0.750000000000001
 40
0.781250000000001
 40
0.781250000000001
 40
0.812500000000001
 40
0.812500000000001
 40
0.8750000000000007
 40
0.8750000000000007
 40
0.9375000000000004
 40
0.9375000000000004
 40
1.0
 40
1.0
 40
1.0
 40
1.0
 10
40.1
 20
-10.54510540933949
 30
0.0
 10
39.30925155013433
 20
-10.40072170757811
 30
0.0
 10
38.51207819221337
 20
-10.2290115703148
 30
0.0
 10
36.92310038164921
 20
-9.834618404595272
 30
0.0
 10
36.13305764939536
 20
-9.612217098153776
 30
0.0
 10
34.94031911425314
 20
-9.241990179065057
 30
0.0
 10
34.5424747379304
 20
-9.112568108443133
 30
0.0
 10
33.74853898049172
 20
-8.842458575899434
 30
0.0
 10
33.35351074846384
 20
-8.70190600188276
 30
0.0
 10
32.16438549620959
 20
-8.26342108235658
 30
0.0
 10
31.36682968652234
 20
-7.948618473060889
 30
0.0
 10
30.17697323024576
 20
-7.448078544378057
 30
0.0
 10
29.78210731565218
 20
-7.276631380607056
 30
0.0
 10
28.98857238048595
 20
-6.924134490137112
 30
0.0
 10
28.59080675239625
 20
-6.743206374348991
 30
0.0
 10
27.79556039664985
 20
-6.37301023564274
 30
0.0
 10
27.39808112518275
 20
-6.183742898347758
 30
0.0
 10
26.60568615419285
 20
-5.797983682122827
 30
0.0
 10
26.21044065456804
 20
-5.601446470012417
 30
0.0
 10
25.0191781929331
 20
-5.000580227630671
 30
0.0
 10
24.22182855973024
 20
-4.585637760450288
 30
0.0
 10
22.63901201810899
 20
-3.736599053985751
 30
0.0
 10
21.84332862816094
 20
-3.300693833376522
 30
0.0
 10
20.25382725040949
 20
-2.414587340957705
 30
0.0
 10
19.4639820112031
 20
-1.965160262798509
 30
0.0
 10
18.27145291570955
 20
-1.283762208337949
 30
0.0
 10
17.87355599620921
 20
-1.055590398997799
 30
0.0
 10
17.07927144266086
 20
-0.5984796310294441
 30
0.0
 10
16.68388645596004
 20
-0.3697344725593462
 30
0.0
 10
15.49557005814655
 20
0.3171848860374645
 30
0.0
 10
14.69806706692786
 20
0.7765062060515769
 30
0.0
 10
13.50755721683178
 20
1.459665639544778
 30
0.0
 10
13.11265914699906
 20
1.686230373420592
 30
0.0
 10
12.31957697257937
 20
2.137549331574236
 30
0.0
 10
11.92191628047044
 20
2.362201211924284
 30
0.0
 10
11.12663490566904
 20
2.808193083266597
 30
0.0
 10
10.72901567961448
 20
3.02953225781558
 30
0.0
 10
9.936098578396107
 20
3.467638539311328
 30
0.0
 10
9.541145542526255
 20
3.684347669641761
 30
0.0
 10
8.350432094963422
 20
4.328081877304138
 30
0.0
 10
7.552958959275148
 20
4.747907969360862
 30
0.0
 10
5.968925724013589
 20
5.559347587338589
 30
0.0
 10
5.174564683869781
 20
5.952315454212584
 30
0.0
 10
3.584644148159215
 20
6.706065556462296
 30
0.0
 10
2.794827507055922
 20
7.065990204760622
 30
0.0
 10
1.999999999996733
 20
7.407747411207348
 30
0.0
1001
PE_URL
1000

  0
SPLINE
  5
A1
330
1F
100
AcDbEntity
  8
0
  6
Continuous
 62
     1
370
    15
100
AcDbSpline
210
0.0
220
0.0
230
1.0
 70
     8
 71
     3
 72
    21
 73
    17
 74
     0
 42
0.000000001
 43
0.00000001
 40
0.0
 40
0.0
 40
0.0
 40
0.0
 40
0.0714678367355391
 40
0.1428572145012587
 40
0.2143770347043773
 40
0.2857790694861472
 40
0.3572160084857186
 40
0.4287127019931769
 40
0.5000964490027555
 40
0.5716051727517852
 40
0.643026883856794
 40
0.7144399252647677
 40
0.7859543933865295
 40
0.8573395389936124
 40
0.9288260766948325
 40
1.0
 40
1.0
 40
1.0
 40
1.0
 10
40.1
 20
-8.767454287791804
 30
0.0
 10
39.41387586541772
 20
-8.632609626385099
 30
0.0
 10
38.04238083848386
 20
-8.363068339019565
 30
0.0
 10
35.98510229070021
 20
-7.835372336100647
 30
0.0
 10
33.92711207891237
 20
-7.227123688626292
 30
0.0
 10
31.86985016796397
 20
-6.53284466707672
 30
0.0
 10
29.81243758528574
 20
-5.764963899385953
 30
0.0
 10
27.75460970578377
 20
-4.932274183725055
 30
0.0
 10
25.69729529405043
 20
-4.040891021141768
 30
0.0
 10
23.63938161056813
 20
-3.106080499261278
 30
0.0
 10
21.58205145188751
 20
-2.134075563261379
 30
0.0
 10
19.52475949756191
 20
-1.137486450149878
 30
0.0
 10
17.46680316150693
 20
-0.1299746336522206
 30
0.0
 10
15.40950619665256
 20
0.8814976260319779
 30
0.0
 10
13.35435496045032
 20
1.881402074263468
 30
0.0
 10
11.9849555733004
 20
2.528416473841629
 30
0.0
 10
11.30175627429639
 20
2.851214766571478
 30
0.0
1001
PE_URL
1000

  0
LINE
  5
A2
330
1F
100
AcDbEntity
  8
0
  6
Continuous
 62
     1
370
    15
100
AcDbLine
 10
40.09999999999971
 20
-10.54510540933949
 30
0.0
 11
40.1
 21
-8.767454287791804
 31
0.0
1001
PE_URL
1000

  0
LINE
  5
A3
330
1F
100
AcDbEntity
  8
외형선
  6
Continuous
370
    15
100
AcDbLine
 10
1.999999999999999
 20
4.83194216973582
 30
0.0
 11
1.999999999999999
 21
7.407747411199893
 31
0.0
  0
LINE
  5
A4
330
1F
100
AcDbEntity
  8
0
  6
Continuous
 62
     1
370
    15
100
AcDbLine
 10
40.1
 20
-11.10310788423941
 30
0.0
 11
40.09999999999966
 21
-10.54510540933947
 31
0.0
1001
PE_URL
1000

  0
SPLINE
  5
A5
330
1F
100
AcDbEntity
  8
0
  6
Continuous
 62
     1
370
    15
100
AcDbSpline
210
0.0
220
0.0
230
1.0
 70
     8
 71
     3
 72
    10
 73
     6
 74
     0
 42
0.000000001
 43
0.00000001
 40
0.0
 40
0.0
 40
0.0
 40
0.0
 40
0.5
 40
0.5
 40
1.0
 40
1.0
 40
1.0
 40
1.0
 10
40.1
 20
-2.969737237754431
 30
0.0
 10
39.24442494795371
 20
-2.297114754807688
 30
0.0
 10
38.39994764956614
 20
-1.604994341206972
 30
0.0
 10
36.73286042874405
 20
-0.1823341551849956
 30
0.0
 10
35.91023187812705
 20
0.5481728889002345
 30
0.0
 10
35.1
 20
1.30045996775486
 30
0.0
1001
PE_URL
1000

  0
LINE
  5
A6
330
1F
100
AcDbEntity
  8
0
  6
Continuous
 62
     1
370
    15
100
AcDbLine
 10
35.1
 20
2.937719435296589
 30
0.0
 11
40.1
 21
0.0000000000000028
 31
0.0
1001
PE_URL
1000

  0
LINE
  5
A7
330
1F
100
AcDbEntity
  8
0
  6
Continuous
 62
     1
370
    15
100
AcDbLine
 10
40.1
 20
0.0000000000000028
 30
0.0
 11
40.1
 21
-2.969737237754426
 31
0.0
1001
PE_URL
1000

  0
SPLINE
  5
A8
330
1F
100
AcDbEntity
  8
0
  6
Continuous
 62
     1
370
    15
100
AcDbSpline
210
0.0
220
0.0
230
1.0
 70
     8
 71
     3
 72
    21
 73
    17
 74
     0
 42
0.000000001
 43
0.00000001
 40
0.0
 40
0.0
 40
0.0
 40
0.0
 40
0.0641754317345626
 40
0.1283665660795803
 40
0.1925159917359664
 40
0.2674863518791935
 40
0.3423366202625414
 40
0.417319766578728
 40
0.4922104040733817
 40
0.5670918161940915
 40
0.6420810749081929
 40
0.7169328316774127
 40
0.7918923848361848
 40
0.8668113986279007
 40
0.9416748585782706
 40
1.0
 40
1.0
 40
1.0
 40
1.0
 10
35.1
 20
2.283536363151123
 30
0.0
 10
34.51251952926636
 20
2.543968297278208
 30
0.0
 10
33.33741484155961
 20
3.064895888690933
 30
0.0
 10
31.57486333513184
 20
3.814959973988159
 30
0.0
 10
29.71398118156731
 20
4.575665742316636
 30
0.0
 10
27.75459778485651
 20
5.32854419976852
 30
0.0
 10
25.69723801263867
 20
6.06086345352667
 30
0.0
 10
23.63937527981325
 20
6.721729592726388
 30
0.0
 10
21.58202103706481
 20
7.307212921367345
 30
0.0
 10
19.5246921235197
 20
7.809180316754128
 30
0.0
 10
17.46680234119338
 20
8.22115210882748
 30
0.0
 10
15.40942476694434
 20
8.540221899967499
 30
0.0
 10
13.35170462945759
 20
8.761624542036481
 30
0.0
 10
11.29423376012184
 20
8.880958004149049
 30
0.0
 10
9.389461067039605
 20
8.905716954007838
 30
0.0
 10
8.169921379085961
 20
8.850559219271455
 30
0.0
 10
7.63586798385143
 20
8.82640487989211
 30
0.0
1001
PE_URL
1000

  0
SPLINE
  5
A9
330
1F
100
AcDbEntity
  8
0
  6
Continuous
 62
     1
370
    15
100
AcDbSpline
210
0.0
220
0.0
230
1.0
 70
    24
 71
     3
 72
     8
 73
     4
 74
     0
 42
0.000000001
 43
0.00000001
 40
0.0
 40
0.0
 40
0.0
 40
0.0
 40
1.0
 40
1.0
 40
1.0
 40
1.0
 10
35.1
 20
1.30045996773611
 30
0.0
 10
35.1
 20
1.631923426793337
 30
0.0
 10
35.1
 20
1.960107858706109
 30
0.0
 10
35.1
 20
2.283536363151123
 30
0.0
1001
PE_URL
1000

  0
SPLINE
  5
AA
330
1F
100
AcDbEntity
  8
0
  6
Continuous
 62
     1
370
    15
100
AcDbSpline
210
0.0
220
0.0
230
1.0
 70
    24
 71
     3
 72
    10
 73
     6
 74
     0
 42
0.000000001
 43
0.00000001
 40
0.0
 40
0.0
 40
0.0
 40
0.0
 40
0.5
 40
0.5
 40
1.0
 40
1.0
 40
1.0
 40
1.0
 10
40.1
 20
-8.7674542877918
 30
0.0
 10
40.1
 20
-8.095360560304782
 30
0.0
 10
40.1
 20
-7.246144364910635
 30
0.0
 10
40.1
 20
-5.271798438561933
 30
0.0
 10
40.10000000000002
 20
-4.148378960907684
 30
0.0
 10
40.10000000000002
 20
-2.969737237754786
 30
0.0
1001
PE_URL
1000

  0
SPLINE
  5
AB
330
1F
100
AcDbEntity
  8
외형선
  6
Continuous
370
    15
100
AcDbSpline
210
0.0
220
0.0
230
1.0
 70
    24
 71
     3
 72
    14
 73
    10
 74
     0
 42
0.000000001
 43
0.00000001
 40
0.011204281204556
 40
0.011204281204556
 40
0.011204281204556
 40
0.011204281204556
 40
0.0388008486376266
 40
0.2224852654918825
 40
0.4115061120747849
 40
0.6005269586576876
 40
0.7664986920116582
 40
0.932470425365629
 40
1.0
 40
1.0
 40
1.0
 40
1.0
 10
2.0
 20
9.525000000000057
 30
0.0
 10
1.999999999999999
 20
8.674532300973869
 30
0.0
 10
1.999999999999999
 20
8.68430933635227
 30
0.0
 10
1.999999999999999
 20
8.62567395474894
 30
0.0
 10
1.999999999999999
 20
8.483156117422151
 30
0.0
 10
1.999999999999999
 20
8.255112729633908
 30
0.0
 10
1.999999999999999
 20
7.959748804806216
 30
0.0
 10
1.999999999999999
 20
7.692804668663677
 30
0.0
 10
1.999999999999999
 20
7.497864376097755
 30
0.0
 10
1.999999999999999
 20
7.441486811665723
 30
0.0
  0
SPLINE
  5
AC
330
1F
100
AcDbEntity
  8
0
  6
Continuous
 62
     1
370
    15
100
AcDbSpline
210
0.0
220
0.0
230
1.0
 70
    24
 71
     3
 72
    10
 73
     6
 74
     0
 42
0.000000001
 43
0.00000001
 40
0.0
 40
0.0
 40
0.0
 40
0.0
 40
0.5
 40
0.5
 40
1.0
 40
1.0
 40
1.0
 40
1.0
 10
35.1
 20
2.283536363151124
 30
0.0
 10
35.1
 20
3.059531527112043
 30
0.0
 10
35.10000000000002
 20
3.79600373863071
 30
0.0
 10
35.1
 20
5.109618802043817
 30
0.0
 10
35.10000000000002
 20
5.685937379830191
 30
0.0
 10
35.10000000000002
 20
6.15094196289235
 30
0.0
1001
PE_URL
1000

  0
SPLINE
  5
AD
330
1F
100
AcDbEntity
  8
0
  6
Continuous
 62
     1
370
    15
100
AcDbSpline
210
0.0
220
0.0
230
1.0
 70
     8
 71
     3
 72
    10
 73
     6
 74
     0
 42
0.000000001
 43
0.00000001
 40
0.0
 40
0.0
 40
0.0
 40
0.0
 40
0.4985099180506631
 40
0.9964500625227328
 40
0.9999999999999999
 40
0.9999999999999999
 40
0.9999999999999999
 40
0.9999999999999999
 10
40.1
 20
7.778749999999994
 30
0.0
 10
39.41387883041569
 20
7.768267458133667
 30
0.0
 10
38.04242069573323
 20
7.747314355457304
 30
0.0
 10
36.6665845513042
 20
7.674295951022359
 30
0.0
 10
35.97634962971715
 20
7.600634465027116
 30
0.0
 10
35.9714636092265
 20
7.600113031644527
 30
0.0
1001
PE_URL
1000

  0
SPLINE
  5
AE
330
1F
100
AcDbEntity
  8
0
  6
Continuous
 62
     1
370
    15
100
AcDbSpline
210
0.0
220
0.0
230
1.0
 70
     8
 71
     3
 72
     8
 73
     4
 74
     0
 42
0.000000001
 43
0.00000001
 40
0.0
 40
0.0
 40
0.0
 40
0.0
 40
1.0
 40
1.0
 40
1.0
 40
1.0
 10
40.1
 20
7.77875
 30
0.0
 10
38.41749199506563
 20
7.322596428023169
 30
0.0
 10
36.74835003005506
 20
6.785187056975846
 30
0.0
 10
35.10000000000002
 20
6.150941962891935
 30
0.0
1001
PE_URL
1000

  0
SPLINE
  5
AF
330
1F
100
AcDbEntity
  8
0
  6
Continuous
 62
     1
370
    15
100
AcDbSpline
210
0.0
220
0.0
230
1.0
 70
     8
 71
     3
 72
    15
 73
    11
 74
     0
 42
0.000000001
 43
0.00000001
 40
0.0
 40
0.0
 40
0.0
 40
0.0
 40
0.0789869504177369
 40
0.2203766760945033
 40
0.3616899358673833
 40
0.5028984092313643
 40
0.6273128194652979
 40
0.7514426586513588
 40
0.875858879027004
 40
1.0
 40
1.0
 40
1.0
 40
1.0
 10
16.56020045540259
 20
-8.345948156240238
 30
0.0
 10
16.17689750034733
 20
-8.408039481892201
 30
0.0
 10
15.10746728781806
 20
-8.581276705118485
 30
0.0
 10
13.35171537041053
 20
-8.75840846243992
 30
0.0
 10
11.29421343664218
 20
-8.883225960122173
 30
0.0
 10
9.319648591704343
 20
-8.901092748537229
 30
0.0
 10
7.427296374544063
 20
-8.832130174833916
 30
0.0
 10
5.617933256410443
 20
-8.686023587455582
 30
0.0
 10
3.80840930756018
 20
-8.46925966132791
 30
0.0
 10
2.602358156296287
 20
-8.261494350301748
 30
0.0
 10
2.000000000000008
 20
-8.157726670497375
 30
0.0
1001
PE_URL
1000

  0
SPLINE
  5
B0
330
1F
100
AcDbEntity
  8
외형선
  6
Continuous
370
    15
100
AcDbSpline
210
0.0
220
0.0
230
1.0
 70
    24
 71
     3
 72
    14
 73
    10
 74
     0
 42
0.000000001
 43
0.00000001
 40
0.0
 40
0.0
 40
0.0
 40
0.0
 40
0.25
 40
0.25
 40
0.5
 40
0.5
 40
0.75
 40
0.75
 40
1.0
 40
1.0
 40
1.0
 40
1.0
 10
2.000000000000001
 20
3.091561556538157
 30
0.0
 10
2.000000000000001
 20
2.125667170529331
 30
0.0
 10
2.000000000000001
 20
1.105472076254885
 30
0.0
 10
2.000000000000001
 20
-0.9567277288386193
 30
0.0
 10
2.000000000000001
 20
-1.997772334493886
 30
0.0
 10
2.000000000000001
 20
-3.997095181905361
 30
0.0
 10
2.000000000000001
 20
-4.954308100860335
 30
0.0
 10
2.000000000000001
 20
-6.69708209306604
 30
0.0
 10
2.000000000000001
 20
-7.482131711942594
 30
0.0
 10
2.000000000000001
 20
-8.157726670497373
 30
0.0
  0
LINE
  5
B1
330
1F
100
AcDbEntity
  8
0
  6
Continuous
 62
     1
370
    15
100
AcDbLine
 10
40.1
 20
0.0000000000000028
 30
0.0
 11
40.1
 21
7.77875
 31
0.0
1001
PE_URL
1000

  0
SPLINE
  5
B2
330
1F
100
AcDbEntity
  8
외형선
  6
Continuous
370
    15
100
AcDbSpline
210
0.0
220
0.0
230
1.0
 70
    24
 71
     3
 72
    11
 73
     7
 74
     0
 42
0.000000001
 43
0.00000001
 40
0.0
 40
0.0
 40
0.0
 40
0.0
 40
0.2585037612294949
 40
0.5173789880667209
 40
0.7758827492962159
 40
0.908816353144551
 40
0.908816353144551
 40
0.908816353144551
 40
0.908816353144551
 10
2.000000000000001
 20
-8.157726670497375
 30
0.0
 10
2.000000000000001
 20
-8.240294364377814
 30
0.0
 10
2.000000000000001
 20
-8.405548400542257
 30
0.0
 10
1.999999999999999
 20
-8.56511446172172
 30
0.0
 10
1.999999999999999
 20
-8.652146223608764
 30
0.0
 10
2.0
 20
-8.665116150783037
 30
0.0
 10
2.0
 20
-9.524999999999993
 30
0.0
  0
SPLINE
  5
B3
330
1F
100
AcDbEntity
  8
0
  6
Continuous
 62
     1
370
    15
100
AcDbSpline
210
0.0
220
0.0
230
1.0
 70
     8
 71
     3
 72
    16
 73
    12
 74
     0
 42
0.000000001
 43
0.00000001
 40
0.0
 40
0.0
 40
0.0
 40
0.0
 40
0.0263022415770893
 40
0.1490324739882376
 40
0.2719577219814931
 40
0.3946473968293249
 40
0.5175915070410976
 40
0.6380966826299397
 40
0.7588118628163617
 40
0.879364251008951
 40
1.0
 40
1.0
 40
1.0
 40
1.0
 10
24.81149889664452
 20
7.448972324268617
 30
0.0
 10
24.94555078057109
 20
7.508148504960493
 30
0.0
 10
25.70510900475542
 20
7.843449683905169
 30
0.0
 10
27.09045632262829
 20
8.386487384085587
 30
0.0
 10
28.96861360686854
 20
9.062441318426393
 30
0.0
 10
30.84576689169541
 20
9.648723063971936
 30
0.0
 10
32.71281973566653
 20
10.1395249432733
 30
0.0
 10
34.56765213146595
 20
10.53486166653193
 30
0.0
 10
36.41214215449199
 20
10.82805791256499
 30
0.0
 10
38.25590867622898
 20
11.02996309359399
 30
0.0
 10
39.48516127168121
 20
11.07872067006847
 30
0.0
 10
40.1
 20
11.10310788423941
 30
0.0
1001
PE_URL
1000

  0
SPLINE
  5
B4
330
1F
100
AcDbEntity
  8
0
  6
Continuous
 62
     1
370
    15
100
AcDbSpline
210
0.0
220
0.0
230
1.0
 70
    24
 71
     3
 72
    10
 73
     6
 74
     0
 42
0.000000001
 43
0.00000001
 40
0.0
 40
0.0
 40
0.0
 40
0.0
 40
0.5
 40
0.5
 40
1.0
 40
1.0
 40
1.0
 40
1.0
 10
40.1
 20
7.778749999999997
 30
0.0
 10
40.1
 20
8.250278453771271
 30
0.0
 10
40.1
 20
8.798238185285834
 30
0.0
 10
40.1
 20
9.947856226177498
 30
0.0
 10
40.1
 20
10.54657855534385
 30
0.0
 10
40.1
 20
11.10310788423941
 30
0.0
1001
PE_URL
1000

  0
LINE
  5
B5
330
1F
100
AcDbEntity
  8
중심선
 62
     1
100
AcDbLine
 10
-62.14999999999999
 20
-0.0000000000000076
 30
0.0
 11
47.10000000000002
 21
0.0000000000000048
 31
0.0
  0
LINE
  5
B6
330
1F
100
AcDbEntity
  8
참조1
100
AcDbLine
 10
-4.349999999999993
 20
-0.0000000000000059
 30
0.0
 11
-4.349999999999987
 21
-40.00000000000001
 31
0.0
  0
LINE
  5
B7
330
1F
100
AcDbEntity
  8
참조1
100
AcDbLine
 10
-4.349999999999987
 20
-40.00000000000001
 30
0.0
 11
-24.27133181430867
 21
-40.0
 31
0.0
  0
INSERT
  5
B9
330
1F
100
AcDbEntity
  8
0
  6
Continuous
 62
     7
100
AcDbBlockReference
 66
     1
  2
블럭10
 10
-18.2902729321252
 20
-52.04717430164393
 30
0.0
  0
ATTRIB
  5
BA
330
B9
100
AcDbEntity
  8
FORMAT
 62
     2
100
AcDbText
 10
-27.47156822086648
 20
-49.97180738881174
 30
0.0
 40
4.233333333333333
  1
E2030907 [ 2 FLUTE ]
 41
0.75
  7
SLDTEXTSTYLE0
 11
-27.47156822086648
 21
-52.08847405547841
 31
0.0
100
AcDbAttribute
  2
AUTOATTR0
 70
     0
 74
     1
  0
SEQEND
  5
BB
330
B9
100
AcDbEntity
  8
0
  6
Continuous
 62
     7
  0
HATCH
  5
BC
330
1F
100
AcDbEntity
  8
중심선
100
AcDbHatch
 10
0.0
 20
0.0
 30
0.0
210
0.0
220
0.0
230
1.0
  2
SOLID
 70
     1
 71
     0
 91
        1
 92
        0
 93
        4
 72
     1
 10
-12.57536362774436
 20
-35.8
 11
-16.02163887158164
 21
-35.8
 72
     1
 10
-16.02163887158164
 20
-35.8
 11
-18.14986873078566
 21
-38.3363255805726
 72
     1
 10
-18.14986873078566
 20
-38.3363255805726
 11
-14.70356040183523
 21
-38.33628615127011
 72
     1
 10
-14.70356040183523
 20
-38.33628615127011
 11
-12.57536362774436
 21
-35.8
 97
        0
 75
     0
 76
     1
 98
        1
 10
-1.740578832126936
 20
-0.0010749287238951
  0
HATCH
  5
BD
330
1F
100
AcDbEntity
  8
중심선
100
AcDbHatch
 10
0.0
 20
0.0
 30
0.0
210
0.0
220
0.0
230
1.0
  2
SOLID
 70
     1
 71
     0
 91
        1
 92
        0
 93
        4
 72
     1
 10
-7.562599636708375
 20
-35.8
 11
-11.00887488054566
 21
-35.8
 72
     1
 10
-11.00887488054566
 20
-35.8
 11
-15.54001288890307
 21
-41.20000000000002
 72
     1
 10
-15.54001288890307
 20
-41.20000000000002
 11
-12.09373764506579
 21
-41.20000000000002
 72
     1
 10
-12.09373764506579
 20
-41.20000000000002
 11
-7.562599636708375
 21
-35.8
 97
        0
 75
     0
 76
     1
 98
        1
 10
-1.740578832126936
 20
-0.0010749287238951
  0
HATCH
  5
BE
330
1F
100
AcDbEntity
  8
중심선
100
AcDbHatch
 10
0.0
 20
0.0
 30
0.0
210
0.0
220
0.0
230
1.0
  2
SOLID
 70
     1
 71
     0
 91
        1
 92
        0
 93
        4
 72
     1
 10
-2.549835645672508
 20
-35.8
 11
-5.996110889509624
 21
-35.8
 72
     1
 10
-5.996110889509624
 20
-35.8
 11
-13.04454779139887
 21
-44.20000000000002
 72
     1
 10
-13.04454779139887
 20
-44.20000000000002
 11
-9.59827254756159
 21
-44.20000000000002
 72
     1
 10
-9.59827254756159
 20
-44.20000000000002
 11
-2.549835645672508
 21
-35.8
 97
        0
 75
     0
 76
     1
 98
        1
 10
-1.740578832126936
 20
-0.0010749287238951
  0
HATCH
  5
BF
330
1F
100
AcDbEntity
  8
중심선
100
AcDbHatch
 10
0.0
 20
0.0
 30
0.0
210
0.0
220
0.0
230
1.0
  2
SOLID
 70
     1
 71
     0
 91
        1
 92
        0
 93
        6
 72
     3
 10
2.250054785339691
 20
-40.00000000005127
 11
3.960054785062284
 21
1.540882976769353E-10
 40
0.3939339440162627
 50
17.09539180608436
 51
320.0019657685081
 73
     0
 72
     1
 10
3.933054441040287
 20
-38.5878940046383
 11
6.238356314741324
 21
-36.65356729459035
 72
     3
 10
2.250054785286845
 20
-40.00000000000015
 11
6.60005478528683
 21
-1.278976924368180E-13
 40
0.636358354079598
 50
39.99873849337432
 51
368.4976242363724
 73
     1
 72
     1
 10
8.675387277187454
 20
-39.03999999993002
 11
0.9301220921227671
 21
-39.03999999993002
 72
     1
 10
0.9301220921227671
 20
-39.03999999993002
 11
0.9300970476768331
 21
-40.95999999992991
 72
     1
 10
0.9300970476768331
 20
-40.95999999992991
 11
5.371476817148871
 21
-40.95999999992988
 97
        0
 75
     0
 76
     1
 98
        1
 10
-1.740578832126936
 20
-0.0010749287238951
  0
DIMENSION
  5
C0
330
1F
100
AcDbEntity
  8
치수문자_일반주서
100
AcDbDimension
  2
_D
 10
-70.1499999999999
 20
-9.525000000000066
 30
0.0
 11
-70.15000000000005
 21
29.14999999999993
 31
0.0
 70
   160
  1
%%c<>
 71
     2
 42
19.05
 52
-270.0
  3
SLDDIMSTYLE2
100
AcDbAlignedDimension
 13
-54.14999999999999
 23
9.524999999999995
 33
0.0
 14
-54.14999999999999
 24
-9.525000000000002
 34
0.0
 50
90.0000000000002
100
AcDbRotatedDimension
1001
PE_URL
1000

1001
ACAD
1000
DSTYLE
1002
{
1070
   171
1070
     8
1070
   273
1070
     7
1070
    41
1040
4.0
1070
   140
1040
4.0
1002
}
1001
ACAD_DSTYLE_DIMFLIPARROW_SYMBOL
1070
   385
1070
     0
1001
ACAD_DSTYLE_DIMFLIPARROW_WHICH_SYMBOL
1070
   386
1070
     3
  0
DIMENSION
  5
CE
330
1F
100
AcDbEntity
  8
치수문자_일반주서
100
AcDbDimension
  2
_D_1
 10
2.000000000000004
 20
24.52500000000001
 30
0.0
 11
21.05
 21
24.52500000000001
 31
0.0
 70
   160
  1
<>
 71
     2
 42
38.1
  3
SLDDIMSTYLE2
100
AcDbAlignedDimension
 13
40.1
 23
11.10310788423941
 33
0.0
 14
2.000000000000003
 24
5.472849324069391
 34
0.0
100
AcDbRotatedDimension
1001
PE_URL
1000

1001
ACAD
1000
DSTYLE
1002
{
1070
   171
1070
     8
1070
   273
1070
     7
1070
    41
1040
4.0
1070
   140
1040
4.0
1002
}
  0
DIMENSION
  5
E4
330
1F
100
AcDbEntity
  8
치수문자_일반주서
100
AcDbDimension
  2
_D_2
 10
-55.14999999999998
 20
39.52500000000001
 30
0.0
 11
-7.524999999999991
 21
39.52500000000001
 31
0.0
 70
   160
  1
<>
 71
     2
 42
95.25
  3
SLDDIMSTYLE2
100
AcDbAlignedDimension
 13
40.1
 23
11.10310788423941
 33
0.0
 14
-55.14999999999999
 24
8.524999999999995
 34
0.0
 50
0.000000000000008
100
AcDbRotatedDimension
1001
PE_URL
1000

1001
ACAD
1000
DSTYLE
1002
{
1070
   171
1070
     8
1070
   273
1070
     7
1070
    41
1040
4.0
1070
   140
1040
4.0
1002
}
  0
DIMENSION
  5
F8
330
1F
100
AcDbEntity
  8
치수문자_일반주서
100
AcDbDimension
  2
_D_3
 10
55.09999999999999
 20
11.10310788423947
 30
0.0
 11
55.09999999999992
 21
30.97810788423947
 31
0.0
 70
   160
  1
%%c<>
 71
     2
 42
22.20621576847882
 52
-270.0
  3
SLDDIMSTYLE2
100
AcDbAlignedDimension
 13
40.1
 23
-11.10310788423941
 33
0.0
 14
40.1
 24
11.10310788423941
 34
0.0
 50
90.0000000000002
100
AcDbRotatedDimension
1001
PE_URL
1000

1001
ACAD
1000
DSTYLE
1002
{
1070
   171
1070
     8
1070
   273
1070
     7
1070
    41
1040
4.0
1070
   140
1040
4.0
1002
}
1001
ACAD_DSTYLE_DIMFLIPARROW_SYMBOL
1070
   385
1070
     0
1001
ACAD_DSTYLE_DIMFLIPARROW_WHICH_SYMBOL
1070
   386
1070
     3
  0
LINE
  5
10C
330
1F
100
AcDbEntity
  8
참조1
100
AcDbLine
 10
73.7010088153456
 20
7.44
 30
0.0
 11
73.7010088153456
 21
-7.440000000000004
 31
0.0
  0
LINE
  5
10D
330
1F
100
AcDbEntity
  8
참조1
100
AcDbLine
 10
86.40100881534559
 20
5.44
 30
0.0
 11
73.7010088153456
 21
5.44
 31
0.0
  0
SOLID
  5
10E
330
1F
100
AcDbEntity
  8
참조1
100
AcDbTrace
 10
73.7010088153456
 20
5.44
 30
0.0
 11
80.0510088153456
 21
4.424
 31
0.0
 12
80.0510088153456
 22
6.456
 32
0.0
 13
80.0510088153456
 23
6.456
 33
0.0
  0
LINE
  5
10F
330
1F
100
AcDbEntity
  8
참조1
100
AcDbLine
 10
86.40100881534559
 20
-5.440000000000004
 30
0.0
 11
73.7010088153456
 21
-5.440000000000004
 31
0.0
  0
SOLID
  5
110
330
1F
100
AcDbEntity
  8
참조1
100
AcDbTrace
 10
73.7010088153456
 20
-5.440000000000004
 30
0.0
 11
80.0510088153456
 21
-6.456000000000004
 31
0.0
 12
80.0510088153456
 22
-4.424000000000004
 32
0.0
 13
80.0510088153456
 23
-4.424000000000004
 33
0.0
  0
MTEXT
  5
111
330
1F
100
AcDbEntity
  8
참조1
100
AcDbMText
 10
83.08535894797157
 20
11.01029177718833
 30
0.0
 40
3.5
 41
0.0
 71
     1
 72
     1
  1
A
  7
SLDTEXTSTYLE0
 73
     1
 44
1.0
  0
MTEXT
  5
112
330
1F
100
AcDbEntity
  8
참조1
100
AcDbMText
 10
83.08535894797157
 20
0.130291777188325
 30
0.0
 40
3.5
 41
0.0
 71
     1
 72
     1
  1
A
  7
SLDTEXTSTYLE0
 73
     1
 44
1.0
  0
LINE
  5
18B
330
1F
100
AcDbEntity
  8
외형선
  6
Continuous
370
    15
100
AcDbLine
 10
2.0
 20
9.52500000000002
 30
0.0
 11
-21.65692499999999
 21
9.525000000000002
 31
0.0
  0
LINE
  5
18C
330
1F
100
AcDbEntity
  8
외형선
  6
Continuous
370
    15
100
AcDbLine
 10
-54.14999999999999
 20
-9.525000000000002
 30
0.0
 11
2.0
 21
-9.524999999999995
 31
0.0
  0
LINE
  5
18D
330
1F
100
AcDbEntity
  8
외형선
  6
Continuous
370
    15
100
AcDbLine
 10
-54.14999999999999
 20
9.524999999999995
 30
0.0
 11
-55.14999999999999
 21
8.524999999999995
 31
0.0
  0
LINE
  5
18E
330
1F
100
AcDbEntity
  8
외형선
  6
Continuous
370
    15
100
AcDbLine
 10
-55.14999999999999
 20
-8.525000000000002
 30
0.0
 11
-54.14999999999999
 21
-9.524999999999995
 31
0.0
  0
LINE
  5
197
330
1F
100
AcDbEntity
  8
외형선
  6
Continuous
370
    15
100
AcDbLine
 10
-54.14999999999999
 20
9.524999999999995
 30
0.0
 11
-54.14999999999999
 21
-9.525000000000002
 31
0.0
  0
LINE
  5
199
330
1F
100
AcDbEntity
  8
외형선
  6
Continuous
370
    15
100
AcDbLine
 10
-55.14999999999999
 20
8.524999999999995
 30
0.0
 11
-55.14999999999999
 21
-8.525000000000002
 31
0.0
  0
CIRCLE
  5
1A4
330
1F
100
AcDbEntity
  8
해칭선
100
AcDbCircle
 10
0.0
 20
0.0
 30
0.0
 40
2.999999999999993
  0
INSERT
  5
1A5
330
1F
100
AcDbEntity
  8
해칭선
100
AcDbBlockReference
  2
SW_DOWELSYMBOL_0
 10
0.0
 20
0.0
 30
0.0
  0
LINE
  5
1A6
330
1F
100
AcDbEntity
  8
외형선
  6
Continuous
370
    15
100
AcDbLine
 10
-35.14432499999997
 20
7.619999999999994
 30
0.0
 11
-23.56192499999995
 21
7.619999999999994
 31
0.0
1001
PE_URL
1000

  0
LINE
  5
1A7
330
1F
100
AcDbEntity
  8
외형선
  6
Continuous
370
    15
100
AcDbLine
 10
-35.14432499999997
 20
7.61999999999998
 30
0.0
 11
-37.0493250000001
 21
9.52500000000001
 31
0.0
1001
PE_URL
1000

  0
LINE
  5
1A8
330
1F
100
AcDbEntity
  8
외형선
  6
Continuous
370
    15
100
AcDbLine
 10
-23.56192499999995
 20
7.61999999999998
 30
0.0
 11
-21.65692499999998
 21
9.52500000000001
 31
0.0
1001
PE_URL
1000

  0
LINE
  5
1A9
330
1F
100
AcDbEntity
  8
외형선
  6
Continuous
370
    15
100
AcDbLine
 10
-37.0493250000001
 20
9.525000000000002
 30
0.0
 11
-54.14999999999999
 21
9.524999999999999
 31
0.0
  0
ENDSEC
  0
SECTION
  2
OBJECTS
  0
DICTIONARY
  5
C
330
0
100
AcDbDictionary
281
     1
  3
ACAD_DETAILVIEWSTYLE
350
204
  3
ACAD_GROUP
350
D
  3
ACAD_IMAGE_VARS
350
25A
  3
ACAD_LAYOUT
350
1A
  3
ACAD_MLINESTYLE
350
17
  3
ACAD_PLOTSETTINGS
350
19
  3
ACAD_PLOTSTYLENAME
350
E
  3
ACAD_SCALELIST
350
47
  3
ACAD_SECTIONVIEWSTYLE
350
205
  3
AcDbVariableDictionary
350
1FF
  3
APPDATA
350
13B
  3
DWGPROPS
350
25B
  0
DICTIONARY
  5
186
330
2
100
AcDbDictionary
280
     1
281
     1
  3
ACAD_LAYERSTATES
360
187
  0
DICTIONARY
  5
204
102
{ACAD_REACTORS
330
C
102
}
330
C
100
AcDbDictionary
281
     1
  0
DICTIONARY
  5
D
102
{ACAD_REACTORS
330
C
102
}
330
C
100
AcDbDictionary
281
     1
  0
RASTERVARIABLES
  5
25A
102
{ACAD_REACTORS
330
C
102
}
330
C
100
AcDbRasterVariables
 90
        0
 70
     1
 71
     1
 72
     1
  0
DICTIONARY
  5
1A
102
{ACAD_REACTORS
330
C
102
}
330
C
100
AcDbDictionary
281
     1
  3
Layout1
350
1E
  3
Layout2
350
26
  3
Model
350
22
  0
DICTIONARY
  5
17
102
{ACAD_REACTORS
330
C
102
}
330
C
100
AcDbDictionary
281
     1
  3
Standard
350
18
  0
DICTIONARY
  5
19
102
{ACAD_REACTORS
330
C
102
}
330
C
100
AcDbDictionary
281
     1
  0
ACDBDICTIONARYWDFLT
  5
E
102
{ACAD_REACTORS
330
C
102
}
330
C
100
AcDbDictionary
281
     1
  3
Normal
350
F
100
AcDbDictionaryWithDefault
340
F
  0
DICTIONARY
  5
47
102
{ACAD_REACTORS
330
C
102
}
330
C
100
AcDbDictionary
281
     1
  3
A0
350
48
  3
A1
350
49
  3
A2
350
4A
  3
A3
350
4B
  3
A4
350
4C
  3
A5
350
4D
  3
A6
350
4E
  3
A7
350
4F
  3
A8
350
50
  3
A9
350
51
  3
B0
350
52
  3
B1
350
53
  3
B2
350
54
  3
B3
350
55
  3
B4
350
56
  3
B5
350
57
  3
B6
350
58
  3
B7
350
59
  3
B8
350
5A
  3
B9
350
5B
  3
C0
350
5C
  3
C1
350
5D
  3
C2
350
5E
  3
C3
350
5F
  3
C4
350
60
  3
C5
350
61
  3
C6
350
62
  3
C7
350
63
  3
C8
350
64
  3
C9
350
65
  3
D0
350
66
  3
D1
350
67
  3
D2
350
68
  0
DICTIONARY
  5
205
102
{ACAD_REACTORS
330
C
102
}
330
C
100
AcDbDictionary
281
     1
  0
DICTIONARY
  5
1FF
102
{ACAD_REACTORS
330
C
102
}
330
C
100
AcDbDictionary
281
     1
  0
DICTIONARY
  5
13B
102
{ACAD_REACTORS
330
C
102
}
330
C
100
AcDbDictionary
281
     1
  0
XRECORD
  5
25B
102
{ACAD_REACTORS
330
C
102
}
330
C
100
AcDbXrecord
280
     1
  1
DWGPROPS COOKIE
  2

  3

  4

  6

  7

  8
12016016
  9

300
=
301
=
302
=
303
=
304
=
305
=
306
=
307
=
308
=
309
=
 40
0.0
 41
2458311.191484074
 42
2458323.079446262
  1

 90
        0
  0
DICTIONARY
  5
187
102
{ACAD_REACTORS
330
186
102
}
330
186
100
AcDbDictionary
281
     1
  0
LAYOUT
  5
1E
102
{ACAD_REACTORS
330
1A
102
}
330
1A
100
AcDbPlotSettings
  1

  2
none_device
  4

  6

 40
0.0
 41
0.0
 42
0.0
 43
0.0
 44
0.0
 45
0.0
 46
0.0
 47
0.0
 48
0.0
 49
0.0
140
0.0
141
0.0
142
1.0
143
1.0
 70
   688
 72
     1
 73
     0
 74
     5
  7

 75
    16
147
1.0
148
0.0
149
0.0
100
AcDbLayout
  1
Layout1
 70
     1
 71
     1
 10
0.0
 20
0.0
 11
420.0
 21
297.0
 12
0.0
 22
0.0
 32
0.0
 14
1.000000000000000E+20
 24
1.000000000000000E+20
 34
1.000000000000000E+20
 15
-1.000000000000000E+20
 25
-1.000000000000000E+20
 35
-1.000000000000000E+20
146
0.0
 13
0.0
 23
0.0
 33
0.0
 16
1.0
 26
0.0
 36
0.0
 17
0.0
 27
1.0
 37
0.0
 76
     0
330
1B
  0
LAYOUT
  5
26
102
{ACAD_REACTORS
330
1A
102
}
330
1A
100
AcDbPlotSettings
  1

  2
none_device
  4

  6

 40
0.0
 41
0.0
 42
0.0
 43
0.0
 44
0.0
 45
0.0
 46
0.0
 47
0.0
 48
0.0
 49
0.0
140
0.0
141
0.0
142
1.0
143
1.0
 70
   688
 72
     1
 73
     0
 74
     5
  7

 75
    16
147
1.0
148
0.0
149
0.0
100
AcDbLayout
  1
Layout2
 70
     1
 71
     2
 10
0.0
 20
0.0
 11
0.0
 21
0.0
 12
0.0
 22
0.0
 32
0.0
 14
0.0
 24
0.0
 34
0.0
 15
0.0
 25
0.0
 35
0.0
146
0.0
 13
0.0
 23
0.0
 33
0.0
 16
1.0
 26
0.0
 36
0.0
 17
0.0
 27
1.0
 37
0.0
 76
     0
330
23
  0
LAYOUT
  5
22
102
{ACAD_REACTORS
330
1A
102
}
330
1A
100
AcDbPlotSettings
  1

  2
none_device
  4
ANSI_A_(11.00_x_8.50_Inches)
  6

 40
6.35
 41
19.05
 42
6.35000508
 43
19.05000254
 44
279.4
 45
215.9
 46
111.5354592427306
 47
96.84991333250811
 48
0.0
 49
0.0
140
0.0
141
0.0
142
0.0715194751484015
143
1.0
 70
  1696
 72
     0
 73
     0
 74
     0
  7

 75
     0
147
0.0235690232323232
148
0.0
149
0.0
100
AcDbLayout
  1
Model
 70
     1
 71
     0
 10
0.0
 20
0.0
 11
420.0
 21
297.0
 12
0.0
 22
0.0
 32
0.0
 14
-75.0250000000001
 24
-49.97180738881175
 34
0.0
 15
86.40100881534559
 25
46.85310788423946
 35
0.0
146
0.0
 13
0.0
 23
0.0
 33
0.0
 16
1.0
 26
0.0
 36
0.0
 17
0.0
 27
1.0
 37
0.0
 76
     0
330
1F
331
29
  0
MLINESTYLE
  5
18
102
{ACAD_REACTORS
330
17
102
}
330
17
100
AcDbMlineStyle
  2
Standard
 70
     0
  3

 62
   256
 51
90.0
 52
90.0
 71
     2
 49
0.5
 62
   256
  6
BYLAYER
 49
-0.5
 62
   256
  6
BYLAYER
  0
ACDBPLACEHOLDER
  5
F
102
{ACAD_REACTORS
330
E
102
}
330
E
  0
SCALE
  5
48
102
{ACAD_REACTORS
330
47
102
}
330
47
100
AcDbScale
 70
     0
300
1:1
140
1.0
141
1.0
290
     1
  0
SCALE
  5
49
102
{ACAD_REACTORS
330
47
102
}
330
47
100
AcDbScale
 70
     0
300
1:2
140
1.0
141
2.0
290
     0
  0
SCALE
  5
4A
102
{ACAD_REACTORS
330
47
102
}
330
47
100
AcDbScale
 70
     0
300
1:4
140
1.0
141
4.0
290
     0
  0
SCALE
  5
4B
102
{ACAD_REACTORS
330
47
102
}
330
47
100
AcDbScale
 70
     0
300
1:5
140
1.0
141
5.0
290
     0
  0
SCALE
  5
4C
102
{ACAD_REACTORS
330
47
102
}
330
47
100
AcDbScale
 70
     0
300
1:8
140
1.0
141
8.0
290
     0
  0
SCALE
  5
4D
102
{ACAD_REACTORS
330
47
102
}
330
47
100
AcDbScale
 70
     0
300
1:10
140
1.0
141
10.0
290
     0
  0
SCALE
  5
4E
102
{ACAD_REACTORS
330
47
102
}
330
47
100
AcDbScale
 70
     0
300
1:16
140
1.0
141
16.0
290
     0
  0
SCALE
  5
4F
102
{ACAD_REACTORS
330
47
102
}
330
47
100
AcDbScale
 70
     0
300
1:20
140
1.0
141
20.0
290
     0
  0
SCALE
  5
50
102
{ACAD_REACTORS
330
47
102
}
330
47
100
AcDbScale
 70
     0
300
1:30
140
1.0
141
30.0
290
     0
  0
SCALE
  5
51
102
{ACAD_REACTORS
330
47
102
}
330
47
100
AcDbScale
 70
     0
300
1:40
140
1.0
141
40.0
290
     0
  0
SCALE
  5
52
102
{ACAD_REACTORS
330
47
102
}
330
47
100
AcDbScale
 70
     0
300
1:50
140
1.0
141
50.0
290
     0
  0
SCALE
  5
53
102
{ACAD_REACTORS
330
47
102
}
330
47
100
AcDbScale
 70
     0
300
1:100
140
1.0
141
100.0
290
     0
  0
SCALE
  5
54
102
{ACAD_REACTORS
330
47
102
}
330
47
100
AcDbScale
 70
     0
300
2:1
140
2.0
141
1.0
290
     0
  0
SCALE
  5
55
102
{ACAD_REACTORS
330
47
102
}
330
47
100
AcDbScale
 70
     0
300
4:1
140
4.0
141
1.0
290
     0
  0
SCALE
  5
56
102
{ACAD_REACTORS
330
47
102
}
330
47
100
AcDbScale
 70
     0
300
8:1
140
8.0
141
1.0
290
     0
  0
SCALE
  5
57
102
{ACAD_REACTORS
330
47
102
}
330
47
100
AcDbScale
 70
     0
300
10:1
140
10.0
141
1.0
290
     0
  0
SCALE
  5
58
102
{ACAD_REACTORS
330
47
102
}
330
47
100
AcDbScale
 70
     0
300
100:1
140
100.0
141
1.0
290
     0
  0
SCALE
  5
59
102
{ACAD_REACTORS
330
47
102
}
330
47
100
AcDbScale
 70
     0
300
1/128" = 1'-0"
140
0.0078125
141
12.0
290
     0
  0
SCALE
  5
5A
102
{ACAD_REACTORS
330
47
102
}
330
47
100
AcDbScale
 70
     0
300
1/64" = 1'-0"
140
0.015625
141
12.0
290
     0
  0
SCALE
  5
5B
102
{ACAD_REACTORS
330
47
102
}
330
47
100
AcDbScale
 70
     0
300
1/32" = 1'-0"
140
0.03125
141
12.0
290
     0
  0
SCALE
  5
5C
102
{ACAD_REACTORS
330
47
102
}
330
47
100
AcDbScale
 70
     0
300
1/16" = 1'-0"
140
0.0625
141
12.0
290
     0
  0
SCALE
  5
5D
102
{ACAD_REACTORS
330
47
102
}
330
47
100
AcDbScale
 70
     0
300
3/32" = 1'-0"
140
0.09375
141
12.0
290
     0
  0
SCALE
  5
5E
102
{ACAD_REACTORS
330
47
102
}
330
47
100
AcDbScale
 70
     0
300
1/8" = 1'-0"
140
0.125
141
12.0
290
     0
  0
SCALE
  5
5F
102
{ACAD_REACTORS
330
47
102
}
330
47
100
AcDbScale
 70
     0
300
3/16" = 1'-0"
140
0.1875
141
12.0
290
     0
  0
SCALE
  5
60
102
{ACAD_REACTORS
330
47
102
}
330
47
100
AcDbScale
 70
     0
300
1/4" = 1'-0"
140
0.25
141
12.0
290
     0
  0
SCALE
  5
61
102
{ACAD_REACTORS
330
47
102
}
330
47
100
AcDbScale
 70
     0
300
3/8" = 1'-0"
140
0.375
141
12.0
290
     0
  0
SCALE
  5
62
102
{ACAD_REACTORS
330
47
102
}
330
47
100
AcDbScale
 70
     0
300
1/2" = 1'-0"
140
0.5
141
12.0
290
     0
  0
SCALE
  5
63
102
{ACAD_REACTORS
330
47
102
}
330
47
100
AcDbScale
 70
     0
300
3/4" = 1'-0"
140
0.75
141
12.0
290
     0
  0
SCALE
  5
64
102
{ACAD_REACTORS
330
47
102
}
330
47
100
AcDbScale
 70
     0
300
1" = 1'-0"
140
1.0
141
12.0
290
     0
  0
SCALE
  5
65
102
{ACAD_REACTORS
330
47
102
}
330
47
100
AcDbScale
 70
     0
300
1-1/2" = 1'-0"
140
1.5
141
12.0
290
     0
  0
SCALE
  5
66
102
{ACAD_REACTORS
330
47
102
}
330
47
100
AcDbScale
 70
     0
300
3" = 1'-0"
140
3.0
141
12.0
290
     0
  0
SCALE
  5
67
102
{ACAD_REACTORS
330
47
102
}
330
47
100
AcDbScale
 70
     0
300
6" = 1'-0"
140
6.0
141
12.0
290
     0
  0
SCALE
  5
68
102
{ACAD_REACTORS
330
47
102
}
330
47
100
AcDbScale
 70
     0
300
1'-0" = 1'-0"
140
12.0
141
12.0
290
     0
  0
ENDSEC
  0
EOF
