  0
SECTION
  2
HEADER
  9
$ACADVER
  1
AC1015
  9
$ACADMAINTVER
 70
     6
  9
$DWGCODEPAGE
  3
ANSI_949
  9
$INSBASE
 10
0.0
 20
0.0
 30
0.0
  9
$EXTMIN
 10
-71.85000000000014
 20
-49.97180738881175
 30
0.0
  9
$EXTMAX
 10
86.40100881534556
 20
43.68749999999994
 30
0.0
  9
$LIMMIN
 10
0.0
 20
0.0
  9
$LIMMAX
 10
420.0
 20
297.0
  9
$ORTHOMODE
 70
     1
  9
$REGENMODE
 70
     1
  9
$FILLMODE
 70
     1
  9
$QTEXTMODE
 70
     0
  9
$MIRRTEXT
 70
     1
  9
$LTSCALE
 40
1.0
  9
$ATTMODE
 70
     1
  9
$TEXTSIZE
 40
3.5
  9
$TRACEWID
 40
1.0
  9
$TEXTSTYLE
  7
Standard
  9
$CLAYER
  8
0
  9
$CELTYPE
  6
ByLayer
  9
$CECOLOR
 62
   256
  9
$CELTSCALE
 40
1.0
  9
$DISPSILH
 70
     0
  9
$DIMSCALE
 40
1.0
  9
$DIMASZ
 40
3.302
  9
$DIMEXO
 40
1.0
  9
$DIMDLI
 40
3.75
  9
$DIMRND
 40
0.0
  9
$DIMDLE
 40
0.0
  9
$DIMEXE
 40
1.0
  9
$DIMTP
 40
0.0
  9
$DIMTM
 40
0.0
  9
$DIMTXT
 40
3.5
  9
$DIMCEN
 40
2.5
  9
$DIMTSZ
 40
0.0
  9
$DIMTOL
 70
     0
  9
$DIMLIM
 70
     0
  9
$DIMTIH
 70
     1
  9
$DIMTOH
 70
     1
  9
$DIMSE1
 70
     0
  9
$DIMSE2
 70
     0
  9
$DIMTAD
 70
     1
  9
$DIMZIN
 70
     0
  9
$DIMBLK
  1

  9
$DIMASO
 70
     1
  9
$DIMSHO
 70
     1
  9
$DIMPOST
  1

  9
$DIMAPOST
  1

  9
$DIMALT
 70
     0
  9
$DIMALTD
 70
     3
  9
$DIMALTF
 40
0.0393700787401575
  9
$DIMLFAC
 40
1.0
  9
$DIMTOFL
 70
     1
  9
$DIMTVP
 40
0.0
  9
$DIMTIX
 70
     0
  9
$DIMSOXD
 70
     0
  9
$DIMSAH
 70
     0
  9
$DIMBLK1
  1

  9
$DIMBLK2
  1

  9
$DIMSTYLE
  2
ISO-25
  9
$DIMCLRD
 70
     0
  9
$DIMCLRE
 70
     0
  9
$DIMCLRT
 70
     0
  9
$DIMTFAC
 40
1.0
  9
$DIMGAP
 40
1.524
  9
$DIMJUST
 70
     0
  9
$DIMSD1
 70
     0
  9
$DIMSD2
 70
     0
  9
$DIMTOLJ
 70
     0
  9
$DIMTZIN
 70
     0
  9
$DIMALTZ
 70
     0
  9
$DIMALTTZ
 70
     0
  9
$DIMUPT
 70
     0
  9
$DIMDEC
 70
     2
  9
$DIMTDEC
 70
     2
  9
$DIMALTU
 70
     2
  9
$DIMALTTD
 70
     3
  9
$DIMTXSTY
  7
Standard
  9
$DIMAUNIT
 70
     0
  9
$DIMADEC
 70
     2
  9
$DIMALTRND
 40
0.0
  9
$DIMAZIN
 70
     0
  9
$DIMDSEP
 70
    44
  9
$DIMATFIT
 70
     3
  9
$DIMFRAC
 70
     0
  9
$DIMLDRBLK
  1

  9
$DIMLUNIT
 70
     2
  9
$DIMLWD
 70
    -2
  9
$DIMLWE
 70
    -2
  9
$DIMTMOVE
 70
     0
  9
$LUNITS
 70
     2
  9
$LUPREC
 70
     2
  9
$SKETCHINC
 40
1.0
  9
$FILLETRAD
 40
10.0
  9
$AUNITS
 70
     0
  9
$AUPREC
 70
     2
  9
$MENU
  1
.
  9
$ELEVATION
 40
0.0
  9
$PELEVATION
 40
0.0
  9
$THICKNESS
 40
0.0
  9
$LIMCHECK
 70
     0
  9
$CHAMFERA
 40
0.0
  9
$CHAMFERB
 40
0.0
  9
$CHAMFERC
 40
0.0
  9
$CHAMFERD
 40
0.0
  9
$SKPOLY
 70
     0
  9
$TDCREATE
 40
2458311.566696042
  9
$TDUCREATE
 40
2458311.191696042
  9
$TDUPDATE
 40
2458323.454402812
  9
$TDUUPDATE
 40
2458323.079402812
  9
$TDINDWG
 40
0.0010430671
  9
$TDUSRTIMER
 40
2458323.079366817
  9
$USRTIMER
 70
     1
  9
$ANGBASE
 50
0.0
  9
$ANGDIR
 70
     0
  9
$PDMODE
 70
     0
  9
$PDSIZE
 40
-1.0
  9
$PLINEWID
 40
0.0
  9
$SPLFRAME
 70
     0
  9
$SPLINETYPE
 70
     6
  9
$SPLINESEGS
 70
     8
  9
$HANDSEED
  5
292
  9
$SURFTAB1
 70
     6
  9
$SURFTAB2
 70
     6
  9
$SURFTYPE
 70
     6
  9
$SURFU
 70
     6
  9
$SURFV
 70
     6
  9
$UCSBASE
  2

  9
$UCSNAME
  2

  9
$UCSORG
 10
0.0
 20
0.0
 30
0.0
  9
$UCSXDIR
 10
1.0
 20
0.0
 30
0.0
  9
$UCSYDIR
 10
0.0
 20
1.0
 30
0.0
  9
$UCSORTHOREF
  2

  9
$UCSORTHOVIEW
 70
     0
  9
$UCSORGTOP
 10
0.0
 20
0.0
 30
0.0
  9
$UCSORGBOTTOM
 10
0.0
 20
0.0
 30
0.0
  9
$UCSORGLEFT
 10
0.0
 20
0.0
 30
0.0
  9
$UCSORGRIGHT
 10
0.0
 20
0.0
 30
0.0
  9
$UCSORGFRONT
 10
0.0
 20
0.0
 30
0.0
  9
$UCSORGBACK
 10
0.0
 20
0.0
 30
0.0
  9
$PUCSBASE
  2

  9
$PUCSNAME
  2

  9
$PUCSORG
 10
0.0
 20
0.0
 30
0.0
  9
$PUCSXDIR
 10
1.0
 20
0.0
 30
0.0
  9
$PUCSYDIR
 10
0.0
 20
1.0
 30
0.0
  9
$PUCSORTHOREF
  2

  9
$PUCSORTHOVIEW
 70
     0
  9
$PUCSORGTOP
 10
0.0
 20
0.0
 30
0.0
  9
$PUCSORGBOTTOM
 10
0.0
 20
0.0
 30
0.0
  9
$PUCSORGLEFT
 10
0.0
 20
0.0
 30
0.0
  9
$PUCSORGRIGHT
 10
0.0
 20
0.0
 30
0.0
  9
$PUCSORGFRONT
 10
0.0
 20
0.0
 30
0.0
  9
$PUCSORGBACK
 10
0.0
 20
0.0
 30
0.0
  9
$USERI1
 70
     0
  9
$USERI2
 70
     0
  9
$USERI3
 70
     0
  9
$USERI4
 70
     0
  9
$USERI5
 70
     0
  9
$USERR1
 40
0.0
  9
$USERR2
 40
0.0
  9
$USERR3
 40
0.0
  9
$USERR4
 40
0.0
  9
$USERR5
 40
0.0
  9
$WORLDVIEW
 70
     1
  9
$SHADEDGE
 70
     3
  9
$SHADEDIF
 70
    70
  9
$TILEMODE
 70
     1
  9
$MAXACTVP
 70
    64
  9
$PINSBASE
 10
0.0
 20
0.0
 30
0.0
  9
$PLIMCHECK
 70
     0
  9
$PEXTMIN
 10
1.000000000000000E+20
 20
1.000000000000000E+20
 30
1.000000000000000E+20
  9
$PEXTMAX
 10
-1.000000000000000E+20
 20
-1.000000000000000E+20
 30
-1.000000000000000E+20
  9
$PLIMMIN
 10
0.0
 20
0.0
  9
$PLIMMAX
 10
0.0
 20
0.0
  9
$UNITMODE
 70
     0
  9
$VISRETAIN
 70
     1
  9
$PLINEGEN
 70
     0
  9
$PSLTSCALE
 70
     1
  9
$TREEDEPTH
 70
  3020
  9
$CMLSTYLE
  2
Standard
  9
$CMLJUST
 70
     0
  9
$CMLSCALE
 40
20.0
  9
$PROXYGRAPHICS
 70
     1
  9
$MEASUREMENT
 70
     1
  9
$CELWEIGHT
370
    -1
  9
$ENDCAPS
280
     0
  9
$JOINSTYLE
280
     0
  9
$LWDISPLAY
290
     1
  9
$INSUNITS
 70
     4
  9
$HYPERLINKBASE
  1

  9
$STYLESHEET
  1

  9
$XEDIT
290
     1
  9
$CEPSNTYPE
380
     0
  9
$PSTYLEMODE
290
     1
  9
$FINGERPRINTGUID
  2
{E999491A-B8F5-4C63-961D-C9BBBE2D6C14}
  9
$VERSIONGUID
  2
{FAEB1C32-E019-11D5-929B-00C0DF256EC4}
  9
$EXTNAMES
290
     1
  9
$PSVPSCALE
 40
0.0
  9
$OLESTARTUP
290
     0
  0
ENDSEC
  0
SECTION
  2
CLASSES
  0
CLASS
  1
ACDBDICTIONARYWDFLT
  2
AcDbDictionaryWithDefault
  3
ObjectDBX Classes
 90
        0
280
     0
281
     0
  0
CLASS
  1
VISUALSTYLE
  2
AcDbVisualStyle
  3
ObjectDBX Classes
 90
     4095
280
     0
281
     0
  0
CLASS
  1
MATERIAL
  2
AcDbMaterial
  3
ObjectDBX Classes
 90
     1153
280
     0
281
     0
  0
CLASS
  1
SCALE
  2
AcDbScale
  3
ObjectDBX Classes
 90
     1153
280
     0
281
     0
  0
CLASS
  1
SUN
  2
AcDbSun
  3
SCENEOE
 90
     1153
280
     0
281
     0
  0
CLASS
  1
ACDBPLACEHOLDER
  2
AcDbPlaceHolder
  3
ObjectDBX Classes
 90
        0
280
     0
281
     0
  0
CLASS
  1
LAYOUT
  2
AcDbLayout
  3
ObjectDBX Classes
 90
        0
280
     0
281
     0
  0
CLASS
  1
TABLESTYLE
  2
AcDbTableStyle
  3
ObjectDBX Classes
 90
     4095
280
     0
281
     0
  0
CLASS
  1
MLEADERSTYLE
  2
AcDbMLeaderStyle
  3
ACDB_MLEADERSTYLE_CLASS
 90
     4095
280
     0
281
     0
  0
CLASS
  1
DICTIONARYVAR
  2
AcDbDictionaryVar
  3
ObjectDBX Classes
 90
        0
280
     0
281
     0
  0
CLASS
  1
RASTERVARIABLES
  2
AcDbRasterVariables
  3
ISM
 90
        0
280
     0
281
     0
  0
ENDSEC
  0
SECTION
  2
TABLES
  0
TABLE
  2
VPORT
  5
8
330
0
100
AcDbSymbolTable
 70
     1
  0
VPORT
  5
29
330
8
100
AcDbSymbolTableRecord
100
AcDbViewportTableRecord
  2
*Active
 70
     0
 10
0.0
 20
0.0
 11
1.0
 21
1.0
 12
7.275504407672713
 22
-3.142153694405913
 13
0.0
 23
0.0
 14
10.0
 24
10.0
 15
10.0
 25
10.0
 16
0.0
 26
0.0
 36
1.0
 17
0.0
 27
0.0
 37
0.0
 40
95.5324935365879
 41
1.782762691853601
 42
50.0
 43
0.0
 44
0.0
 50
0.0
 51
0.0
 71
    16
 72
  2000
 73
     1
 74
     3
 75
     0
 76
     0
 77
     0
 78
     0
281
     0
 65
     1
110
0.0
120
0.0
130
0.0
111
1.0
121
0.0
131
0.0
112
0.0
122
1.0
132
0.0
 79
     0
146
0.0
  0
ENDTAB
  0
TABLE
  2
LTYPE
  5
5
330
0
100
AcDbSymbolTable
 70
     6
  0
LTYPE
  5
14
330
5
100
AcDbSymbolTableRecord
100
AcDbLinetypeTableRecord
  2
ByBlock
 70
     0
  3

 72
    65
 73
     0
 40
0.0
  0
LTYPE
  5
15
330
5
100
AcDbSymbolTableRecord
100
AcDbLinetypeTableRecord
  2
ByLayer
 70
     0
  3

 72
    65
 73
     0
 40
0.0
  0
LTYPE
  5
16
330
5
100
AcDbSymbolTableRecord
100
AcDbLinetypeTableRecord
  2
Continuous
 70
     0
  3
Solid line
 72
    65
 73
     0
 40
0.0
  0
LTYPE
  5
6A
330
5
100
AcDbSymbolTableRecord
100
AcDbLinetypeTableRecord
  2
HIDDEN
 70
     0
  3
Hidden __ __ __ __ __ __ __ __ __ __ __ __ __ __
 72
    65
 73
     2
 40
1.905
 49
1.27
 74
     0
 49
-0.635
 74
     0
  0
LTYPE
  5
6B
330
5
100
AcDbSymbolTableRecord
100
AcDbLinetypeTableRecord
  2
PHANTOM
 70
     0
  3
Phantom ______  __  __  ______  __  __  ______
 72
    65
 73
     6
 40
12.7
 49
6.35
 74
     0
 49
-1.27
 74
     0
 49
1.27
 74
     0
 49
-1.27
 74
     0
 49
1.27
 74
     0
 49
-1.27
 74
     0
  0
LTYPE
  5
6C
330
5
100
AcDbSymbolTableRecord
100
AcDbLinetypeTableRecord
  2
CENTER
 70
     0
  3
Center ____ _ ____ _ ____ _ ____ _ ____ _ ____
 72
    65
 73
     4
 40
10.16
 49
6.35
 74
     0
 49
-1.27
 74
     0
 49
1.27
 74
     0
 49
-1.27
 74
     0
  0
LTYPE
  5
6D
330
5
100
AcDbSymbolTableRecord
100
AcDbLinetypeTableRecord
  2
CENTERX2
 70
     0
  3
Center (2x) ________  __  ________  __  _____
 72
    65
 73
     4
 40
20.32
 49
12.7
 74
     0
 49
-2.54
 74
     0
 49
2.54
 74
     0
 49
-2.54
 74
     0
  0
LTYPE
  5
6E
330
5
100
AcDbSymbolTableRecord
100
AcDbLinetypeTableRecord
  2
DOT2
 70
     0
  3
Dot (.5x) ........................................
 72
    65
 73
     2
 40
0.635
 49
0.0
 74
     0
 49
-0.635
 74
     0
  0
ENDTAB
  0
TABLE
  2
LAYER
  5
2
102
{ACAD_XDICTIONARY
360
182
102
}
330
0
100
AcDbSymbolTable
 70
    18
  0
LAYER
  5
10
330
2
100
AcDbSymbolTableRecord
100
AcDbLayerTableRecord
  2
0
 70
     0
 62
     7
  6
Continuous
370
    -3
390
F
  0
LAYER
  5
6F
330
2
100
AcDbSymbolTableRecord
100
AcDbLayerTableRecord
  2
FORMAT
 70
     0
 62
     2
  6
Continuous
370
    -3
390
F
  0
LAYER
  5
70
330
2
100
AcDbSymbolTableRecord
100
AcDbLayerTableRecord
  2
외형선
 70
     0
 62
     4
  6
Continuous
370
    30
390
F
  0
LAYER
  5
71
330
2
100
AcDbSymbolTableRecord
100
AcDbLayerTableRecord
  2
숨은선
 70
     0
 62
     2
  6
HIDDEN
370
    15
390
F
  0
LAYER
  5
72
330
2
100
AcDbSymbolTableRecord
100
AcDbLayerTableRecord
  2
중심선
 70
     0
 62
     1
  6
CENTERX2
370
    -3
390
F
  0
LAYER
  5
73
330
2
100
AcDbSymbolTableRecord
100
AcDbLayerTableRecord
  2
파단선
 70
     0
 62
     4
  6
Continuous
370
    -3
390
F
  0
LAYER
  5
74
330
2
100
AcDbSymbolTableRecord
100
AcDbLayerTableRecord
  2
해칭선
 70
     0
 62
   100
  6
Continuous
370
    -3
390
F
  0
LAYER
  5
75
330
2
100
AcDbSymbolTableRecord
100
AcDbLayerTableRecord
  2
가는실선
 70
     0
 62
     4
  6
Continuous
370
    -3
390
F
  0
LAYER
  5
76
330
2
100
AcDbSymbolTableRecord
100
AcDbLayerTableRecord
  2
치수_보조선
 70
     0
 62
     4
  6
Continuous
370
    -3
390
F
  0
LAYER
  5
77
330
2
100
AcDbSymbolTableRecord
100
AcDbLayerTableRecord
  2
치수문자_일반주서
 70
     0
 62
     7
  6
Continuous
370
    15
390
F
  0
LAYER
  5
78
330
2
100
AcDbSymbolTableRecord
100
AcDbLayerTableRecord
  2
개별주서
 70
     0
 62
   100
  6
Continuous
370
    30
390
F
  0
LAYER
  5
79
330
2
100
AcDbSymbolTableRecord
100
AcDbLayerTableRecord
  2
중간선
 70
     0
 62
     2
  6
Continuous
370
    15
390
F
  0
LAYER
  5
7A
330
2
100
AcDbSymbolTableRecord
100
AcDbLayerTableRecord
  2
윤곽선
 70
     0
 62
     3
  6
Continuous
370
    40
390
F
  0
LAYER
  5
7B
330
2
100
AcDbSymbolTableRecord
100
AcDbLayerTableRecord
  2
중심마크
 70
     0
 62
   100
  6
Continuous
370
    30
390
F
  0
LAYER
  5
7C
330
2
100
AcDbSymbolTableRecord
100
AcDbLayerTableRecord
  2
가상선
 70
     0
 62
     4
  6
PHANTOM
370
    -3
390
F
  0
LAYER
  5
7D
330
2
100
AcDbSymbolTableRecord
100
AcDbLayerTableRecord
  2
특수지정선
 70
     0
 62
     5
  6
CENTERX2
370
    60
390
F
  0
LAYER
  5
7E
330
2
100
AcDbSymbolTableRecord
100
AcDbLayerTableRecord
  2
참조1
 70
     0
 62
    -4
  6
Continuous
370
    -3
390
F
  0
LAYER
  5
1A6
330
2
100
AcDbSymbolTableRecord
100
AcDbLayerTableRecord
  2
Defpoints
 70
     0
 62
     7
  6
Continuous
290
     0
370
    -3
390
F
  0
ENDTAB
  0
TABLE
  2
STYLE
  5
3
330
0
100
AcDbSymbolTable
 70
     2
  0
STYLE
  5
11
330
3
100
AcDbSymbolTableRecord
100
AcDbTextStyleTableRecord
  2
Standard
 70
     0
 40
0.0
 41
1.0
 50
0.0
 71
     0
 42
3.5
  3
txt
  4

  0
STYLE
  5
94
330
3
100
AcDbSymbolTableRecord
100
AcDbTextStyleTableRecord
  2
SLDTEXTSTYLE0
 70
     0
 40
0.0
 41
0.75
 50
0.0
 71
     0
 42
3.5
  3
TXT
  4

  0
ENDTAB
  0
TABLE
  2
VIEW
  5
6
330
0
100
AcDbSymbolTable
 70
     0
  0
ENDTAB
  0
TABLE
  2
UCS
  5
7
330
0
100
AcDbSymbolTable
 70
     0
  0
ENDTAB
  0
TABLE
  2
APPID
  5
9
330
0
100
AcDbSymbolTable
 70
     4
  0
APPID
  5
12
330
9
100
AcDbSymbolTableRecord
100
AcDbRegAppTableRecord
  2
ACAD
 70
     0
  0
APPID
  5
13F
330
9
100
AcDbSymbolTableRecord
100
AcDbRegAppTableRecord
  2
PE_URL
 70
     0
  0
APPID
  5
26C
330
9
100
AcDbSymbolTableRecord
100
AcDbRegAppTableRecord
  2
ACAD_DSTYLE_DIMFLIPARROW_SYMBOL
 70
     0
  0
APPID
  5
26D
330
9
100
AcDbSymbolTableRecord
100
AcDbRegAppTableRecord
  2
ACAD_DSTYLE_DIMFLIPARROW_WHICH_SYMBOL
 70
     0
  0
ENDTAB
  0
TABLE
  2
DIMSTYLE
  5
A
330
0
100
AcDbSymbolTable
 70
     5
100
AcDbDimStyleTable
  0
DIMSTYLE
105
27
330
A
100
AcDbSymbolTableRecord
100
AcDbDimStyleTableRecord
  2
ISO-25
 70
     0
 41
2.5
 42
0.625
 43
3.75
 44
1.25
 73
     0
 74
     0
 77
     1
 78
     8
140
2.5
141
2.5
143
0.03937007874016
147
0.625
171
     3
172
     1
178
     0
271
     2
272
     2
274
     3
278
    44
283
     0
284
     8
340
11
  0
DIMSTYLE
105
BE
330
A
100
AcDbSymbolTableRecord
100
AcDbDimStyleTableRecord
  2
SLDDIMSTYLE0
 70
     0
 41
3.302
 44
0.0
 45
0.000000001
 73
     0
 74
     0
 77
     1
 78
     4
 79
     1
140
3.5
147
0.875
172
     1
173
     1
178
     0
271
     2
272
     2
276
     2
284
    12
289
     0
340
94
  0
DIMSTYLE
105
CC
102
{ACAD_REACTORS
102
}
330
A
100
AcDbSymbolTableRecord
100
AcDbDimStyleTableRecord
  2
SLDDIMSTYLE1
 70
     0
 41
3.302
 44
0.0
 45
0.000000001
 73
     0
 74
     0
 77
     1
 78
     4
 79
     1
140
3.5
143
0.0393700787401575
147
0.875
148
0.000000001
170
     1
172
     1
173
     1
178
     0
271
     2
272
     2
276
     2
284
    12
289
     0
340
94
  0
DIMSTYLE
105
E2
102
{ACAD_REACTORS
330
E1
330
CB
330
F5
330
BD
102
}
330
A
100
AcDbSymbolTableRecord
100
AcDbDimStyleTableRecord
  2
SLDDIMSTYLE2
 70
     0
 41
3.302
 44
0.0
 45
0.000000001
 73
     0
 74
     0
 77
     1
 78
     4
 79
     1
140
3.5
143
0.0393700787401575
147
0.875
148
0.000000001
170
     1
173
     1
178
     0
271
     2
272
     2
276
     2
284
    12
340
94
  0
DIMSTYLE
105
F6
330
A
100
AcDbSymbolTableRecord
100
AcDbDimStyleTableRecord
  2
SLDDIMSTYLE3
 70
     0
 41
3.302
 44
0.0
 45
0.000000001
 73
     0
 74
     0
 77
     1
 78
    12
 79
     3
140
3.5
143
0.0393700787401575
147
0.875
148
0.000000001
170
     1
173
     1
178
     0
271
     2
272
     2
276
     2
284
    12
340
94
  0
ENDTAB
  0
TABLE
  2
BLOCK_RECORD
  5
1
330
0
100
AcDbSymbolTable
 70
    11
  0
BLOCK_RECORD
  5
1F
330
1
100
AcDbSymbolTableRecord
100
AcDbBlockTableRecord
  2
*Model_Space
340
22
  0
BLOCK_RECORD
  5
1B
330
1
100
AcDbSymbolTableRecord
100
AcDbBlockTableRecord
  2
*Paper_Space
340
1E
  0
BLOCK_RECORD
  5
23
330
1
100
AcDbSymbolTableRecord
100
AcDbBlockTableRecord
  2
*Paper_Space0
340
26
  0
BLOCK_RECORD
  5
7F
330
1
100
AcDbSymbolTableRecord
100
AcDbBlockTableRecord
  2
블럭10
340
0
102
{BLKREFS
331
B6
102
}
  0
BLOCK_RECORD
  5
BF
330
1
100
AcDbSymbolTableRecord
100
AcDbBlockTableRecord
  2
_D
340
0
  0
BLOCK_RECORD
  5
CD
330
1
100
AcDbSymbolTableRecord
100
AcDbBlockTableRecord
  2
_D_1
340
0
  0
BLOCK_RECORD
  5
E3
330
1
100
AcDbSymbolTableRecord
100
AcDbBlockTableRecord
  2
_D_2
340
0
  0
BLOCK_RECORD
  5
F7
330
1
100
AcDbSymbolTableRecord
100
AcDbBlockTableRecord
  2
_D_3
340
0
  0
BLOCK_RECORD
  5
110
330
1
100
AcDbSymbolTableRecord
100
AcDbBlockTableRecord
  2
SW_DOWELSYMBOL_0
340
0
102
{BLKREFS
331
1A0
102
}
  0
BLOCK_RECORD
  5
1DD
330
1
100
AcDbSymbolTableRecord
100
AcDbBlockTableRecord
  2
*D7
340
0
  0
BLOCK_RECORD
  5
1EF
330
1
100
AcDbSymbolTableRecord
100
AcDbBlockTableRecord
  2
*D8
340
0
  0
BLOCK_RECORD
  5
237
330
1
100
AcDbSymbolTableRecord
100
AcDbBlockTableRecord
  2
*D9
340
0
  0
BLOCK_RECORD
  5
249
330
1
100
AcDbSymbolTableRecord
100
AcDbBlockTableRecord
  2
*D10
340
0
  0
ENDTAB
  0
ENDSEC
  0
SECTION
  2
BLOCKS
  0
BLOCK
  5
20
330
1F
100
AcDbEntity
  8
0
100
AcDbBlockBegin
  2
*Model_Space
 70
     0
 10
0.0
 20
0.0
 30
0.0
  3
*Model_Space
  1
*Model_Space
  0
ENDBLK
  5
21
330
1F
100
AcDbEntity
  8
0
100
AcDbBlockEnd
  0
BLOCK
  5
1C
330
1B
100
AcDbEntity
 67
     1
  8
0
100
AcDbBlockBegin
  2
*Paper_Space
 70
     0
 10
0.0
 20
0.0
 30
0.0
  3
*Paper_Space
  1
*Paper_Space
  0
ENDBLK
  5
1D
330
1B
100
AcDbEntity
 67
     1
  8
0
100
AcDbBlockEnd
  0
BLOCK
  5
24
330
23
100
AcDbEntity
  8
0
100
AcDbBlockBegin
  2
*Paper_Space0
 70
     0
 10
0.0
 20
0.0
 30
0.0
  3
*Paper_Space0
  1
*Paper_Space0
  0
ENDBLK
  5
25
330
23
100
AcDbEntity
  8
0
100
AcDbBlockEnd
  0
BLOCK
  5
80
330
7F
100
AcDbEntity
  8
0
100
AcDbBlockBegin
  2
블럭10
 70
     2
 10
0.0
 20
0.0
 30
0.0
  3
블럭10
  1
블럭10
  0
ELLIPSE
  5
82
330
7F
100
AcDbEntity
  8
중심선
100
AcDbEllipse
 10
20.54032771741204
 20
12.0471743016438
 30
0.0
 11
6.600054785286829
 21
-1.261213355974178E-13
 31
0.0
210
0.0
220
0.0
230
1.0
 40
0.636358354079598
 41
0.9219305317359503
 42
6.513795318482858
  0
ELLIPSE
  5
83
330
7F
100
AcDbEntity
  8
중심선
100
AcDbEllipse
 10
20.54032771746488
 20
12.04717430159265
 30
0.0
 11
3.960054785062283
 21
1.540847449632565E-10
 31
0.0
210
0.0
220
0.0
230
1.0
 40
0.3939339440162632
 41
1.131841032648279
 42
5.62031148352944
  0
LINE
  5
84
330
7F
100
AcDbEntity
  8
중심선
100
AcDbLine
 10
2.268634060543552
 20
16.24717430164393
 30
0.0
 11
5.714909304380834
 21
16.24717430164393
 31
0.0
  0
LINE
  5
85
330
7F
100
AcDbEntity
  8
중심선
100
AcDbLine
 10
5.245725140726316
 20
7.84717430164391
 30
0.0
 11
8.692000384563599
 21
7.84717430164391
 31
0.0
  0
LINE
  5
86
330
7F
100
AcDbEntity
  8
중심선
100
AcDbLine
 10
15.74043728645272
 20
16.24717430164393
 30
0.0
 11
8.692000384563599
 21
7.84717430164391
 31
0.0
  0
LINE
  5
87
330
7F
100
AcDbEntity
  8
중심선
100
AcDbLine
 10
0.1404042013395286
 20
13.71084872107135
 30
0.0
 11
3.58671253028996
 21
13.71088815037384
 31
0.0
  0
LINE
  5
88
330
7F
100
AcDbEntity
  8
중심선
100
AcDbLine
 10
2.750260043222114
 20
10.84717430164391
 30
0.0
 11
6.196535287059397
 21
10.84717430164391
 31
0.0
  0
LINE
  5
89
330
7F
100
AcDbEntity
  8
중심선
100
AcDbLine
 10
12.29416204261559
 20
16.24717430164393
 30
0.0
 11
5.245725140726316
 21
7.84717430164391
 31
0.0
  0
LINE
  5
8A
330
7F
100
AcDbEntity
  8
중심선
100
AcDbLine
 10
10.72767329541681
 20
16.24717430164393
 30
0.0
 11
6.196535287059397
 21
10.84717430164391
 31
0.0
  0
LINE
  5
8B
330
7F
100
AcDbEntity
  8
중심선
100
AcDbLine
 10
7.28139805157953
 20
16.24717430164393
 30
0.0
 11
2.750260043222114
 21
10.84717430164391
 31
0.0
  0
LINE
  5
8C
330
7F
100
AcDbEntity
  8
중심선
100
AcDbLine
 10
5.714909304380834
 20
16.24717430164393
 30
0.0
 11
3.58671253028996
 21
13.71088815037384
 31
0.0
  0
LINE
  5
8D
330
7F
100
AcDbEntity
  8
중심선
100
AcDbLine
 10
2.268634060543552
 20
16.24717430164393
 30
0.0
 11
0.1404042013395286
 21
13.71084872107135
 31
0.0
  0
LINE
  5
8E
330
7F
100
AcDbEntity
  8
중심선
100
AcDbLine
 10
7.28139805157953
 20
16.24717430164393
 30
0.0
 11
10.72767329541681
 21
16.24717430164393
 31
0.0
  0
LINE
  5
8F
330
7F
100
AcDbEntity
  8
중심선
100
AcDbLine
 10
12.29416204261559
 20
16.24717430164393
 30
0.0
 11
15.74043728645272
 21
16.24717430164393
 31
0.0
  0
LINE
  5
90
330
7F
100
AcDbEntity
  8
중심선
100
AcDbLine
 10
19.22036997980202
 20
11.08717430171403
 30
0.0
 11
23.66174974927406
 21
11.08717430171406
 31
0.0
  0
LINE
  5
91
330
7F
100
AcDbEntity
  8
중심선
100
AcDbLine
 10
19.22039502424796
 20
13.00717430171391
 30
0.0
 11
19.22036997980202
 21
11.08717430171403
 31
0.0
  0
LINE
  5
92
330
7F
100
AcDbEntity
  8
중심선
100
AcDbLine
 10
19.22039502424796
 20
13.00717430171391
 30
0.0
 11
26.96566020931264
 21
13.00717430171391
 31
0.0
  0
LINE
  5
93
330
7F
100
AcDbEntity
  8
중심선
100
AcDbLine
 10
22.22332737316547
 20
13.45928029700563
 30
0.0
 11
24.52862924686651
 21
15.39360700705356
 31
0.0
  0
ATTDEF
  5
95
330
7F
100
AcDbEntity
  8
FORMAT
 62
     2
100
AcDbText
 10
4.408487351596664
 20
2.075366912832191
 30
0.0
 40
4.233333333333333
  1
E1030908
 41
0.75
  7
SLDTEXTSTYLE0
 11
4.408487351596664
 21
-0.0412997538344756
 31
0.0
100
AcDbAttributeDefinition
  3

  2
AUTOATTR0
 70
     0
 74
     1
  0
ENDBLK
  5
81
330
7F
100
AcDbEntity
  8
0
100
AcDbBlockEnd
  0
BLOCK
  5
C0
330
BF
100
AcDbEntity
  8
0
100
AcDbBlockBegin
  2
_D
 70
     0
 10
0.0
 20
0.0
 30
0.0
  3
_D
  1
_D
  0
LINE
  5
C2
330
BF
100
AcDbEntity
  8
치수문자_일반주서
 62
     0
370
    -2
100
AcDbLine
 10
-51.03749999999999
 20
7.937499999999989
 30
0.0
 11
-66.97500000000001
 21
7.937499999999929
 31
0.0
  0
LINE
  5
C3
330
BF
100
AcDbEntity
  8
치수문자_일반주서
 62
     0
370
    -2
100
AcDbLine
 10
-50.97499999999999
 20
-7.937500000000007
 30
0.0
 11
-66.97499999999995
 21
-7.937500000000071
 31
0.0
  0
LINE
  5
C4
330
BF
100
AcDbEntity
  8
치수문자_일반주서
 62
     0
370
    -2
100
AcDbLine
 10
-66.97500000000001
 20
7.937499999999929
 30
0.0
 11
-66.97500000000014
 21
43.68749999999993
 31
0.0
  0
LINE
  5
C5
330
BF
100
AcDbEntity
  8
치수문자_일반주서
 62
     0
370
    -2
100
AcDbLine
 10
-66.97500000000001
 20
7.937499999999929
 30
0.0
 11
-66.97499999999995
 21
-7.937500000000071
 31
0.0
  0
LINE
  5
C6
330
BF
100
AcDbEntity
  8
치수문자_일반주서
 62
     0
370
    -2
100
AcDbLine
 10
-66.97500000000002
 20
11.93749999999993
 30
0.0
 11
-66.97500000000004
 21
15.93749999999993
 31
0.0
  0
LINE
  5
C7
330
BF
100
AcDbEntity
  8
치수문자_일반주서
 62
     0
370
    -2
100
AcDbLine
 10
-66.97499999999994
 20
-11.93750000000007
 30
0.0
 11
-66.97499999999992
 21
-15.93750000000007
 31
0.0
  0
SOLID
  5
C8
330
BF
100
AcDbEntity
  8
치수문자_일반주서
 62
     0
100
AcDbTrace
 10
-67.6416666666667
 20
11.93749999999993
 30
0.0
 11
-66.30833333333335
 21
11.93749999999993
 31
0.0
 12
-66.97500000000001
 22
7.937499999999929
 32
0.0
 13
-66.97500000000001
 23
7.937499999999929
 33
0.0
  0
SOLID
  5
C9
330
BF
100
AcDbEntity
  8
치수문자_일반주서
 62
     0
100
AcDbTrace
 10
-66.30833333333327
 20
-11.93750000000007
 30
0.0
 11
-67.64166666666661
 21
-11.93750000000007
 31
0.0
 12
-66.97499999999995
 22
-7.937500000000071
 32
0.0
 13
-66.97499999999995
 23
-7.937500000000071
 33
0.0
  0
MTEXT
  5
CA
330
BF
100
AcDbEntity
  8
치수문자_일반주서
 62
     0
100
AcDbMText
 10
-71.85000000000008
 20
27.81249999999991
 30
0.0
 40
4.0
 41
0.0
 71
     2
 72
     1
  1
\A1;%%c15.88 [5/8]
  7
SLDTEXTSTYLE0
 11
-3.580687802255624E-15
 21
1.0
 31
0.0
 73
     1
 44
1.0
  0
POINT
  5
266
330
BF
100
AcDbEntity
  8
Defpoints
 62
     0
100
AcDbPoint
 10
-50.97499999999999
 20
7.937499999999989
 30
0.0
  0
POINT
  5
267
330
BF
100
AcDbEntity
  8
Defpoints
 62
     0
100
AcDbPoint
 10
-50.91249999999999
 20
-7.937500000000007
 30
0.0
  0
POINT
  5
268
330
BF
100
AcDbEntity
  8
Defpoints
 62
     0
100
AcDbPoint
 10
-66.97499999999995
 20
-7.937500000000068
 30
0.0
  0
ENDBLK
  5
C1
330
BF
100
AcDbEntity
  8
0
100
AcDbBlockEnd
  0
BLOCK
  5
CE
330
CD
100
AcDbEntity
  8
0
100
AcDbBlockBegin
  2
_D_1
 70
     0
 10
0.0
 20
0.0
 30
0.0
  3
_D_1
  1
_D_1
  0
LINE
  5
D0
330
CD
100
AcDbEntity
  8
치수문자_일반주서
 62
     0
370
    -2
100
AcDbLine
 10
40.09999999999998
 20
12.75176615341647
 30
0.0
 11
40.09999999999998
 21
22.9375
 31
0.0
  0
LINE
  5
D1
330
CD
100
AcDbEntity
  8
치수문자_일반주서
 62
     0
370
    -2
100
AcDbLine
 10
1.999999999999967
 20
5.53534932406939
 30
0.0
 11
1.999999999999968
 21
22.9375
 31
0.0
  0
LINE
  5
D2
330
CD
100
AcDbEntity
  8
치수문자_일반주서
 62
     0
370
    -2
100
AcDbLine
 10
36.09999999999998
 20
22.9375
 30
0.0
 11
5.999999999999968
 21
22.9375
 31
0.0
  0
SOLID
  5
D3
330
CD
100
AcDbEntity
  8
치수문자_일반주서
 62
     0
100
AcDbTrace
 10
36.09999999999998
 20
22.27083333333333
 30
0.0
 11
36.09999999999998
 21
23.60416666666666
 31
0.0
 12
40.09999999999998
 22
22.9375
 32
0.0
 13
40.09999999999998
 23
22.9375
 33
0.0
  0
SOLID
  5
D4
330
CD
100
AcDbEntity
  8
치수문자_일반주서
 62
     0
100
AcDbTrace
 10
5.999999999999968
 20
23.60416666666666
 30
0.0
 11
5.999999999999968
 21
22.27083333333333
 31
0.0
 12
1.999999999999968
 22
22.9375
 32
0.0
 13
1.999999999999968
 23
22.9375
 33
0.0
  0
MTEXT
  5
D5
330
CD
100
AcDbEntity
  8
치수문자_일반주서
 62
     0
100
AcDbMText
 10
21.04999999999998
 20
27.8125
 30
0.0
 40
4.0
 41
0.0
 71
     2
 72
     1
  1
\A1;38.10 [1 1/2]
  7
SLDTEXTSTYLE0
 73
     1
 44
1.0
  0
POINT
  5
D6
330
CD
100
AcDbEntity
  8
Defpoints
 62
     0
100
AcDbPoint
 10
40.09999999999998
 20
12.68926615341647
 30
0.0
  0
POINT
  5
D7
330
CD
100
AcDbEntity
  8
Defpoints
 62
     0
100
AcDbPoint
 10
1.999999999999967
 20
5.47284932406939
 30
0.0
  0
POINT
  5
D8
330
CD
100
AcDbEntity
  8
Defpoints
 62
     0
100
AcDbPoint
 10
1.999999999999967
 20
22.9375
 30
0.0
  0
ENDBLK
  5
CF
330
CD
100
AcDbEntity
  8
0
100
AcDbBlockEnd
  0
BLOCK
  5
E4
330
E3
100
AcDbEntity
  8
0
100
AcDbBlockBegin
  2
_D_2
 70
     0
 10
0.0
 20
0.0
 30
0.0
  3
_D_2
  1
_D_2
  0
LINE
  5
E6
330
E3
100
AcDbEntity
  8
치수문자_일반주서
 62
     0
370
    -2
100
AcDbLine
 10
40.09999999999998
 20
12.75176615341647
 30
0.0
 11
40.09999999999998
 21
37.9375
 31
0.0
  0
LINE
  5
E7
330
E3
100
AcDbEntity
  8
치수문자_일반주서
 62
     0
370
    -2
100
AcDbLine
 10
-51.97500000000001
 20
6.999999999999989
 30
0.0
 11
-51.97500000000001
 21
37.9375
 31
0.0
  0
LINE
  5
E8
330
E3
100
AcDbEntity
  8
치수문자_일반주서
 62
     0
370
    -2
100
AcDbLine
 10
36.09999999999998
 20
37.9375
 30
0.0
 11
-47.97500000000001
 21
37.9375
 31
0.0
  0
SOLID
  5
E9
330
E3
100
AcDbEntity
  8
치수문자_일반주서
 62
     0
100
AcDbTrace
 10
36.09999999999998
 20
37.27083333333334
 30
0.0
 11
36.09999999999998
 21
38.60416666666666
 31
0.0
 12
40.09999999999998
 22
37.9375
 32
0.0
 13
40.09999999999998
 23
37.9375
 33
0.0
  0
SOLID
  5
EA
330
E3
100
AcDbEntity
  8
치수문자_일반주서
 62
     0
100
AcDbTrace
 10
-47.97500000000001
 20
38.60416666666666
 30
0.0
 11
-47.97500000000001
 21
37.27083333333334
 31
0.0
 12
-51.97500000000001
 22
37.9375
 32
0.0
 13
-51.97500000000001
 23
37.9375
 33
0.0
  0
MTEXT
  5
EB
330
E3
100
AcDbEntity
  8
치수문자_일반주서
 62
     0
100
AcDbMText
 10
-5.937500000000014
 20
42.8125
 30
0.0
 40
4.0
 41
0.0
 71
     2
 72
     1
  1
\A1;92.08 [3 5/8]
  7
SLDTEXTSTYLE0
 73
     1
 44
1.0
  0
POINT
  5
EC
330
E3
100
AcDbEntity
  8
Defpoints
 62
     0
100
AcDbPoint
 10
40.09999999999998
 20
12.68926615341647
 30
0.0
  0
POINT
  5
ED
330
E3
100
AcDbEntity
  8
Defpoints
 62
     0
100
AcDbPoint
 10
-51.97500000000001
 20
6.937499999999989
 30
0.0
  0
POINT
  5
EE
330
E3
100
AcDbEntity
  8
Defpoints
 62
     0
100
AcDbPoint
 10
-51.97500000000001
 20
37.9375
 30
0.0
  0
ENDBLK
  5
E5
330
E3
100
AcDbEntity
  8
0
100
AcDbBlockEnd
  0
BLOCK
  5
F8
330
F7
100
AcDbEntity
  8
0
100
AcDbBlockBegin
  2
_D_3
 70
     0
 10
0.0
 20
0.0
 30
0.0
  3
_D_3
  1
_D_3
  0
LINE
  5
FA
330
F7
100
AcDbEntity
  8
치수문자_일반주서
 62
     0
370
    -2
100
AcDbLine
 10
40.16249999999998
 20
-12.68926615341648
 30
0.0
 11
55.09999999999998
 21
-12.68926615341642
 31
0.0
  0
LINE
  5
FB
330
F7
100
AcDbEntity
  8
치수문자_일반주서
 62
     0
370
    -2
100
AcDbLine
 10
40.16249999999998
 20
12.68926615341647
 30
0.0
 11
55.09999999999989
 21
12.68926615341653
 31
0.0
  0
LINE
  5
FC
330
F7
100
AcDbEntity
  8
치수문자_일반주서
 62
     0
370
    -2
100
AcDbLine
 10
55.09999999999989
 20
12.68926615341653
 30
0.0
 11
55.0999999999998
 21
42.43926615341653
 31
0.0
  0
LINE
  5
FD
330
F7
100
AcDbEntity
  8
치수문자_일반주서
 62
     0
370
    -2
100
AcDbLine
 10
55.09999999999998
 20
-12.68926615341642
 30
0.0
 11
55.09999999999989
 21
12.68926615341653
 31
0.0
  0
LINE
  5
FE
330
F7
100
AcDbEntity
  8
치수문자_일반주서
 62
     0
370
    -2
100
AcDbLine
 10
55.09999999999999
 20
-16.68926615341642
 30
0.0
 11
55.10000000000001
 21
-20.68926615341642
 31
0.0
  0
LINE
  5
FF
330
F7
100
AcDbEntity
  8
치수문자_일반주서
 62
     0
370
    -2
100
AcDbLine
 10
55.09999999999988
 20
16.68926615341653
 30
0.0
 11
55.09999999999987
 21
20.68926615341653
 31
0.0
  0
SOLID
  5
100
330
F7
100
AcDbEntity
  8
치수문자_일반주서
 62
     0
100
AcDbTrace
 10
55.76666666666666
 20
-16.68926615341642
 30
0.0
 11
54.43333333333333
 21
-16.68926615341642
 31
0.0
 12
55.09999999999998
 22
-12.68926615341642
 32
0.0
 13
55.09999999999998
 23
-12.68926615341642
 33
0.0
  0
SOLID
  5
101
330
F7
100
AcDbEntity
  8
치수문자_일반주서
 62
     0
100
AcDbTrace
 10
54.43333333333322
 20
16.68926615341652
 30
0.0
 11
55.76666666666654
 21
16.68926615341653
 31
0.0
 12
55.09999999999989
 22
12.68926615341653
 32
0.0
 13
55.09999999999989
 23
12.68926615341653
 33
0.0
  0
MTEXT
  5
102
330
F7
100
AcDbEntity
  8
치수문자_일반주서
 62
     0
100
AcDbMText
 10
50.22499999999984
 20
29.56426615341651
 30
0.0
 40
4.0
 41
0.0
 71
     2
 72
     1
  1
\A1;%%c25.38 [1]
  7
SLDTEXTSTYLE0
 11
-3.359734410971241E-15
 21
1.0
 31
0.0
 73
     1
 44
1.0
  0
POINT
  5
103
330
F7
100
AcDbEntity
  8
Defpoints
 62
     0
100
AcDbPoint
 10
40.09999999999998
 20
-12.68926615341648
 30
0.0
  0
POINT
  5
269
330
F7
100
AcDbEntity
  8
Defpoints
 62
     0
100
AcDbPoint
 10
40.09999999999998
 20
12.68926615341647
 30
0.0
  0
POINT
  5
26A
330
F7
100
AcDbEntity
  8
Defpoints
 62
     0
100
AcDbPoint
 10
55.0999999999999
 20
12.68926615341653
 30
0.0
  0
ENDBLK
  5
F9
330
F7
100
AcDbEntity
  8
0
100
AcDbBlockEnd
  0
BLOCK
  5
111
330
110
100
AcDbEntity
  8
0
100
AcDbBlockBegin
  2
SW_DOWELSYMBOL_0
 70
     0
 10
0.0
 20
0.0
 30
0.0
  3
SW_DOWELSYMBOL_0
  1
SW_DOWELSYMBOL_0
  0
CIRCLE
  5
113
330
110
100
AcDbEntity
  8
해칭선
 62
     0
100
AcDbCircle
 10
0.0
 20
0.0
 30
0.0
 40
3.000000000000001
  0
HATCH
  5
114
330
110
100
AcDbEntity
  8
0
  6
Continuous
 62
     0
370
     0
100
AcDbHatch
 10
0.0
 20
0.0
 30
0.0
210
0.0
220
0.0
230
1.0
  2
SOLID
 70
     1
 71
     0
 91
        1
 92
        0
 93
        3
 72
     2
 10
0.0
 20
0.0
 40
3.000000000000001
 50
0.0
 51
90.0
 73
     1
 72
     1
 10
0.0
 20
3.000000000000001
 11
0.0
 21
0.0
 72
     1
 10
0.0
 20
0.0
 11
3.000000000000001
 21
0.0
 97
        0
 75
     0
 76
     1
 98
        1
 10
0.0
 20
0.0
  0
HATCH
  5
115
330
110
100
AcDbEntity
  8
0
  6
Continuous
 62
     0
370
     0
100
AcDbHatch
 10
0.0
 20
0.0
 30
0.0
210
0.0
220
0.0
230
1.0
  2
SOLID
 70
     1
 71
     0
 91
        1
 92
        0
 93
        3
 72
     2
 10
0.0
 20
0.0
 40
3.000000000000001
 50
180.0
 51
270.0000000000007
 73
     1
 72
     1
 10
0.0
 20
-3.000000000000001
 11
0.0
 21
0.0
 72
     1
 10
0.0
 20
0.0
 11
-3.000000000000001
 21
0.0
 97
        0
 75
     0
 76
     1
 98
        1
 10
0.0
 20
0.0
  0
ENDBLK
  5
112
330
110
100
AcDbEntity
  8
0
100
AcDbBlockEnd
  0
BLOCK
  5
1DE
330
1DD
100
AcDbEntity
  8
0
100
AcDbBlockBegin
  2
*D7
 70
     1
 10
0.0
 20
0.0
 30
0.0
  3
*D7
  1
*D7
  0
LINE
  5
1E0
330
1DD
100
AcDbEntity
  8
치수문자_일반주서
 62
     0
370
    -2
100
AcDbLine
 10
33.33749999999999
 20
5.77321167388916
 30
0.0
 11
33.33749999999999
 21
20.71742032800385
 31
0.0
  0
LINE
  5
1E1
330
1DD
100
AcDbEntity
  8
치수문자_일반주서
 62
     0
370
    -2
100
AcDbLine
 10
0.0
 20
5.166432959446345
 30
0.0
 11
0.0
 21
20.71742032800385
 31
0.0
  0
LINE
  5
1E2
330
1DD
100
AcDbEntity
  8
치수문자_일반주서
 62
     0
370
    -2
100
AcDbLine
 10
33.33749999999999
 20
20.71742032800385
 30
0.0
 11
72.31649999999999
 21
20.71742032800385
 31
0.0
  0
LINE
  5
1E3
330
1DD
100
AcDbEntity
  8
치수문자_일반주서
 62
     0
370
    -2
100
AcDbLine
 10
33.33749999999999
 20
20.71742032800385
 30
0.0
 11
0.0
 21
20.71742032800385
 31
0.0
  0
LINE
  5
1E4
330
1DD
100
AcDbEntity
  8
치수문자_일반주서
 62
     0
370
    -2
100
AcDbLine
 10
36.63949999999999
 20
20.71742032800385
 30
0.0
 11
39.94149999999999
 21
20.71742032800385
 31
0.0
  0
LINE
  5
1E5
330
1DD
100
AcDbEntity
  8
치수문자_일반주서
 62
     0
370
    -2
100
AcDbLine
 10
-3.302
 20
20.71742032800385
 30
0.0
 11
-6.603999999999999
 21
20.71742032800385
 31
0.0
  0
SOLID
  5
1E6
330
1DD
100
AcDbEntity
  8
치수문자_일반주서
 62
     0
100
AcDbTrace
 10
36.63949999999999
 20
21.26775366133718
 30
0.0
 11
36.63949999999999
 21
20.16708699467051
 31
0.0
 12
33.33749999999999
 22
20.71742032800385
 32
0.0
 13
33.33749999999999
 23
20.71742032800385
 33
0.0
  0
SOLID
  5
1E7
330
1DD
100
AcDbEntity
  8
치수문자_일반주서
 62
     0
100
AcDbTrace
 10
-3.302
 20
20.16708699467051
 30
0.0
 11
-3.302
 21
21.26775366133718
 31
0.0
 12
0.0
 22
20.71742032800385
 32
0.0
 13
0.0
 23
20.71742032800385
 33
0.0
  0
MTEXT
  5
1E8
330
1DD
100
AcDbEntity
  8
치수문자_일반주서
 62
     0
100
AcDbMText
 10
56.12899999999999
 20
25.09242032800385
 30
0.0
 40
3.5
 41
0.0
 71
     2
 72
     1
  1
\A1;33.34 [1 5/16]
  7
SLDTEXTSTYLE0
 73
     1
 44
1.0
  0
POINT
  5
1E9
330
1DD
100
AcDbEntity
  8
Defpoints
 62
     0
100
AcDbPoint
 10
33.33749999999999
 20
5.71071167388916
 30
0.0
  0
POINT
  5
1EA
330
1DD
100
AcDbEntity
  8
Defpoints
 62
     0
100
AcDbPoint
 10
0.0
 20
5.103932959446345
 30
0.0
  0
POINT
  5
1EB
330
1DD
100
AcDbEntity
  8
Defpoints
 62
     0
100
AcDbPoint
 10
0.0
 20
20.71742032800385
 30
0.0
  0
ENDBLK
  5
1DF
330
1DD
100
AcDbEntity
  8
0
100
AcDbBlockEnd
  0
BLOCK
  5
1F0
330
1EF
100
AcDbEntity
  8
0
100
AcDbBlockBegin
  2
*D8
 70
     1
 10
0.0
 20
0.0
 30
0.0
  3
*D8
  1
*D8
  0
LINE
  5
1F2
330
1EF
100
AcDbEntity
  8
치수문자_일반주서
 62
     0
370
    -2
100
AcDbLine
 10
85.21911590783876
 20
-45.16013176985417
 30
0.0
 11
85.21911590783876
 21
-30.21592311573948
 31
0.0
  0
LINE
  5
1F3
330
1EF
100
AcDbEntity
  8
치수문자_일반주서
 62
     0
370
    -2
100
AcDbLine
 10
51.88161590783876
 20
-45.76691048429698
 30
0.0
 11
51.88161590783876
 21
-30.21592311573948
 31
0.0
  0
LINE
  5
1F4
330
1EF
100
AcDbEntity
  8
치수문자_일반주서
 62
     0
370
    -2
100
AcDbLine
 10
85.21911590783876
 20
-30.21592311573948
 30
0.0
 11
124.1981159078388
 21
-30.21592311573948
 31
0.0
  0
LINE
  5
1F5
330
1EF
100
AcDbEntity
  8
치수문자_일반주서
 62
     0
370
    -2
100
AcDbLine
 10
85.21911590783876
 20
-30.21592311573948
 30
0.0
 11
51.88161590783876
 21
-30.21592311573948
 31
0.0
  0
LINE
  5
1F6
330
1EF
100
AcDbEntity
  8
치수문자_일반주서
 62
     0
370
    -2
100
AcDbLine
 10
88.52111590783875
 20
-30.21592311573948
 30
0.0
 11
91.82311590783874
 21
-30.21592311573948
 31
0.0
  0
LINE
  5
1F7
330
1EF
100
AcDbEntity
  8
치수문자_일반주서
 62
     0
370
    -2
100
AcDbLine
 10
48.57961590783876
 20
-30.21592311573948
 30
0.0
 11
45.27761590783876
 21
-30.21592311573948
 31
0.0
  0
SOLID
  5
1F8
330
1EF
100
AcDbEntity
  8
치수문자_일반주서
 62
     0
100
AcDbTrace
 10
88.52111590783875
 20
-29.66558978240614
 30
0.0
 11
88.52111590783875
 21
-30.76625644907281
 31
0.0
 12
85.21911590783876
 22
-30.21592311573948
 32
0.0
 13
85.21911590783876
 23
-30.21592311573948
 33
0.0
  0
SOLID
  5
1F9
330
1EF
100
AcDbEntity
  8
치수문자_일반주서
 62
     0
100
AcDbTrace
 10
48.57961590783876
 20
-30.76625644907281
 30
0.0
 11
48.57961590783876
 21
-29.66558978240614
 31
0.0
 12
51.88161590783876
 22
-30.21592311573948
 32
0.0
 13
51.88161590783876
 23
-30.21592311573948
 33
0.0
  0
MTEXT
  5
1FA
330
1EF
100
AcDbEntity
  8
치수문자_일반주서
 62
     0
100
AcDbMText
 10
108.0106159078388
 20
-25.84092311573948
 30
0.0
 40
3.5
 41
0.0
 71
     2
 72
     1
  1
\A1;33.34 [1 5/16]
  7
SLDTEXTSTYLE0
 73
     1
 44
1.0
  0
POINT
  5
1FB
330
1EF
100
AcDbEntity
  8
Defpoints
 62
     0
100
AcDbPoint
 10
85.21911590783876
 20
-45.22263176985417
 30
0.0
  0
POINT
  5
1FC
330
1EF
100
AcDbEntity
  8
Defpoints
 62
     0
100
AcDbPoint
 10
51.88161590783876
 20
-45.82941048429698
 30
0.0
  0
POINT
  5
1FD
330
1EF
100
AcDbEntity
  8
Defpoints
 62
     0
100
AcDbPoint
 10
51.88161590783876
 20
-30.21592311573948
 30
0.0
  0
ENDBLK
  5
1F1
330
1EF
100
AcDbEntity
  8
0
100
AcDbBlockEnd
  0
BLOCK
  5
238
330
237
100
AcDbEntity
  8
0
100
AcDbBlockBegin
  2
*D9
 70
     1
 10
0.0
 20
0.0
 30
0.0
  3
*D9
  1
*D9
  0
LINE
  5
23A
330
237
100
AcDbEntity
  8
치수문자_일반주서
 62
     0
370
    -2
100
AcDbLine
 10
46.10000000000001
 20
19.93306217203122
 30
0.0
 11
46.10000000000001
 21
34.91636210612472
 31
0.0
  0
LINE
  5
23B
330
237
100
AcDbEntity
  8
치수문자_일반주서
 62
     0
370
    -2
100
AcDbLine
 10
8.0
 20
17.50823696624771
 30
0.0
 11
8.0
 21
34.91636210612472
 31
0.0
  0
LINE
  5
23C
330
237
100
AcDbEntity
  8
치수문자_일반주서
 62
     0
370
    -2
100
AcDbLine
 10
46.10000000000001
 20
34.91636210612472
 30
0.0
 11
82.35000000000001
 21
34.91636210612472
 31
0.0
  0
LINE
  5
23D
330
237
100
AcDbEntity
  8
치수문자_일반주서
 62
     0
370
    -2
100
AcDbLine
 10
46.10000000000001
 20
34.91636210612472
 30
0.0
 11
8.0
 21
34.91636210612472
 31
0.0
  0
LINE
  5
23E
330
237
100
AcDbEntity
  8
치수문자_일반주서
 62
     0
370
    -2
100
AcDbLine
 10
50.10000000000001
 20
34.91636210612472
 30
0.0
 11
54.10000000000001
 21
34.91636210612472
 31
0.0
  0
LINE
  5
23F
330
237
100
AcDbEntity
  8
치수문자_일반주서
 62
     0
370
    -2
100
AcDbLine
 10
4.0
 20
34.91636210612472
 30
0.0
 11
0.0
 21
34.91636210612472
 31
0.0
  0
SOLID
  5
240
330
237
100
AcDbEntity
  8
치수문자_일반주서
 62
     0
100
AcDbTrace
 10
50.10000000000001
 20
35.58302877279139
 30
0.0
 11
50.10000000000001
 21
34.24969543945806
 31
0.0
 12
46.10000000000001
 22
34.91636210612472
 32
0.0
 13
46.10000000000001
 23
34.91636210612472
 33
0.0
  0
SOLID
  5
241
330
237
100
AcDbEntity
  8
치수문자_일반주서
 62
     0
100
AcDbTrace
 10
4.0
 20
34.24969543945806
 30
0.0
 11
4.0
 21
35.58302877279139
 31
0.0
 12
8.0
 22
34.91636210612472
 32
0.0
 13
8.0
 23
34.91636210612472
 33
0.0
  0
MTEXT
  5
242
330
237
100
AcDbEntity
  8
치수문자_일반주서
 62
     0
100
AcDbMText
 10
66.22500000000001
 20
39.79136210612472
 30
0.0
 40
4.0
 41
0.0
 71
     2
 72
     1
  1
\A1;38.10 [1 1/2]
  7
SLDTEXTSTYLE0
 73
     1
 44
1.0
  0
POINT
  5
243
330
237
100
AcDbEntity
  8
Defpoints
 62
     0
100
AcDbPoint
 10
46.10000000000001
 20
19.87056217203122
 30
0.0
  0
POINT
  5
244
330
237
100
AcDbEntity
  8
Defpoints
 62
     0
100
AcDbPoint
 10
8.0
 20
17.44573696624771
 30
0.0
  0
POINT
  5
245
330
237
100
AcDbEntity
  8
Defpoints
 62
     0
100
AcDbPoint
 10
8.0
 20
34.91636210612472
 30
0.0
  0
ENDBLK
  5
239
330
237
100
AcDbEntity
  8
0
100
AcDbBlockEnd
  0
BLOCK
  5
24A
330
249
100
AcDbEntity
  8
0
100
AcDbBlockBegin
  2
*D10
 70
     1
 10
0.0
 20
0.0
 30
0.0
  3
*D10
  1
*D10
  0
LINE
  5
24C
330
249
100
AcDbEntity
  8
치수문자_일반주서
 62
     0
370
    -2
100
AcDbLine
 10
118.8998961924697
 20
3.516368984577859
 30
0.0
 11
118.8998961924697
 21
18.49966891867136
 31
0.0
  0
LINE
  5
24D
330
249
100
AcDbEntity
  8
치수문자_일반주서
 62
     0
370
    -2
100
AcDbLine
 10
80.79989619246966
 20
1.091543778794353
 30
0.0
 11
80.79989619246966
 21
18.49966891867136
 31
0.0
  0
LINE
  5
24E
330
249
100
AcDbEntity
  8
치수문자_일반주서
 62
     0
370
    -2
100
AcDbLine
 10
118.8998961924697
 20
18.49966891867136
 30
0.0
 11
155.1498961924697
 21
18.49966891867136
 31
0.0
  0
LINE
  5
24F
330
249
100
AcDbEntity
  8
치수문자_일반주서
 62
     0
370
    -2
100
AcDbLine
 10
118.8998961924697
 20
18.49966891867136
 30
0.0
 11
80.79989619246966
 21
18.49966891867136
 31
0.0
  0
LINE
  5
250
330
249
100
AcDbEntity
  8
치수문자_일반주서
 62
     0
370
    -2
100
AcDbLine
 10
122.8998961924697
 20
18.49966891867136
 30
0.0
 11
126.8998961924697
 21
18.49966891867136
 31
0.0
  0
LINE
  5
251
330
249
100
AcDbEntity
  8
치수문자_일반주서
 62
     0
370
    -2
100
AcDbLine
 10
76.79989619246966
 20
18.49966891867136
 30
0.0
 11
72.79989619246966
 21
18.49966891867136
 31
0.0
  0
SOLID
  5
252
330
249
100
AcDbEntity
  8
치수문자_일반주서
 62
     0
100
AcDbTrace
 10
122.8998961924697
 20
19.16633558533803
 30
0.0
 11
122.8998961924697
 21
17.8330022520047
 31
0.0
 12
118.8998961924697
 22
18.49966891867136
 32
0.0
 13
118.8998961924697
 23
18.49966891867136
 33
0.0
  0
SOLID
  5
253
330
249
100
AcDbEntity
  8
치수문자_일반주서
 62
     0
100
AcDbTrace
 10
76.79989619246966
 20
17.8330022520047
 30
0.0
 11
76.79989619246966
 21
19.16633558533803
 31
0.0
 12
80.79989619246966
 22
18.49966891867136
 32
0.0
 13
80.79989619246966
 23
18.49966891867136
 33
0.0
  0
MTEXT
  5
254
330
249
100
AcDbEntity
  8
치수문자_일반주서
 62
     0
100
AcDbMText
 10
139.0248961924697
 20
23.37466891867136
 30
0.0
 40
4.0
 41
0.0
 71
     2
 72
     1
  1
\A1;38.10 [1 1/2]
  7
SLDTEXTSTYLE0
 73
     1
 44
1.0
  0
POINT
  5
255
330
249
100
AcDbEntity
  8
Defpoints
 62
     0
100
AcDbPoint
 10
118.8998961924697
 20
3.453868984577859
 30
0.0
  0
POINT
  5
256
330
249
100
AcDbEntity
  8
Defpoints
 62
     0
100
AcDbPoint
 10
80.79989619246966
 20
1.029043778794353
 30
0.0
  0
POINT
  5
257
330
249
100
AcDbEntity
  8
Defpoints
 62
     0
100
AcDbPoint
 10
80.79989619246966
 20
18.49966891867136
 30
0.0
  0
ENDBLK
  5
24B
330
249
100
AcDbEntity
  8
0
100
AcDbBlockEnd
  0
ENDSEC
  0
SECTION
  2
ENTITIES
  0
SPLINE
  5
96
330
1F
100
AcDbEntity
  8
0
  6
Continuous
 62
     1
370
    15
100
AcDbSpline
210
0.0
220
0.0
230
1.0
 70
     8
 71
     3
 72
    19
 73
    15
 74
     0
 42
0.000000001
 43
0.00000001
 40
0.0
 40
0.0
 40
0.0
 40
0.0
 40
0.1211096279607951
 40
0.2189065425372133
 40
0.2949136151193256
 40
0.3588363058078543
 40
0.4128469302855827
 40
0.4579275953333199
 40
0.5019954213647287
 40
0.663187243247623
 40
0.7101585393556864
 40
0.7809152625120668
 40
0.8775658668103046
 40
1.0
 40
1.0
 40
1.0
 40
1.0
 10
7.197457464663517
 20
3.254361711707992
 30
0.0
 10
7.060110855857834
 20
3.319004129371882
 30
0.0
 10
6.811855851122816
 20
3.435845774336968
 30
0.0
 10
6.468880655462559
 20
3.600222749550112
 30
0.0
 10
6.18251421106796
 20
3.739080225630568
 30
0.0
 10
5.949772371617748
 20
3.85296601416376
 30
0.0
 10
5.755390896493553
 20
3.948793057789847
 30
0.0
 10
5.586950974517723
 20
4.032357890888131
 30
0.0
 10
5.292644244021167
 20
4.179189675303405
 30
0.0
 10
4.996305322712802
 20
4.328947723357455
 30
0.0
 10
4.667368705734936
 20
4.497332523149236
 30
0.0
 10
4.415447966696864
 20
4.627256572303381
 30
0.0
 10
4.075097129454912
 20
4.804418043304841
 30
0.0
 10
3.818178132198488
 20
4.940458363811565
 30
0.0
 10
3.674600559932466
 20
5.016483644764817
 30
0.0
1001
PE_URL
1000

  0
SPLINE
  5
97
330
1F
100
AcDbEntity
  8
0
  6
Continuous
 62
     1
370
    15
100
AcDbSpline
210
0.0
220
0.0
230
1.0
 70
     8
 71
     3
 72
     9
 73
     5
 74
     0
 42
0.000000001
 43
0.00000001
 40
0.0
 40
0.0
 40
0.0
 40
0.0
 40
0.4989302883118208
 40
1.0
 40
1.0
 40
1.0
 40
1.0
 10
2.999898088263741
 20
10.09191442517385
 30
0.0
 10
2.833184886493856
 20
10.08298042016436
 30
0.0
 10
2.499043613303222
 20
10.06507410094746
 30
0.0
 10
2.166584961038494
 20
10.04666750610936
 30
0.0
 10
1.999999999999967
 20
10.03744451894067
 30
0.0
1001
PE_URL
1000

  0
SPLINE
  5
98
330
1F
100
AcDbEntity
  8
0
  6
Continuous
 62
     1
370
    15
100
AcDbSpline
210
0.0
220
0.0
230
1.0
 70
     8
 71
     3
 72
    51
 73
    47
 74
     0
 42
0.000000001
 43
0.00000001
 40
0.0
 40
0.0
 40
0.0
 40
0.0
 40
0.0277953182460923
 40
0.0528008630605463
 40
0.0752365037103751
 40
0.0954787034544732
 40
0.1142835310309753
 40
0.1379349957221813
 40
0.1608686853188625
 40
0.1831265586985551
 40
0.2060536112666949
 40
0.2274226937649709
 40
0.2462419357345627
 40
0.2645782426100822
 40
0.285979479432815
 40
0.3287756739644391
 40
0.3715399815786547
 40
0.4102408966554811
 40
0.4482843069739901
 40
0.4867260207987102
 40
0.5058635685679774
 40
0.527899600834162
 40
0.5509495489905114
 40
0.5711905539692608
 40
0.5885236496813091
 40
0.6038456287539943
 40
0.6176900123813027
 40
0.6362060377093488
 40
0.6582340625047298
 40
0.6834909584423584
 40
0.7106668330587838
 40
0.7369449504577764
 40
0.7631386443248024
 40
0.7861654326522384
 40
0.8068195843028485
 40
0.8300381219624393
 40
0.8461923926347827
 40
0.860995376560957
 40
0.8732575745740927
 40
0.883282485638402
 40
0.8925082308094963
 40
0.9058108000741694
 40
0.9232012509855381
 40
0.9446679489559602
 40
0.9702675878436411
 40
1.0
 40
1.0
 40
1.0
 40
1.0
 10
35.38152543264238
 20
8.686197676937779
 30
0.0
 10
35.19456546909626
 20
8.670222993931551
 30
0.0
 10
34.83941042659583
 20
8.639876982334224
 30
0.0
 10
34.30567292292512
 20
8.597458753235458
 30
0.0
 10
33.80661615653185
 20
8.561552694445556
 30
0.0
 10
33.33777171634404
 20
8.531864379267617
 30
0.0
 10
32.85880342361231
 20
8.50398000675498
 30
0.0
 10
32.3598203264983
 20
8.476251515152466
 30
0.0
 10
31.84686366680329
 20
8.450953710877394
 30
0.0
 10
31.34603589768017
 20
8.429129833302722
 30
0.0
 10
30.85352525267248
 20
8.410467487208246
 30
0.0
 10
30.38611217149325
 20
8.395395916350052
 30
0.0
 10
29.95267457650025
 20
8.38363626306672
 30
0.0
 10
29.51869717887518
 20
8.373921705370497
 30
0.0
 10
28.9066877253569
 20
8.363334617793143
 30
0.0
 10
28.11374290874608
 20
8.356225085697027
 30
0.0
 10
27.19330535271475
 20
8.358113969929102
 30
0.0
 10
26.3075293919117
 20
8.369198510448093
 30
0.0
 10
25.45372943430446
 20
8.388368516394477
 30
0.0
 10
24.74515876726956
 20
8.41123602711405
 30
0.0
 10
24.15518880698123
 20
8.434569265810552
 30
0.0
 10
23.67928547166619
 20
8.45587133394482
 30
0.0
 10
23.19518498002446
 20
8.480298757301686
 30
0.0
 10
22.74584052114335
 20
8.505434300686542
 30
0.0
 10
22.3536291176749
 20
8.529243254510638
 30
0.0
 10
22.00890020534955
 20
8.551604122694357
 30
0.0
 10
21.6555610646271
 20
8.575833005384549
 30
0.0
 10
21.25262273872748
 20
8.605039225518757
 30
0.0
 10
20.76514869226325
 20
8.642773691905484
 30
0.0
 10
20.21344502879391
 20
8.68863336898563
 30
0.0
 10
19.63011504316999
 20
8.740816595151374
 30
0.0
 10
19.03970631950807
 20
8.797447934202067
 30
0.0
 10
18.48001742860279
 20
8.854695007204484
 30
0.0
 10
17.96240808963837
 20
8.910737831868142
 30
0.0
 10
17.46707991575503
 20
8.966772474668412
 30
0.0
 10
17.02437486647825
 20
9.019035156103197
 30
0.0
 10
16.62664680595764
 20
9.067696040397433
 30
0.0
 10
16.30640032086824
 20
9.10799217870956
 30
0.0
 10
16.02803082390206
 20
9.143930901235688
 30
0.0
 10
15.78846465372921
 20
9.175390079101765
 30
0.0
 10
15.54321046739579
 20
9.208082307884597
 30
0.0
 10
15.24594595625067
 20
9.24855259605399
 30
0.0
 10
14.85980828605663
 20
9.302486841761946
 30
0.0
 10
14.38481807749729
 20
9.371019337362718
 30
0.0
 10
13.82009065532429
 20
9.454916121411532
 30
0.0
 10
13.4136948707212
 20
9.518135431808878
 30
0.0
 10
13.19532004567073
 20
9.552106024937235
 30
0.0
1001
PE_URL
1000

  0
SPLINE
  5
99
330
1F
100
AcDbEntity
  8
0
  6
Continuous
 62
     1
370
    15
100
AcDbSpline
210
0.0
220
0.0
230
1.0
 70
     8
 71
     3
 72
    27
 73
    23
 74
     0
 42
0.000000001
 43
0.00000001
 40
0.0
 40
0.0
 40
0.0
 40
0.0
 40
0.0645227995267065
 40
0.1205047316238963
 40
0.1682252734134774
 40
0.2084526139685117
 40
0.2432813071156268
 40
0.2762238788104017
 40
0.3246650864657081
 40
0.3695977666706268
 40
0.4132920336424368
 40
0.4600629340708851
 40
0.5010278117967086
 40
0.5359601588548178
 40
0.577087297779478
 40
0.6276557384334817
 40
0.7014230649977341
 40
0.7794996282115121
 40
0.8606506120961466
 40
0.9407327432279053
 40
0.9987477400820204
 40
0.9999999999999999
 40
0.9999999999999999
 40
0.9999999999999999
 40
0.9999999999999999
 10
13.19532004567073
 20
-9.55210602493724
 30
0.0
 10
13.38457928107945
 20
-9.522443718102142
 30
0.0
 10
13.73804555249926
 20
-9.467045496841926
 30
0.0
 10
14.24883652581241
 20
-9.389264795672043
 30
0.0
 10
14.69925939656097
 20
-9.323140736336313
 30
0.0
 10
15.09675757588532
 20
-9.267643650741746
 30
0.0
 10
15.44655098027539
 20
-9.22083943616311
 30
0.0
 10
15.82291852971346
 20
-9.170771116970963
 30
0.0
 10
16.23211238689465
 20
-9.117223799640401
 30
0.0
 10
16.67815495386029
 20
-9.060035191509362
 30
0.0
 10
17.11191877763969
 20
-9.007453901601648
 30
0.0
 10
17.49485903528376
 20
-8.963646142333705
 30
0.0
 10
17.86377265233778
 20
-8.921886178658555
 30
0.0
 10
18.23446848515384
 20
-8.881177555459528
 30
0.0
 10
18.63578842206253
 20
-8.838633823833879
 30
0.0
 10
19.16051547198481
 20
-8.785533818826874
 30
0.0
 10
19.80249987448538
 20
-8.724691758246024
 30
0.0
 10
20.5410491548946
 20
-8.660534970851602
 30
0.0
 10
21.29909860381653
 20
-8.600780721407263
 30
0.0
 10
21.99395001028846
 20
-8.552285649137335
 30
0.0
 10
22.43579331901116
 20
-8.523700161817889
 30
0.0
 10
22.62367916034956
 20
-8.51298989549421
 30
0.0
 10
22.62764900678886
 20
-8.51276359790666
 30
0.0
1001
PE_URL
1000

  0
SPLINE
  5
9A
330
1F
100
AcDbEntity
  8
0
  6
Continuous
 62
     1
370
    15
100
AcDbSpline
210
0.0
220
0.0
230
1.0
 70
     8
 71
     3
 72
     9
 73
     5
 74
     0
 42
0.000000001
 43
0.00000001
 40
0.0
 40
0.0
 40
0.0
 40
0.0
 40
0.5010697116881793
 40
1.0
 40
1.0
 40
1.0
 40
1.0
 10
1.999999999999967
 20
-10.03744451894067
 30
0.0
 10
2.166584961038494
 20
-10.04666750610936
 30
0.0
 10
2.49904361330322
 20
-10.06507410094746
 30
0.0
 10
2.833184886493858
 20
-10.08298042016436
 30
0.0
 10
2.999898088263741
 20
-10.09191442517385
 30
0.0
1001
PE_URL
1000

  0
SPLINE
  5
9B
330
1F
100
AcDbEntity
  8
0
  6
Continuous
 62
     1
370
    15
100
AcDbSpline
210
0.0
220
0.0
230
1.0
 70
     8
 71
     3
 72
    44
 73
    40
 74
     0
 42
0.000000001
 43
0.00000001
 40
0.0
 40
0.0
 40
0.0
 40
0.0
 40
0.0625
 40
0.0625
 40
0.125
 40
0.125
 40
0.1875000000000001
 40
0.1875000000000001
 40
0.2500000000000001
 40
0.2500000000000001
 40
0.3125000000000001
 40
0.3125000000000001
 40
0.3750000000000001
 40
0.3750000000000001
 40
0.4375000000000001
 40
0.4375000000000001
 40
0.5000000000000001
 40
0.5000000000000001
 40
0.5625000000000001
 40
0.5625000000000001
 40
0.6250000000000001
 40
0.6250000000000001
 40
0.6875000000000001
 40
0.6875000000000001
 40
0.7500000000000002
 40
0.7500000000000002
 40
0.7812500000000002
 40
0.7812500000000002
 40
0.8125000000000002
 40
0.8125000000000002
 40
0.8437500000000002
 40
0.8437500000000002
 40
0.8750000000000002
 40
0.8750000000000002
 40
0.9375000000000001
 40
0.9375000000000001
 40
0.9687500000000001
 40
0.9687500000000001
 40
1.0
 40
1.0
 40
1.0
 40
1.0
 10
40.09999999999995
 20
-12.05154903924513
 30
0.0
 10
39.3089578745566
 20
-11.9071494162766
 30
0.0
 10
38.51259063939906
 20
-11.73887281937317
 30
0.0
 10
36.92314963114087
 20
-11.35730120945462
 30
0.0
 10
36.13301252693655
 20
-11.14434336264861
 30
0.0
 10
34.54397570823362
 20
-10.67498700334209
 30
0.0
 10
33.74742603318077
 20
-10.41872662182522
 30
0.0
 10
32.16421841861516
 20
-9.86768373793564
 30
0.0
 10
31.36914480394361
 20
-9.57194535742616
 30
0.0
 10
29.77938353161991
 20
-8.94424346034112
 30
0.0
 10
28.98909608137722
 20
-8.61292358160937
 30
0.0
 10
27.40054730655278
 20
-7.916867087530411
 30
0.0
 10
26.60385747564315
 20
-7.552291910351336
 30
0.0
 10
25.01960932782121
 20
-6.796520384636283
 30
0.0
 10
24.22567985513471
 20
-6.404337579790388
 30
0.0
 10
22.63568230064067
 20
-5.596113723916487
 30
0.0
 10
21.84509418477001
 20
-5.181032485972047
 30
0.0
 10
20.25711722224579
 20
-4.331098673663913
 30
0.0
 10
19.46032954440098
 20
-3.896317127483279
 30
0.0
 10
17.87512387617765
 20
-3.014775515952847
 30
0.0
 10
17.08218886606852
 20
-2.56719679252642
 30
0.0
 10
15.49203905292251
 20
-1.662948182236736
 30
0.0
 10
14.70100000472207
 20
-1.207458159819899
 30
0.0
 10
13.11367852231512
 20
-0.2925459076083851
 30
0.0
 10
12.31683532383165
 20
0.1669875981888316
 30
0.0
 10
11.12727531801006
 20
0.853360783689412
 30
0.0
 10
10.73217557709249
 20
1.081574563772601
 30
0.0
 10
9.938694375908858
 20
1.537353718925528
 30
0.0
 10
9.541110409062734
 20
1.764764980151404
 30
0.0
 10
8.746001398335798
 20
2.217628446733968
 30
0.0
 10
8.348477208209054
 20
2.443080166107112
 30
0.0
 10
7.555234240126447
 20
2.891038556990023
 30
0.0
 10
7.160161112611799
 20
3.113426672945724
 30
0.0
 10
5.970224275304227
 20
3.7765916815359
 30
0.0
 10
5.173367892338667
 20
4.212831899754129
 30
0.0
 10
3.983214632650813
 20
4.852648646626175
 30
0.0
 10
3.588125387208065
 20
5.063367776315207
 30
0.0
 10
2.795034566593659
 20
5.48017809584651
 30
0.0
 10
2.397550541846032
 20
5.686173019927672
 30
0.0
 10
1.999999999996208
 20
5.889298411671211
 30
0.0
1001
PE_URL
1000

  0
SPLINE
  5
9C
330
1F
100
AcDbEntity
  8
0
  6
Continuous
 62
     1
370
    15
100
AcDbSpline
210
0.0
220
0.0
230
1.0
 70
     8
 71
     3
 72
    23
 73
    19
 74
     0
 42
0.000000001
 43
0.00000001
 40
0.0
 40
0.0
 40
0.0
 40
0.0
 40
0.0625072077385857
 40
0.1249655066137224
 40
0.1875171403301003
 40
0.2499561106870456
 40
0.3125136270106211
 40
0.3749628909098819
 40
0.4374877320198117
 40
0.4999768893041731
 40
0.5624469763646361
 40
0.6249891399438707
 40
0.687430867393451
 40
0.7499906774490354
 40
0.8124336613968547
 40
0.8749725544730562
 40
0.9374464083160997
 40
1.0
 40
1.0
 40
1.0
 40
1.0
 10
40.09999999999997
 20
-10.01994775747635
 30
0.0
 10
39.41398218297576
 20
-9.88630666138563
 30
0.0
 10
38.04248332465211
 20
-9.619129036890971
 30
0.0
 10
35.98514740104464
 20
-9.109918785668748
 30
0.0
 10
33.92732314637586
 20
-8.528976721307933
 30
0.0
 10
31.86995106436163
 20
-7.869500260067207
 30
0.0
 10
29.81208284278432
 20
-7.144285922880574
 30
0.0
 10
27.75472969364401
 20
-6.353978654356316
 30
0.0
 10
25.69709395623734
 20
-5.510064719753073
 30
0.0
 10
23.63968454713124
 20
-4.617164754306843
 30
0.0
 10
21.5823456408802
 20
-3.683265802940113
 30
0.0
 10
19.52458993011421
 20
-2.719239221520536
 30
0.0
 10
17.46722283200513
 20
-1.72824634255394
 30
0.0
 10
15.4093369101603
 20
-0.7259398263171093
 30
0.0
 10
13.3519742867187
 20
0.2866521113666644
 30
0.0
 10
11.29423292705489
 20
1.292809550466788
 30
0.0
 10
9.236160782854054
 20
2.292995761052194
 30
0.0
 10
7.864096069217934
 20
2.938553347287415
 30
0.0
 10
7.177626186553764
 20
3.261537996678654
 30
0.0
1001
PE_URL
1000

  0
LINE
  5
9D
330
1F
100
AcDbEntity
  8
0
  6
Continuous
 62
     1
370
    15
100
AcDbLine
 10
40.09999999999967
 20
-12.05154903924513
 30
0.0
 11
40.09999999999997
 21
-10.01994775747635
 31
0.0
1001
PE_URL
1000

  0
SPLINE
  5
9E
330
1F
100
AcDbEntity
  8
0
  6
Continuous
 62
     1
370
    15
100
AcDbSpline
210
0.0
220
0.0
230
1.0
 70
     8
 71
     3
 72
    44
 73
    40
 74
     0
 42
0.000000001
 43
0.00000001
 40
0.0
 40
0.0
 40
0.0
 40
0.0
 40
0.0624999999999998
 40
0.0624999999999998
 40
0.1249999999999996
 40
0.1249999999999996
 40
0.1874999999999994
 40
0.1874999999999994
 40
0.2499999999999995
 40
0.2499999999999995
 40
0.3124999999999996
 40
0.3124999999999996
 40
0.3749999999999996
 40
0.3749999999999996
 40
0.4374999999999996
 40
0.4374999999999996
 40
0.4999999999999996
 40
0.4999999999999996
 40
0.5624999999999996
 40
0.5624999999999996
 40
0.6249999999999997
 40
0.6249999999999997
 40
0.6874999999999997
 40
0.6874999999999997
 40
0.7499999999999996
 40
0.7499999999999996
 40
0.7812499999999997
 40
0.7812499999999997
 40
0.8124999999999997
 40
0.8124999999999997
 40
0.8437499999999998
 40
0.8437499999999998
 40
0.8749999999999999
 40
0.8749999999999999
 40
0.9375
 40
0.9375
 40
0.96875
 40
0.96875
 40
1.0
 40
1.0
 40
1.0
 40
1.0
 10
40.09999999999997
 20
-12.68926615341648
 30
0.0
 10
39.30895787455668
 20
-12.67045007716505
 30
0.0
 10
38.51259063939924
 20
-12.62679180146505
 30
0.0
 10
36.92314963114114
 20
-12.49032776008258
 30
0.0
 10
36.13301252693696
 20
-12.39771592936382
 30
0.0
 10
34.54397570823416
 20
-12.16413301851544
 30
0.0
 10
33.7474260331814
 20
-12.02317103260827
 30
0.0
 10
32.16421841861596
 20
-11.69554951397602
 30
0.0
 10
31.36914480394447
 20
-11.50833221979438
 30
0.0
 10
29.77938353162093
 20
-11.08966134442441
 30
0.0
 10
28.98909608137831
 20
-10.858671315707
 30
0.0
 10
27.40054730655404
 20
-10.35445701614152
 30
0.0
 10
26.60385747564448
 20
-10.08131043032333
 30
0.0
 10
25.0196093278227
 20
-9.497834478838612
 30
0.0
 10
24.22567985513628
 20
-9.186758043953795
 30
0.0
 10
22.6356823006424
 20
-8.529626778831831
 30
0.0
 10
21.8450941847718
 20
-8.18437090095246
 30
0.0
 10
20.25711722224775
 20
-7.462300566295573
 30
0.0
 10
19.46032954440302
 20
-7.08551588709792
 30
0.0
 10
17.87512387617982
 20
-6.307102904698136
 30
0.0
 10
17.08218886607079
 20
-5.904769220205145
 30
0.0
 10
15.49203905292494
 20
-5.077871122673724
 30
0.0
 10
14.70100000472457
 20
-4.654395065089298
 30
0.0
 10
13.11367852231778
 20
-3.790015924400277
 30
0.0
 10
12.31683532383438
 20
-3.348981530224513
 30
0.0
 10
11.1272753180129
 20
-2.679970581577936
 30
0.0
 10
10.73217557709538
 20
-2.455818424114548
 30
0.0
 10
9.938694375911828
 20
-2.004718034674425
 30
0.0
 10
9.541110409065745
 20
-1.777918541232278
 30
0.0
 10
8.746001398338889
 20
-1.322813607173146
 30
0.0
 10
8.348477208212177
 20
-1.094508655453784
 30
0.0
 10
7.555234240129646
 20
-0.6373994508019305
 30
0.0
 10
7.160161112615041
 20
-0.4087200921928897
 30
0.0
 10
5.970224275307599
 20
0.2784883661847471
 30
0.0
 10
5.173367892342122
 20
0.7376625064755132
 30
0.0
 10
3.983214632654366
 20
1.421937826923885
 30
0.0
 10
3.588125387211647
 20
1.649135667079274
 30
0.0
 10
2.795034566597328
 20
2.102257568640213
 30
0.0
 10
2.397550541849752
 20
2.32808114860278
 30
0.0
 10
1.999999999999967
 20
2.55266867352386
 30
0.0
1001
PE_URL
1000

  0
SPLINE
  5
9F
330
1F
100
AcDbEntity
  8
0
  6
Continuous
 62
     1
370
    15
100
AcDbSpline
210
0.0
220
0.0
230
1.0
 70
     8
 71
     3
 72
    10
 73
     6
 74
     0
 42
0.000000001
 43
0.00000001
 40
0.0
 40
0.0
 40
0.0
 40
0.0
 40
0.2349078904498321
 40
0.6176917210234614
 40
0.9999999999999999
 40
0.9999999999999999
 40
0.9999999999999999
 40
0.9999999999999999
 10
8.545307883798637
 20
-1.206038507323856
 30
0.0
 10
8.032816500216315
 20
-1.000923650295792
 30
0.0
 10
6.685217302384055
 20
-0.4615728911427967
 30
0.0
 10
4.503111867628914
 20
0.4232662456276929
 30
0.0
 10
2.834024809271415
 20
1.092819752263163
 30
0.0
 10
1.999999999999967
 20
1.427388421328398
 30
0.0
1001
PE_URL
1000

  0
SPLINE
  5
A0
330
1F
100
AcDbEntity
  8
외형선
  6
Continuous
370
    15
100
AcDbSpline
210
0.0
220
0.0
230
1.0
 70
    24
 71
     3
 72
    14
 73
    10
 74
     0
 42
0.000000001
 43
0.00000001
 40
0.0
 40
0.0
 40
0.0
 40
0.0
 40
0.0525749688799667
 40
0.1872201051736338
 40
0.4477271842018277
 40
0.5813892736161079
 40
0.7160344099097775
 40
0.8574343791793584
 40
1.0
 40
1.0
 40
1.0
 40
1.0
 10
1.999999999999965
 20
2.562873035946619
 30
0.0
 10
1.999999999999965
 20
2.56130634050117
 30
0.0
 10
1.999999999999965
 20
2.555727318918833
 30
0.0
 10
1.999999999999965
 20
2.489204211035353
 30
0.0
 10
1.999999999999965
 20
2.350860576739044
 30
0.0
 10
1.999999999999964
 20
2.140952387988192
 30
0.0
 10
1.999999999999965
 20
1.943688892148928
 30
0.0
 10
1.999999999999964
 20
1.709383237587361
 30
0.0
 10
1.999999999999965
 20
1.521643577855651
 30
0.0
 10
1.999999999999965
 20
1.4273884213284
 30
0.0
  0
LINE
  5
A1
330
1F
100
AcDbEntity
  8
외형선
  6
Continuous
370
    15
100
AcDbLine
 10
1.999999999999965
 20
2.55266867352386
 30
0.0
 11
1.999999999999965
 21
5.889298411667617
 31
0.0
  0
LINE
  5
A2
330
1F
100
AcDbEntity
  8
0
  6
Continuous
 62
     1
370
    15
100
AcDbLine
 10
40.09999999999998
 20
-12.68926615341648
 30
0.0
 11
40.09999999999962
 21
-12.05154903924511
 31
0.0
1001
PE_URL
1000

  0
SPLINE
  5
A3
330
1F
100
AcDbEntity
  8
0
  6
Continuous
 62
     1
370
    15
100
AcDbSpline
210
0.0
220
0.0
230
1.0
 70
     8
 71
     3
 72
    10
 73
     6
 74
     0
 42
0.000000001
 43
0.00000001
 40
0.0
 40
0.0
 40
0.0
 40
0.0
 40
0.5
 40
0.5
 40
1.0
 40
1.0
 40
1.0
 40
1.0
 10
40.09999999999995
 20
-3.393985414576483
 30
0.0
 10
39.2494022330054
 20
-2.725276500219905
 30
0.0
 10
38.40743926415027
 20
-2.038875865003508
 30
0.0
 10
36.7405403709192
 20
-0.6311881139455339
 30
0.0
 10
35.91560326807881
 20
0.0900965873561307
 30
0.0
 10
35.10000000000164
 20
0.8305052561804198
 30
0.0
1001
PE_URL
1000

  0
LINE
  5
A4
330
1F
100
AcDbEntity
  8
0
  6
Continuous
 62
     1
370
    15
100
AcDbLine
 10
35.09999999999997
 20
2.937719435296589
 30
0.0
 11
40.09999999999997
 21
0.0000000000000023
 31
0.0
1001
PE_URL
1000

  0
LINE
  5
A5
330
1F
100
AcDbEntity
  8
0
  6
Continuous
 62
     1
370
    15
100
AcDbLine
 10
40.09999999999997
 20
0.0000000000000023
 30
0.0
 11
40.09999999999997
 21
-3.393985414576487
 31
0.0
1001
PE_URL
1000

  0
SPLINE
  5
A6
330
1F
100
AcDbEntity
  8
0
  6
Continuous
 62
     1
370
    15
100
AcDbSpline
210
0.0
220
0.0
230
1.0
 70
     8
 71
     3
 72
    21
 73
    17
 74
     0
 42
0.000000001
 43
0.00000001
 40
0.0
 40
0.0
 40
0.0
 40
0.0
 40
0.0549503537933243
 40
0.1097971655157351
 40
0.1647537796771515
 40
0.2448451679898389
 40
0.3249239937197531
 40
0.4050882207681116
 40
0.4852150430827528
 40
0.5652865475211429
 40
0.6454059128631942
 40
0.7255754083496793
 40
0.8056573294929902
 40
0.8807760409807769
 40
0.9559856959951927
 40
1.0
 40
1.0
 40
1.0
 40
1.0
 10
35.09999999999998
 20
2.289784744250639
 30
0.0
 10
34.51190236255228
 20
2.55270195124769
 30
0.0
 10
33.33681523060915
 20
3.078040954562662
 30
0.0
 10
31.57448923207637
 20
3.844545947214038
 30
0.0
 10
29.54202019443272
 20
4.698247662957135
 30
0.0
 10
27.24027172748844
 20
5.619820333237227
 30
0.0
 10
24.66878972043439
 20
6.572433994885762
 30
0.0
 10
22.09631262168194
 20
7.434461934986969
 30
0.0
 10
19.52421909444409
 20
8.195479371385874
 30
0.0
 10
16.95295615202678
 20
8.844822891657632
 30
0.0
 10
14.38094455362961
 20
9.373220602392195
 30
0.0
 10
11.80841430627926
 20
9.772964532088661
 30
0.0
 10
9.290029573521528
 20
10.03573744204404
 30
0.0
 10
6.824792834030175
 20
10.15983923619273
 30
0.0
 10
4.744706127039687
 20
10.17687973553175
 30
0.0
 10
3.46908151282086
 20
10.10404338571256
 30
0.0
 10
2.998154947153048
 20
10.07715414910345
 30
0.0
1001
PE_URL
1000

  0
SPLINE
  5
A7
330
1F
100
AcDbEntity
  8
0
  6
Continuous
 62
     1
370
    15
100
AcDbSpline
210
0.0
220
0.0
230
1.0
 70
    24
 71
     3
 72
     8
 73
     4
 74
     0
 42
0.000000001
 43
0.00000001
 40
0.0
 40
0.0
 40
0.0
 40
0.0
 40
1.0
 40
1.0
 40
1.0
 40
1.0
 10
35.09999999999998
 20
0.8305052561693254
 30
0.0
 10
35.09999999999998
 20
1.322728240362211
 30
0.0
 10
35.09999999999998
 20
1.810406971894835
 30
0.0
 10
35.09999999999998
 20
2.289784744250642
 30
0.0
1001
PE_URL
1000

  0
SPLINE
  5
A8
330
1F
100
AcDbEntity
  8
0
  6
Continuous
 62
     1
370
    15
100
AcDbSpline
210
0.0
220
0.0
230
1.0
 70
    24
 71
     3
 72
    12
 73
     8
 74
     0
 42
0.000000001
 43
0.00000001
 40
0.0
 40
0.0
 40
0.0
 40
0.0
 40
0.5000000000000001
 40
0.5000000000000001
 40
0.75
 40
0.75
 40
1.0
 40
1.0
 40
1.0
 40
1.0
 10
40.09999999999997
 20
-10.01994775747634
 30
0.0
 10
40.09999999999997
 20
-9.251840640348322
 30
0.0
 10
40.09999999999997
 20
-8.28130784561215
 30
0.0
 10
40.09999999999997
 20
-6.589011337313261
 30
0.0
 10
40.09999999999997
 20
-5.986484557406003
 30
0.0
 10
40.09999999999998
 20
-4.725678605577803
 30
0.0
 10
40.09999999999997
 20
-4.06749497066426
 30
0.0
 10
40.09999999999997
 20
-3.39398541457689
 30
0.0
1001
PE_URL
1000

  0
SPLINE
  5
A9
330
1F
100
AcDbEntity
  8
외형선
  6
Continuous
370
    15
100
AcDbSpline
210
0.0
220
0.0
230
1.0
 70
    24
 71
     3
 72
    18
 73
    14
 74
     0
 42
0.000000001
 43
0.00000001
 40
0.0
 40
0.0
 40
0.0
 40
0.0
 40
0.053278120547887
 40
0.1283619461107405
 40
0.2034457716735939
 40
0.3127576884873312
 40
0.4220696053010685
 40
0.5345572698051666
 40
0.6470449343092649
 40
0.7458445524212488
 40
0.8446441705332327
 40
0.9457664569358682
 40
1.0
 40
1.0
 40
1.0
 40
1.0
 10
1.999999999999965
 20
10.03308731213654
 30
0.0
 10
1.999999999999965
 20
10.02761125647681
 30
0.0
 10
1.999999999999964
 20
10.01441790141351
 30
0.0
 10
1.999999999999965
 20
9.941160325475163
 30
0.0
 10
1.999999999999965
 20
9.802600431680258
 30
0.0
 10
1.999999999999965
 20
9.571585043289268
 30
0.0
 10
1.999999999999965
 20
9.218204297728725
 30
0.0
 10
1.999999999999965
 20
8.766872060742534
 30
0.0
 10
1.999999999999964
 20
8.240915954423958
 30
0.0
 10
1.999999999999965
 20
7.660991287701091
 30
0.0
 10
1.999999999999964
 20
7.033918334674004
 30
0.0
 10
1.999999999999964
 20
6.455467108741912
 30
0.0
 10
1.999999999999965
 20
6.062311834151028
 30
0.0
 10
1.999999999999965
 20
5.92506430640392
 30
0.0
  0
SPLINE
  5
AA
330
1F
100
AcDbEntity
  8
0
  6
Continuous
 62
     1
370
    15
100
AcDbSpline
210
0.0
220
0.0
230
1.0
 70
    24
 71
     3
 72
    10
 73
     6
 74
     0
 42
0.000000001
 43
0.00000001
 40
0.0
 40
0.0
 40
0.0
 40
0.0
 40
0.5000000000000001
 40
0.5000000000000001
 40
1.0
 40
1.0
 40
1.0
 40
1.0
 10
35.09999999999997
 20
2.28978474425064
 30
0.0
 10
35.09999999999997
 20
3.318117051978202
 30
0.0
 10
35.09999999999998
 20
4.293337801787544
 30
0.0
 10
35.09999999999997
 20
6.003026800807383
 30
0.0
 10
35.09999999999997
 20
6.735761112039308
 30
0.0
 10
35.09999999999997
 20
7.298596457508376
 30
0.0
1001
PE_URL
1000

  0
SPLINE
  5
AB
330
1F
100
AcDbEntity
  8
0
  6
Continuous
 62
     1
370
    15
100
AcDbSpline
210
0.0
220
0.0
230
1.0
 70
     8
 71
     3
 72
     9
 73
     5
 74
     0
 42
0.000000001
 43
0.00000001
 40
0.0
 40
0.0
 40
0.0
 40
0.0
 40
0.545077473062252
 40
1.0
 40
1.0
 40
1.0
 40
1.0
 10
40.09999999999997
 20
8.889999999999997
 30
0.0
 10
39.24231168174115
 20
8.880725869618495
 30
0.0
 10
37.66879532737721
 20
8.863711535253506
 30
0.0
 10
36.09550678927147
 20
8.735992944131093
 30
0.0
 10
35.37978239191419
 20
8.677890879920753
 30
0.0
1001
PE_URL
1000

  0
SPLINE
  5
AC
330
1F
100
AcDbEntity
  8
0
  6
Continuous
 62
     1
370
    15
100
AcDbSpline
210
0.0
220
0.0
230
1.0
 70
     8
 71
     3
 72
     8
 73
     4
 74
     0
 42
0.000000001
 43
0.00000001
 40
0.0
 40
0.0
 40
0.0
 40
0.0
 40
1.0
 40
1.0
 40
1.0
 40
1.0
 10
40.09999999999997
 20
8.890000000000002
 30
0.0
 10
38.41935188656203
 20
8.43438940178129
 30
0.0
 10
36.75204233969713
 20
7.907363561684507
 30
0.0
 10
35.09999999999997
 20
7.298596457508376
 30
0.0
1001
PE_URL
1000

  0
SPLINE
  5
AD
330
1F
100
AcDbEntity
  8
0
  6
Continuous
 62
     1
370
    15
100
AcDbSpline
210
0.0
220
0.0
230
1.0
 70
     8
 71
     3
 72
    12
 73
     8
 74
     0
 42
0.000000001
 43
0.00000001
 40
0.0
 40
0.0
 40
0.0
 40
0.0
 40
0.1243414803246634
 40
0.3538661635124716
 40
0.5691656744327435
 40
0.7847258407398925
 40
1.0
 40
1.0
 40
1.0
 40
1.0
 10
13.20039331710063
 20
-9.534992645240415
 30
0.0
 10
12.73611192444277
 20
-9.610663515557308
 30
0.0
 10
11.41480326074434
 20
-9.826016915716064
 30
0.0
 10
9.290035356032705
 20
-10.03147408739467
 30
0.0
 10
6.824781475392845
 20
-10.16276233339279
 30
0.0
 10
4.411924435285316
 20
-10.17202219394596
 30
0.0
 10
2.803618923443909
 20
-10.07610826019511
 30
0.0
 10
1.999999999999967
 20
-10.0281831292939
 30
0.0
1001
PE_URL
1000

  0
SPLINE
  5
AE
330
1F
100
AcDbEntity
  8
외형선
  6
Continuous
370
    15
100
AcDbSpline
210
0.0
220
0.0
230
1.0
 70
    24
 71
     3
 72
    14
 73
    10
 74
     0
 42
0.000000001
 43
0.00000001
 40
0.0
 40
0.0
 40
0.0
 40
0.0
 40
0.2500000000000001
 40
0.2500000000000001
 40
0.5000000000000001
 40
0.5000000000000001
 40
0.7500000000000002
 40
0.7500000000000002
 40
1.0
 40
1.0
 40
1.0
 40
1.0
 10
1.999999999999943
 20
1.427388421328407
 30
0.0
 10
1.999999999999944
 20
0.3039609947000232
 30
0.0
 10
1.999999999999943
 20
-0.848198303565569
 30
0.0
 10
1.999999999999943
 20
-3.102063151810459
 30
0.0
 10
1.999999999999943
 20
-4.202574900751788
 30
0.0
 10
1.999999999999943
 20
-6.238560242141844
 30
0.0
 10
1.999999999999943
 20
-7.17294897647975
 30
0.0
 10
1.999999999999943
 20
-8.793831463666121
 30
0.0
 10
1.999999999999943
 20
-9.480020473356873
 30
0.0
 10
1.999999999999943
 20
-10.02818312929391
 30
0.0
  0
LINE
  5
AF
330
1F
100
AcDbEntity
  8
0
  6
Continuous
 62
     1
370
    15
100
AcDbLine
 10
40.09999999999997
 20
0.0000000000000023
 30
0.0
 11
40.09999999999997
 21
8.89
 31
0.0
1001
PE_URL
1000

  0
SPLINE
  5
B0
330
1F
100
AcDbEntity
  8
0
  6
Continuous
 62
     1
370
    15
100
AcDbSpline
210
0.0
220
0.0
230
1.0
 70
     8
 71
     3
 72
    16
 73
    12
 74
     0
 42
0.000000001
 43
0.00000001
 40
0.0
 40
0.0
 40
0.0
 40
0.0
 40
0.0404928293110503
 40
0.1604758664868812
 40
0.280405457793267
 40
0.4002798541018918
 40
0.5203109546208442
 40
0.6401427551749254
 40
0.7601841598266164
 40
0.8800433906218701
 40
1.0
 40
1.0
 40
1.0
 40
1.0
 10
22.62790912618441
 20
8.512876050145291
 30
0.0
 10
22.86369287639375
 20
8.615734653095714
 30
0.0
 10
23.79812008886926
 20
9.023370368231955
 30
0.0
 10
25.43158070954889
 20
9.659637566592414
 30
0.0
 10
27.52698194187219
 20
10.40621952056972
 30
0.0
 10
29.62213809989661
 20
11.05434579131112
 30
0.0
 10
31.71815219321795
 20
11.60204954241701
 30
0.0
 10
33.81323868253375
 20
12.04631513202436
 30
0.0
 10
35.90931944295547
 20
12.3779067852414
 30
0.0
 10
38.00444059217938
 20
12.60634711386174
 30
0.0
 10
39.40129113103028
 20
12.66161899241158
 30
0.0
 10
40.09999999999998
 20
12.68926615341647
 30
0.0
1001
PE_URL
1000

  0
SPLINE
  5
B1
330
1F
100
AcDbEntity
  8
0
  6
Continuous
 62
     1
370
    15
100
AcDbSpline
210
0.0
220
0.0
230
1.0
 70
    24
 71
     3
 72
    10
 73
     6
 74
     0
 42
0.000000001
 43
0.00000001
 40
0.0
 40
0.0
 40
0.0
 40
0.0
 40
0.5
 40
0.5
 40
1.0
 40
1.0
 40
1.0
 40
1.0
 10
40.09999999999997
 20
8.889999999999997
 30
0.0
 10
40.09999999999997
 20
9.428889661452882
 30
0.0
 10
40.09999999999997
 20
10.05512935461238
 30
0.0
 10
40.09999999999997
 20
11.36897854420286
 30
0.0
 10
40.09999999999997
 20
12.05323263467869
 30
0.0
 10
40.09999999999997
 20
12.68926615341647
 30
0.0
1001
PE_URL
1000

  0
LINE
  5
B2
330
1F
100
AcDbEntity
  8
중심선
 62
     1
100
AcDbLine
 10
-58.97500000000001
 20
-0.0000000000000076
 30
0.0
 11
47.09999999999998
 21
0.000000000000004
 31
0.0
  0
LINE
  5
B3
330
1F
100
AcDbEntity
  8
참조1
100
AcDbLine
 10
-4.350000000000028
 20
-0.0000000000000064
 30
0.0
 11
-4.350000000000023
 21
-40.00000000000001
 31
0.0
  0
LINE
  5
B4
330
1F
100
AcDbEntity
  8
참조1
100
AcDbLine
 10
-4.350000000000023
 20
-40.00000000000001
 30
0.0
 11
-24.27133181430871
 21
-40.0
 31
0.0
  0
INSERT
  5
B6
330
1F
100
AcDbEntity
  8
0
  6
Continuous
 62
     7
100
AcDbBlockReference
 66
     1
  2
블럭10
 10
-18.29027293212523
 20
-52.04717430164393
 30
0.0
  0
ATTRIB
  5
B7
330
B6
100
AcDbEntity
  8
FORMAT
 62
     2
100
AcDbText
 10
-27.47156822086652
 20
-49.97180738881174
 30
0.0
 40
4.233333333333333
  1
E2030908 [ 2 FLUTE ]
 41
0.75
  7
SLDTEXTSTYLE0
 11
-27.47156822086652
 21
-52.08847405547841
 31
0.0
100
AcDbAttribute
  2
AUTOATTR0
 70
     0
 74
     1
  0
SEQEND
  5
B8
330
B6
100
AcDbEntity
  8
0
  6
Continuous
 62
     7
  0
HATCH
  5
B9
330
1F
100
AcDbEntity
  8
중심선
100
AcDbHatch
 10
0.0
 20
0.0
 30
0.0
210
0.0
220
0.0
230
1.0
  2
SOLID
 70
     1
 71
     0
 91
        1
 92
        0
 93
        4
 72
     1
 10
-12.57536362774439
 20
-35.8
 11
-16.02163887158167
 21
-35.8
 72
     1
 10
-16.02163887158167
 20
-35.8
 11
-18.14986873078569
 21
-38.3363255805726
 72
     1
 10
-18.14986873078569
 20
-38.3363255805726
 11
-14.70356040183526
 21
-38.33628615127011
 72
     1
 10
-14.70356040183526
 20
-38.33628615127011
 11
-12.57536362774439
 21
-35.8
 97
        0
 75
     0
 76
     1
 98
        1
 10
-1.740578832126971
 20
-0.0010749287238956
  0
HATCH
  5
BA
330
1F
100
AcDbEntity
  8
중심선
100
AcDbHatch
 10
0.0
 20
0.0
 30
0.0
210
0.0
220
0.0
230
1.0
  2
SOLID
 70
     1
 71
     0
 91
        1
 92
        0
 93
        4
 72
     1
 10
-7.562599636708411
 20
-35.8
 11
-11.00887488054569
 21
-35.8
 72
     1
 10
-11.00887488054569
 20
-35.8
 11
-15.54001288890311
 21
-41.20000000000002
 72
     1
 10
-15.54001288890311
 20
-41.20000000000002
 11
-12.09373764506583
 21
-41.20000000000002
 72
     1
 10
-12.09373764506583
 20
-41.20000000000002
 11
-7.562599636708411
 21
-35.8
 97
        0
 75
     0
 76
     1
 98
        1
 10
-1.740578832126971
 20
-0.0010749287238956
  0
HATCH
  5
BB
330
1F
100
AcDbEntity
  8
중심선
100
AcDbHatch
 10
0.0
 20
0.0
 30
0.0
210
0.0
220
0.0
230
1.0
  2
SOLID
 70
     1
 71
     0
 91
        1
 92
        0
 93
        4
 72
     1
 10
-2.549835645672544
 20
-35.8
 11
-5.99611088950966
 21
-35.8
 72
     1
 10
-5.99611088950966
 20
-35.8
 11
-13.04454779139891
 21
-44.20000000000002
 72
     1
 10
-13.04454779139891
 20
-44.20000000000002
 11
-9.598272547561626
 21
-44.20000000000002
 72
     1
 10
-9.598272547561626
 20
-44.20000000000002
 11
-2.549835645672545
 21
-35.8
 97
        0
 75
     0
 76
     1
 98
        1
 10
-1.740578832126971
 20
-0.0010749287238956
  0
HATCH
  5
BC
330
1F
100
AcDbEntity
  8
중심선
100
AcDbHatch
 10
0.0
 20
0.0
 30
0.0
210
0.0
220
0.0
230
1.0
  2
SOLID
 70
     1
 71
     0
 91
        1
 92
        0
 93
        6
 72
     3
 10
2.250054785339656
 20
-40.00000000005127
 11
3.960054785062284
 21
1.540882976769353E-10
 40
0.3939339440162627
 50
17.09539180608436
 51
320.0019657685081
 73
     0
 72
     1
 10
3.933054441040252
 20
-38.5878940046383
 11
6.238356314741289
 21
-36.65356729459035
 72
     3
 10
2.250054785286809
 20
-40.00000000000015
 11
6.60005478528683
 21
-1.278976924368180E-13
 40
0.636358354079598
 50
39.99873849337432
 51
368.4976242363724
 73
     1
 72
     1
 10
8.675387277187419
 20
-39.03999999993002
 11
0.9301220921227316
 21
-39.03999999993002
 72
     1
 10
0.9301220921227316
 20
-39.03999999993002
 11
0.9300970476767976
 21
-40.95999999992991
 72
     1
 10
0.9300970476767976
 20
-40.95999999992991
 11
5.371476817148835
 21
-40.95999999992988
 97
        0
 75
     0
 76
     1
 98
        1
 10
-1.740578832126971
 20
-0.0010749287238956
  0
DIMENSION
  5
BD
330
1F
100
AcDbEntity
  8
치수문자_일반주서
100
AcDbDimension
  2
_D
 10
-66.97499999999995
 20
-7.937500000000071
 30
0.0
 11
-66.97500000000008
 21
27.81249999999993
 31
0.0
 70
   160
  1
%%c<>
 71
     2
 42
15.875
 52
-270.0
  3
SLDDIMSTYLE2
100
AcDbAlignedDimension
 13
-50.97499999999999
 23
7.937499999999989
 33
0.0
 14
-50.91249999999999
 24
-7.937500000000007
 34
0.0
 50
90.0000000000002
100
AcDbRotatedDimension
1001
PE_URL
1000

1001
ACAD
1000
DSTYLE
1002
{
1070
   171
1070
     8
1070
   273
1070
     7
1070
    41
1040
4.0
1070
   140
1040
4.0
1002
}
1001
ACAD_DSTYLE_DIMFLIPARROW_SYMBOL
1070
   385
1070
     0
1001
ACAD_DSTYLE_DIMFLIPARROW_WHICH_SYMBOL
1070
   386
1070
     3
  0
DIMENSION
  5
CB
330
1F
100
AcDbEntity
  8
치수문자_일반주서
100
AcDbDimension
  2
_D_1
 10
1.999999999999968
 20
22.9375
 30
0.0
 11
21.04999999999998
 21
22.9375
 31
0.0
 70
   160
  1
<>
 71
     2
 42
38.10000000000002
  3
SLDDIMSTYLE2
100
AcDbAlignedDimension
 13
40.09999999999998
 23
12.68926615341647
 33
0.0
 14
1.999999999999967
 24
5.47284932406939
 34
0.0
100
AcDbRotatedDimension
1001
PE_URL
1000

1001
ACAD
1000
DSTYLE
1002
{
1070
   171
1070
     8
1070
   273
1070
     7
1070
    41
1040
4.0
1070
   140
1040
4.0
1002
}
  0
DIMENSION
  5
E1
330
1F
100
AcDbEntity
  8
치수문자_일반주서
100
AcDbDimension
  2
_D_2
 10
-51.97500000000001
 20
37.9375
 30
0.0
 11
-5.937500000000014
 21
37.9375
 31
0.0
 70
   160
  1
<>
 71
     2
 42
92.07499999999999
  3
SLDDIMSTYLE2
100
AcDbAlignedDimension
 13
40.09999999999998
 23
12.68926615341647
 33
0.0
 14
-51.97500000000001
 24
6.937499999999989
 34
0.0
 50
0.000000000000008
100
AcDbRotatedDimension
1001
PE_URL
1000

1001
ACAD
1000
DSTYLE
1002
{
1070
   171
1070
     8
1070
   273
1070
     7
1070
    41
1040
4.0
1070
   140
1040
4.0
1002
}
  0
DIMENSION
  5
F5
330
1F
100
AcDbEntity
  8
치수문자_일반주서
100
AcDbDimension
  2
_D_3
 10
55.09999999999989
 20
12.68926615341653
 30
0.0
 11
55.09999999999984
 21
29.56426615341653
 31
0.0
 70
   160
  1
%%c<>
 71
     2
 42
25.37853230683295
 52
-270.0
  3
SLDDIMSTYLE2
100
AcDbAlignedDimension
 13
40.09999999999998
 23
-12.68926615341648
 33
0.0
 14
40.09999999999998
 24
12.68926615341647
 34
0.0
 50
90.0000000000002
100
AcDbRotatedDimension
1001
PE_URL
1000

1001
ACAD
1000
DSTYLE
1002
{
1070
   171
1070
     8
1070
   273
1070
     7
1070
    41
1040
4.0
1070
   140
1040
4.0
1002
}
1001
ACAD_DSTYLE_DIMFLIPARROW_SYMBOL
1070
   385
1070
     0
1001
ACAD_DSTYLE_DIMFLIPARROW_WHICH_SYMBOL
1070
   386
1070
     3
  0
LINE
  5
109
330
1F
100
AcDbEntity
  8
참조1
100
AcDbLine
 10
73.70100881534556
 20
7.44
 30
0.0
 11
73.70100881534556
 21
-7.440000000000005
 31
0.0
  0
LINE
  5
10A
330
1F
100
AcDbEntity
  8
참조1
100
AcDbLine
 10
86.40100881534556
 20
5.44
 30
0.0
 11
73.70100881534556
 21
5.44
 31
0.0
  0
SOLID
  5
10B
330
1F
100
AcDbEntity
  8
참조1
100
AcDbTrace
 10
73.70100881534556
 20
5.44
 30
0.0
 11
80.05100881534555
 21
4.423999999999999
 31
0.0
 12
80.05100881534555
 22
6.456
 32
0.0
 13
80.05100881534555
 23
6.456
 33
0.0
  0
LINE
  5
10C
330
1F
100
AcDbEntity
  8
참조1
100
AcDbLine
 10
86.40100881534556
 20
-5.440000000000005
 30
0.0
 11
73.70100881534556
 21
-5.440000000000005
 31
0.0
  0
SOLID
  5
10D
330
1F
100
AcDbEntity
  8
참조1
100
AcDbTrace
 10
73.70100881534556
 20
-5.440000000000005
 30
0.0
 11
80.05100881534555
 21
-6.456000000000005
 31
0.0
 12
80.05100881534555
 22
-4.424000000000005
 32
0.0
 13
80.05100881534555
 23
-4.424000000000005
 33
0.0
  0
MTEXT
  5
10E
330
1F
100
AcDbEntity
  8
참조1
100
AcDbMText
 10
83.08535894797154
 20
11.01029177718833
 30
0.0
 40
3.5
 41
0.0
 71
     1
 72
     1
  1
A
  7
SLDTEXTSTYLE0
 73
     1
 44
1.0
  0
MTEXT
  5
10F
330
1F
100
AcDbEntity
  8
참조1
100
AcDbMText
 10
83.08535894797154
 20
0.1302917771883245
 30
0.0
 40
3.5
 41
0.0
 71
     1
 72
     1
  1
A
  7
SLDTEXTSTYLE0
 73
     1
 44
1.0
  0
LINE
  5
187
330
1F
100
AcDbEntity
  8
외형선
  6
Continuous
370
    15
100
AcDbLine
 10
1.999999999999965
 20
7.937499999999996
 30
0.0
 11
-21.02192500000008
 21
7.937499999999995
 31
0.0
  0
LINE
  5
188
330
1F
100
AcDbEntity
  8
외형선
  6
Continuous
370
    15
100
AcDbLine
 10
-50.97499999999999
 20
-7.937500000000007
 30
0.0
 11
1.999999999999942
 21
-7.937500000000002
 31
0.0
  0
LINE
  5
189
330
1F
100
AcDbEntity
  8
외형선
  6
Continuous
370
    15
100
AcDbLine
 10
-50.97499999999999
 20
7.937499999999989
 30
0.0
 11
-51.97500000000001
 21
6.937499999999989
 31
0.0
  0
LINE
  5
18A
330
1F
100
AcDbEntity
  8
외형선
  6
Continuous
370
    15
100
AcDbLine
 10
-51.97500000000001
 20
-6.937500000000004
 30
0.0
 11
-50.97499999999999
 21
-7.937500000000004
 31
0.0
  0
LINE
  5
18D
330
1F
100
AcDbEntity
  8
외형선
  6
Continuous
370
    15
100
AcDbLine
 10
2.0
 20
7.324012631452547
 30
0.0
 11
2.0
 21
6.194075739295052
 31
0.0
  0
LINE
  5
190
330
1F
100
AcDbEntity
  8
외형선
  6
Continuous
370
    15
100
AcDbLine
 10
-1.049987638721447
 20
7.817794618563649
 30
0.0
 11
-1.049987638721447
 21
7.937499999999996
 31
0.0
  0
LINE
  5
191
330
1F
100
AcDbEntity
  8
외형선
  6
Continuous
370
    15
100
AcDbLine
 10
-50.97499999999999
 20
7.937499999999989
 30
0.0
 11
-50.97499999999999
 21
-7.937500000000007
 31
0.0
  0
LINE
  5
193
330
1F
100
AcDbEntity
  8
외형선
  6
Continuous
370
    15
100
AcDbLine
 10
-51.97500000000001
 20
6.937499999999989
 30
0.0
 11
-51.97500000000001
 21
-6.937500000000004
 31
0.0
  0
SPLINE
  5
194
330
1F
100
AcDbEntity
  8
외형선
  6
Continuous
370
    15
100
AcDbSpline
210
0.0
220
0.0
230
1.0
 70
    24
 71
     3
 72
    14
 73
    10
 74
     0
 42
0.000000001
 43
0.00000001
 40
0.0
 40
0.0
 40
0.0
 40
0.0
 40
0.2500000000000001
 40
0.2500000000000001
 40
0.5000000000000002
 40
0.5000000000000002
 40
0.7500000000000001
 40
0.7500000000000001
 40
1.0
 40
1.0
 40
1.0
 40
1.0
 10
2.0
 20
4.189366811097351
 30
0.0
 10
2.0
 20
3.625205325294494
 30
0.0
 10
2.0
 20
2.991485487838137
 30
0.0
 10
2.0
 20
1.627960375546329
 30
0.0
 10
2.0
 20
0.8986311196507866
 30
0.0
 10
2.0
 20
-0.5872848660725158
 30
0.0
 10
2.0
 20
-1.343079837739577
 30
0.0
 10
2.0
 20
-2.807447878364645
 30
0.0
 10
2.0
 20
-3.515403289048678
 30
0.0
 10
2.0
 20
-4.171212485139172
 30
0.0
  0
SPLINE
  5
198
330
1F
100
AcDbEntity
  8
외형선
  6
Continuous
370
    15
100
AcDbSpline
210
0.0
220
0.0
230
1.0
 70
    24
 71
     3
 72
    14
 73
    10
 74
     0
 42
0.000000001
 43
0.00000001
 40
0.0
 40
0.0
 40
0.0
 40
0.0
 40
0.15266884771503
 40
0.3053376954300597
 40
0.5286179486179072
 40
0.6436004399011238
 40
0.7585829311843406
 40
0.9602124568226299
 40
1.0
 40
1.0
 40
1.0
 40
1.0
 10
2.0
 20
-4.171212485139172
 30
0.0
 10
2.0
 20
-4.385636162098209
 30
0.0
 10
2.0
 20
-4.814483516016285
 30
0.0
 10
2.0
 20
-5.426462652250219
 30
0.0
 10
2.0
 20
-5.870685787494907
 30
0.0
 10
2.0
 20
-6.164238698891076
 30
0.0
 10
2.0
 20
-6.358071935670946
 30
0.0
 10
2.0
 20
-6.467747353414918
 30
0.0
 10
2.0
 20
-6.433994082628043
 30
0.0
 10
2.0
 20
-6.428431262544944
 30
0.0
  0
SPLINE
  5
199
330
1F
100
AcDbEntity
  8
외형선
  6
Continuous
370
    15
100
AcDbSpline
210
0.0
220
0.0
230
1.0
 70
    24
 71
     3
 72
    10
 73
     6
 74
     0
 42
0.000000001
 43
0.00000001
 40
0.0
 40
0.0
 40
0.0
 40
0.0
 40
0.5000000000000002
 40
0.5000000000000002
 40
1.0
 40
1.0
 40
1.0
 40
1.0
 10
2.0
 20
6.194075739295052
 30
0.0
 10
2.0
 20
5.961163101808033
 30
0.0
 10
2.0
 20
5.654560272547076
 30
0.0
 10
2.0
 20
4.95840981276989
 30
0.0
 10
2.0
 20
4.571050182116579
 30
0.0
 10
2.0
 20
4.189366811097351
 30
0.0
  0
SPLINE
  5
19A
330
1F
100
AcDbEntity
  8
외형선
  6
Continuous
370
    15
100
AcDbSpline
210
0.0
220
0.0
230
1.0
 70
    24
 71
     3
 72
    10
 73
     6
 74
     0
 42
0.000000001
 43
0.00000001
 40
0.0
 40
0.0
 40
0.0
 40
0.0
 40
0.3801611154143867
 40
0.8405054771075369
 40
1.0
 40
1.0
 40
1.0
 40
1.0
 10
2.0
 20
-6.444458990414983
 30
0.0
 10
2.0
 20
-6.562009617694972
 30
0.0
 10
1.999999999999986
 20
-6.821904546608366
 30
0.0
 10
1.999999999999986
 20
-7.109745139057054
 30
0.0
 10
2.0
 20
-7.280161705585268
 30
0.0
 10
2.0
 20
-7.324012631442493
 30
0.0
  0
SPLINE
  5
19B
330
1F
100
AcDbEntity
  8
외형선
  6
Continuous
370
    15
100
AcDbSpline
210
0.0
220
0.0
230
1.0
 70
    24
 71
     3
 72
    10
 73
     6
 74
     0
 42
0.000000001
 43
0.00000001
 40
0.0
 40
0.0
 40
0.0
 40
0.0
 40
0.5
 40
0.5
 40
1.0
 40
1.0
 40
1.0
 40
1.0
 10
2.0
 20
6.194075739295052
 30
0.0
 10
2.0
 20
5.961163101808026
 30
0.0
 10
2.0
 20
5.654560272547076
 30
0.0
 10
2.0
 20
4.958409812769887
 30
0.0
 10
2.0
 20
4.571050182116579
 30
0.0
 10
2.0
 20
4.189366811097351
 30
0.0
  0
SPLINE
  5
19C
330
1F
100
AcDbEntity
  8
외형선
  6
Continuous
370
    15
100
AcDbSpline
210
0.0
220
0.0
230
1.0
 70
    24
 71
     3
 72
    14
 73
    10
 74
     0
 42
0.000000001
 43
0.00000001
 40
0.0
 40
0.0
 40
0.0
 40
0.0
 40
0.25
 40
0.25
 40
0.5
 40
0.5
 40
0.75
 40
0.75
 40
1.0
 40
1.0
 40
1.0
 40
1.0
 10
2.0
 20
4.189366811097347
 30
0.0
 10
2.0
 20
3.625205325294494
 30
0.0
 10
2.0
 20
2.991485487838133
 30
0.0
 10
2.0
 20
1.627960375546326
 30
0.0
 10
2.0
 20
0.8986311196507795
 30
0.0
 10
2.0
 20
-0.5872848660725194
 30
0.0
 10
2.0
 20
-1.343079837739581
 30
0.0
 10
2.0
 20
-2.807447878364649
 30
0.0
 10
2.0
 20
-3.515403289048678
 30
0.0
 10
2.0
 20
-4.171212485139172
 30
0.0
  0
SPLINE
  5
19D
330
1F
100
AcDbEntity
  8
외형선
  6
Continuous
370
    15
100
AcDbSpline
210
0.0
220
0.0
230
1.0
 70
    24
 71
     3
 72
    14
 73
    10
 74
     0
 42
0.000000001
 43
0.00000001
 40
0.0
 40
0.0
 40
0.0
 40
0.0
 40
0.152720611185259
 40
0.3054412223705178
 40
0.528797180333187
 40
0.6438186572565883
 40
0.7588401341799896
 40
0.9605380237582963
 40
1.0
 40
1.0
 40
1.0
 40
1.0
 10
2.0
 20
-4.171212485139172
 30
0.0
 10
2.0
 20
-4.385636131479945
 30
0.0
 10
2.0
 20
-4.814483424161491
 30
0.0
 10
1.999999999999986
 20
-5.426463090476204
 30
0.0
 10
1.999999999999986
 20
-5.870683808560344
 30
0.0
 10
1.999999999999986
 20
-6.16424221395647
 30
0.0
 10
1.999999999999986
 20
-6.358054294229234
 30
0.0
 10
2.0
 20
-6.467722163749258
 30
0.0
 10
1.999999999999986
 20
-6.434057169096288
 30
0.0
 10
1.999999999999986
 20
-6.428548428184296
 30
0.0
  0
SPLINE
  5
19E
330
1F
100
AcDbEntity
  8
외형선
  6
Continuous
370
    15
100
AcDbSpline
210
0.0
220
0.0
230
1.0
 70
    24
 71
     3
 72
    12
 73
     8
 74
     0
 42
0.000000001
 43
0.00000001
 40
0.0
 40
0.0
 40
0.0
 40
0.0
 40
0.1507779048362684
 40
0.3808403659354424
 40
0.6106350219769504
 40
0.8406974830761241
 40
0.9999999999999999
 40
0.9999999999999999
 40
0.9999999999999999
 40
0.9999999999999999
 10
2.0
 20
-6.444458990414983
 30
0.0
 10
2.0
 20
-6.491488629208359
 30
0.0
 10
1.999999999999986
 20
-6.610277816969855
 30
0.0
 10
2.0
 20
-6.794238930993625
 30
0.0
 10
1.999999999999986
 20
-6.996788996758212
 30
0.0
 10
1.999999999999986
 20
-7.173100179932103
 30
0.0
 10
2.0
 20
-7.280196051123504
 30
0.0
 10
2.0
 20
-7.324012631442482
 30
0.0
  0
CIRCLE
  5
19F
330
1F
100
AcDbEntity
  8
해칭선
100
AcDbCircle
 10
0.0
 20
0.0
 30
0.0
 40
2.999999999999993
  0
INSERT
  5
1A0
330
1F
100
AcDbEntity
  8
해칭선
100
AcDbBlockReference
  2
SW_DOWELSYMBOL_0
 10
0.0
 20
0.0
 30
0.0
  0
LINE
  5
1A1
330
1F
100
AcDbEntity
  8
외형선
  6
Continuous
370
    15
100
AcDbLine
 10
-32.85832500000002
 20
6.286499999999954
 30
0.0
 11
-22.67292500000001
 21
6.286499999999954
 31
0.0
1001
PE_URL
1000

  0
LINE
  5
1A2
330
1F
100
AcDbEntity
  8
외형선
  6
Continuous
370
    15
100
AcDbLine
 10
-32.85832500000002
 20
6.286500000000053
 30
0.0
 11
-34.50932499999998
 21
7.937499999999964
 31
0.0
1001
PE_URL
1000

  0
LINE
  5
1A3
330
1F
100
AcDbEntity
  8
외형선
  6
Continuous
370
    15
100
AcDbLine
 10
-22.67292500000012
 20
6.286500000000053
 30
0.0
 11
-21.02192500000011
 21
7.937499999999964
 31
0.0
1001
PE_URL
1000

  0
LINE
  5
1A4
330
1F
100
AcDbEntity
  8
외형선
  6
Continuous
370
    15
100
AcDbLine
 10
-34.509325
 20
7.937499999999993
 30
0.0
 11
-50.97499999999999
 21
7.937499999999993
 31
0.0
  0
ENDSEC
  0
SECTION
  2
OBJECTS
  0
DICTIONARY
  5
C
330
0
100
AcDbDictionary
281
     1
  3
ACAD_DETAILVIEWSTYLE
350
25D
  3
ACAD_GROUP
350
D
  3
ACAD_IMAGE_VARS
350
290
  3
ACAD_LAYOUT
350
1A
  3
ACAD_MLINESTYLE
350
17
  3
ACAD_PLOTSETTINGS
350
19
  3
ACAD_PLOTSTYLENAME
350
E
  3
ACAD_SCALELIST
350
47
  3
ACAD_SECTIONVIEWSTYLE
350
25E
  3
AcDbVariableDictionary
350
258
  3
APPDATA
350
138
  3
DWGPROPS
350
291
  0
DICTIONARY
  5
182
330
2
100
AcDbDictionary
280
     1
281
     1
  3
ACAD_LAYERSTATES
360
183
  0
DICTIONARY
  5
25D
102
{ACAD_REACTORS
330
C
102
}
330
C
100
AcDbDictionary
281
     1
  0
DICTIONARY
  5
D
102
{ACAD_REACTORS
330
C
102
}
330
C
100
AcDbDictionary
281
     1
  0
RASTERVARIABLES
  5
290
102
{ACAD_REACTORS
330
C
102
}
330
C
100
AcDbRasterVariables
 90
        0
 70
     1
 71
     1
 72
     1
  0
DICTIONARY
  5
1A
102
{ACAD_REACTORS
330
C
102
}
330
C
100
AcDbDictionary
281
     1
  3
Layout1
350
1E
  3
Layout2
350
26
  3
Model
350
22
  0
DICTIONARY
  5
17
102
{ACAD_REACTORS
330
C
102
}
330
C
100
AcDbDictionary
281
     1
  3
Standard
350
18
  0
DICTIONARY
  5
19
102
{ACAD_REACTORS
330
C
102
}
330
C
100
AcDbDictionary
281
     1
  0
ACDBDICTIONARYWDFLT
  5
E
102
{ACAD_REACTORS
330
C
102
}
330
C
100
AcDbDictionary
281
     1
  3
Normal
350
F
100
AcDbDictionaryWithDefault
340
F
  0
DICTIONARY
  5
47
102
{ACAD_REACTORS
330
C
102
}
330
C
100
AcDbDictionary
281
     1
  3
A0
350
48
  3
A1
350
49
  3
A2
350
4A
  3
A3
350
4B
  3
A4
350
4C
  3
A5
350
4D
  3
A6
350
4E
  3
A7
350
4F
  3
A8
350
50
  3
A9
350
51
  3
B0
350
52
  3
B1
350
53
  3
B2
350
54
  3
B3
350
55
  3
B4
350
56
  3
B5
350
57
  3
B6
350
58
  3
B7
350
59
  3
B8
350
5A
  3
B9
350
5B
  3
C0
350
5C
  3
C1
350
5D
  3
C2
350
5E
  3
C3
350
5F
  3
C4
350
60
  3
C5
350
61
  3
C6
350
62
  3
C7
350
63
  3
C8
350
64
  3
C9
350
65
  3
D0
350
66
  3
D1
350
67
  3
D2
350
68
  0
DICTIONARY
  5
25E
102
{ACAD_REACTORS
330
C
102
}
330
C
100
AcDbDictionary
281
     1
  0
DICTIONARY
  5
258
102
{ACAD_REACTORS
330
C
102
}
330
C
100
AcDbDictionary
281
     1
  0
DICTIONARY
  5
138
102
{ACAD_REACTORS
330
C
102
}
330
C
100
AcDbDictionary
281
     1
  0
XRECORD
  5
291
102
{ACAD_REACTORS
330
C
102
}
330
C
100
AcDbXrecord
280
     1
  1
DWGPROPS COOKIE
  2

  3

  4

  6

  7

  8
12016016
  9

300
=
301
=
302
=
303
=
304
=
305
=
306
=
307
=
308
=
309
=
 40
0.0
 41
2458311.191696042
 42
2458323.079402812
  1

 90
        0
  0
DICTIONARY
  5
183
102
{ACAD_REACTORS
330
182
102
}
330
182
100
AcDbDictionary
281
     1
  0
LAYOUT
  5
1E
102
{ACAD_REACTORS
330
1A
102
}
330
1A
100
AcDbPlotSettings
  1

  2
none_device
  4

  6

 40
0.0
 41
0.0
 42
0.0
 43
0.0
 44
0.0
 45
0.0
 46
0.0
 47
0.0
 48
0.0
 49
0.0
140
0.0
141
0.0
142
1.0
143
1.0
 70
   688
 72
     1
 73
     0
 74
     5
  7

 75
    16
147
1.0
148
0.0
149
0.0
100
AcDbLayout
  1
Layout1
 70
     1
 71
     1
 10
0.0
 20
0.0
 11
420.0
 21
297.0
 12
0.0
 22
0.0
 32
0.0
 14
1.000000000000000E+20
 24
1.000000000000000E+20
 34
1.000000000000000E+20
 15
-1.000000000000000E+20
 25
-1.000000000000000E+20
 35
-1.000000000000000E+20
146
0.0
 13
0.0
 23
0.0
 33
0.0
 16
1.0
 26
0.0
 36
0.0
 17
0.0
 27
1.0
 37
0.0
 76
     0
330
1B
  0
LAYOUT
  5
26
102
{ACAD_REACTORS
330
1A
102
}
330
1A
100
AcDbPlotSettings
  1

  2
none_device
  4

  6

 40
0.0
 41
0.0
 42
0.0
 43
0.0
 44
0.0
 45
0.0
 46
0.0
 47
0.0
 48
0.0
 49
0.0
140
0.0
141
0.0
142
1.0
143
1.0
 70
   688
 72
     1
 73
     0
 74
     5
  7

 75
    16
147
1.0
148
0.0
149
0.0
100
AcDbLayout
  1
Layout2
 70
     1
 71
     2
 10
0.0
 20
0.0
 11
0.0
 21
0.0
 12
0.0
 22
0.0
 32
0.0
 14
0.0
 24
0.0
 34
0.0
 15
0.0
 25
0.0
 35
0.0
146
0.0
 13
0.0
 23
0.0
 33
0.0
 16
1.0
 26
0.0
 36
0.0
 17
0.0
 27
1.0
 37
0.0
 76
     0
330
23
  0
LAYOUT
  5
22
102
{ACAD_REACTORS
330
1A
102
}
330
1A
100
AcDbPlotSettings
  1

  2
none_device
  4
ANSI_A_(11.00_x_8.50_Inches)
  6

 40
6.35
 41
19.05
 42
6.35000508
 43
19.05000254
 44
279.4
 45
215.9
 46
111.5354592427306
 47
92.50265853467127
 48
0.0
 49
0.0
140
0.0
141
0.0
142
0.0715194751484015
143
1.0
 70
  1696
 72
     0
 73
     0
 74
     0
  7

 75
     0
147
0.0235690232323232
148
0.0
149
0.0
100
AcDbLayout
  1
Model
 70
     1
 71
     0
 10
0.0
 20
0.0
 11
420.0
 21
297.0
 12
0.0
 22
0.0
 32
0.0
 14
-71.85000000000014
 24
-49.97180738881175
 34
0.0
 15
86.40100881534556
 25
43.68749999999994
 35
0.0
146
0.0
 13
0.0
 23
0.0
 33
0.0
 16
1.0
 26
0.0
 36
0.0
 17
0.0
 27
1.0
 37
0.0
 76
     0
330
1F
331
29
  0
MLINESTYLE
  5
18
102
{ACAD_REACTORS
330
17
102
}
330
17
100
AcDbMlineStyle
  2
Standard
 70
     0
  3

 62
   256
 51
90.0
 52
90.0
 71
     2
 49
0.5
 62
   256
  6
BYLAYER
 49
-0.5
 62
   256
  6
BYLAYER
  0
ACDBPLACEHOLDER
  5
F
102
{ACAD_REACTORS
330
E
102
}
330
E
  0
SCALE
  5
48
102
{ACAD_REACTORS
330
47
102
}
330
47
100
AcDbScale
 70
     0
300
1:1
140
1.0
141
1.0
290
     1
  0
SCALE
  5
49
102
{ACAD_REACTORS
330
47
102
}
330
47
100
AcDbScale
 70
     0
300
1:2
140
1.0
141
2.0
290
     0
  0
SCALE
  5
4A
102
{ACAD_REACTORS
330
47
102
}
330
47
100
AcDbScale
 70
     0
300
1:4
140
1.0
141
4.0
290
     0
  0
SCALE
  5
4B
102
{ACAD_REACTORS
330
47
102
}
330
47
100
AcDbScale
 70
     0
300
1:5
140
1.0
141
5.0
290
     0
  0
SCALE
  5
4C
102
{ACAD_REACTORS
330
47
102
}
330
47
100
AcDbScale
 70
     0
300
1:8
140
1.0
141
8.0
290
     0
  0
SCALE
  5
4D
102
{ACAD_REACTORS
330
47
102
}
330
47
100
AcDbScale
 70
     0
300
1:10
140
1.0
141
10.0
290
     0
  0
SCALE
  5
4E
102
{ACAD_REACTORS
330
47
102
}
330
47
100
AcDbScale
 70
     0
300
1:16
140
1.0
141
16.0
290
     0
  0
SCALE
  5
4F
102
{ACAD_REACTORS
330
47
102
}
330
47
100
AcDbScale
 70
     0
300
1:20
140
1.0
141
20.0
290
     0
  0
SCALE
  5
50
102
{ACAD_REACTORS
330
47
102
}
330
47
100
AcDbScale
 70
     0
300
1:30
140
1.0
141
30.0
290
     0
  0
SCALE
  5
51
102
{ACAD_REACTORS
330
47
102
}
330
47
100
AcDbScale
 70
     0
300
1:40
140
1.0
141
40.0
290
     0
  0
SCALE
  5
52
102
{ACAD_REACTORS
330
47
102
}
330
47
100
AcDbScale
 70
     0
300
1:50
140
1.0
141
50.0
290
     0
  0
SCALE
  5
53
102
{ACAD_REACTORS
330
47
102
}
330
47
100
AcDbScale
 70
     0
300
1:100
140
1.0
141
100.0
290
     0
  0
SCALE
  5
54
102
{ACAD_REACTORS
330
47
102
}
330
47
100
AcDbScale
 70
     0
300
2:1
140
2.0
141
1.0
290
     0
  0
SCALE
  5
55
102
{ACAD_REACTORS
330
47
102
}
330
47
100
AcDbScale
 70
     0
300
4:1
140
4.0
141
1.0
290
     0
  0
SCALE
  5
56
102
{ACAD_REACTORS
330
47
102
}
330
47
100
AcDbScale
 70
     0
300
8:1
140
8.0
141
1.0
290
     0
  0
SCALE
  5
57
102
{ACAD_REACTORS
330
47
102
}
330
47
100
AcDbScale
 70
     0
300
10:1
140
10.0
141
1.0
290
     0
  0
SCALE
  5
58
102
{ACAD_REACTORS
330
47
102
}
330
47
100
AcDbScale
 70
     0
300
100:1
140
100.0
141
1.0
290
     0
  0
SCALE
  5
59
102
{ACAD_REACTORS
330
47
102
}
330
47
100
AcDbScale
 70
     0
300
1/128" = 1'-0"
140
0.0078125
141
12.0
290
     0
  0
SCALE
  5
5A
102
{ACAD_REACTORS
330
47
102
}
330
47
100
AcDbScale
 70
     0
300
1/64" = 1'-0"
140
0.015625
141
12.0
290
     0
  0
SCALE
  5
5B
102
{ACAD_REACTORS
330
47
102
}
330
47
100
AcDbScale
 70
     0
300
1/32" = 1'-0"
140
0.03125
141
12.0
290
     0
  0
SCALE
  5
5C
102
{ACAD_REACTORS
330
47
102
}
330
47
100
AcDbScale
 70
     0
300
1/16" = 1'-0"
140
0.0625
141
12.0
290
     0
  0
SCALE
  5
5D
102
{ACAD_REACTORS
330
47
102
}
330
47
100
AcDbScale
 70
     0
300
3/32" = 1'-0"
140
0.09375
141
12.0
290
     0
  0
SCALE
  5
5E
102
{ACAD_REACTORS
330
47
102
}
330
47
100
AcDbScale
 70
     0
300
1/8" = 1'-0"
140
0.125
141
12.0
290
     0
  0
SCALE
  5
5F
102
{ACAD_REACTORS
330
47
102
}
330
47
100
AcDbScale
 70
     0
300
3/16" = 1'-0"
140
0.1875
141
12.0
290
     0
  0
SCALE
  5
60
102
{ACAD_REACTORS
330
47
102
}
330
47
100
AcDbScale
 70
     0
300
1/4" = 1'-0"
140
0.25
141
12.0
290
     0
  0
SCALE
  5
61
102
{ACAD_REACTORS
330
47
102
}
330
47
100
AcDbScale
 70
     0
300
3/8" = 1'-0"
140
0.375
141
12.0
290
     0
  0
SCALE
  5
62
102
{ACAD_REACTORS
330
47
102
}
330
47
100
AcDbScale
 70
     0
300
1/2" = 1'-0"
140
0.5
141
12.0
290
     0
  0
SCALE
  5
63
102
{ACAD_REACTORS
330
47
102
}
330
47
100
AcDbScale
 70
     0
300
3/4" = 1'-0"
140
0.75
141
12.0
290
     0
  0
SCALE
  5
64
102
{ACAD_REACTORS
330
47
102
}
330
47
100
AcDbScale
 70
     0
300
1" = 1'-0"
140
1.0
141
12.0
290
     0
  0
SCALE
  5
65
102
{ACAD_REACTORS
330
47
102
}
330
47
100
AcDbScale
 70
     0
300
1-1/2" = 1'-0"
140
1.5
141
12.0
290
     0
  0
SCALE
  5
66
102
{ACAD_REACTORS
330
47
102
}
330
47
100
AcDbScale
 70
     0
300
3" = 1'-0"
140
3.0
141
12.0
290
     0
  0
SCALE
  5
67
102
{ACAD_REACTORS
330
47
102
}
330
47
100
AcDbScale
 70
     0
300
6" = 1'-0"
140
6.0
141
12.0
290
     0
  0
SCALE
  5
68
102
{ACAD_REACTORS
330
47
102
}
330
47
100
AcDbScale
 70
     0
300
1'-0" = 1'-0"
140
12.0
141
12.0
290
     0
  0
ENDSEC
  0
EOF
