  0
SECTION
  2
HEADER
  9
$ACADVER
  1
AC1015
  9
$ACADMAINTVER
 70
     6
  9
$DWGCODEPAGE
  3
ANSI_949
  9
$INSBASE
 10
0.0
 20
0.0
 30
0.0
  9
$EXTMIN
 10
-81.3750000000001
 20
-49.99242146613351
 30
0.0
  9
$EXTMAX
 10
86.40100881534559
 20
59.26328515280303
 30
0.0
  9
$LIMMIN
 10
0.0
 20
0.0
  9
$LIMMAX
 10
420.0
 20
297.0
  9
$ORTHOMODE
 70
     1
  9
$REGENMODE
 70
     1
  9
$FILLMODE
 70
     1
  9
$QTEXTMODE
 70
     0
  9
$MIRRTEXT
 70
     1
  9
$LTSCALE
 40
1.0
  9
$ATTMODE
 70
     1
  9
$TEXTSIZE
 40
3.5
  9
$TRACEWID
 40
1.0
  9
$TEXTSTYLE
  7
Standard
  9
$CLAYER
  8
0
  9
$CELTYPE
  6
ByLayer
  9
$CECOLOR
 62
   256
  9
$CELTSCALE
 40
1.0
  9
$DISPSILH
 70
     0
  9
$DIMSCALE
 40
1.0
  9
$DIMASZ
 40
3.302
  9
$DIMEXO
 40
1.0
  9
$DIMDLI
 40
3.75
  9
$DIMRND
 40
0.0
  9
$DIMDLE
 40
0.0
  9
$DIMEXE
 40
1.0
  9
$DIMTP
 40
0.0
  9
$DIMTM
 40
0.0
  9
$DIMTXT
 40
3.5
  9
$DIMCEN
 40
2.5
  9
$DIMTSZ
 40
0.0
  9
$DIMTOL
 70
     0
  9
$DIMLIM
 70
     0
  9
$DIMTIH
 70
     1
  9
$DIMTOH
 70
     1
  9
$DIMSE1
 70
     0
  9
$DIMSE2
 70
     0
  9
$DIMTAD
 70
     1
  9
$DIMZIN
 70
     0
  9
$DIMBLK
  1

  9
$DIMASO
 70
     1
  9
$DIMSHO
 70
     1
  9
$DIMPOST
  1

  9
$DIMAPOST
  1

  9
$DIMALT
 70
     0
  9
$DIMALTD
 70
     3
  9
$DIMALTF
 40
0.0393700787401575
  9
$DIMLFAC
 40
1.0
  9
$DIMTOFL
 70
     1
  9
$DIMTVP
 40
0.0
  9
$DIMTIX
 70
     0
  9
$DIMSOXD
 70
     0
  9
$DIMSAH
 70
     0
  9
$DIMBLK1
  1

  9
$DIMBLK2
  1

  9
$DIMSTYLE
  2
ISO-25
  9
$DIMCLRD
 70
     0
  9
$DIMCLRE
 70
     0
  9
$DIMCLRT
 70
     0
  9
$DIMTFAC
 40
1.0
  9
$DIMGAP
 40
1.524
  9
$DIMJUST
 70
     0
  9
$DIMSD1
 70
     0
  9
$DIMSD2
 70
     0
  9
$DIMTOLJ
 70
     0
  9
$DIMTZIN
 70
     0
  9
$DIMALTZ
 70
     0
  9
$DIMALTTZ
 70
     0
  9
$DIMUPT
 70
     0
  9
$DIMDEC
 70
     2
  9
$DIMTDEC
 70
     2
  9
$DIMALTU
 70
     2
  9
$DIMALTTD
 70
     3
  9
$DIMTXSTY
  7
Standard
  9
$DIMAUNIT
 70
     0
  9
$DIMADEC
 70
     2
  9
$DIMALTRND
 40
0.0
  9
$DIMAZIN
 70
     0
  9
$DIMDSEP
 70
    44
  9
$DIMATFIT
 70
     3
  9
$DIMFRAC
 70
     0
  9
$DIMLDRBLK
  1

  9
$DIMLUNIT
 70
     2
  9
$DIMLWD
 70
    -2
  9
$DIMLWE
 70
    -2
  9
$DIMTMOVE
 70
     0
  9
$LUNITS
 70
     2
  9
$LUPREC
 70
     2
  9
$SKETCHINC
 40
1.0
  9
$FILLETRAD
 40
10.0
  9
$AUNITS
 70
     0
  9
$AUPREC
 70
     2
  9
$MENU
  1
.
  9
$ELEVATION
 40
0.0
  9
$PELEVATION
 40
0.0
  9
$THICKNESS
 40
0.0
  9
$LIMCHECK
 70
     0
  9
$CHAMFERA
 40
0.0
  9
$CHAMFERB
 40
0.0
  9
$CHAMFERC
 40
0.0
  9
$CHAMFERD
 40
0.0
  9
$SKPOLY
 70
     0
  9
$TDCREATE
 40
2458311.567754827
  9
$TDUCREATE
 40
2458311.192754827
  9
$TDUPDATE
 40
2458323.455305498
  9
$TDUUPDATE
 40
2458323.080305498
  9
$TDINDWG
 40
0.0029818287
  9
$TDUSRTIMER
 40
2458323.080226794
  9
$USRTIMER
 70
     1
  9
$ANGBASE
 50
0.0
  9
$ANGDIR
 70
     0
  9
$PDMODE
 70
     0
  9
$PDSIZE
 40
-1.0
  9
$PLINEWID
 40
0.0
  9
$SPLFRAME
 70
     0
  9
$SPLINETYPE
 70
     6
  9
$SPLINESEGS
 70
     8
  9
$HANDSEED
  5
289
  9
$SURFTAB1
 70
     6
  9
$SURFTAB2
 70
     6
  9
$SURFTYPE
 70
     6
  9
$SURFU
 70
     6
  9
$SURFV
 70
     6
  9
$UCSBASE
  2

  9
$UCSNAME
  2

  9
$UCSORG
 10
0.0
 20
0.0
 30
0.0
  9
$UCSXDIR
 10
1.0
 20
0.0
 30
0.0
  9
$UCSYDIR
 10
0.0
 20
1.0
 30
0.0
  9
$UCSORTHOREF
  2

  9
$UCSORTHOVIEW
 70
     0
  9
$UCSORGTOP
 10
0.0
 20
0.0
 30
0.0
  9
$UCSORGBOTTOM
 10
0.0
 20
0.0
 30
0.0
  9
$UCSORGLEFT
 10
0.0
 20
0.0
 30
0.0
  9
$UCSORGRIGHT
 10
0.0
 20
0.0
 30
0.0
  9
$UCSORGFRONT
 10
0.0
 20
0.0
 30
0.0
  9
$UCSORGBACK
 10
0.0
 20
0.0
 30
0.0
  9
$PUCSBASE
  2

  9
$PUCSNAME
  2

  9
$PUCSORG
 10
0.0
 20
0.0
 30
0.0
  9
$PUCSXDIR
 10
1.0
 20
0.0
 30
0.0
  9
$PUCSYDIR
 10
0.0
 20
1.0
 30
0.0
  9
$PUCSORTHOREF
  2

  9
$PUCSORTHOVIEW
 70
     0
  9
$PUCSORGTOP
 10
0.0
 20
0.0
 30
0.0
  9
$PUCSORGBOTTOM
 10
0.0
 20
0.0
 30
0.0
  9
$PUCSORGLEFT
 10
0.0
 20
0.0
 30
0.0
  9
$PUCSORGRIGHT
 10
0.0
 20
0.0
 30
0.0
  9
$PUCSORGFRONT
 10
0.0
 20
0.0
 30
0.0
  9
$PUCSORGBACK
 10
0.0
 20
0.0
 30
0.0
  9
$USERI1
 70
     0
  9
$USERI2
 70
     0
  9
$USERI3
 70
     0
  9
$USERI4
 70
     0
  9
$USERI5
 70
     0
  9
$USERR1
 40
0.0
  9
$USERR2
 40
0.0
  9
$USERR3
 40
0.0
  9
$USERR4
 40
0.0
  9
$USERR5
 40
0.0
  9
$WORLDVIEW
 70
     1
  9
$SHADEDGE
 70
     3
  9
$SHADEDIF
 70
    70
  9
$TILEMODE
 70
     1
  9
$MAXACTVP
 70
    64
  9
$PINSBASE
 10
0.0
 20
0.0
 30
0.0
  9
$PLIMCHECK
 70
     0
  9
$PEXTMIN
 10
1.000000000000000E+20
 20
1.000000000000000E+20
 30
1.000000000000000E+20
  9
$PEXTMAX
 10
-1.000000000000000E+20
 20
-1.000000000000000E+20
 30
-1.000000000000000E+20
  9
$PLIMMIN
 10
0.0
 20
0.0
  9
$PLIMMAX
 10
0.0
 20
0.0
  9
$UNITMODE
 70
     0
  9
$VISRETAIN
 70
     1
  9
$PLINEGEN
 70
     0
  9
$PSLTSCALE
 70
     1
  9
$TREEDEPTH
 70
  3020
  9
$CMLSTYLE
  2
Standard
  9
$CMLJUST
 70
     0
  9
$CMLSCALE
 40
20.0
  9
$PROXYGRAPHICS
 70
     1
  9
$MEASUREMENT
 70
     1
  9
$CELWEIGHT
370
    -1
  9
$ENDCAPS
280
     0
  9
$JOINSTYLE
280
     0
  9
$LWDISPLAY
290
     1
  9
$INSUNITS
 70
     4
  9
$HYPERLINKBASE
  1

  9
$STYLESHEET
  1

  9
$XEDIT
290
     1
  9
$CEPSNTYPE
380
     0
  9
$PSTYLEMODE
290
     1
  9
$FINGERPRINTGUID
  2
{47FD35DD-04DE-49DF-BC14-42788FE479F3}
  9
$VERSIONGUID
  2
{FAEB1C32-E019-11D5-929B-00C0DF256EC4}
  9
$EXTNAMES
290
     1
  9
$PSVPSCALE
 40
0.0
  9
$OLESTARTUP
290
     0
  0
ENDSEC
  0
SECTION
  2
CLASSES
  0
CLASS
  1
ACDBDICTIONARYWDFLT
  2
AcDbDictionaryWithDefault
  3
ObjectDBX Classes
 90
        0
280
     0
281
     0
  0
CLASS
  1
VISUALSTYLE
  2
AcDbVisualStyle
  3
ObjectDBX Classes
 90
     4095
280
     0
281
     0
  0
CLASS
  1
MATERIAL
  2
AcDbMaterial
  3
ObjectDBX Classes
 90
     1153
280
     0
281
     0
  0
CLASS
  1
SCALE
  2
AcDbScale
  3
ObjectDBX Classes
 90
     1153
280
     0
281
     0
  0
CLASS
  1
SUN
  2
AcDbSun
  3
SCENEOE
 90
     1153
280
     0
281
     0
  0
CLASS
  1
ACDBPLACEHOLDER
  2
AcDbPlaceHolder
  3
ObjectDBX Classes
 90
        0
280
     0
281
     0
  0
CLASS
  1
LAYOUT
  2
AcDbLayout
  3
ObjectDBX Classes
 90
        0
280
     0
281
     0
  0
CLASS
  1
TABLESTYLE
  2
AcDbTableStyle
  3
ObjectDBX Classes
 90
     4095
280
     0
281
     0
  0
CLASS
  1
MLEADERSTYLE
  2
AcDbMLeaderStyle
  3
ACDB_MLEADERSTYLE_CLASS
 90
     4095
280
     0
281
     0
  0
CLASS
  1
DICTIONARYVAR
  2
AcDbDictionaryVar
  3
ObjectDBX Classes
 90
        0
280
     0
281
     0
  0
CLASS
  1
RASTERVARIABLES
  2
AcDbRasterVariables
  3
ISM
 90
        0
280
     0
281
     0
  0
ENDSEC
  0
SECTION
  2
TABLES
  0
TABLE
  2
VPORT
  5
8
330
0
100
AcDbSymbolTable
 70
     1
  0
VPORT
  5
29
330
8
100
AcDbSymbolTableRecord
100
AcDbViewportTableRecord
  2
*Active
 70
     0
 10
0.0
 20
0.0
 11
1.0
 21
1.0
 12
2.513004407672739
 22
4.635431843334757
 13
0.0
 23
0.0
 14
10.0
 24
10.0
 15
10.0
 25
10.0
 16
0.0
 26
0.0
 36
1.0
 17
0.0
 27
0.0
 37
0.0
 40
111.4408207513153
 41
1.782762691853601
 42
50.0
 43
0.0
 44
0.0
 50
0.0
 51
0.0
 71
    16
 72
  2000
 73
     1
 74
     3
 75
     0
 76
     0
 77
     0
 78
     0
281
     0
 65
     1
110
0.0
120
0.0
130
0.0
111
1.0
121
0.0
131
0.0
112
0.0
122
1.0
132
0.0
 79
     0
146
0.0
  0
ENDTAB
  0
TABLE
  2
LTYPE
  5
5
330
0
100
AcDbSymbolTable
 70
     6
  0
LTYPE
  5
14
330
5
100
AcDbSymbolTableRecord
100
AcDbLinetypeTableRecord
  2
ByBlock
 70
     0
  3

 72
    65
 73
     0
 40
0.0
  0
LTYPE
  5
15
330
5
100
AcDbSymbolTableRecord
100
AcDbLinetypeTableRecord
  2
ByLayer
 70
     0
  3

 72
    65
 73
     0
 40
0.0
  0
LTYPE
  5
16
330
5
100
AcDbSymbolTableRecord
100
AcDbLinetypeTableRecord
  2
Continuous
 70
     0
  3
Solid line
 72
    65
 73
     0
 40
0.0
  0
LTYPE
  5
6A
330
5
100
AcDbSymbolTableRecord
100
AcDbLinetypeTableRecord
  2
HIDDEN
 70
     0
  3
Hidden __ __ __ __ __ __ __ __ __ __ __ __ __ __
 72
    65
 73
     2
 40
1.905
 49
1.27
 74
     0
 49
-0.635
 74
     0
  0
LTYPE
  5
6B
330
5
100
AcDbSymbolTableRecord
100
AcDbLinetypeTableRecord
  2
PHANTOM
 70
     0
  3
Phantom ______  __  __  ______  __  __  ______
 72
    65
 73
     6
 40
12.7
 49
6.35
 74
     0
 49
-1.27
 74
     0
 49
1.27
 74
     0
 49
-1.27
 74
     0
 49
1.27
 74
     0
 49
-1.27
 74
     0
  0
LTYPE
  5
6C
330
5
100
AcDbSymbolTableRecord
100
AcDbLinetypeTableRecord
  2
CENTER
 70
     0
  3
Center ____ _ ____ _ ____ _ ____ _ ____ _ ____
 72
    65
 73
     4
 40
10.16
 49
6.35
 74
     0
 49
-1.27
 74
     0
 49
1.27
 74
     0
 49
-1.27
 74
     0
  0
LTYPE
  5
6D
330
5
100
AcDbSymbolTableRecord
100
AcDbLinetypeTableRecord
  2
CENTERX2
 70
     0
  3
Center (2x) ________  __  ________  __  _____
 72
    65
 73
     4
 40
20.32
 49
12.7
 74
     0
 49
-2.54
 74
     0
 49
2.54
 74
     0
 49
-2.54
 74
     0
  0
LTYPE
  5
6E
330
5
100
AcDbSymbolTableRecord
100
AcDbLinetypeTableRecord
  2
DOT2
 70
     0
  3
Dot (.5x) ........................................
 72
    65
 73
     2
 40
0.635
 49
0.0
 74
     0
 49
-0.635
 74
     0
  0
ENDTAB
  0
TABLE
  2
LAYER
  5
2
102
{ACAD_XDICTIONARY
360
182
102
}
330
0
100
AcDbSymbolTable
 70
    18
  0
LAYER
  5
10
330
2
100
AcDbSymbolTableRecord
100
AcDbLayerTableRecord
  2
0
 70
     0
 62
     7
  6
Continuous
370
    -3
390
F
  0
LAYER
  5
6F
330
2
100
AcDbSymbolTableRecord
100
AcDbLayerTableRecord
  2
FORMAT
 70
     0
 62
     2
  6
Continuous
370
    -3
390
F
  0
LAYER
  5
70
330
2
100
AcDbSymbolTableRecord
100
AcDbLayerTableRecord
  2
외형선
 70
     0
 62
     4
  6
Continuous
370
    30
390
F
  0
LAYER
  5
71
330
2
100
AcDbSymbolTableRecord
100
AcDbLayerTableRecord
  2
숨은선
 70
     0
 62
     2
  6
HIDDEN
370
    15
390
F
  0
LAYER
  5
72
330
2
100
AcDbSymbolTableRecord
100
AcDbLayerTableRecord
  2
중심선
 70
     0
 62
     1
  6
CENTERX2
370
    -3
390
F
  0
LAYER
  5
73
330
2
100
AcDbSymbolTableRecord
100
AcDbLayerTableRecord
  2
파단선
 70
     0
 62
     4
  6
Continuous
370
    -3
390
F
  0
LAYER
  5
74
330
2
100
AcDbSymbolTableRecord
100
AcDbLayerTableRecord
  2
해칭선
 70
     0
 62
   100
  6
Continuous
370
    -3
390
F
  0
LAYER
  5
75
330
2
100
AcDbSymbolTableRecord
100
AcDbLayerTableRecord
  2
가는실선
 70
     0
 62
     4
  6
Continuous
370
    -3
390
F
  0
LAYER
  5
76
330
2
100
AcDbSymbolTableRecord
100
AcDbLayerTableRecord
  2
치수_보조선
 70
     0
 62
     4
  6
Continuous
370
    -3
390
F
  0
LAYER
  5
77
330
2
100
AcDbSymbolTableRecord
100
AcDbLayerTableRecord
  2
치수문자_일반주서
 70
     0
 62
     7
  6
Continuous
370
    15
390
F
  0
LAYER
  5
78
330
2
100
AcDbSymbolTableRecord
100
AcDbLayerTableRecord
  2
개별주서
 70
     0
 62
   100
  6
Continuous
370
    30
390
F
  0
LAYER
  5
79
330
2
100
AcDbSymbolTableRecord
100
AcDbLayerTableRecord
  2
중간선
 70
     0
 62
     2
  6
Continuous
370
    15
390
F
  0
LAYER
  5
7A
330
2
100
AcDbSymbolTableRecord
100
AcDbLayerTableRecord
  2
윤곽선
 70
     0
 62
     3
  6
Continuous
370
    40
390
F
  0
LAYER
  5
7B
330
2
100
AcDbSymbolTableRecord
100
AcDbLayerTableRecord
  2
중심마크
 70
     0
 62
   100
  6
Continuous
370
    30
390
F
  0
LAYER
  5
7C
330
2
100
AcDbSymbolTableRecord
100
AcDbLayerTableRecord
  2
가상선
 70
     0
 62
     4
  6
PHANTOM
370
    -3
390
F
  0
LAYER
  5
7D
330
2
100
AcDbSymbolTableRecord
100
AcDbLayerTableRecord
  2
특수지정선
 70
     0
 62
     5
  6
CENTERX2
370
    60
390
F
  0
LAYER
  5
7E
330
2
100
AcDbSymbolTableRecord
100
AcDbLayerTableRecord
  2
참조1
 70
     0
 62
    -4
  6
Continuous
370
    -3
390
F
  0
LAYER
  5
1A8
330
2
100
AcDbSymbolTableRecord
100
AcDbLayerTableRecord
  2
Defpoints
 70
     0
 62
     7
  6
Continuous
290
     0
370
    -3
390
F
  0
ENDTAB
  0
TABLE
  2
STYLE
  5
3
330
0
100
AcDbSymbolTable
 70
     2
  0
STYLE
  5
11
330
3
100
AcDbSymbolTableRecord
100
AcDbTextStyleTableRecord
  2
Standard
 70
     0
 40
0.0
 41
1.0
 50
0.0
 71
     0
 42
3.5
  3
txt
  4

  0
STYLE
  5
94
330
3
100
AcDbSymbolTableRecord
100
AcDbTextStyleTableRecord
  2
SLDTEXTSTYLE0
 70
     0
 40
0.0
 41
0.75
 50
0.0
 71
     0
 42
3.5
  3
TXT
  4

  0
ENDTAB
  0
TABLE
  2
VIEW
  5
6
330
0
100
AcDbSymbolTable
 70
     0
  0
ENDTAB
  0
TABLE
  2
UCS
  5
7
330
0
100
AcDbSymbolTable
 70
     0
  0
ENDTAB
  0
TABLE
  2
APPID
  5
9
330
0
100
AcDbSymbolTable
 70
     4
  0
APPID
  5
12
330
9
100
AcDbSymbolTableRecord
100
AcDbRegAppTableRecord
  2
ACAD
 70
     0
  0
APPID
  5
13D
330
9
100
AcDbSymbolTableRecord
100
AcDbRegAppTableRecord
  2
PE_URL
 70
     0
  0
APPID
  5
263
330
9
100
AcDbSymbolTableRecord
100
AcDbRegAppTableRecord
  2
ACAD_DSTYLE_DIMFLIPARROW_SYMBOL
 70
     0
  0
APPID
  5
264
330
9
100
AcDbSymbolTableRecord
100
AcDbRegAppTableRecord
  2
ACAD_DSTYLE_DIMFLIPARROW_WHICH_SYMBOL
 70
     0
  0
ENDTAB
  0
TABLE
  2
DIMSTYLE
  5
A
330
0
100
AcDbSymbolTable
 70
     5
100
AcDbDimStyleTable
  0
DIMSTYLE
105
27
330
A
100
AcDbSymbolTableRecord
100
AcDbDimStyleTableRecord
  2
ISO-25
 70
     0
 41
2.5
 42
0.625
 43
3.75
 44
1.25
 73
     0
 74
     0
 77
     1
 78
     8
140
2.5
141
2.5
143
0.03937007874016
147
0.625
171
     3
172
     1
178
     0
271
     2
272
     2
274
     3
278
    44
283
     0
284
     8
340
11
  0
DIMSTYLE
105
BC
330
A
100
AcDbSymbolTableRecord
100
AcDbDimStyleTableRecord
  2
SLDDIMSTYLE0
 70
     0
 41
3.302
 44
0.0
 45
0.000000001
 73
     0
 74
     0
 77
     1
 78
     4
 79
     1
140
3.5
147
0.875
172
     1
173
     1
178
     0
271
     2
272
     2
276
     2
284
    12
289
     0
340
94
  0
DIMSTYLE
105
CA
330
A
100
AcDbSymbolTableRecord
100
AcDbDimStyleTableRecord
  2
SLDDIMSTYLE1
 70
     0
 41
3.302
 44
0.0
 45
0.000000001
 73
     0
 74
     0
 77
     1
 78
     4
 79
     1
140
3.5
143
0.0393700787401575
147
0.875
148
0.000000001
170
     1
172
     1
173
     1
178
     0
271
     2
272
     2
276
     2
284
    12
289
     0
340
94
  0
DIMSTYLE
105
E0
102
{ACAD_REACTORS
330
DF
330
F3
330
C9
330
BB
102
}
330
A
100
AcDbSymbolTableRecord
100
AcDbDimStyleTableRecord
  2
SLDDIMSTYLE2
 70
     0
 41
3.302
 44
0.0
 45
0.000000001
 73
     0
 74
     0
 77
     1
 78
     4
 79
     1
140
3.5
143
0.0393700787401575
147
0.875
148
0.000000001
170
     1
173
     1
178
     0
271
     2
272
     2
276
     2
284
    12
340
94
  0
DIMSTYLE
105
F4
330
A
100
AcDbSymbolTableRecord
100
AcDbDimStyleTableRecord
  2
SLDDIMSTYLE3
 70
     0
 41
3.302
 44
0.0
 45
0.000000001
 73
     0
 74
     0
 77
     1
 78
    12
 79
     3
140
3.5
143
0.0393700787401575
147
0.875
148
0.000000001
170
     1
173
     1
178
     0
271
     2
272
     2
276
     2
284
    12
340
94
  0
ENDTAB
  0
TABLE
  2
BLOCK_RECORD
  5
1
330
0
100
AcDbSymbolTable
 70
     9
  0
BLOCK_RECORD
  5
1F
330
1
100
AcDbSymbolTableRecord
100
AcDbBlockTableRecord
  2
*Model_Space
340
22
  0
BLOCK_RECORD
  5
1B
330
1
100
AcDbSymbolTableRecord
100
AcDbBlockTableRecord
  2
*Paper_Space
340
1E
  0
BLOCK_RECORD
  5
23
330
1
100
AcDbSymbolTableRecord
100
AcDbBlockTableRecord
  2
*Paper_Space0
340
26
  0
BLOCK_RECORD
  5
7F
330
1
100
AcDbSymbolTableRecord
100
AcDbBlockTableRecord
  2
블럭10
340
0
102
{BLKREFS
331
B4
102
}
  0
BLOCK_RECORD
  5
BD
330
1
100
AcDbSymbolTableRecord
100
AcDbBlockTableRecord
  2
_D
340
0
  0
BLOCK_RECORD
  5
CB
330
1
100
AcDbSymbolTableRecord
100
AcDbBlockTableRecord
  2
_D_1
340
0
  0
BLOCK_RECORD
  5
E1
330
1
100
AcDbSymbolTableRecord
100
AcDbBlockTableRecord
  2
_D_2
340
0
  0
BLOCK_RECORD
  5
F5
330
1
100
AcDbSymbolTableRecord
100
AcDbBlockTableRecord
  2
_D_3
340
0
  0
BLOCK_RECORD
  5
10E
330
1
100
AcDbSymbolTableRecord
100
AcDbBlockTableRecord
  2
SW_DOWELSYMBOL_0
340
0
102
{BLKREFS
331
1A0
102
}
  0
BLOCK_RECORD
  5
1DF
330
1
100
AcDbSymbolTableRecord
100
AcDbBlockTableRecord
  2
*D7
340
0
  0
BLOCK_RECORD
  5
1EF
330
1
100
AcDbSymbolTableRecord
100
AcDbBlockTableRecord
  2
*D8
340
0
  0
ENDTAB
  0
ENDSEC
  0
SECTION
  2
BLOCKS
  0
BLOCK
  5
20
330
1F
100
AcDbEntity
  8
0
100
AcDbBlockBegin
  2
*Model_Space
 70
     0
 10
0.0
 20
0.0
 30
0.0
  3
*Model_Space
  1
*Model_Space
  0
ENDBLK
  5
21
330
1F
100
AcDbEntity
  8
0
100
AcDbBlockEnd
  0
BLOCK
  5
1C
330
1B
100
AcDbEntity
 67
     1
  8
0
100
AcDbBlockBegin
  2
*Paper_Space
 70
     0
 10
0.0
 20
0.0
 30
0.0
  3
*Paper_Space
  1
*Paper_Space
  0
ENDBLK
  5
1D
330
1B
100
AcDbEntity
 67
     1
  8
0
100
AcDbBlockEnd
  0
BLOCK
  5
24
330
23
100
AcDbEntity
  8
0
100
AcDbBlockBegin
  2
*Paper_Space0
 70
     0
 10
0.0
 20
0.0
 30
0.0
  3
*Paper_Space0
  1
*Paper_Space0
  0
ENDBLK
  5
25
330
23
100
AcDbEntity
  8
0
100
AcDbBlockEnd
  0
BLOCK
  5
80
330
7F
100
AcDbEntity
  8
0
100
AcDbBlockBegin
  2
블럭10
 70
     2
 10
0.0
 20
0.0
 30
0.0
  3
블럭10
  1
블럭10
  0
ELLIPSE
  5
82
330
7F
100
AcDbEntity
  8
중심선
100
AcDbEllipse
 10
20.54032771741204
 20
12.0471743016438
 30
0.0
 11
6.600054785286829
 21
-1.261213355974178E-13
 31
0.0
210
0.0
220
0.0
230
1.0
 40
0.636358354079598
 41
0.9219305317359503
 42
6.513795318482858
  0
ELLIPSE
  5
83
330
7F
100
AcDbEntity
  8
중심선
100
AcDbEllipse
 10
20.54032771746488
 20
12.04717430159265
 30
0.0
 11
3.960054785062283
 21
1.540847449632565E-10
 31
0.0
210
0.0
220
0.0
230
1.0
 40
0.3939339440162632
 41
1.131841032648279
 42
5.62031148352944
  0
LINE
  5
84
330
7F
100
AcDbEntity
  8
중심선
100
AcDbLine
 10
2.268634060543552
 20
16.24717430164393
 30
0.0
 11
5.714909304380834
 21
16.24717430164393
 31
0.0
  0
LINE
  5
85
330
7F
100
AcDbEntity
  8
중심선
100
AcDbLine
 10
5.245725140726316
 20
7.84717430164391
 30
0.0
 11
8.692000384563599
 21
7.84717430164391
 31
0.0
  0
LINE
  5
86
330
7F
100
AcDbEntity
  8
중심선
100
AcDbLine
 10
15.74043728645272
 20
16.24717430164393
 30
0.0
 11
8.692000384563599
 21
7.84717430164391
 31
0.0
  0
LINE
  5
87
330
7F
100
AcDbEntity
  8
중심선
100
AcDbLine
 10
0.1404042013395286
 20
13.71084872107135
 30
0.0
 11
3.58671253028996
 21
13.71088815037384
 31
0.0
  0
LINE
  5
88
330
7F
100
AcDbEntity
  8
중심선
100
AcDbLine
 10
2.750260043222114
 20
10.84717430164391
 30
0.0
 11
6.196535287059397
 21
10.84717430164391
 31
0.0
  0
LINE
  5
89
330
7F
100
AcDbEntity
  8
중심선
100
AcDbLine
 10
12.29416204261559
 20
16.24717430164393
 30
0.0
 11
5.245725140726316
 21
7.84717430164391
 31
0.0
  0
LINE
  5
8A
330
7F
100
AcDbEntity
  8
중심선
100
AcDbLine
 10
10.72767329541681
 20
16.24717430164393
 30
0.0
 11
6.196535287059397
 21
10.84717430164391
 31
0.0
  0
LINE
  5
8B
330
7F
100
AcDbEntity
  8
중심선
100
AcDbLine
 10
7.28139805157953
 20
16.24717430164393
 30
0.0
 11
2.750260043222114
 21
10.84717430164391
 31
0.0
  0
LINE
  5
8C
330
7F
100
AcDbEntity
  8
중심선
100
AcDbLine
 10
5.714909304380834
 20
16.24717430164393
 30
0.0
 11
3.58671253028996
 21
13.71088815037384
 31
0.0
  0
LINE
  5
8D
330
7F
100
AcDbEntity
  8
중심선
100
AcDbLine
 10
2.268634060543552
 20
16.24717430164393
 30
0.0
 11
0.1404042013395286
 21
13.71084872107135
 31
0.0
  0
LINE
  5
8E
330
7F
100
AcDbEntity
  8
중심선
100
AcDbLine
 10
7.28139805157953
 20
16.24717430164393
 30
0.0
 11
10.72767329541681
 21
16.24717430164393
 31
0.0
  0
LINE
  5
8F
330
7F
100
AcDbEntity
  8
중심선
100
AcDbLine
 10
12.29416204261559
 20
16.24717430164393
 30
0.0
 11
15.74043728645272
 21
16.24717430164393
 31
0.0
  0
LINE
  5
90
330
7F
100
AcDbEntity
  8
중심선
100
AcDbLine
 10
19.22036997980202
 20
11.08717430171403
 30
0.0
 11
23.66174974927406
 21
11.08717430171406
 31
0.0
  0
LINE
  5
91
330
7F
100
AcDbEntity
  8
중심선
100
AcDbLine
 10
19.22039502424796
 20
13.00717430171391
 30
0.0
 11
19.22036997980202
 21
11.08717430171403
 31
0.0
  0
LINE
  5
92
330
7F
100
AcDbEntity
  8
중심선
100
AcDbLine
 10
19.22039502424796
 20
13.00717430171391
 30
0.0
 11
26.96566020931264
 21
13.00717430171391
 31
0.0
  0
LINE
  5
93
330
7F
100
AcDbEntity
  8
중심선
100
AcDbLine
 10
22.22332737316547
 20
13.45928029700563
 30
0.0
 11
24.52862924686651
 21
15.39360700705356
 31
0.0
  0
ATTDEF
  5
95
330
7F
100
AcDbEntity
  8
FORMAT
 62
     2
100
AcDbText
 10
4.408487351596664
 20
2.075366912832191
 30
0.0
 40
4.233333333333333
  1
E1030913
 41
0.75
  7
SLDTEXTSTYLE0
 11
4.408487351596664
 21
-0.0412997538344756
 31
0.0
100
AcDbAttributeDefinition
  3

  2
AUTOATTR0
 70
     0
 74
     1
  0
ENDBLK
  5
81
330
7F
100
AcDbEntity
  8
0
100
AcDbBlockEnd
  0
BLOCK
  5
BE
330
BD
100
AcDbEntity
  8
0
100
AcDbBlockBegin
  2
_D
 70
     0
 10
0.0
 20
0.0
 30
0.0
  3
_D
  1
_D
  0
LINE
  5
C0
330
BD
100
AcDbEntity
  8
치수문자_일반주서
 62
     0
370
    -2
100
AcDbLine
 10
-46.95750000000001
 20
12.67938592267823
 30
0.0
 11
-76.5
 21
12.67938592267812
 31
0.0
  0
LINE
  5
C1
330
BD
100
AcDbEntity
  8
치수문자_일반주서
 62
     0
370
    -2
100
AcDbLine
 10
-60.5
 20
-12.72061407732176
 30
0.0
 11
-76.49999999999991
 21
-12.72061407732182
 31
0.0
  0
LINE
  5
C2
330
BD
100
AcDbEntity
  8
치수문자_일반주서
 62
     0
370
    -2
100
AcDbLine
 10
-76.5
 20
12.67938592267812
 30
0.0
 11
-76.5000000000001
 21
41.92938592267812
 31
0.0
  0
LINE
  5
C3
330
BD
100
AcDbEntity
  8
치수문자_일반주서
 62
     0
370
    -2
100
AcDbLine
 10
-76.5
 20
12.67938592267812
 30
0.0
 11
-76.49999999999991
 21
-12.72061407732182
 31
0.0
  0
LINE
  5
C4
330
BD
100
AcDbEntity
  8
치수문자_일반주서
 62
     0
370
    -2
100
AcDbLine
 10
-76.50000000000001
 20
16.67938592267812
 30
0.0
 11
-76.50000000000003
 21
20.67938592267812
 31
0.0
  0
LINE
  5
C5
330
BD
100
AcDbEntity
  8
치수문자_일반주서
 62
     0
370
    -2
100
AcDbLine
 10
-76.4999999999999
 20
-16.72061407732182
 30
0.0
 11
-76.49999999999989
 21
-20.72061407732182
 31
0.0
  0
SOLID
  5
C6
330
BD
100
AcDbEntity
  8
치수문자_일반주서
 62
     0
100
AcDbTrace
 10
-77.16666666666669
 20
16.67938592267812
 30
0.0
 11
-75.83333333333334
 21
16.67938592267812
 31
0.0
 12
-76.5
 22
12.67938592267812
 32
0.0
 13
-76.5
 23
12.67938592267812
 33
0.0
  0
SOLID
  5
C7
330
BD
100
AcDbEntity
  8
치수문자_일반주서
 62
     0
100
AcDbTrace
 10
-75.83333333333323
 20
-16.72061407732182
 30
0.0
 11
-77.16666666666657
 21
-16.72061407732182
 31
0.0
 12
-76.49999999999991
 22
-12.72061407732182
 32
0.0
 13
-76.49999999999991
 23
-12.72061407732182
 33
0.0
  0
MTEXT
  5
C8
330
BD
100
AcDbEntity
  8
치수문자_일반주서
 62
     0
100
AcDbMText
 10
-81.37500000000006
 20
29.3043859226781
 30
0.0
 40
4.0
 41
0.0
 71
     2
 72
     1
  1
\A1;%%c25.40 [1]
  7
SLDTEXTSTYLE0
 11
-3.356894814614654E-15
 21
1.0
 31
0.0
 73
     1
 44
1.0
  0
POINT
  5
25D
330
BD
100
AcDbEntity
  8
Defpoints
 62
     0
100
AcDbPoint
 10
-46.89500000000001
 20
12.67938592267823
 30
0.0
  0
POINT
  5
25E
330
BD
100
AcDbEntity
  8
Defpoints
 62
     0
100
AcDbPoint
 10
-60.4375
 20
-12.72061407732176
 30
0.0
  0
POINT
  5
25F
330
BD
100
AcDbEntity
  8
Defpoints
 62
     0
100
AcDbPoint
 10
-76.49999999999993
 20
-12.72061407732182
 30
0.0
  0
ENDBLK
  5
BF
330
BD
100
AcDbEntity
  8
0
100
AcDbBlockEnd
  0
BLOCK
  5
CC
330
CB
100
AcDbEntity
  8
0
100
AcDbBlockBegin
  2
_D_1
 70
     0
 10
0.0
 20
0.0
 30
0.0
  3
_D_1
  1
_D_1
  0
LINE
  5
CE
330
CB
100
AcDbEntity
  8
치수문자_일반주서
 62
     0
370
    -2
100
AcDbLine
 10
43.27499999999998
 20
19.07578515280252
 30
0.0
 11
43.27499999999998
 21
27.67938592267823
 31
0.0
  0
LINE
  5
CF
330
CB
100
AcDbEntity
  8
치수문자_일반주서
 62
     0
370
    -2
100
AcDbLine
 10
1.999999999999987
 20
5.514735246747632
 30
0.0
 11
1.999999999999986
 21
27.67938592267823
 31
0.0
  0
LINE
  5
D0
330
CB
100
AcDbEntity
  8
치수문자_일반주서
 62
     0
370
    -2
100
AcDbLine
 10
39.27499999999998
 20
27.67938592267823
 30
0.0
 11
5.999999999999986
 21
27.67938592267823
 31
0.0
  0
SOLID
  5
D1
330
CB
100
AcDbEntity
  8
치수문자_일반주서
 62
     0
100
AcDbTrace
 10
39.27499999999998
 20
27.01271925601156
 30
0.0
 11
39.27499999999998
 21
28.3460525893449
 31
0.0
 12
43.27499999999998
 22
27.67938592267823
 32
0.0
 13
43.27499999999998
 23
27.67938592267823
 33
0.0
  0
SOLID
  5
D2
330
CB
100
AcDbEntity
  8
치수문자_일반주서
 62
     0
100
AcDbTrace
 10
5.999999999999986
 20
28.3460525893449
 30
0.0
 11
5.999999999999986
 21
27.01271925601156
 31
0.0
 12
1.999999999999986
 22
27.67938592267823
 32
0.0
 13
1.999999999999986
 23
27.67938592267823
 33
0.0
  0
MTEXT
  5
D3
330
CB
100
AcDbEntity
  8
치수문자_일반주서
 62
     0
100
AcDbMText
 10
22.63749999999999
 20
32.55438592267823
 30
0.0
 40
4.0
 41
0.0
 71
     2
 72
     1
  1
\A1;41.28 [1 5/8]
  7
SLDTEXTSTYLE0
 73
     1
 44
1.0
  0
POINT
  5
D4
330
CB
100
AcDbEntity
  8
Defpoints
 62
     0
100
AcDbPoint
 10
43.27499999999998
 20
19.01328515280252
 30
0.0
  0
POINT
  5
D5
330
CB
100
AcDbEntity
  8
Defpoints
 62
     0
100
AcDbPoint
 10
1.999999999999987
 20
5.452235246747632
 30
0.0
  0
POINT
  5
D6
330
CB
100
AcDbEntity
  8
Defpoints
 62
     0
100
AcDbPoint
 10
1.999999999999987
 20
27.67938592267823
 30
0.0
  0
ENDBLK
  5
CD
330
CB
100
AcDbEntity
  8
0
100
AcDbBlockEnd
  0
BLOCK
  5
E2
330
E1
100
AcDbEntity
  8
0
100
AcDbBlockBegin
  2
_D_2
 70
     0
 10
0.0
 20
0.0
 30
0.0
  3
_D_2
  1
_D_2
  0
LINE
  5
E4
330
E1
100
AcDbEntity
  8
치수문자_일반주서
 62
     0
370
    -2
100
AcDbLine
 10
43.27499999999998
 20
19.07578515280252
 30
0.0
 11
43.27499999999998
 21
42.67938592267823
 31
0.0
  0
LINE
  5
E5
330
E1
100
AcDbEntity
  8
치수문자_일반주서
 62
     0
370
    -2
100
AcDbLine
 10
-61.5
 20
10.83688592267824
 30
0.0
 11
-61.50000000000001
 21
42.67938592267823
 31
0.0
  0
LINE
  5
E6
330
E1
100
AcDbEntity
  8
치수문자_일반주서
 62
     0
370
    -2
100
AcDbLine
 10
39.27499999999998
 20
42.67938592267823
 30
0.0
 11
-57.50000000000001
 21
42.67938592267823
 31
0.0
  0
SOLID
  5
E7
330
E1
100
AcDbEntity
  8
치수문자_일반주서
 62
     0
100
AcDbTrace
 10
39.27499999999998
 20
42.01271925601156
 30
0.0
 11
39.27499999999998
 21
43.34605258934489
 31
0.0
 12
43.27499999999998
 22
42.67938592267823
 32
0.0
 13
43.27499999999998
 23
42.67938592267823
 33
0.0
  0
SOLID
  5
E8
330
E1
100
AcDbEntity
  8
치수문자_일반주서
 62
     0
100
AcDbTrace
 10
-57.50000000000001
 20
43.34605258934489
 30
0.0
 11
-57.50000000000001
 21
42.01271925601156
 31
0.0
 12
-61.50000000000001
 22
42.67938592267823
 32
0.0
 13
-61.50000000000001
 23
42.67938592267823
 33
0.0
  0
MTEXT
  5
E9
330
E1
100
AcDbEntity
  8
치수문자_일반주서
 62
     0
100
AcDbMText
 10
-9.112500000000011
 20
47.55438592267823
 30
0.0
 40
4.0
 41
0.0
 71
     2
 72
     1
  1
\A1;104.78 [4 1/8]
  7
SLDTEXTSTYLE0
 73
     1
 44
1.0
  0
POINT
  5
EA
330
E1
100
AcDbEntity
  8
Defpoints
 62
     0
100
AcDbPoint
 10
43.27499999999998
 20
19.01328515280252
 30
0.0
  0
POINT
  5
EB
330
E1
100
AcDbEntity
  8
Defpoints
 62
     0
100
AcDbPoint
 10
-61.5
 20
10.77438592267824
 30
0.0
  0
POINT
  5
EC
330
E1
100
AcDbEntity
  8
Defpoints
 62
     0
100
AcDbPoint
 10
-61.5
 20
42.67938592267823
 30
0.0
  0
ENDBLK
  5
E3
330
E1
100
AcDbEntity
  8
0
100
AcDbBlockEnd
  0
BLOCK
  5
F6
330
F5
100
AcDbEntity
  8
0
100
AcDbBlockBegin
  2
_D_3
 70
     0
 10
0.0
 20
0.0
 30
0.0
  3
_D_3
  1
_D_3
  0
LINE
  5
F8
330
F5
100
AcDbEntity
  8
치수문자_일반주서
 62
     0
370
    -2
100
AcDbLine
 10
43.3375
 20
-19.05451330744647
 30
0.0
 11
58.2750000000001
 21
-19.05451330744641
 31
0.0
  0
LINE
  5
F9
330
F5
100
AcDbEntity
  8
치수문자_일반주서
 62
     0
370
    -2
100
AcDbLine
 10
43.3375
 20
19.01328515280295
 30
0.0
 11
58.27499999999996
 21
19.01328515280301
 31
0.0
  0
LINE
  5
FA
330
F5
100
AcDbEntity
  8
치수문자_일반주서
 62
     0
370
    -2
100
AcDbLine
 10
58.27499999999996
 20
19.01328515280301
 30
0.0
 11
58.27499999999982
 21
59.26328515280302
 31
0.0
  0
LINE
  5
FB
330
F5
100
AcDbEntity
  8
치수문자_일반주서
 62
     0
370
    -2
100
AcDbLine
 10
58.2750000000001
 20
-19.05451330744641
 30
0.0
 11
58.27499999999996
 21
19.01328515280301
 31
0.0
  0
LINE
  5
FC
330
F5
100
AcDbEntity
  8
치수문자_일반주서
 62
     0
370
    -2
100
AcDbLine
 10
58.27500000000011
 20
-23.05451330744641
 30
0.0
 11
58.27500000000013
 21
-27.05451330744641
 31
0.0
  0
LINE
  5
FD
330
F5
100
AcDbEntity
  8
치수문자_일반주서
 62
     0
370
    -2
100
AcDbLine
 10
58.27499999999995
 20
23.01328515280301
 30
0.0
 11
58.27499999999993
 21
27.01328515280301
 31
0.0
  0
SOLID
  5
FE
330
F5
100
AcDbEntity
  8
치수문자_일반주서
 62
     0
100
AcDbTrace
 10
58.94166666666678
 20
-23.05451330744641
 30
0.0
 11
57.60833333333345
 21
-23.05451330744642
 31
0.0
 12
58.2750000000001
 22
-19.05451330744641
 32
0.0
 13
58.2750000000001
 23
-19.05451330744641
 33
0.0
  0
SOLID
  5
FF
330
F5
100
AcDbEntity
  8
치수문자_일반주서
 62
     0
100
AcDbTrace
 10
57.60833333333328
 20
23.01328515280301
 30
0.0
 11
58.94166666666661
 21
23.01328515280301
 31
0.0
 12
58.27499999999996
 22
19.01328515280301
 32
0.0
 13
58.27499999999996
 23
19.01328515280301
 33
0.0
  0
MTEXT
  5
100
330
F5
100
AcDbEntity
  8
치수문자_일반주서
 62
     0
100
AcDbMText
 10
53.39999999999988
 20
41.138285152803
 30
0.0
 40
4.0
 41
0.0
 71
     2
 72
     1
  1
\A1;%%c38.07 [1 1/2]
  7
SLDTEXTSTYLE0
 11
-3.546386322691866E-15
 21
1.0
 31
0.0
 73
     1
 44
1.0
  0
POINT
  5
101
330
F5
100
AcDbEntity
  8
Defpoints
 62
     0
100
AcDbPoint
 10
43.275
 20
-19.05451330744647
 30
0.0
  0
POINT
  5
260
330
F5
100
AcDbEntity
  8
Defpoints
 62
     0
100
AcDbPoint
 10
43.275
 20
19.01328515280295
 30
0.0
  0
POINT
  5
261
330
F5
100
AcDbEntity
  8
Defpoints
 62
     0
100
AcDbPoint
 10
58.27499999999996
 20
19.01328515280301
 30
0.0
  0
ENDBLK
  5
F7
330
F5
100
AcDbEntity
  8
0
100
AcDbBlockEnd
  0
BLOCK
  5
10F
330
10E
100
AcDbEntity
  8
0
100
AcDbBlockBegin
  2
SW_DOWELSYMBOL_0
 70
     0
 10
0.0
 20
0.0
 30
0.0
  3
SW_DOWELSYMBOL_0
  1
SW_DOWELSYMBOL_0
  0
CIRCLE
  5
111
330
10E
100
AcDbEntity
  8
해칭선
 62
     0
100
AcDbCircle
 10
0.0
 20
0.0
 30
0.0
 40
3.000000000000001
  0
HATCH
  5
112
330
10E
100
AcDbEntity
  8
0
  6
Continuous
 62
     0
370
     0
100
AcDbHatch
 10
0.0
 20
0.0
 30
0.0
210
0.0
220
0.0
230
1.0
  2
SOLID
 70
     1
 71
     0
 91
        1
 92
        0
 93
        3
 72
     2
 10
0.0
 20
0.0
 40
3.000000000000001
 50
0.0
 51
90.0
 73
     1
 72
     1
 10
0.0
 20
3.000000000000001
 11
0.0
 21
0.0
 72
     1
 10
0.0
 20
0.0
 11
3.000000000000001
 21
0.0
 97
        0
 75
     0
 76
     1
 98
        1
 10
0.0
 20
0.0
  0
HATCH
  5
113
330
10E
100
AcDbEntity
  8
0
  6
Continuous
 62
     0
370
     0
100
AcDbHatch
 10
0.0
 20
0.0
 30
0.0
210
0.0
220
0.0
230
1.0
  2
SOLID
 70
     1
 71
     0
 91
        1
 92
        0
 93
        3
 72
     2
 10
0.0
 20
0.0
 40
3.000000000000001
 50
180.0
 51
270.0000000000007
 73
     1
 72
     1
 10
0.0
 20
-3.000000000000001
 11
0.0
 21
0.0
 72
     1
 10
0.0
 20
0.0
 11
-3.000000000000001
 21
0.0
 97
        0
 75
     0
 76
     1
 98
        1
 10
0.0
 20
0.0
  0
ENDBLK
  5
110
330
10E
100
AcDbEntity
  8
0
100
AcDbBlockEnd
  0
BLOCK
  5
1E0
330
1DF
100
AcDbEntity
  8
0
100
AcDbBlockBegin
  2
*D7
 70
     1
 10
0.0
 20
0.0
 30
0.0
  3
*D7
  1
*D7
  0
LINE
  5
1E2
330
1DF
100
AcDbEntity
  8
치수문자_일반주서
 62
     0
370
    -2
100
AcDbLine
 10
41.27500000000001
 20
10.46198140916584
 30
0.0
 11
41.27500000000001
 21
25.41021525574937
 31
0.0
  0
LINE
  5
1E3
330
1DF
100
AcDbEntity
  8
치수문자_일반주서
 62
     0
370
    -2
100
AcDbLine
 10
0.0
 20
7.712741558615068
 30
0.0
 11
0.0
 21
25.41021525574937
 31
0.0
  0
LINE
  5
1E4
330
1DF
100
AcDbEntity
  8
치수문자_일반주서
 62
     0
370
    -2
100
AcDbLine
 10
41.27500000000001
 20
25.41021525574937
 30
0.0
 11
79.025
 21
25.41021525574937
 31
0.0
  0
LINE
  5
1E5
330
1DF
100
AcDbEntity
  8
치수문자_일반주서
 62
     0
370
    -2
100
AcDbLine
 10
37.27500000000001
 20
25.41021525574937
 30
0.0
 11
4.0
 21
25.41021525574937
 31
0.0
  0
SOLID
  5
1E6
330
1DF
100
AcDbEntity
  8
치수문자_일반주서
 62
     0
100
AcDbTrace
 10
37.27500000000001
 20
24.7435485890827
 30
0.0
 11
37.27500000000001
 21
26.07688192241604
 31
0.0
 12
41.27500000000001
 22
25.41021525574937
 32
0.0
 13
41.27500000000001
 23
25.41021525574937
 33
0.0
  0
SOLID
  5
1E7
330
1DF
100
AcDbEntity
  8
치수문자_일반주서
 62
     0
100
AcDbTrace
 10
4.0
 20
26.07688192241604
 30
0.0
 11
4.0
 21
24.7435485890827
 31
0.0
 12
0.0
 22
25.41021525574937
 32
0.0
 13
0.0
 23
25.41021525574937
 33
0.0
  0
MTEXT
  5
1E8
330
1DF
100
AcDbEntity
  8
치수문자_일반주서
 62
     0
100
AcDbMText
 10
62.15000000000001
 20
30.28521525574937
 30
0.0
 40
4.0
 41
0.0
 71
     2
 72
     1
  1
\A1;41.28 [1 5/8]
  7
SLDTEXTSTYLE0
 73
     1
 44
1.0
  0
POINT
  5
1E9
330
1DF
100
AcDbEntity
  8
Defpoints
 62
     0
100
AcDbPoint
 10
41.27500000000001
 20
10.39948140916584
 30
0.0
  0
POINT
  5
1EA
330
1DF
100
AcDbEntity
  8
Defpoints
 62
     0
100
AcDbPoint
 10
0.0
 20
7.650241558615068
 30
0.0
  0
POINT
  5
1EB
330
1DF
100
AcDbEntity
  8
Defpoints
 62
     0
100
AcDbPoint
 10
0.0
 20
25.41021525574937
 30
0.0
  0
ENDBLK
  5
1E1
330
1DF
100
AcDbEntity
  8
0
100
AcDbBlockEnd
  0
BLOCK
  5
1F0
330
1EF
100
AcDbEntity
  8
0
100
AcDbBlockBegin
  2
*D8
 70
     1
 10
0.0
 20
0.0
 30
0.0
  3
*D8
  1
*D8
  0
LINE
  5
1F2
330
1EF
100
AcDbEntity
  8
치수문자_일반주서
 62
     0
370
    -2
100
AcDbLine
 10
122.0496188997952
 20
-28.02912349690805
 30
0.0
 11
122.0496188997952
 21
-13.08088965032452
 31
0.0
  0
LINE
  5
1F3
330
1EF
100
AcDbEntity
  8
치수문자_일반주서
 62
     0
370
    -2
100
AcDbLine
 10
80.77461889979523
 20
-30.77836334745882
 30
0.0
 11
80.77461889979523
 21
-13.08088965032452
 31
0.0
  0
LINE
  5
1F4
330
1EF
100
AcDbEntity
  8
치수문자_일반주서
 62
     0
370
    -2
100
AcDbLine
 10
122.0496188997952
 20
-13.08088965032452
 30
0.0
 11
159.7996188997952
 21
-13.08088965032452
 31
0.0
  0
LINE
  5
1F5
330
1EF
100
AcDbEntity
  8
치수문자_일반주서
 62
     0
370
    -2
100
AcDbLine
 10
118.0496188997952
 20
-13.08088965032452
 30
0.0
 11
84.77461889979523
 21
-13.08088965032452
 31
0.0
  0
SOLID
  5
1F6
330
1EF
100
AcDbEntity
  8
치수문자_일반주서
 62
     0
100
AcDbTrace
 10
118.0496188997952
 20
-13.74755631699118
 30
0.0
 11
118.0496188997952
 21
-12.41422298365785
 31
0.0
 12
122.0496188997952
 22
-13.08088965032452
 32
0.0
 13
122.0496188997952
 23
-13.08088965032452
 33
0.0
  0
SOLID
  5
1F7
330
1EF
100
AcDbEntity
  8
치수문자_일반주서
 62
     0
100
AcDbTrace
 10
84.77461889979523
 20
-12.41422298365785
 30
0.0
 11
84.77461889979523
 21
-13.74755631699118
 31
0.0
 12
80.77461889979523
 22
-13.08088965032452
 32
0.0
 13
80.77461889979523
 23
-13.08088965032452
 33
0.0
  0
MTEXT
  5
1F8
330
1EF
100
AcDbEntity
  8
치수문자_일반주서
 62
     0
100
AcDbMText
 10
142.9246188997952
 20
-8.205889650324515
 30
0.0
 40
4.0
 41
0.0
 71
     2
 72
     1
  1
\A1;41.28 [1 5/8]
  7
SLDTEXTSTYLE0
 73
     1
 44
1.0
  0
POINT
  5
1F9
330
1EF
100
AcDbEntity
  8
Defpoints
 62
     0
100
AcDbPoint
 10
122.0496188997952
 20
-28.09162349690805
 30
0.0
  0
POINT
  5
1FA
330
1EF
100
AcDbEntity
  8
Defpoints
 62
     0
100
AcDbPoint
 10
80.77461889979523
 20
-30.84086334745882
 30
0.0
  0
POINT
  5
1FB
330
1EF
100
AcDbEntity
  8
Defpoints
 62
     0
100
AcDbPoint
 10
80.77461889979523
 20
-13.08088965032452
 30
0.0
  0
ENDBLK
  5
1F1
330
1EF
100
AcDbEntity
  8
0
100
AcDbBlockEnd
  0
ENDSEC
  0
SECTION
  2
ENTITIES
  0
SPLINE
  5
96
330
1F
100
AcDbEntity
  8
0
  6
Continuous
 62
     1
370
    15
100
AcDbSpline
210
0.0
220
0.0
230
1.0
 70
     8
 71
     3
 72
    67
 73
    63
 74
     0
 42
0.000000001
 43
0.00000001
 40
0.0
 40
0.0
 40
0.0
 40
0.0
 40
0.0205105765012585
 40
0.0390407974379276
 40
0.0556604999158538
 40
0.0669504775878425
 40
0.077323193168559
 40
0.0931575972065659
 40
0.107462337824756
 40
0.1202242838987081
 40
0.1314231435710293
 40
0.1411326367778531
 40
0.1502258688268668
 40
0.1726873821333397
 40
0.1968846730220027
 40
0.227901150726851
 40
0.2618075628271
 40
0.297908322351123
 40
0.3136766986138244
 40
0.3295684146057808
 40
0.3446789051941506
 40
0.3586751911001856
 40
0.3715560243159322
 40
0.3851158040019085
 40
0.4017021723115065
 40
0.4219892914608279
 40
0.4415044518704258
 40
0.4601518221931544
 40
0.4774958501528597
 40
0.4921126762384849
 40
0.5011527047266762
 40
0.5091105025096141
 40
0.5193576461746219
 40
0.5325241501190436
 40
0.5477658567141935
 40
0.5629122066275051
 40
0.5804961193339492
 40
0.5975647132406472
 40
0.611660866798734
 40
0.6221002583307572
 40
0.6342954617958011
 40
0.6498644666313705
 40
0.6686109415977011
 40
0.6884044488453059
 40
0.7086805662483459
 40
0.7291884109405294
 40
0.7484404596685182
 40
0.7646290982786696
 40
0.7823262563277934
 40
0.8020151755142081
 40
0.8223291318592346
 40
0.8418860808466745
 40
0.8609199399160397
 40
0.8723687303997262
 40
0.8833600253697211
 40
0.8938862297513075
 40
0.9039517970027823
 40
0.9152068495971768
 40
0.9301924305358527
 40
0.9492911529274177
 40
0.9725490480897399
 40
1.0
 40
1.0
 40
1.0
 40
1.0
 10
36.19652389790825
 20
13.00868160054512
 30
0.0
 10
36.00009957070397
 20
12.99172030199415
 30
0.0
 10
35.62621625397742
 20
12.95943536739117
 30
0.0
 10
35.0665913099621
 20
12.9118093081056
 30
0.0
 10
34.58020602601906
 20
12.872533312053
 30
0.0
 10
34.16332770648953
 20
12.8412266502365
 30
0.0
 10
33.74369906191612
 20
12.81198741758186
 30
0.0
 10
33.27324046054844
 20
12.78281497648101
 30
0.0
 10
32.78674783974648
 20
12.75642546670213
 30
0.0
 10
32.3494705444129
 20
12.73185094290961
 30
0.0
 10
31.96193253076269
 20
12.71038854411211
 30
0.0
 10
31.6162722914534
 20
12.69181373774291
 30
0.0
 10
31.14590800485247
 20
12.66773029088635
 30
0.0
 10
30.52483465902382
 20
12.63892746614923
 30
0.0
 10
29.68708912757891
 20
12.60503467093295
 30
0.0
 10
28.69204520870544
 20
12.57112101444961
 30
0.0
 10
27.55781856488359
 20
12.54214162090718
 30
0.0
 10
26.59378299975013
 20
12.52627538467423
 30
0.0
 10
25.83884319325774
 20
12.51897715122248
 30
0.0
 10
25.32024414465474
 20
12.51608191669466
 30
0.0
 10
24.82082507827103
 20
12.51526621108091
 30
0.0
 10
24.35385386762061
 20
12.51624686398725
 30
0.0
 10
23.90299618258902
 20
12.51875798865569
 30
0.0
 10
23.42237881325381
 20
12.52308861919549
 30
0.0
 10
22.85903235178371
 20
12.53036777156827
 30
0.0
 10
22.22893662432075
 20
12.5415071421505
 30
0.0
 10
21.57590415353644
 20
12.55639888879432
 30
0.0
 10
20.95577819144908
 20
12.57358178629859
 30
0.0
 10
20.39042839508957
 20
12.59186134280482
 30
0.0
 10
19.93245802365818
 20
12.60855069397675
 30
0.0
 10
19.57937116533883
 20
12.62249285711068
 30
0.0
 10
19.27512900126639
 20
12.6351728765996
 30
0.0
 10
18.92480548024532
 20
12.65059454682063
 30
0.0
 10
18.49319581810331
 20
12.67090834460742
 30
0.0
 10
18.00681370173678
 20
12.69554862938864
 30
0.0
 10
17.47093526439328
 20
12.72473541229919
 30
0.0
 10
16.91450562523724
 20
12.75732205917774
 30
0.0
 10
16.36962528044103
 20
12.79159218528565
 30
0.0
 10
15.90463675734055
 20
12.82264784891595
 30
0.0
 10
15.49426451787019
 20
12.85131335383115
 30
0.0
 10
15.06770795554684
 20
12.88231493030306
 30
0.0
 10
14.54845986452995
 20
12.92185488131528
 30
0.0
 10
13.94448272784864
 20
12.97043753768074
 30
0.0
 10
13.28775436132241
 20
13.02645297198517
 30
0.0
 10
12.61088527749409
 20
13.08739793002133
 30
0.0
 10
11.93956561057791
 20
13.15110234041607
 30
0.0
 10
11.31408971281788
 20
13.21340328469221
 30
0.0
 10
10.72091338738505
 20
13.27498347708019
 30
0.0
 10
10.13202075756443
 20
13.33845950732847
 30
0.0
 10
9.50882764977337
 20
13.40804434464437
 30
0.0
 10
8.860258115507373
 20
13.48317891013008
 30
0.0
 10
8.198979566975357
 20
13.56350092116037
 30
0.0
 10
7.62888766273147
 20
13.6356220180773
 30
0.0
 10
7.15472549787226
 20
13.69709519030238
 30
0.0
 10
6.777948306121605
 20
13.74659387515931
 30
0.0
 10
6.416837800894767
 20
13.79461476087706
 30
0.0
 10
6.053792325042761
 20
13.84315359215933
 30
0.0
 10
5.637432786319064
 20
13.89976196317104
 30
0.0
 10
5.130016784487971
 20
13.97167516121422
 30
0.0
 10
4.501721814689986
 20
14.06372534460571
 30
0.0
 10
3.749379444917739
 20
14.17751557115196
 30
0.0
 10
3.210144522394003
 20
14.26187671015116
 30
0.0
 10
2.918232700669003
 20
14.30754514284984
 30
0.0
1001
PE_URL
1000

  0
SPLINE
  5
97
330
1F
100
AcDbEntity
  8
0
  6
Continuous
 62
     1
370
    15
100
AcDbSpline
210
0.0
220
0.0
230
1.0
 70
     8
 71
     3
 72
    33
 73
    29
 74
     0
 42
0.000000001
 43
0.00000001
 40
0.0
 40
0.0
 40
0.0
 40
0.0
 40
0.0467666455421573
 40
0.0895206689195969
 40
0.1304210340909191
 40
0.1656214283507509
 40
0.2013651308643086
 40
0.2315434528452052
 40
0.2553806162242079
 40
0.2730316005248304
 40
0.2916096089933072
 40
0.3200050576696207
 40
0.3555471236575
 40
0.3967450148586106
 40
0.4404642989203976
 40
0.477265807398309
 40
0.5157003672202897
 40
0.5546552073275746
 40
0.5866450644017106
 40
0.6102535127386371
 40
0.6344713800432894
 40
0.6622502357047108
 40
0.693913833051903
 40
0.7643681339619774
 40
0.8385636352122882
 40
0.9098246607258956
 40
0.9737806879048124
 40
1.0
 40
1.0
 40
1.0
 40
1.0
 10
2.918232700669007
 20
-14.34877329749336
 30
0.0
 10
3.07890952070289
 20
-14.32276762875897
 30
0.0
 10
3.386476938518665
 20
-14.27298760212214
 30
0.0
 10
3.937695865891394
 20
-14.18225871992456
 30
0.0
 10
4.497321356345985
 20
-14.09681475160647
 30
0.0
 10
5.047829280128277
 20
-14.01924965956333
 30
0.0
 10
5.537913747024177
 20
-13.95373693500338
 30
0.0
 10
5.974382571850389
 20
-13.8950529996319
 30
0.0
 10
6.323522298584756
 20
-13.84836010769862
 30
0.0
 10
6.617176612786681
 20
-13.80922775335688
 30
0.0
 10
6.933206259330747
 20
-13.76732572234513
 30
0.0
 10
7.333112109301917
 20
-13.7150790551118
 30
0.0
 10
7.838222864943534
 20
-13.65058889987041
 30
0.0
 10
8.413523278572534
 20
-13.57922599289648
 30
0.0
 10
8.995346218299087
 20
-13.50935601853675
 30
0.0
 10
9.563662936853303
 20
-13.44346113204718
 30
0.0
 10
10.10916991705478
 20
-13.38229208433177
 30
0.0
 10
10.63154218700384
 20
-13.32576831762864
 30
0.0
 10
11.08313947040253
 20
-13.27852454660442
 30
0.0
 10
11.46446684685796
 20
-13.2397052140494
 30
0.0
 10
11.82608492418399
 20
-13.20376883081136
 30
0.0
 10
12.22626134293182
 20
-13.16505585815511
 30
0.0
 10
12.84772627744578
 20
-13.10681420175014
 30
0.0
 10
13.69085570273465
 20
-13.0321542005726
 30
0.0
 10
14.72238277188485
 20
-12.9485513670886
 30
0.0
 10
15.72316999663136
 20
-12.87565552317812
 30
0.0
 10
16.49516243463206
 20
-12.82396796349567
 30
0.0
 10
16.92638697087123
 20
-12.79867708258219
 30
0.0
 10
17.05176948442507
 20
-12.79132352555462
 30
0.0
1001
PE_URL
1000

  0
SPLINE
  5
98
330
1F
100
AcDbEntity
  8
0
  6
Continuous
 62
     1
370
    15
100
AcDbSpline
210
0.0
220
0.0
230
1.0
 70
     8
 71
     3
 72
    38
 73
    34
 74
     0
 42
0.000000001
 43
0.00000001
 40
0.0
 40
0.0
 40
0.0
 40
0.0
 40
0.0624999999999999
 40
0.0624999999999999
 40
0.1249999999999998
 40
0.1249999999999998
 40
0.1874999999999996
 40
0.1874999999999996
 40
0.2499999999999995
 40
0.2499999999999995
 40
0.3124999999999996
 40
0.3124999999999996
 40
0.3749999999999996
 40
0.3749999999999996
 40
0.4374999999999997
 40
0.4374999999999997
 40
0.4999999999999998
 40
0.4999999999999998
 40
0.5624999999999999
 40
0.5624999999999999
 40
0.625
 40
0.625
 40
0.6875
 40
0.6875
 40
0.75
 40
0.75
 40
0.8125
 40
0.8125
 40
0.875
 40
0.875
 40
0.9375
 40
0.9375
 40
1.0
 40
1.0
 40
1.0
 40
1.0
 10
43.27499999999998
 20
-18.09793763618945
 30
0.0
 10
42.41749030788365
 20
-17.94146965819142
 30
0.0
 10
41.55621211382177
 20
-17.76636167151881
 30
0.0
 10
39.83399069111634
 20
-17.38031632601197
 30
0.0
 10
38.97418940541656
 20
-17.16948189265597
 30
0.0
 10
37.25792528321787
 20
-16.71365731236271
 30
0.0
 10
36.39636337001743
 20
-16.4682000497749
 30
0.0
 10
34.67426043324471
 20
-15.94432823284342
 30
0.0
 10
33.81565650183484
 20
-15.66613897421752
 30
0.0
 10
32.09826476433221
 20
-15.07849362082986
 30
0.0
 10
31.23647847773919
 20
-14.76866937202131
 30
0.0
 10
29.51461248566116
 20
-14.1197759243392
 30
0.0
 10
28.65692608068746
 20
-13.78104170140112
 30
0.0
 10
26.93852410814363
 20
-13.07587490087515
 30
0.0
 10
26.07657284554191
 20
-12.70924252360077
 30
0.0
 10
24.35506220259244
 20
-11.95119036206119
 30
0.0
 10
23.4980132863372
 20
-11.56017342307816
 30
0.0
 10
21.77871868997619
 20
-10.75466679436515
 30
0.0
 10
20.91666188672829
 20
-10.34017659902499
 30
0.0
 10
19.19562491588151
 20
-9.491497392301786
 30
0.0
 10
18.33893330478178
 20
-9.057714389734508
 30
0.0
 10
16.6188639000386
 20
-8.171511673863716
 30
0.0
 10
15.75676101580783
 20
-7.719286085005798
 30
0.0
 10
14.03631593148609
 20
-6.800725423632212
 30
0.0
 10
13.17970136022208
 20
-6.334719889423869
 30
0.0
 10
11.45897513989456
 20
-5.389446105316396
 30
0.0
 10
10.59688564495561
 20
-4.910531497665643
 30
0.0
 10
8.877150525989363
 20
-3.944539769739959
 30
0.0
 10
8.020332711612287
 20
-3.457630386877213
 30
0.0
 10
6.299067818927607
 20
-2.476362131878921
 30
0.0
 10
5.437051180471841
 20
-1.982457950578244
 30
0.0
 10
3.718143943124979
 20
-0.9926394713472154
 30
0.0
 10
2.860842649193261
 20
-0.4966500382645467
 30
0.0
 10
1.999999999997752
 20
-0.0000000000059149
 30
0.0
1001
PE_URL
1000

  0
SPLINE
  5
99
330
1F
100
AcDbEntity
  8
외형선
  6
Continuous
370
    15
100
AcDbSpline
210
0.0
220
0.0
230
1.0
 70
    24
 71
     3
 72
     8
 73
     4
 74
     0
 42
0.000000001
 43
0.00000001
 40
0.0
 40
0.0
 40
0.0
 40
0.0
 40
1.0
 40
1.0
 40
1.0
 40
1.0
 10
2.0
 20
0.9728288724595617
 30
0.0
 10
2.0
 20
0.7271350644013929
 30
0.0
 10
2.0
 20
0.4011233355448172
 30
0.0
 10
2.0
 20
0.0
 30
0.0
  0
SPLINE
  5
9A
330
1F
100
AcDbEntity
  8
0
  6
Continuous
 62
     1
370
    15
100
AcDbSpline
210
0.0
220
0.0
230
1.0
 70
     8
 71
     3
 72
    38
 73
    34
 74
     0
 42
0.000000001
 43
0.00000001
 40
0.0
 40
0.0
 40
0.0
 40
0.0
 40
0.0625000000000003
 40
0.0625000000000003
 40
0.1250000000000006
 40
0.1250000000000006
 40
0.1875000000000009
 40
0.1875000000000009
 40
0.2500000000000013
 40
0.2500000000000013
 40
0.3125000000000012
 40
0.3125000000000012
 40
0.3750000000000011
 40
0.3750000000000011
 40
0.4375000000000011
 40
0.4375000000000011
 40
0.500000000000001
 40
0.500000000000001
 40
0.5625000000000009
 40
0.5625000000000009
 40
0.6250000000000008
 40
0.6250000000000008
 40
0.6875000000000007
 40
0.6875000000000007
 40
0.7500000000000004
 40
0.7500000000000004
 40
0.8125000000000003
 40
0.8125000000000003
 40
0.8750000000000002
 40
0.8750000000000002
 40
0.9375000000000001
 40
0.9375000000000001
 40
1.0
 40
1.0
 40
1.0
 40
1.0
 10
43.27499999999998
 20
-15.05053571353628
 30
0.0
 10
42.41749030788367
 20
-14.89366608773556
 30
0.0
 10
41.55621211382186
 20
-14.72125952290882
 30
0.0
 10
39.83399069111655
 20
-14.34682438066288
 30
0.0
 10
38.97418940541678
 20
-14.14489326869865
 30
0.0
 10
37.25792528321818
 20
-13.71299357988021
 30
0.0
 10
36.39636337001782
 20
-13.48258440692297
 30
0.0
 10
34.67426043324517
 20
-12.99486296196576
 30
0.0
 10
33.81565650183537
 20
-12.73775728186014
 30
0.0
 10
32.09826476433282
 20
-12.19819219237649
 30
0.0
 10
31.23647847773984
 20
-11.91539756311374
 30
0.0
 10
29.51461248566191
 20
-11.32630998732718
 30
0.0
 10
28.65692608068824
 20
-11.02031771985896
 30
0.0
 10
26.93852410814452
 20
-10.38622227081795
 30
0.0
 10
26.07657284554286
 20
-10.05794257491527
 30
0.0
 10
24.35506220259349
 20
-9.381888343688757
 30
0.0
 10
23.49801328633828
 20
-9.03446962770859
 30
0.0
 10
21.77871868997736
 20
-8.321297962874597
 30
0.0
 10
20.91666188672949
 20
-7.955547812081962
 30
0.0
 10
19.19562491588282
 20
-7.209052334995557
 30
0.0
 10
18.33893330478313
 20
-6.828660790701412
 30
0.0
 10
16.61886390004006
 20
-6.053808118313446
 30
0.0
 10
15.75676101580933
 20
-5.659519923091985
 30
0.0
 10
14.03631593148768
 20
-4.860828999673472
 30
0.0
 10
13.17970136022371
 20
-4.456709666659721
 30
0.0
 10
11.45897513989629
 20
-3.639086369442063
 30
0.0
 10
10.59688564495737
 20
-3.225891342084884
 30
0.0
 10
8.87715052599123
 20
-2.394523437694398
 30
0.0
 10
8.020332711614198
 20
-1.976492067019319
 30
0.0
 10
6.29906781892962
 20
-1.136060430038779
 30
0.0
 10
5.437051180473897
 20
-0.714052406094997
 30
0.0
 10
3.718143943127123
 20
0.1296802185186482
 30
0.0
 10
2.860842649195457
 20
0.5514713488036603
 30
0.0
 10
1.999999999999985
 20
0.9728288724595694
 30
0.0
1001
PE_URL
1000

  0
LINE
  5
9B
330
1F
100
AcDbEntity
  8
0
  6
Continuous
 62
     1
370
    15
100
AcDbLine
 10
43.27499999999969
 20
-18.09793763618945
 30
0.0
 11
43.27499999999998
 21
-15.05053571353628
 31
0.0
1001
PE_URL
1000

  0
SPLINE
  5
9C
330
1F
100
AcDbEntity
  8
0
  6
Continuous
 62
     1
370
    15
100
AcDbSpline
210
0.0
220
0.0
230
1.0
 70
     8
 71
     3
 72
    38
 73
    34
 74
     0
 42
0.000000001
 43
0.00000001
 40
0.0
 40
0.0
 40
0.0
 40
0.0
 40
0.0625
 40
0.0625
 40
0.125
 40
0.125
 40
0.1875
 40
0.1875
 40
0.25
 40
0.25
 40
0.3125
 40
0.3125
 40
0.375
 40
0.375
 40
0.4375000000000001
 40
0.4375000000000001
 40
0.5000000000000002
 40
0.5000000000000002
 40
0.5625000000000002
 40
0.5625000000000002
 40
0.6250000000000002
 40
0.6250000000000002
 40
0.6875000000000003
 40
0.6875000000000003
 40
0.7500000000000004
 40
0.7500000000000004
 40
0.8125000000000003
 40
0.8125000000000003
 40
0.8750000000000002
 40
0.8750000000000002
 40
0.9375000000000001
 40
0.9375000000000001
 40
1.0
 40
1.0
 40
1.0
 40
1.0
 10
2.000000000000012
 20
-5.262042454642043
 30
0.0
 10
2.860842649195481
 20
-5.739524067716115
 30
0.0
 10
3.718143943127152
 20
-6.211011698572177
 30
0.0
 10
5.437051180473928
 20
-7.141218582110364
 30
0.0
 10
6.299067818929633
 20
-7.599995056439677
 30
0.0
 10
8.020332711614216
 20
-8.500671495132341
 30
0.0
 10
8.877150525991249
 20
-8.942169266674146
 30
0.0
 10
10.5968856449574
 20
-9.807151284881117
 30
0.0
 10
11.4589751398963
 20
-10.23046994488612
 30
0.0
 10
13.17970136022373
 20
-11.05487320785065
 30
0.0
 10
14.03631593148769
 20
-11.4556658342101
 30
0.0
 10
15.75676101580935
 20
-12.23427351477274
 30
0.0
 10
16.61886390004008
 20
-12.61179231622569
 30
0.0
 10
18.33893330478315
 20
-13.33980718464723
 30
0.0
 10
19.19562491588284
 20
-13.69016102864463
 30
0.0
 10
20.91666188672952
 20
-14.3633526562965
 30
0.0
 10
21.77871868997739
 20
-14.68585036802409
 30
0.0
 10
23.49801328633831
 20
-15.29972546324737
 30
0.0
 10
24.35506220259347
 20
-15.59112072930606
 30
0.0
 10
26.07657284554286
 20
-16.14242989328636
 30
0.0
 10
26.93852410814451
 20
-16.40203221257088
 30
0.0
 10
28.65692608068824
 20
-16.88681445044128
 30
0.0
 10
29.51461248566192
 20
-17.11214869737539
 30
0.0
 10
31.23647847773984
 20
-17.52808867927008
 30
0.0
 10
32.09826476433282
 20
-17.7184612393129
 30
0.0
 10
33.81565650183536
 20
-18.06236139212641
 30
0.0
 10
34.67426043324515
 20
-18.21611959599022
 30
0.0
 10
36.3963633700178
 20
-18.48651462360839
 30
0.0
 10
37.25792528321819
 20
-18.60301814239768
 30
0.0
 10
38.97418940541678
 20
-18.79769853626861
 30
0.0
 10
39.83399069111653
 20
-18.87608570675049
 30
0.0
 10
41.55621211382186
 20
-18.99432090241527
 30
0.0
 10
42.41749030788367
 20
-19.03412465722413
 30
0.0
 10
43.27499999999998
 20
-19.05451330744629
 30
0.0
1001
PE_URL
1000

  0
LINE
  5
9D
330
1F
100
AcDbEntity
  8
0
  6
Continuous
 62
     1
370
    15
100
AcDbLine
 10
43.275
 20
-19.05451330744647
 30
0.0
 11
43.27499999999964
 21
-18.09793763618943
 31
0.0
1001
PE_URL
1000

  0
LINE
  5
9E
330
1F
100
AcDbEntity
  8
외형선
  6
Continuous
370
    15
100
AcDbLine
 10
1.99999999999999
 20
-5.26204245464213
 30
0.0
 11
1.99999999999999
 21
-0.0000000000020365
 31
0.0
  0
SPLINE
  5
9F
330
1F
100
AcDbEntity
  8
0
  6
Continuous
 62
     1
370
    15
100
AcDbSpline
210
0.0
220
0.0
230
1.0
 70
     8
 71
     3
 72
    38
 73
    34
 74
     0
 42
0.000000001
 43
0.00000001
 40
0.0
 40
0.0
 40
0.0
 40
0.0
 40
0.0625
 40
0.0625
 40
0.125
 40
0.125
 40
0.1875
 40
0.1875
 40
0.25
 40
0.25
 40
0.3125
 40
0.3125
 40
0.375
 40
0.375
 40
0.4375
 40
0.4375
 40
0.5
 40
0.5
 40
0.5625
 40
0.5625
 40
0.625
 40
0.625
 40
0.6875
 40
0.6875
 40
0.75
 40
0.75
 40
0.8125
 40
0.8125
 40
0.875
 40
0.875
 40
0.9375
 40
0.9375
 40
1.0
 40
1.0
 40
1.0
 40
1.0
 10
43.27499999999998
 20
-0.020614077321753
 30
0.0
 10
42.41749030788366
 20
0.3761930071667237
 30
0.0
 10
41.55621211382187
 20
0.7735807785632222
 30
0.0
 10
39.83399069111653
 20
1.565875916261243
 30
0.0
 10
38.97418940541679
 20
1.960607083419539
 30
0.0
 10
37.25792528321819
 20
2.744728692329931
 30
0.0
 10
36.39636337001782
 20
3.134893012572578
 30
0.0
 10
34.67426043324514
 20
3.907836475688808
 30
0.0
 10
33.81565650183536
 20
4.290329988914825
 30
0.0
 10
32.09826476433281
 20
5.045799733637637
 30
0.0
 10
31.23647847773984
 20
5.419207585611741
 30
0.0
 10
29.51461248566191
 20
6.15392220083505
 30
0.0
 10
28.65692608068825
 20
6.514900415191621
 30
0.0
 10
26.93852410814452
 20
7.223251316256287
 30
0.0
 10
26.07657284554286
 20
7.570778053779597
 30
0.0
 10
24.35506220259347
 20
8.249323966497133
 30
0.0
 10
23.49801328633828
 20
8.580033677426146
 30
0.0
 10
21.77871868997736
 20
9.22394427624187
 30
0.0
 10
20.9166618867295
 20
9.537097472721957
 30
0.0
 10
19.19562491588282
 20
10.14291188577745
 30
0.0
 10
18.33893330478313
 20
10.43533280318391
 30
0.0
 10
16.61886390004005
 20
10.99905241395626
 30
0.0
 10
15.75676101580933
 20
11.27018020712927
 30
0.0
 10
14.03631593148767
 20
11.78848321693424
 30
0.0
 10
13.17970136022371
 20
12.03551900765796
 30
0.0
 10
11.45897513989628
 20
12.50525453970678
 30
0.0
 10
10.59688564495737
 20
12.7277333392907
 30
0.0
 10
8.877150525991219
 20
13.14588988380055
 30
0.0
 10
8.020332711614195
 20
13.3415373190314
 30
0.0
 10
6.299067818929613
 20
13.70579212816248
 30
0.0
 10
5.437051180473893
 20
13.87418906212482
 30
0.0
 10
3.718143943127117
 20
14.18201808048174
 30
0.0
 10
2.860842649195452
 20
14.32151033326305
 30
0.0
 10
1.999999999999983
 20
14.4464385372545
 30
0.0
1001
PE_URL
1000

  0
SPLINE
  5
A0
330
1F
100
AcDbEntity
  8
0
  6
Continuous
 62
     1
370
    15
100
AcDbSpline
210
0.0
220
0.0
230
1.0
 70
    24
 71
     3
 72
     8
 73
     4
 74
     0
 42
0.000000001
 43
0.00000001
 40
0.0
 40
0.0
 40
0.0
 40
0.0
 40
1.0
 40
1.0
 40
1.0
 40
1.0
 10
43.27499999999998
 20
-1.573509772449577
 30
0.0
 10
43.27499999999998
 20
-1.055350047554095
 30
0.0
 10
43.27499999999998
 20
-0.5369744166841657
 30
0.0
 10
43.27499999999998
 20
-0.020614077321753
 30
0.0
1001
PE_URL
1000

  0
SPLINE
  5
A1
330
1F
100
AcDbEntity
  8
0
  6
Continuous
 62
     1
370
    15
100
AcDbSpline
210
0.0
220
0.0
230
1.0
 70
     8
 71
     3
 72
     8
 73
     4
 74
     0
 42
0.000000001
 43
0.00000001
 40
0.0
 40
0.0
 40
0.0
 40
0.0
 40
1.0
 40
1.0
 40
1.0
 40
1.0
 10
43.27499999999998
 20
-1.573509772435974
 30
0.0
 10
43.03798883687118
 20
-2.552842948463924
 30
0.0
 10
42.72953239898416
 20
-3.488549684349849
 30
0.0
 10
42.36560149301496
 20
-4.390382191752684
 30
0.0
1001
PE_URL
1000

  0
SPLINE
  5
A2
330
1F
100
AcDbEntity
  8
0
  6
Continuous
 62
     1
370
    15
100
AcDbSpline
210
0.0
220
0.0
230
1.0
 70
     8
 71
     3
 72
     8
 73
     4
 74
     0
 42
0.000000001
 43
0.00000001
 40
0.0
 40
0.0
 40
0.0
 40
0.0
 40
1.0
 40
1.0
 40
1.0
 40
1.0
 10
43.27499999999998
 20
-5.111592199186492
 30
0.0
 10
42.97131922057397
 20
-4.872849798876101
 30
0.0
 10
42.66818816052412
 20
-4.632441080803157
 30
0.0
 10
42.36560149301494
 20
-4.390382191752678
 30
0.0
1001
PE_URL
1000

  0
SPLINE
  5
A3
330
1F
100
AcDbEntity
  8
0
  6
Continuous
 62
     1
370
    15
100
AcDbSpline
210
0.0
220
0.0
230
1.0
 70
    24
 71
     3
 72
    14
 73
    10
 74
     0
 42
0.000000001
 43
0.00000001
 40
0.0
 40
0.0
 40
0.0
 40
0.0
 40
0.2500000000000001
 40
0.2500000000000001
 40
0.5
 40
0.5
 40
0.75
 40
0.75
 40
1.0
 40
1.0
 40
1.0
 40
1.0
 10
43.27499999999998
 20
-15.05053571353628
 30
0.0
 10
43.275
 20
-14.47445537569027
 30
0.0
 10
43.27499999999997
 20
-13.82386664116915
 30
0.0
 10
43.27499999999996
 20
-12.38483956263559
 30
0.0
 10
43.27499999999996
 20
-11.59642759159054
 30
0.0
 10
43.27499999999997
 20
-9.904131083291654
 30
0.0
 10
43.27499999999997
 20
-9.000340913430765
 30
0.0
 10
43.27499999999997
 20
-7.109131985688467
 30
0.0
 10
43.27499999999998
 20
-6.121856533318154
 30
0.0
 10
43.27499999999998
 20
-5.1115921991871
 30
0.0
1001
PE_URL
1000

  0
SPLINE
  5
A4
330
1F
100
AcDbEntity
  8
외형선
  6
Continuous
370
    15
100
AcDbSpline
210
0.0
220
0.0
230
1.0
 70
    24
 71
     3
 72
    14
 73
    10
 74
     0
 42
0.000000001
 43
0.00000001
 40
0.0
 40
0.0
 40
0.0
 40
0.0
 40
0.2499999999999998
 40
0.2499999999999998
 40
0.4999999999999999
 40
0.4999999999999999
 40
0.75
 40
0.75
 40
1.0
 40
1.0
 40
1.0
 40
1.0
 10
1.999999999999983
 20
14.4464385372545
 30
0.0
 10
1.999999999999983
 20
13.82639889066152
 30
0.0
 10
1.999999999999983
 20
13.05000304540911
 30
0.0
 10
1.999999999999983
 20
11.20720165875802
 30
0.0
 10
1.999999999999983
 20
10.14098019334872
 30
0.0
 10
1.999999999999983
 20
7.786133078646249
 30
0.0
 10
1.999999999999983
 20
6.498187437715831
 30
0.0
 10
1.999999999999983
 20
3.799709968555721
 30
0.0
 10
1.999999999999983
 20
2.390036011415149
 30
0.0
 10
1.999999999999983
 20
0.9728288724595731
 30
0.0
  0
SPLINE
  5
A5
330
1F
100
AcDbEntity
  8
0
  6
Continuous
 62
     1
370
    15
100
AcDbSpline
210
0.0
220
0.0
230
1.0
 70
    24
 71
     3
 72
    10
 73
     6
 74
     0
 42
0.000000001
 43
0.00000001
 40
0.0
 40
0.0
 40
0.0
 40
0.0
 40
0.4999999999999998
 40
0.4999999999999998
 40
1.0
 40
1.0
 40
1.0
 40
1.0
 10
38.27499999999998
 20
7.716258401673922
 30
0.0
 10
38.27499999999998
 20
8.59112259973943
 30
0.0
 10
38.275
 20
9.383449781834099
 30
0.0
 10
38.27499999999998
 20
10.75779525663672
 30
0.0
 10
38.275
 20
11.33961586269194
 30
0.0
 10
38.27499999999998
 20
11.80431732299058
 30
0.0
1001
PE_URL
1000

  0
SPLINE
  5
A6
330
1F
100
AcDbEntity
  8
0
  6
Continuous
 62
     1
370
    15
100
AcDbSpline
210
0.0
220
0.0
230
1.0
 70
    24
 71
     3
 72
     8
 73
     4
 74
     0
 42
0.000000001
 43
0.00000001
 40
0.0
 40
0.0
 40
0.0
 40
0.0
 40
1.0
 40
1.0
 40
1.0
 40
1.0
 10
43.27499999999998
 20
-0.0206140773217509
 30
0.0
 10
43.27499999999998
 20
0.1899330893116832
 30
0.0
 10
43.27499999999997
 20
0.400127032986321
 30
0.0
 10
43.27499999999997
 20
0.6097835997929103
 30
0.0
1001
PE_URL
1000

  0
SPLINE
  5
A7
330
1F
100
AcDbEntity
  8
0
  6
Continuous
 62
     1
370
    15
100
AcDbSpline
210
0.0
220
0.0
230
1.0
 70
     8
 71
     3
 72
     9
 73
     5
 74
     0
 42
0.000000001
 43
0.00000001
 40
0.0
 40
0.0
 40
0.0
 40
0.0
 40
0.5219126464725556
 40
0.9999999999999999
 40
0.9999999999999999
 40
0.9999999999999999
 40
0.9999999999999999
 10
43.27499999999998
 20
13.31438592267824
 30
0.0
 10
42.04330444578137
 20
13.30099705804362
 30
0.0
 10
39.6833394927509
 20
13.2753435991265
 30
0.0
 10
37.32360842846657
 20
13.09064588114595
 30
0.0
 10
36.19545084890638
 20
13.00234423795406
 30
0.0
1001
PE_URL
1000

  0
SPLINE
  5
A8
330
1F
100
AcDbEntity
  8
0
  6
Continuous
 62
     1
370
    15
100
AcDbSpline
210
0.0
220
0.0
230
1.0
 70
     8
 71
     3
 72
     8
 73
     4
 74
     0
 42
0.000000001
 43
0.00000001
 40
0.0
 40
0.0
 40
0.0
 40
0.0
 40
1.0
 40
1.0
 40
1.0
 40
1.0
 10
43.27499999999998
 20
13.31438592267824
 30
0.0
 10
41.599608037331
 20
12.86026150564316
 30
0.0
 10
39.93279836926467
 20
12.35771217967523
 30
0.0
 10
38.275
 20
11.80431732299101
 30
0.0
1001
PE_URL
1000

  0
SPLINE
  5
A9
330
1F
100
AcDbEntity
  8
0
  6
Continuous
 62
     1
370
    15
100
AcDbSpline
210
0.0
220
0.0
230
1.0
 70
     8
 71
     3
 72
    14
 73
    10
 74
     0
 42
0.000000001
 43
0.00000001
 40
0.0
 40
0.0
 40
0.0
 40
0.0
 40
0.5000000000000009
 40
0.5000000000000009
 40
0.6250000000000004
 40
0.6250000000000004
 40
0.75
 40
0.75
 40
1.0
 40
1.0
 40
1.0
 40
1.0
 10
38.27499999999998
 20
7.716258401673828
 30
0.0
 10
39.31246429987512
 20
6.803054118907211
 30
0.0
 10
40.26199739793244
 20
5.765650720173894
 30
0.0
 10
41.31977056276572
 20
4.286487134654746
 30
0.0
 10
41.52478612613445
 20
3.98141825738799
 30
0.0
 10
41.92087598200764
 20
3.351589045430976
 30
0.0
 10
42.11218956941491
 20
3.026265087832706
 30
0.0
 10
42.65765871848059
 20
2.030097496441337
 30
0.0
 10
42.98555739675009
 20
1.336045174683395
 30
0.0
 10
43.27499999999998
 20
0.6097835997928578
 30
0.0
1001
PE_URL
1000

  0
LINE
  5
AA
330
1F
100
AcDbEntity
  8
0
  6
Continuous
 62
     1
370
    15
100
AcDbLine
 10
43.27499999999998
 20
-1.596684379345476
 30
0.0
 11
43.27499999999998
 21
-5.111592199186495
 31
0.0
1001
PE_URL
1000

  0
LINE
  5
AB
330
1F
100
AcDbEntity
  8
0
  6
Continuous
 62
     1
370
    15
100
AcDbLine
 10
2.920065499409035
 20
-14.33567605872464
 30
0.0
 11
1.999999999999983
 21
-14.48766669189802
 31
0.0
1001
PE_URL
1000

  0
SPLINE
  5
AC
330
1F
100
AcDbEntity
  8
외형선
  6
Continuous
370
    15
100
AcDbSpline
210
0.0
220
0.0
230
1.0
 70
    24
 71
     3
 72
    19
 73
    15
 74
     0
 42
0.000000001
 43
0.00000001
 40
0.0
 40
0.0
 40
0.0
 40
0.0
 40
0.0219958084356431
 40
0.1098526919618344
 40
0.2002620080413405
 40
0.2906713241208466
 40
0.378528207647038
 40
0.4663850911732294
 40
0.5567944072527354
 40
0.6472037233322416
 40
0.7352487551614809
 40
0.8236018616661208
 40
0.9119549681707606
 40
1.0
 40
1.0
 40
1.0
 40
1.0
 10
1.99999999999999
 20
-5.308371668433928
 30
0.0
 10
1.99999999999999
 20
-5.430858801567537
 30
0.0
 10
1.99999999999999
 20
-6.042590866100822
 30
0.0
 10
1.999999999999992
 20
-7.075787272167361
 30
0.0
 10
1.999999999999992
 20
-8.389220426250034
 30
0.0
 10
1.999999999999992
 20
-9.589018919701823
 30
0.0
 10
1.999999999999992
 20
-10.66491769937461
 30
0.0
 10
1.999999999999992
 20
-11.62156551069894
 30
0.0
 10
1.999999999999992
 20
-12.45770882446234
 30
0.0
 10
1.999999999999992
 20
-13.15815472104615
 30
0.0
 10
1.999999999999992
 20
-13.71249817107645
 30
0.0
 10
1.999999999999992
 20
-14.11945916104883
 30
0.0
 10
1.999999999999992
 20
-14.39590258449792
 30
0.0
 10
1.999999999999992
 20
-14.45711429097255
 30
0.0
 10
1.999999999999992
 20
-14.48766669189801
 30
0.0
  0
LINE
  5
AD
330
1F
100
AcDbEntity
  8
0
  6
Continuous
 62
     1
370
    15
100
AcDbLine
 10
43.27499999999998
 20
0.6185078335525452
 30
0.0
 11
43.27499999999998
 21
13.31438592267824
 31
0.0
1001
PE_URL
1000

  0
SPLINE
  5
AE
330
1F
100
AcDbEntity
  8
0
  6
Continuous
 62
     1
370
    15
100
AcDbSpline
210
0.0
220
0.0
230
1.0
 70
    24
 71
     3
 72
    14
 73
    10
 74
     0
 42
0.000000001
 43
0.00000001
 40
0.0
 40
0.0
 40
0.0
 40
0.0
 40
0.25
 40
0.25
 40
0.5
 40
0.5
 40
0.75
 40
0.75
 40
1.0
 40
1.0
 40
1.0
 40
1.0
 10
43.27499999999998
 20
13.31438592267824
 30
0.0
 10
43.275
 20
13.7185531687679
 30
0.0
 10
43.275
 20
14.15448334380899
 30
0.0
 10
43.275
 20
15.07263922445509
 30
0.0
 10
43.27499999999998
 20
15.55477340069324
 30
0.0
 10
43.275
 20
16.5401602928861
 30
0.0
 10
43.27499999999998
 20
17.0432472431874
 30
0.0
 10
43.275
 20
18.04138790888526
 30
0.0
 10
43.27499999999998
 20
18.53626001374962
 30
0.0
 10
43.27499999999998
 20
19.01328515280295
 30
0.0
1001
PE_URL
1000

  0
SPLINE
  5
AF
330
1F
100
AcDbEntity
  8
0
  6
Continuous
 62
     1
370
    15
100
AcDbSpline
210
0.0
220
0.0
230
1.0
 70
     8
 71
     3
 72
    18
 73
    14
 74
     0
 42
0.000000001
 43
0.00000001
 40
0.0
 40
0.0
 40
0.0
 40
0.0
 40
0.0956287053790961
 40
0.2008019464828242
 40
0.3061592374746807
 40
0.3918988951851633
 40
0.4777381978247494
 40
0.5637273399489192
 40
0.6498170075459577
 40
0.7371514626116681
 40
0.8245912550215501
 40
0.9121895082255994
 40
1.0
 40
1.0
 40
1.0
 40
1.0
 10
17.05260201869415
 20
12.74966667937621
 30
0.0
 10
17.88828986838377
 20
13.10226831567652
 30
0.0
 10
19.64307412698572
 20
13.84266414788456
 30
0.0
 10
22.32033375673593
 20
14.85276302105569
 30
0.0
 10
24.90882407288276
 20
15.74256606135555
 30
0.0
 10
27.33065147403553
 20
16.48207266778715
 30
0.0
 10
29.58075985814935
 20
17.09556577430338
 30
0.0
 10
31.83634876082835
 20
17.6281384241447
 30
0.0
 10
34.10272026012317
 20
18.08233651399543
 30
0.0
 10
36.38379975097386
 20
18.45221742678574
 30
0.0
 10
38.67643312624171
 20
18.7341071288962
 30
0.0
 10
40.97439460169639
 20
18.93190096903079
 30
0.0
 10
42.50751319357952
 20
18.9861352176845
 30
0.0
 10
43.27499999999998
 20
19.01328515280252
 30
0.0
1001
PE_URL
1000

  0
LINE
  5
B0
330
1F
100
AcDbEntity
  8
중심선
 62
     1
100
AcDbLine
 10
-68.50000000000001
 20
-0.0206140773217677
 30
0.0
 11
50.27499999999998
 21
-0.0206140773217542
 31
0.0
  0
LINE
  5
B1
330
1F
100
AcDbEntity
  8
참조1
100
AcDbLine
 10
-2.762500000000016
 20
-0.0206140773217652
 30
0.0
 11
-2.762500000000011
 21
-40.02061407732177
 31
0.0
  0
LINE
  5
B2
330
1F
100
AcDbEntity
  8
참조1
100
AcDbLine
 10
-2.762500000000011
 20
-40.02061407732177
 30
0.0
 11
-24.27133181430869
 21
-40.02061407732176
 31
0.0
  0
INSERT
  5
B4
330
1F
100
AcDbEntity
  8
0
  6
Continuous
 62
     7
100
AcDbBlockReference
 66
     1
  2
블럭10
 10
-16.70277293212522
 20
-52.06778837896569
 30
0.0
  0
ATTRIB
  5
B5
330
B4
100
AcDbEntity
  8
FORMAT
 62
     2
100
AcDbText
 10
-25.8840682208665
 20
-49.9924214661335
 30
0.0
 40
4.233333333333333
  1
E2030913 [ 2 FLUTE ]
 41
0.75
  7
SLDTEXTSTYLE0
 11
-25.8840682208665
 21
-52.10908813280017
 31
0.0
100
AcDbAttribute
  2
AUTOATTR0
 70
     0
 74
     1
  0
SEQEND
  5
B6
330
B4
100
AcDbEntity
  8
0
  6
Continuous
 62
     7
  0
HATCH
  5
B7
330
1F
100
AcDbEntity
  8
중심선
100
AcDbHatch
 10
0.0
 20
0.0
 30
0.0
210
0.0
220
0.0
230
1.0
  2
SOLID
 70
     1
 71
     0
 91
        1
 92
        0
 93
        4
 72
     1
 10
-10.98786362774438
 20
-35.82061407732176
 11
-14.43413887158166
 21
-35.82061407732176
 72
     1
 10
-14.43413887158166
 20
-35.82061407732176
 11
-16.56236873078569
 21
-38.35693965789436
 72
     1
 10
-16.56236873078569
 20
-38.35693965789436
 11
-13.11606040183525
 21
-38.35690022859187
 72
     1
 10
-13.11606040183525
 20
-38.35690022859187
 11
-10.98786362774438
 21
-35.82061407732176
 97
        0
 75
     0
 76
     1
 98
        1
 10
-1.740578832126952
 20
-0.0216890060456544
  0
HATCH
  5
B8
330
1F
100
AcDbEntity
  8
중심선
100
AcDbHatch
 10
0.0
 20
0.0
 30
0.0
210
0.0
220
0.0
230
1.0
  2
SOLID
 70
     1
 71
     0
 91
        1
 92
        0
 93
        4
 72
     1
 10
-5.9750996367084
 20
-35.82061407732176
 11
-9.421374880545683
 21
-35.82061407732176
 72
     1
 10
-9.421374880545683
 20
-35.82061407732176
 11
-13.9525128889031
 21
-41.22061407732178
 72
     1
 10
-13.9525128889031
 20
-41.22061407732178
 11
-10.50623764506582
 21
-41.22061407732178
 72
     1
 10
-10.50623764506582
 20
-41.22061407732178
 11
-5.9750996367084
 21
-35.82061407732176
 97
        0
 75
     0
 76
     1
 98
        1
 10
-1.740578832126952
 20
-0.0216890060456544
  0
HATCH
  5
B9
330
1F
100
AcDbEntity
  8
중심선
100
AcDbHatch
 10
0.0
 20
0.0
 30
0.0
210
0.0
220
0.0
230
1.0
  2
SOLID
 70
     1
 71
     0
 91
        1
 92
        0
 93
        4
 72
     1
 10
-0.9623356456725323
 20
-35.82061407732176
 11
-4.40861088950962
 21
-35.82061407732176
 72
     1
 10
-4.40861088950962
 20
-35.82061407732176
 11
-11.4570477913989
 21
-44.22061407732178
 72
     1
 10
-11.4570477913989
 20
-44.22061407732178
 11
-8.010772547561615
 21
-44.22061407732178
 72
     1
 10
-8.010772547561615
 20
-44.22061407732178
 11
-0.9623356456725318
 21
-35.82061407732176
 97
        0
 75
     0
 76
     1
 98
        1
 10
-1.740578832126952
 20
-0.0216890060456544
  0
HATCH
  5
BA
330
1F
100
AcDbEntity
  8
중심선
100
AcDbHatch
 10
0.0
 20
0.0
 30
0.0
210
0.0
220
0.0
230
1.0
  2
SOLID
 70
     1
 71
     0
 91
        1
 92
        0
 93
        6
 72
     3
 10
3.837554785339667
 20
-40.02061407737303
 11
3.960054785062284
 21
1.540882976769353E-10
 40
0.3939339440162627
 50
17.09539180608436
 51
320.0019657685086
 73
     0
 72
     1
 10
5.520554441040263
 20
-38.60850808196009
 11
7.825856314741328
 21
-36.67418137191214
 72
     3
 10
3.83755478528682
 20
-40.02061407732191
 11
6.60005478528683
 21
-1.278976924368180E-13
 40
0.636358354079598
 50
39.99873849337385
 51
368.4976242363724
 73
     1
 72
     1
 10
10.26288727718743
 20
-39.06061407725178
 11
2.517622092122743
 21
-39.06061407725178
 72
     1
 10
2.517622092122743
 20
-39.06061407725178
 11
2.517597047676809
 21
-40.98061407725167
 72
     1
 10
2.517597047676809
 20
-40.98061407725167
 11
6.958976817148846
 21
-40.98061407725164
 97
        0
 75
     0
 76
     1
 98
        1
 10
-1.740578832126952
 20
-0.0216890060456544
  0
DIMENSION
  5
BB
330
1F
100
AcDbEntity
  8
치수문자_일반주서
100
AcDbDimension
  2
_D
 10
-76.49999999999991
 20
-12.72061407732182
 30
0.0
 11
-76.50000000000006
 21
29.30438592267812
 31
0.0
 70
   160
  1
%%c<>
 71
     2
 42
25.39999999999995
 52
-270.0
  3
SLDDIMSTYLE2
100
AcDbAlignedDimension
 13
-46.89500000000001
 23
12.67938592267823
 33
0.0
 14
-60.4375
 24
-12.72061407732176
 34
0.0
 50
90.0000000000002
100
AcDbRotatedDimension
1001
PE_URL
1000

1001
ACAD
1000
DSTYLE
1002
{
1070
   171
1070
     8
1070
   273
1070
     7
1070
    41
1040
4.0
1070
   140
1040
4.0
1002
}
1001
ACAD_DSTYLE_DIMFLIPARROW_SYMBOL
1070
   385
1070
     0
1001
ACAD_DSTYLE_DIMFLIPARROW_WHICH_SYMBOL
1070
   386
1070
     3
  0
DIMENSION
  5
C9
330
1F
100
AcDbEntity
  8
치수문자_일반주서
100
AcDbDimension
  2
_D_1
 10
1.999999999999986
 20
27.67938592267823
 30
0.0
 11
22.63749999999999
 21
27.67938592267823
 31
0.0
 70
   160
  1
<>
 71
     2
 42
41.275
  3
SLDDIMSTYLE2
100
AcDbAlignedDimension
 13
43.27499999999998
 23
19.01328515280252
 33
0.0
 14
1.999999999999987
 24
5.452235246747632
 34
0.0
100
AcDbRotatedDimension
1001
PE_URL
1000

1001
ACAD
1000
DSTYLE
1002
{
1070
   171
1070
     8
1070
   273
1070
     7
1070
    41
1040
4.0
1070
   140
1040
4.0
1002
}
  0
DIMENSION
  5
DF
330
1F
100
AcDbEntity
  8
치수문자_일반주서
100
AcDbDimension
  2
_D_2
 10
-61.50000000000001
 20
42.67938592267823
 30
0.0
 11
-9.112500000000011
 21
42.67938592267823
 31
0.0
 70
   160
  1
<>
 71
     2
 42
104.775
  3
SLDDIMSTYLE2
100
AcDbAlignedDimension
 13
43.27499999999998
 23
19.01328515280252
 33
0.0
 14
-61.5
 24
10.77438592267824
 34
0.0
 50
0.000000000000008
100
AcDbRotatedDimension
1001
PE_URL
1000

1001
ACAD
1000
DSTYLE
1002
{
1070
   171
1070
     8
1070
   273
1070
     7
1070
    41
1040
4.0
1070
   140
1040
4.0
1002
}
  0
DIMENSION
  5
F3
330
1F
100
AcDbEntity
  8
치수문자_일반주서
100
AcDbDimension
  2
_D_3
 10
58.27499999999996
 20
19.01328515280301
 30
0.0
 11
58.27499999999988
 21
41.13828515280301
 31
0.0
 70
   160
  1
%%c<>
 71
     2
 42
38.06779846024942
 52
-270.0
  3
SLDDIMSTYLE2
100
AcDbAlignedDimension
 13
43.275
 23
-19.05451330744647
 33
0.0
 14
43.275
 24
19.01328515280295
 34
0.0
 50
90.0000000000002
100
AcDbRotatedDimension
1001
PE_URL
1000

1001
ACAD
1000
DSTYLE
1002
{
1070
   171
1070
     8
1070
   273
1070
     7
1070
    41
1040
4.0
1070
   140
1040
4.0
1002
}
1001
ACAD_DSTYLE_DIMFLIPARROW_SYMBOL
1070
   385
1070
     0
1001
ACAD_DSTYLE_DIMFLIPARROW_WHICH_SYMBOL
1070
   386
1070
     3
  0
LINE
  5
107
330
1F
100
AcDbEntity
  8
참조1
100
AcDbLine
 10
73.70100881534557
 20
7.419385922678241
 30
0.0
 11
73.70100881534557
 21
-7.460614077321763
 31
0.0
  0
LINE
  5
108
330
1F
100
AcDbEntity
  8
참조1
100
AcDbLine
 10
86.40100881534558
 20
5.419385922678241
 30
0.0
 11
73.70100881534557
 21
5.419385922678241
 31
0.0
  0
SOLID
  5
109
330
1F
100
AcDbEntity
  8
참조1
100
AcDbTrace
 10
73.70100881534557
 20
5.419385922678241
 30
0.0
 11
80.05100881534557
 21
4.403385922678241
 31
0.0
 12
80.05100881534557
 22
6.435385922678241
 32
0.0
 13
80.05100881534557
 23
6.435385922678241
 33
0.0
  0
LINE
  5
10A
330
1F
100
AcDbEntity
  8
참조1
100
AcDbLine
 10
86.40100881534558
 20
-5.460614077321763
 30
0.0
 11
73.70100881534557
 21
-5.460614077321763
 31
0.0
  0
SOLID
  5
10B
330
1F
100
AcDbEntity
  8
참조1
100
AcDbTrace
 10
73.70100881534557
 20
-5.460614077321763
 30
0.0
 11
80.05100881534557
 21
-6.476614077321763
 31
0.0
 12
80.05100881534557
 22
-4.444614077321763
 32
0.0
 13
80.05100881534557
 23
-4.444614077321763
 33
0.0
  0
MTEXT
  5
10C
330
1F
100
AcDbEntity
  8
참조1
100
AcDbMText
 10
83.08535894797156
 20
10.98967769986657
 30
0.0
 40
3.5
 41
0.0
 71
     1
 72
     1
  1
A
  7
SLDTEXTSTYLE0
 73
     1
 44
1.0
  0
MTEXT
  5
10D
330
1F
100
AcDbEntity
  8
참조1
100
AcDbMText
 10
83.08535894797156
 20
0.1096776998665657
 30
0.0
 40
3.5
 41
0.0
 71
     1
 72
     1
  1
A
  7
SLDTEXTSTYLE0
 73
     1
 44
1.0
  0
LINE
  5
187
330
1F
100
AcDbEntity
  8
외형선
  6
Continuous
370
    15
100
AcDbLine
 10
1.999999999999983
 20
12.67938592267823
 30
0.0
 11
-24.069925
 21
12.67938592267823
 31
0.0
  0
LINE
  5
188
330
1F
100
AcDbEntity
  8
외형선
  6
Continuous
370
    15
100
AcDbLine
 10
-60.5
 20
-12.72061407732177
 30
0.0
 11
1.999999999999992
 21
-12.72061407732177
 31
0.0
  0
LINE
  5
189
330
1F
100
AcDbEntity
  8
외형선
  6
Continuous
370
    15
100
AcDbLine
 10
-61.5
 20
-11.72061407732176
 30
0.0
 11
-60.5
 21
-12.72061407732176
 31
0.0
  0
LINE
  5
192
330
1F
100
AcDbEntity
  8
외형선
  6
Continuous
370
    15
100
AcDbLine
 10
-60.5
 20
10.77438592267824
 30
0.0
 11
-60.5
 21
-12.72061407732177
 31
0.0
  0
LINE
  5
194
330
1F
100
AcDbEntity
  8
외형선
  6
Continuous
370
    15
100
AcDbLine
 10
-61.5
 20
10.77438592267824
 30
0.0
 11
-61.5
 21
-11.72061407732174
 31
0.0
  0
CIRCLE
  5
19F
330
1F
100
AcDbEntity
  8
해칭선
100
AcDbCircle
 10
0.0
 20
0.0
 30
0.0
 40
2.999999999999993
  0
INSERT
  5
1A0
330
1F
100
AcDbEntity
  8
해칭선
100
AcDbBlockReference
  2
SW_DOWELSYMBOL_0
 10
0.0
 20
0.0
 30
0.0
  0
LINE
  5
1A1
330
1F
100
AcDbEntity
  8
외형선
  6
Continuous
370
    15
100
AcDbLine
 10
-39.08132499999991
 20
10.77438592267824
 30
0.0
 11
-25.97492500000002
 21
10.77438592267824
 31
0.0
1001
PE_URL
1000

  0
LINE
  5
1A2
330
1F
100
AcDbEntity
  8
외형선
  6
Continuous
370
    15
100
AcDbLine
 10
-39.08132499999991
 20
10.77438592267825
 30
0.0
 11
-40.98632499999989
 21
12.67938592267824
 31
0.0
1001
PE_URL
1000

  0
LINE
  5
1A3
330
1F
100
AcDbEntity
  8
외형선
  6
Continuous
370
    15
100
AcDbLine
 10
-25.97492500000002
 20
10.77438592267825
 30
0.0
 11
-24.06992499999999
 21
12.67938592267824
 31
0.0
1001
PE_URL
1000

  0
LINE
  5
1A4
330
1F
100
AcDbEntity
  8
외형선
  6
Continuous
370
    15
100
AcDbLine
 10
-61.5
 20
10.77438592267824
 30
0.0
 11
-48.79999999999998
 21
10.77438592267824
 31
0.0
1001
PE_URL
1000

  0
LINE
  5
1A5
330
1F
100
AcDbEntity
  8
외형선
  6
Continuous
370
    15
100
AcDbLine
 10
-48.79999999999998
 20
10.77438592267825
 30
0.0
 11
-46.89500000000001
 21
12.67938592267824
 31
0.0
1001
PE_URL
1000

  0
LINE
  5
1A6
330
1F
100
AcDbEntity
  8
외형선
  6
Continuous
370
    15
100
AcDbLine
 10
-40.98632499999987
 20
12.67938592267823
 30
0.0
 11
-46.89500000000001
 21
12.67938592267823
 31
0.0
  0
ENDSEC
  0
SECTION
  2
OBJECTS
  0
DICTIONARY
  5
C
330
0
100
AcDbDictionary
281
     1
  3
ACAD_DETAILVIEWSTYLE
350
22C
  3
ACAD_GROUP
350
D
  3
ACAD_IMAGE_VARS
350
287
  3
ACAD_LAYOUT
350
1A
  3
ACAD_MLINESTYLE
350
17
  3
ACAD_PLOTSETTINGS
350
19
  3
ACAD_PLOTSTYLENAME
350
E
  3
ACAD_SCALELIST
350
47
  3
ACAD_SECTIONVIEWSTYLE
350
22D
  3
AcDbVariableDictionary
350
227
  3
APPDATA
350
136
  3
DWGPROPS
350
288
  0
DICTIONARY
  5
182
330
2
100
AcDbDictionary
280
     1
281
     1
  3
ACAD_LAYERSTATES
360
183
  0
DICTIONARY
  5
22C
102
{ACAD_REACTORS
330
C
102
}
330
C
100
AcDbDictionary
281
     1
  0
DICTIONARY
  5
D
102
{ACAD_REACTORS
330
C
102
}
330
C
100
AcDbDictionary
281
     1
  0
RASTERVARIABLES
  5
287
102
{ACAD_REACTORS
330
C
102
}
330
C
100
AcDbRasterVariables
 90
        0
 70
     1
 71
     1
 72
     1
  0
DICTIONARY
  5
1A
102
{ACAD_REACTORS
330
C
102
}
330
C
100
AcDbDictionary
281
     1
  3
Layout1
350
1E
  3
Layout2
350
26
  3
Model
350
22
  0
DICTIONARY
  5
17
102
{ACAD_REACTORS
330
C
102
}
330
C
100
AcDbDictionary
281
     1
  3
Standard
350
18
  0
DICTIONARY
  5
19
102
{ACAD_REACTORS
330
C
102
}
330
C
100
AcDbDictionary
281
     1
  0
ACDBDICTIONARYWDFLT
  5
E
102
{ACAD_REACTORS
330
C
102
}
330
C
100
AcDbDictionary
281
     1
  3
Normal
350
F
100
AcDbDictionaryWithDefault
340
F
  0
DICTIONARY
  5
47
102
{ACAD_REACTORS
330
C
102
}
330
C
100
AcDbDictionary
281
     1
  3
A0
350
48
  3
A1
350
49
  3
A2
350
4A
  3
A3
350
4B
  3
A4
350
4C
  3
A5
350
4D
  3
A6
350
4E
  3
A7
350
4F
  3
A8
350
50
  3
A9
350
51
  3
B0
350
52
  3
B1
350
53
  3
B2
350
54
  3
B3
350
55
  3
B4
350
56
  3
B5
350
57
  3
B6
350
58
  3
B7
350
59
  3
B8
350
5A
  3
B9
350
5B
  3
C0
350
5C
  3
C1
350
5D
  3
C2
350
5E
  3
C3
350
5F
  3
C4
350
60
  3
C5
350
61
  3
C6
350
62
  3
C7
350
63
  3
C8
350
64
  3
C9
350
65
  3
D0
350
66
  3
D1
350
67
  3
D2
350
68
  0
DICTIONARY
  5
22D
102
{ACAD_REACTORS
330
C
102
}
330
C
100
AcDbDictionary
281
     1
  0
DICTIONARY
  5
227
102
{ACAD_REACTORS
330
C
102
}
330
C
100
AcDbDictionary
281
     1
  0
DICTIONARY
  5
136
102
{ACAD_REACTORS
330
C
102
}
330
C
100
AcDbDictionary
281
     1
  0
XRECORD
  5
288
102
{ACAD_REACTORS
330
C
102
}
330
C
100
AcDbXrecord
280
     1
  1
DWGPROPS COOKIE
  2

  3

  4

  6

  7

  8
12016016
  9

300
=
301
=
302
=
303
=
304
=
305
=
306
=
307
=
308
=
309
=
 40
0.0
 41
2458311.192754827
 42
2458323.080305498
  1

 90
        0
  0
DICTIONARY
  5
183
102
{ACAD_REACTORS
330
182
102
}
330
182
100
AcDbDictionary
281
     1
  0
LAYOUT
  5
1E
102
{ACAD_REACTORS
330
1A
102
}
330
1A
100
AcDbPlotSettings
  1

  2
none_device
  4

  6

 40
0.0
 41
0.0
 42
0.0
 43
0.0
 44
0.0
 45
0.0
 46
0.0
 47
0.0
 48
0.0
 49
0.0
140
0.0
141
0.0
142
1.0
143
1.0
 70
   688
 72
     1
 73
     0
 74
     5
  7

 75
    16
147
1.0
148
0.0
149
0.0
100
AcDbLayout
  1
Layout1
 70
     1
 71
     1
 10
0.0
 20
0.0
 11
420.0
 21
297.0
 12
0.0
 22
0.0
 32
0.0
 14
1.000000000000000E+20
 24
1.000000000000000E+20
 34
1.000000000000000E+20
 15
-1.000000000000000E+20
 25
-1.000000000000000E+20
 35
-1.000000000000000E+20
146
0.0
 13
0.0
 23
0.0
 33
0.0
 16
1.0
 26
0.0
 36
0.0
 17
0.0
 27
1.0
 37
0.0
 76
     0
330
1B
  0
LAYOUT
  5
26
102
{ACAD_REACTORS
330
1A
102
}
330
1A
100
AcDbPlotSettings
  1

  2
none_device
  4

  6

 40
0.0
 41
0.0
 42
0.0
 43
0.0
 44
0.0
 45
0.0
 46
0.0
 47
0.0
 48
0.0
 49
0.0
140
0.0
141
0.0
142
1.0
143
1.0
 70
   688
 72
     1
 73
     0
 74
     5
  7

 75
    16
147
1.0
148
0.0
149
0.0
100
AcDbLayout
  1
Layout2
 70
     1
 71
     2
 10
0.0
 20
0.0
 11
0.0
 21
0.0
 12
0.0
 22
0.0
 32
0.0
 14
0.0
 24
0.0
 34
0.0
 15
0.0
 25
0.0
 35
0.0
146
0.0
 13
0.0
 23
0.0
 33
0.0
 16
1.0
 26
0.0
 36
0.0
 17
0.0
 27
1.0
 37
0.0
 76
     0
330
23
  0
LAYOUT
  5
22
102
{ACAD_REACTORS
330
1A
102
}
330
1A
100
AcDbPlotSettings
  1

  2
none_device
  4
ANSI_A_(11.00_x_8.50_Inches)
  6

 40
6.35
 41
19.05
 42
6.35000508
 43
19.05000254
 44
279.4
 45
215.9
 46
111.5354592427306
 47
75.11363934332401
 48
0.0
 49
0.0
140
0.0
141
0.0
142
0.0715194751484015
143
1.0
 70
  1696
 72
     0
 73
     0
 74
     0
  7

 75
     0
147
0.0235690232323232
148
0.0
149
0.0
100
AcDbLayout
  1
Model
 70
     1
 71
     0
 10
0.0
 20
0.0
 11
420.0
 21
297.0
 12
0.0
 22
0.0
 32
0.0
 14
-81.3750000000001
 24
-49.99242146613351
 34
0.0
 15
86.40100881534559
 25
59.26328515280303
 35
0.0
146
0.0
 13
0.0
 23
0.0
 33
0.0
 16
1.0
 26
0.0
 36
0.0
 17
0.0
 27
1.0
 37
0.0
 76
     0
330
1F
331
29
  0
MLINESTYLE
  5
18
102
{ACAD_REACTORS
330
17
102
}
330
17
100
AcDbMlineStyle
  2
Standard
 70
     0
  3

 62
   256
 51
90.0
 52
90.0
 71
     2
 49
0.5
 62
   256
  6
BYLAYER
 49
-0.5
 62
   256
  6
BYLAYER
  0
ACDBPLACEHOLDER
  5
F
102
{ACAD_REACTORS
330
E
102
}
330
E
  0
SCALE
  5
48
102
{ACAD_REACTORS
330
47
102
}
330
47
100
AcDbScale
 70
     0
300
1:1
140
1.0
141
1.0
290
     1
  0
SCALE
  5
49
102
{ACAD_REACTORS
330
47
102
}
330
47
100
AcDbScale
 70
     0
300
1:2
140
1.0
141
2.0
290
     0
  0
SCALE
  5
4A
102
{ACAD_REACTORS
330
47
102
}
330
47
100
AcDbScale
 70
     0
300
1:4
140
1.0
141
4.0
290
     0
  0
SCALE
  5
4B
102
{ACAD_REACTORS
330
47
102
}
330
47
100
AcDbScale
 70
     0
300
1:5
140
1.0
141
5.0
290
     0
  0
SCALE
  5
4C
102
{ACAD_REACTORS
330
47
102
}
330
47
100
AcDbScale
 70
     0
300
1:8
140
1.0
141
8.0
290
     0
  0
SCALE
  5
4D
102
{ACAD_REACTORS
330
47
102
}
330
47
100
AcDbScale
 70
     0
300
1:10
140
1.0
141
10.0
290
     0
  0
SCALE
  5
4E
102
{ACAD_REACTORS
330
47
102
}
330
47
100
AcDbScale
 70
     0
300
1:16
140
1.0
141
16.0
290
     0
  0
SCALE
  5
4F
102
{ACAD_REACTORS
330
47
102
}
330
47
100
AcDbScale
 70
     0
300
1:20
140
1.0
141
20.0
290
     0
  0
SCALE
  5
50
102
{ACAD_REACTORS
330
47
102
}
330
47
100
AcDbScale
 70
     0
300
1:30
140
1.0
141
30.0
290
     0
  0
SCALE
  5
51
102
{ACAD_REACTORS
330
47
102
}
330
47
100
AcDbScale
 70
     0
300
1:40
140
1.0
141
40.0
290
     0
  0
SCALE
  5
52
102
{ACAD_REACTORS
330
47
102
}
330
47
100
AcDbScale
 70
     0
300
1:50
140
1.0
141
50.0
290
     0
  0
SCALE
  5
53
102
{ACAD_REACTORS
330
47
102
}
330
47
100
AcDbScale
 70
     0
300
1:100
140
1.0
141
100.0
290
     0
  0
SCALE
  5
54
102
{ACAD_REACTORS
330
47
102
}
330
47
100
AcDbScale
 70
     0
300
2:1
140
2.0
141
1.0
290
     0
  0
SCALE
  5
55
102
{ACAD_REACTORS
330
47
102
}
330
47
100
AcDbScale
 70
     0
300
4:1
140
4.0
141
1.0
290
     0
  0
SCALE
  5
56
102
{ACAD_REACTORS
330
47
102
}
330
47
100
AcDbScale
 70
     0
300
8:1
140
8.0
141
1.0
290
     0
  0
SCALE
  5
57
102
{ACAD_REACTORS
330
47
102
}
330
47
100
AcDbScale
 70
     0
300
10:1
140
10.0
141
1.0
290
     0
  0
SCALE
  5
58
102
{ACAD_REACTORS
330
47
102
}
330
47
100
AcDbScale
 70
     0
300
100:1
140
100.0
141
1.0
290
     0
  0
SCALE
  5
59
102
{ACAD_REACTORS
330
47
102
}
330
47
100
AcDbScale
 70
     0
300
1/128" = 1'-0"
140
0.0078125
141
12.0
290
     0
  0
SCALE
  5
5A
102
{ACAD_REACTORS
330
47
102
}
330
47
100
AcDbScale
 70
     0
300
1/64" = 1'-0"
140
0.015625
141
12.0
290
     0
  0
SCALE
  5
5B
102
{ACAD_REACTORS
330
47
102
}
330
47
100
AcDbScale
 70
     0
300
1/32" = 1'-0"
140
0.03125
141
12.0
290
     0
  0
SCALE
  5
5C
102
{ACAD_REACTORS
330
47
102
}
330
47
100
AcDbScale
 70
     0
300
1/16" = 1'-0"
140
0.0625
141
12.0
290
     0
  0
SCALE
  5
5D
102
{ACAD_REACTORS
330
47
102
}
330
47
100
AcDbScale
 70
     0
300
3/32" = 1'-0"
140
0.09375
141
12.0
290
     0
  0
SCALE
  5
5E
102
{ACAD_REACTORS
330
47
102
}
330
47
100
AcDbScale
 70
     0
300
1/8" = 1'-0"
140
0.125
141
12.0
290
     0
  0
SCALE
  5
5F
102
{ACAD_REACTORS
330
47
102
}
330
47
100
AcDbScale
 70
     0
300
3/16" = 1'-0"
140
0.1875
141
12.0
290
     0
  0
SCALE
  5
60
102
{ACAD_REACTORS
330
47
102
}
330
47
100
AcDbScale
 70
     0
300
1/4" = 1'-0"
140
0.25
141
12.0
290
     0
  0
SCALE
  5
61
102
{ACAD_REACTORS
330
47
102
}
330
47
100
AcDbScale
 70
     0
300
3/8" = 1'-0"
140
0.375
141
12.0
290
     0
  0
SCALE
  5
62
102
{ACAD_REACTORS
330
47
102
}
330
47
100
AcDbScale
 70
     0
300
1/2" = 1'-0"
140
0.5
141
12.0
290
     0
  0
SCALE
  5
63
102
{ACAD_REACTORS
330
47
102
}
330
47
100
AcDbScale
 70
     0
300
3/4" = 1'-0"
140
0.75
141
12.0
290
     0
  0
SCALE
  5
64
102
{ACAD_REACTORS
330
47
102
}
330
47
100
AcDbScale
 70
     0
300
1" = 1'-0"
140
1.0
141
12.0
290
     0
  0
SCALE
  5
65
102
{ACAD_REACTORS
330
47
102
}
330
47
100
AcDbScale
 70
     0
300
1-1/2" = 1'-0"
140
1.5
141
12.0
290
     0
  0
SCALE
  5
66
102
{ACAD_REACTORS
330
47
102
}
330
47
100
AcDbScale
 70
     0
300
3" = 1'-0"
140
3.0
141
12.0
290
     0
  0
SCALE
  5
67
102
{ACAD_REACTORS
330
47
102
}
330
47
100
AcDbScale
 70
     0
300
6" = 1'-0"
140
6.0
141
12.0
290
     0
  0
SCALE
  5
68
102
{ACAD_REACTORS
330
47
102
}
330
47
100
AcDbScale
 70
     0
300
1'-0" = 1'-0"
140
12.0
141
12.0
290
     0
  0
ENDSEC
  0
EOF
