  0
SECTION
  2
HEADER
  9
$ACADVER
  1
AC1015
  9
$ACADMAINTVER
 70
     6
  9
$DWGCODEPAGE
  3
ANSI_949
  9
$INSBASE
 10
0.0
 20
0.0
 30
0.0
  9
$EXTMIN
 10
1.000000000000000E+20
 20
1.000000000000000E+20
 30
1.000000000000000E+20
  9
$EXTMAX
 10
-1.000000000000000E+20
 20
-1.000000000000000E+20
 30
-1.000000000000000E+20
  9
$LIMMIN
 10
0.0
 20
0.0
  9
$LIMMAX
 10
420.0
 20
297.0
  9
$ORTHOMODE
 70
     0
  9
$REGENMODE
 70
     1
  9
$FILLMODE
 70
     1
  9
$QTEXTMODE
 70
     0
  9
$MIRRTEXT
 70
     1
  9
$LTSCALE
 40
1.0
  9
$ATTMODE
 70
     1
  9
$TEXTSIZE
 40
3.5
  9
$TRACEWID
 40
1.0
  9
$TEXTSTYLE
  7
Standard
  9
$CLAYER
  8
0
  9
$CELTYPE
  6
ByLayer
  9
$CECOLOR
 62
   256
  9
$CELTSCALE
 40
1.0
  9
$DISPSILH
 70
     0
  9
$DIMSCALE
 40
1.0
  9
$DIMASZ
 40
3.302
  9
$DIMEXO
 40
1.0
  9
$DIMDLI
 40
3.75
  9
$DIMRND
 40
0.0
  9
$DIMDLE
 40
0.0
  9
$DIMEXE
 40
1.0
  9
$DIMTP
 40
0.0
  9
$DIMTM
 40
0.0
  9
$DIMTXT
 40
3.5
  9
$DIMCEN
 40
2.5
  9
$DIMTSZ
 40
0.0
  9
$DIMTOL
 70
     0
  9
$DIMLIM
 70
     0
  9
$DIMTIH
 70
     1
  9
$DIMTOH
 70
     1
  9
$DIMSE1
 70
     0
  9
$DIMSE2
 70
     0
  9
$DIMTAD
 70
     1
  9
$DIMZIN
 70
     0
  9
$DIMBLK
  1

  9
$DIMASO
 70
     1
  9
$DIMSHO
 70
     1
  9
$DIMPOST
  1

  9
$DIMAPOST
  1

  9
$DIMALT
 70
     0
  9
$DIMALTD
 70
     3
  9
$DIMALTF
 40
0.0393700787401575
  9
$DIMLFAC
 40
1.0
  9
$DIMTOFL
 70
     1
  9
$DIMTVP
 40
0.0
  9
$DIMTIX
 70
     0
  9
$DIMSOXD
 70
     0
  9
$DIMSAH
 70
     0
  9
$DIMBLK1
  1

  9
$DIMBLK2
  1

  9
$DIMSTYLE
  2
ISO-25
  9
$DIMCLRD
 70
     0
  9
$DIMCLRE
 70
     0
  9
$DIMCLRT
 70
     0
  9
$DIMTFAC
 40
1.0
  9
$DIMGAP
 40
1.524
  9
$DIMJUST
 70
     0
  9
$DIMSD1
 70
     0
  9
$DIMSD2
 70
     0
  9
$DIMTOLJ
 70
     0
  9
$DIMTZIN
 70
     0
  9
$DIMALTZ
 70
     0
  9
$DIMALTTZ
 70
     0
  9
$DIMUPT
 70
     0
  9
$DIMDEC
 70
     2
  9
$DIMTDEC
 70
     2
  9
$DIMALTU
 70
     2
  9
$DIMALTTD
 70
     3
  9
$DIMTXSTY
  7
Standard
  9
$DIMAUNIT
 70
     0
  9
$DIMADEC
 70
     2
  9
$DIMALTRND
 40
0.0
  9
$DIMAZIN
 70
     0
  9
$DIMDSEP
 70
    44
  9
$DIMATFIT
 70
     3
  9
$DIMFRAC
 70
     0
  9
$DIMLDRBLK
  1

  9
$DIMLUNIT
 70
     2
  9
$DIMLWD
 70
    -2
  9
$DIMLWE
 70
    -2
  9
$DIMTMOVE
 70
     0
  9
$LUNITS
 70
     2
  9
$LUPREC
 70
     2
  9
$SKETCHINC
 40
1.0
  9
$FILLETRAD
 40
10.0
  9
$AUNITS
 70
     0
  9
$AUPREC
 70
     2
  9
$MENU
  1
.
  9
$ELEVATION
 40
0.0
  9
$PELEVATION
 40
0.0
  9
$THICKNESS
 40
0.0
  9
$LIMCHECK
 70
     0
  9
$CHAMFERA
 40
0.0
  9
$CHAMFERB
 40
0.0
  9
$CHAMFERC
 40
0.0
  9
$CHAMFERD
 40
0.0
  9
$SKPOLY
 70
     0
  9
$TDCREATE
 40
2458312.666149919
  9
$TDUCREATE
 40
2458312.291149919
  9
$TDUPDATE
 40
2458320.613063599
  9
$TDUUPDATE
 40
2458320.238063599
  9
$TDINDWG
 40
0.0011197917
  9
$TDUSRTIMER
 40
2458320.236944144
  9
$USRTIMER
 70
     1
  9
$ANGBASE
 50
0.0
  9
$ANGDIR
 70
     0
  9
$PDMODE
 70
     0
  9
$PDSIZE
 40
-1.0
  9
$PLINEWID
 40
0.0
  9
$SPLFRAME
 70
     0
  9
$SPLINETYPE
 70
     6
  9
$SPLINESEGS
 70
     8
  9
$HANDSEED
  5
2A8
  9
$SURFTAB1
 70
     6
  9
$SURFTAB2
 70
     6
  9
$SURFTYPE
 70
     6
  9
$SURFU
 70
     6
  9
$SURFV
 70
     6
  9
$UCSBASE
  2

  9
$UCSNAME
  2

  9
$UCSORG
 10
0.0
 20
0.0
 30
0.0
  9
$UCSXDIR
 10
1.0
 20
0.0
 30
0.0
  9
$UCSYDIR
 10
0.0
 20
1.0
 30
0.0
  9
$UCSORTHOREF
  2

  9
$UCSORTHOVIEW
 70
     0
  9
$UCSORGTOP
 10
0.0
 20
0.0
 30
0.0
  9
$UCSORGBOTTOM
 10
0.0
 20
0.0
 30
0.0
  9
$UCSORGLEFT
 10
0.0
 20
0.0
 30
0.0
  9
$UCSORGRIGHT
 10
0.0
 20
0.0
 30
0.0
  9
$UCSORGFRONT
 10
0.0
 20
0.0
 30
0.0
  9
$UCSORGBACK
 10
0.0
 20
0.0
 30
0.0
  9
$PUCSBASE
  2

  9
$PUCSNAME
  2

  9
$PUCSORG
 10
0.0
 20
0.0
 30
0.0
  9
$PUCSXDIR
 10
1.0
 20
0.0
 30
0.0
  9
$PUCSYDIR
 10
0.0
 20
1.0
 30
0.0
  9
$PUCSORTHOREF
  2

  9
$PUCSORTHOVIEW
 70
     0
  9
$PUCSORGTOP
 10
0.0
 20
0.0
 30
0.0
  9
$PUCSORGBOTTOM
 10
0.0
 20
0.0
 30
0.0
  9
$PUCSORGLEFT
 10
0.0
 20
0.0
 30
0.0
  9
$PUCSORGRIGHT
 10
0.0
 20
0.0
 30
0.0
  9
$PUCSORGFRONT
 10
0.0
 20
0.0
 30
0.0
  9
$PUCSORGBACK
 10
0.0
 20
0.0
 30
0.0
  9
$USERI1
 70
     0
  9
$USERI2
 70
     0
  9
$USERI3
 70
     0
  9
$USERI4
 70
     0
  9
$USERI5
 70
     0
  9
$USERR1
 40
0.0
  9
$USERR2
 40
0.0
  9
$USERR3
 40
0.0
  9
$USERR4
 40
0.0
  9
$USERR5
 40
0.0
  9
$WORLDVIEW
 70
     1
  9
$SHADEDGE
 70
     3
  9
$SHADEDIF
 70
    70
  9
$TILEMODE
 70
     1
  9
$MAXACTVP
 70
    64
  9
$PINSBASE
 10
0.0
 20
0.0
 30
0.0
  9
$PLIMCHECK
 70
     0
  9
$PEXTMIN
 10
1.000000000000000E+20
 20
1.000000000000000E+20
 30
1.000000000000000E+20
  9
$PEXTMAX
 10
-1.000000000000000E+20
 20
-1.000000000000000E+20
 30
-1.000000000000000E+20
  9
$PLIMMIN
 10
0.0
 20
0.0
  9
$PLIMMAX
 10
0.0
 20
0.0
  9
$UNITMODE
 70
     0
  9
$VISRETAIN
 70
     1
  9
$PLINEGEN
 70
     0
  9
$PSLTSCALE
 70
     1
  9
$TREEDEPTH
 70
  3020
  9
$CMLSTYLE
  2
Standard
  9
$CMLJUST
 70
     0
  9
$CMLSCALE
 40
20.0
  9
$PROXYGRAPHICS
 70
     1
  9
$MEASUREMENT
 70
     1
  9
$CELWEIGHT
370
    -1
  9
$ENDCAPS
280
     0
  9
$JOINSTYLE
280
     0
  9
$LWDISPLAY
290
     1
  9
$INSUNITS
 70
     4
  9
$HYPERLINKBASE
  1

  9
$STYLESHEET
  1

  9
$XEDIT
290
     1
  9
$CEPSNTYPE
380
     0
  9
$PSTYLEMODE
290
     1
  9
$FINGERPRINTGUID
  2
{B8540930-631D-4AC3-8D58-103BBC391A2D}
  9
$VERSIONGUID
  2
{FAEB1C32-E019-11D5-929B-00C0DF256EC4}
  9
$EXTNAMES
290
     1
  9
$PSVPSCALE
 40
0.0
  9
$OLESTARTUP
290
     0
  0
ENDSEC
  0
SECTION
  2
CLASSES
  0
CLASS
  1
ACDBDICTIONARYWDFLT
  2
AcDbDictionaryWithDefault
  3
ObjectDBX Classes
 90
        0
280
     0
281
     0
  0
CLASS
  1
VISUALSTYLE
  2
AcDbVisualStyle
  3
ObjectDBX Classes
 90
     4095
280
     0
281
     0
  0
CLASS
  1
MATERIAL
  2
AcDbMaterial
  3
ObjectDBX Classes
 90
     1153
280
     0
281
     0
  0
CLASS
  1
SCALE
  2
AcDbScale
  3
ObjectDBX Classes
 90
     1153
280
     0
281
     0
  0
CLASS
  1
SUN
  2
AcDbSun
  3
SCENEOE
 90
     1153
280
     0
281
     0
  0
CLASS
  1
ACDBPLACEHOLDER
  2
AcDbPlaceHolder
  3
ObjectDBX Classes
 90
        0
280
     0
281
     0
  0
CLASS
  1
LAYOUT
  2
AcDbLayout
  3
ObjectDBX Classes
 90
        0
280
     0
281
     0
  0
CLASS
  1
TABLESTYLE
  2
AcDbTableStyle
  3
ObjectDBX Classes
 90
     4095
280
     0
281
     0
  0
CLASS
  1
MLEADERSTYLE
  2
AcDbMLeaderStyle
  3
ACDB_MLEADERSTYLE_CLASS
 90
     4095
280
     0
281
     0
  0
CLASS
  1
RASTERVARIABLES
  2
AcDbRasterVariables
  3
ISM
 90
        0
280
     0
281
     0
  0
ENDSEC
  0
SECTION
  2
TABLES
  0
TABLE
  2
VPORT
  5
8
330
0
100
AcDbSymbolTable
 70
     1
  0
VPORT
  5
29
330
8
100
AcDbSymbolTableRecord
100
AcDbViewportTableRecord
  2
*Active
 70
     0
 10
0.0
 20
0.0
 11
1.0
 21
1.0
 12
-26.73528315108977
 22
6.061370671199606
 13
0.0
 23
0.0
 14
10.0
 24
10.0
 15
10.0
 25
10.0
 16
0.0
 26
0.0
 36
1.0
 17
0.0
 27
0.0
 37
0.0
 40
119.5446075347417
 41
1.632093933463796
 42
50.0
 43
0.0
 44
0.0
 50
0.0
 51
0.0
 71
    16
 72
  2000
 73
     1
 74
     3
 75
     0
 76
     0
 77
     0
 78
     0
281
     0
 65
     1
110
0.0
120
0.0
130
0.0
111
1.0
121
0.0
131
0.0
112
0.0
122
1.0
132
0.0
 79
     0
146
0.0
  0
ENDTAB
  0
TABLE
  2
LTYPE
  5
5
330
0
100
AcDbSymbolTable
 70
     6
  0
LTYPE
  5
14
330
5
100
AcDbSymbolTableRecord
100
AcDbLinetypeTableRecord
  2
ByBlock
 70
     0
  3

 72
    65
 73
     0
 40
0.0
  0
LTYPE
  5
15
330
5
100
AcDbSymbolTableRecord
100
AcDbLinetypeTableRecord
  2
ByLayer
 70
     0
  3

 72
    65
 73
     0
 40
0.0
  0
LTYPE
  5
16
330
5
100
AcDbSymbolTableRecord
100
AcDbLinetypeTableRecord
  2
Continuous
 70
     0
  3
Solid line
 72
    65
 73
     0
 40
0.0
  0
LTYPE
  5
6A
330
5
100
AcDbSymbolTableRecord
100
AcDbLinetypeTableRecord
  2
HIDDEN
 70
     0
  3
Hidden __ __ __ __ __ __ __ __ __ __ __ __ __ __
 72
    65
 73
     2
 40
1.905
 49
1.27
 74
     0
 49
-0.635
 74
     0
  0
LTYPE
  5
6B
330
5
100
AcDbSymbolTableRecord
100
AcDbLinetypeTableRecord
  2
PHANTOM
 70
     0
  3
Phantom ______  __  __  ______  __  __  ______
 72
    65
 73
     6
 40
12.7
 49
6.35
 74
     0
 49
-1.27
 74
     0
 49
1.27
 74
     0
 49
-1.27
 74
     0
 49
1.27
 74
     0
 49
-1.27
 74
     0
  0
LTYPE
  5
6C
330
5
100
AcDbSymbolTableRecord
100
AcDbLinetypeTableRecord
  2
CENTER
 70
     0
  3
Center ____ _ ____ _ ____ _ ____ _ ____ _ ____
 72
    65
 73
     4
 40
10.16
 49
6.35
 74
     0
 49
-1.27
 74
     0
 49
1.27
 74
     0
 49
-1.27
 74
     0
  0
LTYPE
  5
6D
330
5
100
AcDbSymbolTableRecord
100
AcDbLinetypeTableRecord
  2
CENTERX2
 70
     0
  3
Center (2x) ________  __  ________  __  _____
 72
    65
 73
     4
 40
20.32
 49
12.7
 74
     0
 49
-2.54
 74
     0
 49
2.54
 74
     0
 49
-2.54
 74
     0
  0
LTYPE
  5
6E
330
5
100
AcDbSymbolTableRecord
100
AcDbLinetypeTableRecord
  2
DOT2
 70
     0
  3
Dot (.5x) ........................................
 72
    65
 73
     2
 40
0.635
 49
0.0
 74
     0
 49
-0.635
 74
     0
  0
ENDTAB
  0
TABLE
  2
LAYER
  5
2
102
{ACAD_XDICTIONARY
360
1F5
102
}
330
0
100
AcDbSymbolTable
 70
    18
  0
LAYER
  5
10
330
2
100
AcDbSymbolTableRecord
100
AcDbLayerTableRecord
  2
0
 70
     0
 62
     7
  6
Continuous
370
    -3
390
F
  0
LAYER
  5
6F
330
2
100
AcDbSymbolTableRecord
100
AcDbLayerTableRecord
  2
FORMAT
 70
     0
 62
     2
  6
Continuous
370
    -3
390
F
  0
LAYER
  5
70
330
2
100
AcDbSymbolTableRecord
100
AcDbLayerTableRecord
  2
외형선
 70
     0
 62
     4
  6
Continuous
370
    30
390
F
  0
LAYER
  5
71
330
2
100
AcDbSymbolTableRecord
100
AcDbLayerTableRecord
  2
숨은선
 70
     0
 62
     2
  6
HIDDEN
370
    15
390
F
  0
LAYER
  5
72
330
2
100
AcDbSymbolTableRecord
100
AcDbLayerTableRecord
  2
중심선
 70
     0
 62
     1
  6
CENTERX2
370
    -3
390
F
  0
LAYER
  5
73
330
2
100
AcDbSymbolTableRecord
100
AcDbLayerTableRecord
  2
파단선
 70
     0
 62
     4
  6
Continuous
370
    -3
390
F
  0
LAYER
  5
74
330
2
100
AcDbSymbolTableRecord
100
AcDbLayerTableRecord
  2
해칭선
 70
     0
 62
   100
  6
Continuous
370
    -3
390
F
  0
LAYER
  5
75
330
2
100
AcDbSymbolTableRecord
100
AcDbLayerTableRecord
  2
가는실선
 70
     0
 62
     4
  6
Continuous
370
    -3
390
F
  0
LAYER
  5
76
330
2
100
AcDbSymbolTableRecord
100
AcDbLayerTableRecord
  2
치수_보조선
 70
     0
 62
     4
  6
Continuous
370
    -3
390
F
  0
LAYER
  5
77
330
2
100
AcDbSymbolTableRecord
100
AcDbLayerTableRecord
  2
치수문자_일반주서
 70
     0
 62
     7
  6
Continuous
370
    15
390
F
  0
LAYER
  5
78
330
2
100
AcDbSymbolTableRecord
100
AcDbLayerTableRecord
  2
개별주서
 70
     0
 62
   100
  6
Continuous
370
    30
390
F
  0
LAYER
  5
79
330
2
100
AcDbSymbolTableRecord
100
AcDbLayerTableRecord
  2
중간선
 70
     0
 62
     2
  6
Continuous
370
    15
390
F
  0
LAYER
  5
7A
330
2
100
AcDbSymbolTableRecord
100
AcDbLayerTableRecord
  2
윤곽선
 70
     0
 62
     3
  6
Continuous
370
    40
390
F
  0
LAYER
  5
7B
330
2
100
AcDbSymbolTableRecord
100
AcDbLayerTableRecord
  2
중심마크
 70
     0
 62
   100
  6
Continuous
370
    30
390
F
  0
LAYER
  5
7C
330
2
100
AcDbSymbolTableRecord
100
AcDbLayerTableRecord
  2
가상선
 70
     0
 62
     4
  6
PHANTOM
370
    -3
390
F
  0
LAYER
  5
7D
330
2
100
AcDbSymbolTableRecord
100
AcDbLayerTableRecord
  2
특수지정선
 70
     0
 62
     5
  6
CENTERX2
370
    60
390
F
  0
LAYER
  5
7E
330
2
100
AcDbSymbolTableRecord
100
AcDbLayerTableRecord
  2
참조1
 70
     0
 62
    -4
  6
Continuous
370
    -3
390
F
  0
LAYER
  5
154
330
2
100
AcDbSymbolTableRecord
100
AcDbLayerTableRecord
  2
Defpoints
 70
     0
 62
     7
  6
Continuous
290
     0
370
    -3
390
F
  0
ENDTAB
  0
TABLE
  2
STYLE
  5
3
330
0
100
AcDbSymbolTable
 70
     2
  0
STYLE
  5
11
330
3
100
AcDbSymbolTableRecord
100
AcDbTextStyleTableRecord
  2
Standard
 70
     0
 40
0.0
 41
1.0
 50
0.0
 71
     0
 42
3.5
  3
txt
  4

  0
STYLE
  5
94
330
3
100
AcDbSymbolTableRecord
100
AcDbTextStyleTableRecord
  2
SLDTEXTSTYLE0
 70
     0
 40
0.0
 41
0.75
 50
0.0
 71
     0
 42
3.5
  3
TXT
  4

  0
ENDTAB
  0
TABLE
  2
VIEW
  5
6
330
0
100
AcDbSymbolTable
 70
     0
  0
ENDTAB
  0
TABLE
  2
UCS
  5
7
330
0
100
AcDbSymbolTable
 70
     0
  0
ENDTAB
  0
TABLE
  2
APPID
  5
9
330
0
100
AcDbSymbolTable
 70
     1
  0
APPID
  5
12
330
9
100
AcDbSymbolTableRecord
100
AcDbRegAppTableRecord
  2
ACAD
 70
     0
  0
ENDTAB
  0
TABLE
  2
DIMSTYLE
  5
A
330
0
100
AcDbSymbolTable
 70
     4
100
AcDbDimStyleTable
  0
DIMSTYLE
105
27
330
A
100
AcDbSymbolTableRecord
100
AcDbDimStyleTableRecord
  2
ISO-25
 70
     0
 41
2.5
 42
0.625
 43
3.75
 44
1.25
 73
     0
 74
     0
 77
     1
 78
     8
140
2.5
141
2.5
143
0.03937007874016
147
0.625
171
     3
172
     1
178
     0
271
     2
272
     2
274
     3
278
    44
283
     0
284
     8
340
11
  0
DIMSTYLE
105
D1
330
A
100
AcDbSymbolTableRecord
100
AcDbDimStyleTableRecord
  2
SLDDIMSTYLE0
 70
     0
 41
3.302
 44
0.0
 45
0.000000001
 73
     0
 74
     0
 77
     1
 78
    12
 79
     3
140
3.5
143
0.0393700787401575
147
0.875
148
0.000000001
170
     1
173
     1
178
     0
271
     2
272
     2
276
     2
284
    12
340
94
  0
DIMSTYLE
105
F9
330
A
100
AcDbSymbolTableRecord
100
AcDbDimStyleTableRecord
  2
SLDDIMSTYLE1
 70
     0
 41
3.302
 44
0.0
 45
0.000000001
 73
     0
 74
     0
 77
     1
 78
    12
 79
     3
140
3.5
143
0.0393700787401575
147
0.875
148
0.000000001
170
     1
172
     1
173
     1
178
     0
271
     2
272
     2
276
     2
284
    12
289
     0
340
94
  0
DIMSTYLE
105
15D
102
{ACAD_REACTORS
330
1CC
330
1D9
330
1AF
330
1BF
330
D0
330
E5
330
10D
330
F8
102
}
330
A
100
AcDbSymbolTableRecord
100
AcDbDimStyleTableRecord
  2
SLDDIMSTYLE2
 70
     0
 41
3.302
 44
0.0
 45
0.000000001
 73
     0
 74
     0
 77
     1
 78
    12
 79
     3
140
3.5
143
0.0393700787401575
147
0.875
148
0.000000001
170
     1
172
     1
173
     1
178
     0
271
     2
272
     2
276
     2
284
    12
289
     0
340
94
  0
ENDTAB
  0
TABLE
  2
BLOCK_RECORD
  5
1
330
0
100
AcDbSymbolTable
 70
    16
  0
BLOCK_RECORD
  5
1F
330
1
100
AcDbSymbolTableRecord
100
AcDbBlockTableRecord
  2
*Model_Space
340
22
  0
BLOCK_RECORD
  5
1B
330
1
100
AcDbSymbolTableRecord
100
AcDbBlockTableRecord
  2
*Paper_Space
340
1E
  0
BLOCK_RECORD
  5
23
330
1
100
AcDbSymbolTableRecord
100
AcDbBlockTableRecord
  2
*Paper_Space0
340
26
  0
BLOCK_RECORD
  5
7F
330
1
100
AcDbSymbolTableRecord
100
AcDbBlockTableRecord
  2
블럭10
340
0
102
{BLKREFS
331
C9
102
}
  0
BLOCK_RECORD
  5
D2
330
1
100
AcDbSymbolTableRecord
100
AcDbBlockTableRecord
  2
_D
340
0
  0
BLOCK_RECORD
  5
E6
330
1
100
AcDbSymbolTableRecord
100
AcDbBlockTableRecord
  2
_D_1
340
0
  0
BLOCK_RECORD
  5
FA
330
1
100
AcDbSymbolTableRecord
100
AcDbBlockTableRecord
  2
_D_2
340
0
  0
BLOCK_RECORD
  5
10E
330
1
100
AcDbSymbolTableRecord
100
AcDbBlockTableRecord
  2
_D_3
340
0
  0
BLOCK_RECORD
  5
128
330
1
100
AcDbSymbolTableRecord
100
AcDbBlockTableRecord
  2
SW_DOWELSYMBOL_0
340
0
102
{BLKREFS
331
12E
331
1E9
331
0
102
}
  0
BLOCK_RECORD
  5
1F9
330
1
100
AcDbSymbolTableRecord
100
AcDbBlockTableRecord
  2
*D8
340
0
  0
BLOCK_RECORD
  5
208
330
1
100
AcDbSymbolTableRecord
100
AcDbBlockTableRecord
  2
*D9
340
0
  0
BLOCK_RECORD
  5
214
330
1
100
AcDbSymbolTableRecord
100
AcDbBlockTableRecord
  2
*D10
340
0
  0
BLOCK_RECORD
  5
220
330
1
100
AcDbSymbolTableRecord
100
AcDbBlockTableRecord
  2
*D11
340
0
  0
BLOCK_RECORD
  5
26C
330
1
100
AcDbSymbolTableRecord
100
AcDbBlockTableRecord
  2
*D12
340
0
  0
BLOCK_RECORD
  5
27B
330
1
100
AcDbSymbolTableRecord
100
AcDbBlockTableRecord
  2
*D13
340
0
  0
BLOCK_RECORD
  5
287
330
1
100
AcDbSymbolTableRecord
100
AcDbBlockTableRecord
  2
*D14
340
0
  0
BLOCK_RECORD
  5
293
330
1
100
AcDbSymbolTableRecord
100
AcDbBlockTableRecord
  2
*D15
340
0
  0
ENDTAB
  0
ENDSEC
  0
SECTION
  2
BLOCKS
  0
BLOCK
  5
20
330
1F
100
AcDbEntity
  8
0
100
AcDbBlockBegin
  2
*Model_Space
 70
     0
 10
0.0
 20
0.0
 30
0.0
  3
*Model_Space
  1
*Model_Space
  0
ENDBLK
  5
21
330
1F
100
AcDbEntity
  8
0
100
AcDbBlockEnd
  0
BLOCK
  5
1C
330
1B
100
AcDbEntity
 67
     1
  8
0
100
AcDbBlockBegin
  2
*Paper_Space
 70
     0
 10
0.0
 20
0.0
 30
0.0
  3
*Paper_Space
  1
*Paper_Space
  0
ENDBLK
  5
1D
330
1B
100
AcDbEntity
 67
     1
  8
0
100
AcDbBlockEnd
  0
BLOCK
  5
24
330
23
100
AcDbEntity
  8
0
100
AcDbBlockBegin
  2
*Paper_Space0
 70
     0
 10
0.0
 20
0.0
 30
0.0
  3
*Paper_Space0
  1
*Paper_Space0
  0
ENDBLK
  5
25
330
23
100
AcDbEntity
  8
0
100
AcDbBlockEnd
  0
BLOCK
  5
80
330
7F
100
AcDbEntity
  8
0
100
AcDbBlockBegin
  2
블럭10
 70
     2
 10
0.0
 20
0.0
 30
0.0
  3
블럭10
  1
블럭10
  0
ELLIPSE
  5
82
330
7F
100
AcDbEntity
  8
중심선
100
AcDbEllipse
 10
20.54032771741204
 20
12.0471743016438
 30
0.0
 11
6.600054785286829
 21
-1.261213355974178E-13
 31
0.0
210
0.0
220
0.0
230
1.0
 40
0.636358354079598
 41
0.9219305317359503
 42
6.513795318482858
  0
ELLIPSE
  5
83
330
7F
100
AcDbEntity
  8
중심선
100
AcDbEllipse
 10
20.54032771746488
 20
12.04717430159265
 30
0.0
 11
3.960054785062283
 21
1.540847449632565E-10
 31
0.0
210
0.0
220
0.0
230
1.0
 40
0.3939339440162632
 41
1.131841032648279
 42
5.62031148352944
  0
LINE
  5
84
330
7F
100
AcDbEntity
  8
중심선
100
AcDbLine
 10
2.268634060543552
 20
16.24717430164393
 30
0.0
 11
5.714909304380834
 21
16.24717430164393
 31
0.0
  0
LINE
  5
85
330
7F
100
AcDbEntity
  8
중심선
100
AcDbLine
 10
5.245725140726316
 20
7.84717430164391
 30
0.0
 11
8.692000384563599
 21
7.84717430164391
 31
0.0
  0
LINE
  5
86
330
7F
100
AcDbEntity
  8
중심선
100
AcDbLine
 10
15.74043728645272
 20
16.24717430164393
 30
0.0
 11
8.692000384563599
 21
7.84717430164391
 31
0.0
  0
LINE
  5
87
330
7F
100
AcDbEntity
  8
중심선
100
AcDbLine
 10
0.1404042013395286
 20
13.71084872107135
 30
0.0
 11
3.58671253028996
 21
13.71088815037384
 31
0.0
  0
LINE
  5
88
330
7F
100
AcDbEntity
  8
중심선
100
AcDbLine
 10
2.750260043222114
 20
10.84717430164391
 30
0.0
 11
6.196535287059397
 21
10.84717430164391
 31
0.0
  0
LINE
  5
89
330
7F
100
AcDbEntity
  8
중심선
100
AcDbLine
 10
12.29416204261559
 20
16.24717430164393
 30
0.0
 11
5.245725140726316
 21
7.84717430164391
 31
0.0
  0
LINE
  5
8A
330
7F
100
AcDbEntity
  8
중심선
100
AcDbLine
 10
10.72767329541681
 20
16.24717430164393
 30
0.0
 11
6.196535287059397
 21
10.84717430164391
 31
0.0
  0
LINE
  5
8B
330
7F
100
AcDbEntity
  8
중심선
100
AcDbLine
 10
7.28139805157953
 20
16.24717430164393
 30
0.0
 11
2.750260043222114
 21
10.84717430164391
 31
0.0
  0
LINE
  5
8C
330
7F
100
AcDbEntity
  8
중심선
100
AcDbLine
 10
5.714909304380834
 20
16.24717430164393
 30
0.0
 11
3.58671253028996
 21
13.71088815037384
 31
0.0
  0
LINE
  5
8D
330
7F
100
AcDbEntity
  8
중심선
100
AcDbLine
 10
2.268634060543552
 20
16.24717430164393
 30
0.0
 11
0.1404042013395286
 21
13.71084872107135
 31
0.0
  0
LINE
  5
8E
330
7F
100
AcDbEntity
  8
중심선
100
AcDbLine
 10
7.28139805157953
 20
16.24717430164393
 30
0.0
 11
10.72767329541681
 21
16.24717430164393
 31
0.0
  0
LINE
  5
8F
330
7F
100
AcDbEntity
  8
중심선
100
AcDbLine
 10
12.29416204261559
 20
16.24717430164393
 30
0.0
 11
15.74043728645272
 21
16.24717430164393
 31
0.0
  0
LINE
  5
90
330
7F
100
AcDbEntity
  8
중심선
100
AcDbLine
 10
19.22036997980202
 20
11.08717430171403
 30
0.0
 11
23.66174974927406
 21
11.08717430171406
 31
0.0
  0
LINE
  5
91
330
7F
100
AcDbEntity
  8
중심선
100
AcDbLine
 10
19.22039502424796
 20
13.00717430171391
 30
0.0
 11
19.22036997980202
 21
11.08717430171403
 31
0.0
  0
LINE
  5
92
330
7F
100
AcDbEntity
  8
중심선
100
AcDbLine
 10
19.22039502424796
 20
13.00717430171391
 30
0.0
 11
26.96566020931264
 21
13.00717430171391
 31
0.0
  0
LINE
  5
93
330
7F
100
AcDbEntity
  8
중심선
100
AcDbLine
 10
22.22332737316547
 20
13.45928029700563
 30
0.0
 11
24.52862924686651
 21
15.39360700705356
 31
0.0
  0
ATTDEF
  5
95
330
7F
100
AcDbEntity
  8
FORMAT
 62
     2
100
AcDbText
 10
4.408487351596664
 20
2.075366912832191
 30
0.0
 40
4.233333333333333
  1
E2031010
 41
0.75
  7
SLDTEXTSTYLE0
 11
4.408487351596664
 21
-0.0412997538344756
 31
0.0
100
AcDbAttributeDefinition
  3

  2
AUTOATTR0
 70
     0
 74
     1
  0
ENDBLK
  5
81
330
7F
100
AcDbEntity
  8
0
100
AcDbBlockEnd
  0
BLOCK
  5
D3
330
D2
100
AcDbEntity
  8
0
100
AcDbBlockBegin
  2
_D
 70
     0
 10
0.0
 20
0.0
 30
0.0
  3
_D
  1
_D
  0
LINE
  5
D5
330
D2
100
AcDbEntity
  8
치수문자_일반주서
 62
     0
370
    -2
100
AcDbLine
 10
24.48060364977729
 20
2.047949928723897
 30
0.0
 11
24.48060364977729
 21
14.67121592479094
 31
0.0
  0
LINE
  5
D6
330
D2
100
AcDbEntity
  8
치수문자_일반주서
 62
     0
370
    -2
100
AcDbLine
 10
13.36810364977728
 20
2.016744444132984
 30
0.0
 11
13.36810364977728
 21
14.67121592479094
 31
0.0
  0
LINE
  5
D7
330
D2
100
AcDbEntity
  8
치수문자_일반주서
 62
     0
370
    -2
100
AcDbLine
 10
13.36810364977728
 20
14.67121592479094
 30
0.0
 11
-17.73589635022272
 21
14.67121592479094
 31
0.0
  0
LINE
  5
D8
330
D2
100
AcDbEntity
  8
치수문자_일반주서
 62
     0
370
    -2
100
AcDbLine
 10
24.48060364977729
 20
14.67121592479094
 30
0.0
 11
13.36810364977728
 21
14.67121592479094
 31
0.0
  0
LINE
  5
D9
330
D2
100
AcDbEntity
  8
치수문자_일반주서
 62
     0
370
    -2
100
AcDbLine
 10
27.78260364977729
 20
14.67121592479094
 30
0.0
 11
31.08460364977729
 21
14.67121592479094
 31
0.0
  0
LINE
  5
DA
330
D2
100
AcDbEntity
  8
치수문자_일반주서
 62
     0
370
    -2
100
AcDbLine
 10
10.06610364977728
 20
14.67121592479094
 30
0.0
 11
6.764103649777281
 21
14.67121592479094
 31
0.0
  0
SOLID
  5
DB
330
D2
100
AcDbEntity
  8
치수문자_일반주서
 62
     0
100
AcDbTrace
 10
27.78260364977729
 20
15.22154925812427
 30
0.0
 11
27.78260364977729
 21
14.12088259145761
 31
0.0
 12
24.48060364977729
 22
14.67121592479094
 32
0.0
 13
24.48060364977729
 23
14.67121592479094
 33
0.0
  0
SOLID
  5
DC
330
D2
100
AcDbEntity
  8
치수문자_일반주서
 62
     0
100
AcDbTrace
 10
10.06610364977728
 20
14.12088259145761
 30
0.0
 11
10.06610364977728
 21
15.22154925812427
 31
0.0
 12
13.36810364977728
 22
14.67121592479094
 32
0.0
 13
13.36810364977728
 23
14.67121592479094
 33
0.0
  0
MTEXT
  5
DD
330
D2
100
AcDbEntity
  8
치수문자_일반주서
 62
     0
100
AcDbMText
 10
-5.485896350222719
 20
19.04621592479094
 30
0.0
 40
3.5
 41
0.0
 71
     2
 72
     1
  1
\A1;11.11 [7/16]
  7
SLDTEXTSTYLE0
 73
     1
 44
1.0
  0
POINT
  5
DE
330
D2
100
AcDbEntity
  8
Defpoints
 62
     0
100
AcDbPoint
 10
24.48060364977729
 20
1.985449928723897
 30
0.0
  0
POINT
  5
2A2
330
D2
100
AcDbEntity
  8
Defpoints
 62
     0
100
AcDbPoint
 10
13.36810364977728
 20
1.954244444132984
 30
0.0
  0
POINT
  5
2A3
330
D2
100
AcDbEntity
  8
Defpoints
 62
     0
100
AcDbPoint
 10
13.36810364977728
 20
14.67121592479094
 30
0.0
  0
ENDBLK
  5
D4
330
D2
100
AcDbEntity
  8
0
100
AcDbBlockEnd
  0
BLOCK
  5
E7
330
E6
100
AcDbEntity
  8
0
100
AcDbBlockBegin
  2
_D_1
 70
     0
 10
0.0
 20
0.0
 30
0.0
  3
_D_1
  1
_D_1
  0
LINE
  5
E9
330
E6
100
AcDbEntity
  8
치수문자_일반주서
 62
     0
370
    -2
100
AcDbLine
 10
24.48060364977729
 20
2.047949928723897
 30
0.0
 11
24.48060364977729
 21
30.88019565503949
 31
0.0
  0
LINE
  5
EA
330
E6
100
AcDbEntity
  8
치수문자_일반주서
 62
     0
370
    -2
100
AcDbLine
 10
-35.84439635022271
 20
3.873574928723895
 30
0.0
 11
-35.84439635022271
 21
30.88019565503949
 31
0.0
  0
LINE
  5
EB
330
E6
100
AcDbEntity
  8
치수문자_일반주서
 62
     0
370
    -2
100
AcDbLine
 10
21.17860364977729
 20
30.88019565503949
 30
0.0
 11
-32.54239635022271
 21
30.88019565503949
 31
0.0
  0
SOLID
  5
EC
330
E6
100
AcDbEntity
  8
치수문자_일반주서
 62
     0
100
AcDbTrace
 10
21.17860364977729
 20
30.32986232170615
 30
0.0
 11
21.17860364977729
 21
31.43052898837282
 31
0.0
 12
24.48060364977729
 22
30.88019565503949
 32
0.0
 13
24.48060364977729
 23
30.88019565503949
 33
0.0
  0
SOLID
  5
ED
330
E6
100
AcDbEntity
  8
치수문자_일반주서
 62
     0
100
AcDbTrace
 10
-32.54239635022271
 20
31.43052898837282
 30
0.0
 11
-32.54239635022271
 21
30.32986232170615
 31
0.0
 12
-35.84439635022271
 22
30.88019565503949
 32
0.0
 13
-35.84439635022271
 23
30.88019565503949
 33
0.0
  0
MTEXT
  5
EE
330
E6
100
AcDbEntity
  8
치수문자_일반주서
 62
     0
100
AcDbMText
 10
-5.681896350222714
 20
35.25519565503949
 30
0.0
 40
3.5
 41
0.0
 71
     2
 72
     1
  1
\A1;60.33 [2 3/8]
  7
SLDTEXTSTYLE0
 73
     1
 44
1.0
  0
POINT
  5
EF
330
E6
100
AcDbEntity
  8
Defpoints
 62
     0
100
AcDbPoint
 10
24.48060364977729
 20
1.985449928723897
 30
0.0
  0
POINT
  5
F0
330
E6
100
AcDbEntity
  8
Defpoints
 62
     0
100
AcDbPoint
 10
-35.84439635022271
 20
3.811074928723895
 30
0.0
  0
POINT
  5
F1
330
E6
100
AcDbEntity
  8
Defpoints
 62
     0
100
AcDbPoint
 10
-35.84439635022271
 20
30.88019565503949
 30
0.0
  0
ENDBLK
  5
E8
330
E6
100
AcDbEntity
  8
0
100
AcDbBlockEnd
  0
BLOCK
  5
FB
330
FA
100
AcDbEntity
  8
0
100
AcDbBlockBegin
  2
_D_2
 70
     0
 10
0.0
 20
0.0
 30
0.0
  3
_D_2
  1
_D_2
  0
LINE
  5
FD
330
FA
100
AcDbEntity
  8
치수문자_일반주서
 62
     0
370
    -2
100
AcDbLine
 10
-34.95439635022272
 20
4.763574928723896
 30
0.0
 11
-47.14516918804993
 21
4.76357492872385
 31
0.0
  0
LINE
  5
FE
330
FA
100
AcDbEntity
  8
치수문자_일반주서
 62
     0
370
    -2
100
AcDbLine
 10
-34.95439635022272
 20
-4.761425071276109
 30
0.0
 11
-47.14516918804989
 21
-4.761425071276156
 31
0.0
  0
LINE
  5
FF
330
FA
100
AcDbEntity
  8
치수문자_일반주서
 62
     0
370
    -2
100
AcDbLine
 10
-47.14516918804991
 20
1.46157492872385
 30
0.0
 11
-47.14516918804991
 21
-1.459425071276156
 31
0.0
  0
SOLID
  5
100
330
FA
100
AcDbEntity
  8
치수문자_일반주서
 62
     0
100
AcDbTrace
 10
-46.59483585471658
 20
1.461574928723852
 30
0.0
 11
-47.69550252138325
 21
1.461574928723848
 31
0.0
 12
-47.14516918804993
 22
4.76357492872385
 32
0.0
 13
-47.14516918804993
 23
4.76357492872385
 33
0.0
  0
SOLID
  5
101
330
FA
100
AcDbEntity
  8
치수문자_일반주서
 62
     0
100
AcDbTrace
 10
-47.69550252138324
 20
-1.459425071276158
 30
0.0
 11
-46.59483585471657
 21
-1.459425071276154
 31
0.0
 12
-47.14516918804989
 22
-4.761425071276156
 32
0.0
 13
-47.14516918804989
 23
-4.761425071276156
 33
0.0
  0
MTEXT
  5
102
330
FA
100
AcDbEntity
  8
치수문자_일반주서
 62
     0
100
AcDbMText
 10
-51.52016918804991
 20
0.0010749287238796
 30
0.0
 40
3.5
 41
0.0
 71
     2
 72
     1
  1
\A1;%%c9.53 [3/8]
  7
SLDTEXTSTYLE0
 11
-3.729883127349605E-15
 21
1.0
 31
0.0
 73
     1
 44
1.0
  0
POINT
  5
103
330
FA
100
AcDbEntity
  8
Defpoints
 62
     0
100
AcDbPoint
 10
-34.89189635022272
 20
4.763574928723896
 30
0.0
  0
POINT
  5
104
330
FA
100
AcDbEntity
  8
Defpoints
 62
     0
100
AcDbPoint
 10
-34.89189635022272
 20
-4.761425071276109
 30
0.0
  0
POINT
  5
105
330
FA
100
AcDbEntity
  8
Defpoints
 62
     0
100
AcDbPoint
 10
-47.14516918804989
 20
-4.761425071276156
 30
0.0
  0
ENDBLK
  5
FC
330
FA
100
AcDbEntity
  8
0
100
AcDbBlockEnd
  0
BLOCK
  5
10F
330
10E
100
AcDbEntity
  8
0
100
AcDbBlockBegin
  2
_D_3
 70
     0
 10
0.0
 20
0.0
 30
0.0
  3
_D_3
  1
_D_3
  0
LINE
  5
111
330
10E
100
AcDbEntity
  8
치수문자_일반주서
 62
     0
370
    -2
100
AcDbLine
 10
24.54310364977729
 20
1.985449928723897
 30
0.0
 11
39.09000358946661
 21
1.985449928723948
 31
0.0
  0
LINE
  5
112
330
10E
100
AcDbEntity
  8
치수문자_일반주서
 62
     0
370
    -2
100
AcDbLine
 10
24.54310364977729
 20
-1.983300071276103
 30
0.0
 11
39.09000358946663
 21
-1.983300071276052
 31
0.0
  0
LINE
  5
113
330
10E
100
AcDbEntity
  8
치수문자_일반주서
 62
     0
370
    -2
100
AcDbLine
 10
39.09000358946661
 20
1.985449928723948
 30
0.0
 11
39.09000358946648
 21
37.46444992872396
 31
0.0
  0
LINE
  5
114
330
10E
100
AcDbEntity
  8
치수문자_일반주서
 62
     0
370
    -2
100
AcDbLine
 10
39.09000358946661
 20
1.985449928723948
 30
0.0
 11
39.09000358946663
 21
-1.983300071276052
 31
0.0
  0
LINE
  5
115
330
10E
100
AcDbEntity
  8
치수문자_일반주서
 62
     0
370
    -2
100
AcDbLine
 10
39.0900035894666
 20
5.287449928723948
 30
0.0
 11
39.09000358946658
 21
8.589449928723948
 31
0.0
  0
LINE
  5
116
330
10E
100
AcDbEntity
  8
치수문자_일반주서
 62
     0
370
    -2
100
AcDbLine
 10
39.09000358946664
 20
-5.285300071276051
 30
0.0
 11
39.09000358946665
 21
-8.58730007127605
 31
0.0
  0
SOLID
  5
117
330
10E
100
AcDbEntity
  8
치수문자_일반주서
 62
     0
100
AcDbTrace
 10
38.53967025613326
 20
5.287449928723946
 30
0.0
 11
39.64033692279993
 21
5.28744992872395
 31
0.0
 12
39.09000358946661
 22
1.985449928723948
 32
0.0
 13
39.09000358946661
 23
1.985449928723948
 33
0.0
  0
SOLID
  5
118
330
10E
100
AcDbEntity
  8
치수문자_일반주서
 62
     0
100
AcDbTrace
 10
39.64033692279997
 20
-5.285300071276049
 30
0.0
 11
38.53967025613331
 21
-5.285300071276053
 31
0.0
 12
39.09000358946663
 22
-1.983300071276052
 32
0.0
 13
39.09000358946663
 23
-1.983300071276052
 33
0.0
  0
MTEXT
  5
119
330
10E
100
AcDbEntity
  8
치수문자_일반주서
 62
     0
100
AcDbMText
 10
34.71500358946653
 20
23.02694992872394
 30
0.0
 40
3.5
 41
0.0
 71
     2
 72
     1
  1
\A1;%%c3.97 [5/32]
  7
SLDTEXTSTYLE0
 11
-3.580687802255623E-15
 21
1.0
 31
0.0
 73
     1
 44
1.0
  0
POINT
  5
11A
330
10E
100
AcDbEntity
  8
Defpoints
 62
     0
100
AcDbPoint
 10
24.48060364977729
 20
1.985449928723897
 30
0.0
  0
POINT
  5
11B
330
10E
100
AcDbEntity
  8
Defpoints
 62
     0
100
AcDbPoint
 10
24.48060364977729
 20
-1.983300071276103
 30
0.0
  0
POINT
  5
11C
330
10E
100
AcDbEntity
  8
Defpoints
 62
     0
100
AcDbPoint
 10
39.09000358946663
 20
-1.983300071276048
 30
0.0
  0
ENDBLK
  5
110
330
10E
100
AcDbEntity
  8
0
100
AcDbBlockEnd
  0
BLOCK
  5
129
330
128
100
AcDbEntity
  8
0
100
AcDbBlockBegin
  2
SW_DOWELSYMBOL_0
 70
     0
 10
0.0
 20
0.0
 30
0.0
  3
SW_DOWELSYMBOL_0
  1
SW_DOWELSYMBOL_0
  0
CIRCLE
  5
12B
330
128
100
AcDbEntity
  8
해칭선
 62
     0
100
AcDbCircle
 10
0.0
 20
0.0
 30
0.0
 40
2.999999999999999
  0
HATCH
  5
12C
330
128
100
AcDbEntity
  8
0
  6
Continuous
 62
     0
370
     0
100
AcDbHatch
 10
0.0
 20
0.0
 30
0.0
210
0.0
220
0.0
230
1.0
  2
SOLID
 70
     1
 71
     0
 91
        1
 92
        0
 93
        3
 72
     2
 10
0.0000000000000017
 20
0.0
 40
2.999999999999999
 50
0.0
 51
90.0
 73
     1
 72
     1
 10
0.0000000000000017
 20
2.999999999999999
 11
0.0000000000000017
 21
0.0
 72
     1
 10
0.0000000000000017
 20
0.0
 11
3.000000000000001
 21
0.0
 97
        0
 75
     0
 76
     1
 98
        1
 10
0.0
 20
0.0
  0
HATCH
  5
12D
330
128
100
AcDbEntity
  8
0
  6
Continuous
 62
     0
370
     0
100
AcDbHatch
 10
0.0
 20
0.0
 30
0.0
210
0.0
220
0.0
230
1.0
  2
SOLID
 70
     1
 71
     0
 91
        1
 92
        0
 93
        3
 72
     2
 10
0.0000000000000017
 20
0.0
 40
2.999999999999999
 50
180.0
 51
270.0000000000008
 73
     1
 72
     1
 10
0.0000000000000017
 20
-2.999999999999999
 11
0.0000000000000017
 21
0.0
 72
     1
 10
0.0000000000000017
 20
0.0
 11
-2.999999999999997
 21
0.0
 97
        0
 75
     0
 76
     1
 98
        1
 10
0.0
 20
0.0
  0
ENDBLK
  5
12A
330
128
100
AcDbEntity
  8
0
100
AcDbBlockEnd
  0
BLOCK
  5
1FA
330
1F9
100
AcDbEntity
  8
0
100
AcDbBlockBegin
  2
*D8
 70
     1
 10
0.0
 20
0.0
 30
0.0
  3
*D8
  1
*D8
  0
LINE
  5
1FC
330
1F9
100
AcDbEntity
  8
치수문자_일반주서
 62
     0
370
    -2
100
AcDbLine
 10
76.00077283782726
 20
14.49531250000001
 30
0.0
 11
76.00077283782726
 21
26.5710308388554
 31
0.0
  0
LINE
  5
1FD
330
1F9
100
AcDbEntity
  8
치수문자_일반주서
 62
     0
370
    -2
100
AcDbLine
 10
63.30077283782724
 20
14.39578594161732
 30
0.0
 11
63.30077283782724
 21
26.5710308388554
 31
0.0
  0
LINE
  5
1FE
330
1F9
100
AcDbEntity
  8
치수문자_일반주서
 62
     0
370
    -2
100
AcDbLine
 10
63.30077283782724
 20
26.5710308388554
 30
0.0
 11
34.82177283782724
 21
26.5710308388554
 31
0.0
  0
LINE
  5
1FF
330
1F9
100
AcDbEntity
  8
치수문자_일반주서
 62
     0
370
    -2
100
AcDbLine
 10
76.00077283782726
 20
26.5710308388554
 30
0.0
 11
63.30077283782724
 21
26.5710308388554
 31
0.0
  0
LINE
  5
200
330
1F9
100
AcDbEntity
  8
치수문자_일반주서
 62
     0
370
    -2
100
AcDbLine
 10
79.30277283782726
 20
26.5710308388554
 30
0.0
 11
82.60477283782726
 21
26.5710308388554
 31
0.0
  0
LINE
  5
201
330
1F9
100
AcDbEntity
  8
치수문자_일반주서
 62
     0
370
    -2
100
AcDbLine
 10
59.99877283782724
 20
26.5710308388554
 30
0.0
 11
56.69677283782724
 21
26.5710308388554
 31
0.0
  0
SOLID
  5
202
330
1F9
100
AcDbEntity
  8
치수문자_일반주서
 62
     0
100
AcDbTrace
 10
79.30277283782726
 20
27.12136417218873
 30
0.0
 11
79.30277283782726
 21
26.02069750552207
 31
0.0
 12
76.00077283782726
 22
26.5710308388554
 32
0.0
 13
76.00077283782726
 23
26.5710308388554
 33
0.0
  0
SOLID
  5
203
330
1F9
100
AcDbEntity
  8
치수문자_일반주서
 62
     0
100
AcDbTrace
 10
59.99877283782724
 20
26.02069750552207
 30
0.0
 11
59.99877283782724
 21
27.12136417218873
 31
0.0
 12
63.30077283782724
 22
26.5710308388554
 32
0.0
 13
63.30077283782724
 23
26.5710308388554
 33
0.0
  0
MTEXT
  5
204
330
1F9
100
AcDbEntity
  8
치수문자_일반주서
 62
     0
100
AcDbMText
 10
45.75927283782724
 20
30.9460308388554
 30
0.0
 40
3.5
 41
0.0
 71
     2
 72
     1
  1
\A1;12.7 [1/2]
  7
SLDTEXTSTYLE0
 73
     1
 44
1.0
  0
POINT
  5
205
330
1F9
100
AcDbEntity
  8
Defpoints
 62
     0
100
AcDbPoint
 10
76.00077283782726
 20
14.43281250000001
 30
0.0
  0
POINT
  5
206
330
1F9
100
AcDbEntity
  8
Defpoints
 62
     0
100
AcDbPoint
 10
63.30077283782724
 20
14.33328594161732
 30
0.0
  0
POINT
  5
207
330
1F9
100
AcDbEntity
  8
Defpoints
 62
     0
100
AcDbPoint
 10
63.30077283782724
 20
26.5710308388554
 30
0.0
  0
ENDBLK
  5
1FB
330
1F9
100
AcDbEntity
  8
0
100
AcDbBlockEnd
  0
BLOCK
  5
209
330
208
100
AcDbEntity
  8
0
100
AcDbBlockBegin
  2
*D9
 70
     1
 10
0.0
 20
0.0
 30
0.0
  3
*D9
  1
*D9
  0
LINE
  5
20B
330
208
100
AcDbEntity
  8
치수문자_일반주서
 62
     0
370
    -2
100
AcDbLine
 10
76.00077283782726
 20
14.49531250000001
 30
0.0
 11
76.00077283782726
 21
43.32682849057201
 31
0.0
  0
LINE
  5
20C
330
208
100
AcDbEntity
  8
치수문자_일반주서
 62
     0
370
    -2
100
AcDbLine
 10
15.67577283782725
 20
16.12250000000001
 30
0.0
 11
15.67577283782725
 21
43.32682849057201
 31
0.0
  0
LINE
  5
20D
330
208
100
AcDbEntity
  8
치수문자_일반주서
 62
     0
370
    -2
100
AcDbLine
 10
72.69877283782725
 20
43.32682849057201
 30
0.0
 11
18.97777283782725
 21
43.32682849057201
 31
0.0
  0
SOLID
  5
20E
330
208
100
AcDbEntity
  8
치수문자_일반주서
 62
     0
100
AcDbTrace
 10
72.69877283782725
 20
42.77649515723867
 30
0.0
 11
72.69877283782725
 21
43.87716182390534
 31
0.0
 12
76.00077283782726
 22
43.32682849057201
 32
0.0
 13
76.00077283782726
 23
43.32682849057201
 33
0.0
  0
SOLID
  5
20F
330
208
100
AcDbEntity
  8
치수문자_일반주서
 62
     0
100
AcDbTrace
 10
18.97777283782725
 20
43.87716182390534
 30
0.0
 11
18.97777283782725
 21
42.77649515723867
 31
0.0
 12
15.67577283782725
 22
43.32682849057201
 32
0.0
 13
15.67577283782725
 23
43.32682849057201
 33
0.0
  0
MTEXT
  5
210
330
208
100
AcDbEntity
  8
치수문자_일반주서
 62
     0
100
AcDbMText
 10
45.83827283782725
 20
47.70182849057201
 30
0.0
 40
3.5
 41
0.0
 71
     2
 72
     1
  1
\A1;60.33 [2 3/8]
  7
SLDTEXTSTYLE0
 73
     1
 44
1.0
  0
POINT
  5
211
330
208
100
AcDbEntity
  8
Defpoints
 62
     0
100
AcDbPoint
 10
76.00077283782726
 20
14.43281250000001
 30
0.0
  0
POINT
  5
212
330
208
100
AcDbEntity
  8
Defpoints
 62
     0
100
AcDbPoint
 10
15.67577283782725
 20
16.06000000000001
 30
0.0
  0
POINT
  5
213
330
208
100
AcDbEntity
  8
Defpoints
 62
     0
100
AcDbPoint
 10
15.67577283782725
 20
43.32682849057201
 30
0.0
  0
ENDBLK
  5
20A
330
208
100
AcDbEntity
  8
0
100
AcDbBlockEnd
  0
BLOCK
  5
215
330
214
100
AcDbEntity
  8
0
100
AcDbBlockBegin
  2
*D10
 70
     1
 10
0.0
 20
0.0
 30
0.0
  3
*D10
  1
*D10
  0
LINE
  5
217
330
214
100
AcDbEntity
  8
치수문자_일반주서
 62
     0
370
    -2
100
AcDbLine
 10
16.56577283782725
 20
17.01250000000001
 30
0.0
 11
4.375000000000034
 21
17.01249999999997
 31
0.0
  0
LINE
  5
218
330
214
100
AcDbEntity
  8
치수문자_일반주서
 62
     0
370
    -2
100
AcDbLine
 10
16.56577283782725
 20
7.487500000000008
 30
0.0
 11
4.375000000000067
 21
7.487499999999962
 31
0.0
  0
LINE
  5
219
330
214
100
AcDbEntity
  8
치수문자_일반주서
 62
     0
370
    -2
100
AcDbLine
 10
4.375000000000045
 20
13.71049999999997
 30
0.0
 11
4.375000000000055
 21
10.78949999999996
 31
0.0
  0
SOLID
  5
21A
330
214
100
AcDbEntity
  8
치수문자_일반주서
 62
     0
100
AcDbTrace
 10
4.925333333333379
 20
13.71049999999997
 30
0.0
 11
3.824666666666712
 21
13.71049999999997
 31
0.0
 12
4.375000000000034
 22
17.01249999999997
 32
0.0
 13
4.375000000000034
 23
17.01249999999997
 33
0.0
  0
SOLID
  5
21B
330
214
100
AcDbEntity
  8
치수문자_일반주서
 62
     0
100
AcDbTrace
 10
3.824666666666722
 20
10.78949999999996
 30
0.0
 11
4.925333333333389
 21
10.78949999999996
 31
0.0
 12
4.375000000000067
 22
7.487499999999962
 32
0.0
 13
4.375000000000067
 23
7.487499999999962
 33
0.0
  0
MTEXT
  5
21C
330
214
100
AcDbEntity
  8
치수문자_일반주서
 62
     0
100
AcDbMText
 10
0.0000000000000497
 20
12.25
 30
0.0
 40
3.5
 41
0.0
 71
     2
 72
     1
  1
\A1;%%c9.53 [3/8]
  7
SLDTEXTSTYLE0
 11
-3.450141892798385E-15
 21
1.0
 31
0.0
 73
     1
 44
1.0
  0
POINT
  5
21D
330
214
100
AcDbEntity
  8
Defpoints
 62
     0
100
AcDbPoint
 10
16.62827283782725
 20
17.01250000000001
 30
0.0
  0
POINT
  5
21E
330
214
100
AcDbEntity
  8
Defpoints
 62
     0
100
AcDbPoint
 10
16.62827283782725
 20
7.487500000000008
 30
0.0
  0
POINT
  5
21F
330
214
100
AcDbEntity
  8
Defpoints
 62
     0
100
AcDbPoint
 10
4.375000000000071
 20
7.487499999999962
 30
0.0
  0
ENDBLK
  5
216
330
214
100
AcDbEntity
  8
0
100
AcDbBlockEnd
  0
BLOCK
  5
221
330
220
100
AcDbEntity
  8
0
100
AcDbBlockBegin
  2
*D11
 70
     1
 10
0.0
 20
0.0
 30
0.0
  3
*D11
  1
*D11
  0
LINE
  5
223
330
220
100
AcDbEntity
  8
치수문자_일반주서
 62
     0
370
    -2
100
AcDbLine
 10
76.06327283782726
 20
14.43281250000001
 30
0.0
 11
91.94763270756617
 21
14.43281250000008
 31
0.0
  0
LINE
  5
224
330
220
100
AcDbEntity
  8
치수문자_일반주서
 62
     0
370
    -2
100
AcDbLine
 10
76.06327283782726
 20
10.06718750000001
 30
0.0
 11
91.94763270756619
 21
10.06718750000007
 31
0.0
  0
LINE
  5
225
330
220
100
AcDbEntity
  8
치수문자_일반주서
 62
     0
370
    -2
100
AcDbLine
 10
91.94763270756617
 20
14.43281250000008
 30
0.0
 11
91.94763270756606
 21
51.16334463117889
 31
0.0
  0
LINE
  5
226
330
220
100
AcDbEntity
  8
치수문자_일반주서
 62
     0
370
    -2
100
AcDbLine
 10
91.94763270756617
 20
14.43281250000008
 30
0.0
 11
91.94763270756619
 21
10.06718750000007
 31
0.0
  0
LINE
  5
227
330
220
100
AcDbEntity
  8
치수문자_일반주서
 62
     0
370
    -2
100
AcDbLine
 10
91.94763270756616
 20
17.73481250000007
 30
0.0
 11
91.94763270756614
 21
21.03681250000007
 31
0.0
  0
LINE
  5
228
330
220
100
AcDbEntity
  8
치수문자_일반주서
 62
     0
370
    -2
100
AcDbLine
 10
91.9476327075662
 20
6.765187500000074
 30
0.0
 11
91.94763270756621
 21
3.463187500000075
 31
0.0
  0
SOLID
  5
229
330
220
100
AcDbEntity
  8
치수문자_일반주서
 62
     0
100
AcDbTrace
 10
91.39729937423283
 20
17.73481250000007
 30
0.0
 11
92.49796604089948
 21
17.73481250000008
 31
0.0
 12
91.94763270756617
 22
14.43281250000008
 32
0.0
 13
91.94763270756617
 23
14.43281250000008
 33
0.0
  0
SOLID
  5
22A
330
220
100
AcDbEntity
  8
치수문자_일반주서
 62
     0
100
AcDbTrace
 10
92.49796604089953
 20
6.765187500000076
 30
0.0
 11
91.39729937423287
 21
6.765187500000073
 31
0.0
 12
91.94763270756619
 22
10.06718750000007
 32
0.0
 13
91.94763270756619
 23
10.06718750000007
 33
0.0
  0
MTEXT
  5
22B
330
220
100
AcDbEntity
  8
치수문자_일반주서
 62
     0
100
AcDbMText
 10
87.5726327075661
 20
36.28834463117888
 30
0.0
 40
3.5
 41
0.0
 71
     2
 72
     1
  1
\A1;%%c4.37 [11/64]
  7
SLDTEXTSTYLE0
 11
-3.255170729323293E-15
 21
1.0
 31
0.0
 73
     1
 44
1.0
  0
POINT
  5
22C
330
220
100
AcDbEntity
  8
Defpoints
 62
     0
100
AcDbPoint
 10
76.00077283782726
 20
14.43281250000001
 30
0.0
  0
POINT
  5
22D
330
220
100
AcDbEntity
  8
Defpoints
 62
     0
100
AcDbPoint
 10
76.00077283782726
 20
10.06718750000001
 30
0.0
  0
POINT
  5
22E
330
220
100
AcDbEntity
  8
Defpoints
 62
     0
100
AcDbPoint
 10
91.94763270756619
 20
10.06718750000007
 30
0.0
  0
ENDBLK
  5
222
330
220
100
AcDbEntity
  8
0
100
AcDbBlockEnd
  0
BLOCK
  5
26D
330
26C
100
AcDbEntity
  8
0
100
AcDbBlockBegin
  2
*D12
 70
     1
 10
0.0
 20
0.0
 30
0.0
  3
*D12
  1
*D12
  0
LINE
  5
26F
330
26C
100
AcDbEntity
  8
치수문자_일반주서
 62
     0
370
    -2
100
AcDbLine
 10
146.9131541283163
 20
-45.56258721171955
 30
0.0
 11
146.9131541283163
 21
-33.48686887286416
 31
0.0
  0
LINE
  5
270
330
26C
100
AcDbEntity
  8
치수문자_일반주서
 62
     0
370
    -2
100
AcDbLine
 10
134.2131541283162
 20
-45.66211377010224
 30
0.0
 11
134.2131541283162
 21
-33.48686887286416
 31
0.0
  0
LINE
  5
271
330
26C
100
AcDbEntity
  8
치수문자_일반주서
 62
     0
370
    -2
100
AcDbLine
 10
134.2131541283162
 20
-33.48686887286416
 30
0.0
 11
105.7341541283162
 21
-33.48686887286416
 31
0.0
  0
LINE
  5
272
330
26C
100
AcDbEntity
  8
치수문자_일반주서
 62
     0
370
    -2
100
AcDbLine
 10
146.9131541283163
 20
-33.48686887286416
 30
0.0
 11
134.2131541283162
 21
-33.48686887286416
 31
0.0
  0
LINE
  5
273
330
26C
100
AcDbEntity
  8
치수문자_일반주서
 62
     0
370
    -2
100
AcDbLine
 10
150.2151541283162
 20
-33.48686887286416
 30
0.0
 11
153.5171541283162
 21
-33.48686887286416
 31
0.0
  0
LINE
  5
274
330
26C
100
AcDbEntity
  8
치수문자_일반주서
 62
     0
370
    -2
100
AcDbLine
 10
130.9111541283162
 20
-33.48686887286416
 30
0.0
 11
127.6091541283162
 21
-33.48686887286416
 31
0.0
  0
SOLID
  5
275
330
26C
100
AcDbEntity
  8
치수문자_일반주서
 62
     0
100
AcDbTrace
 10
150.2151541283162
 20
-32.93653553953082
 30
0.0
 11
150.2151541283162
 21
-34.03720220619749
 31
0.0
 12
146.9131541283163
 22
-33.48686887286416
 32
0.0
 13
146.9131541283163
 23
-33.48686887286416
 33
0.0
  0
SOLID
  5
276
330
26C
100
AcDbEntity
  8
치수문자_일반주서
 62
     0
100
AcDbTrace
 10
130.9111541283162
 20
-34.03720220619749
 30
0.0
 11
130.9111541283162
 21
-32.93653553953082
 31
0.0
 12
134.2131541283162
 22
-33.48686887286416
 32
0.0
 13
134.2131541283162
 23
-33.48686887286416
 33
0.0
  0
MTEXT
  5
277
330
26C
100
AcDbEntity
  8
치수문자_일반주서
 62
     0
100
AcDbMText
 10
116.6716541283162
 20
-29.11186887286416
 30
0.0
 40
3.5
 41
0.0
 71
     2
 72
     1
  1
\A1;12.7 [1/2]
  7
SLDTEXTSTYLE0
 73
     1
 44
1.0
  0
POINT
  5
278
330
26C
100
AcDbEntity
  8
Defpoints
 62
     0
100
AcDbPoint
 10
146.9131541283163
 20
-45.62508721171955
 30
0.0
  0
POINT
  5
279
330
26C
100
AcDbEntity
  8
Defpoints
 62
     0
100
AcDbPoint
 10
134.2131541283162
 20
-45.72461377010224
 30
0.0
  0
POINT
  5
27A
330
26C
100
AcDbEntity
  8
Defpoints
 62
     0
100
AcDbPoint
 10
134.2131541283162
 20
-33.48686887286416
 30
0.0
  0
ENDBLK
  5
26E
330
26C
100
AcDbEntity
  8
0
100
AcDbBlockEnd
  0
BLOCK
  5
27C
330
27B
100
AcDbEntity
  8
0
100
AcDbBlockBegin
  2
*D13
 70
     1
 10
0.0
 20
0.0
 30
0.0
  3
*D13
  1
*D13
  0
LINE
  5
27E
330
27B
100
AcDbEntity
  8
치수문자_일반주서
 62
     0
370
    -2
100
AcDbLine
 10
146.9131541283163
 20
-45.56258721171955
 30
0.0
 11
146.9131541283163
 21
-16.73107122114755
 31
0.0
  0
LINE
  5
27F
330
27B
100
AcDbEntity
  8
치수문자_일반주서
 62
     0
370
    -2
100
AcDbLine
 10
86.58815412831623
 20
-43.93539971171954
 30
0.0
 11
86.58815412831623
 21
-16.73107122114755
 31
0.0
  0
LINE
  5
280
330
27B
100
AcDbEntity
  8
치수문자_일반주서
 62
     0
370
    -2
100
AcDbLine
 10
143.6111541283163
 20
-16.73107122114755
 30
0.0
 11
89.89015412831623
 21
-16.73107122114755
 31
0.0
  0
SOLID
  5
281
330
27B
100
AcDbEntity
  8
치수문자_일반주서
 62
     0
100
AcDbTrace
 10
143.6111541283163
 20
-17.28140455448089
 30
0.0
 11
143.6111541283163
 21
-16.18073788781422
 31
0.0
 12
146.9131541283163
 22
-16.73107122114755
 32
0.0
 13
146.9131541283163
 23
-16.73107122114755
 33
0.0
  0
SOLID
  5
282
330
27B
100
AcDbEntity
  8
치수문자_일반주서
 62
     0
100
AcDbTrace
 10
89.89015412831623
 20
-16.18073788781422
 30
0.0
 11
89.89015412831623
 21
-17.28140455448089
 31
0.0
 12
86.58815412831623
 22
-16.73107122114755
 32
0.0
 13
86.58815412831623
 23
-16.73107122114755
 33
0.0
  0
MTEXT
  5
283
330
27B
100
AcDbEntity
  8
치수문자_일반주서
 62
     0
100
AcDbMText
 10
116.7506541283162
 20
-12.35607122114755
 30
0.0
 40
3.5
 41
0.0
 71
     2
 72
     1
  1
\A1;60.33 [2 3/8]
  7
SLDTEXTSTYLE0
 73
     1
 44
1.0
  0
POINT
  5
284
330
27B
100
AcDbEntity
  8
Defpoints
 62
     0
100
AcDbPoint
 10
146.9131541283163
 20
-45.62508721171955
 30
0.0
  0
POINT
  5
285
330
27B
100
AcDbEntity
  8
Defpoints
 62
     0
100
AcDbPoint
 10
86.58815412831623
 20
-43.99789971171954
 30
0.0
  0
POINT
  5
286
330
27B
100
AcDbEntity
  8
Defpoints
 62
     0
100
AcDbPoint
 10
86.58815412831623
 20
-16.73107122114755
 30
0.0
  0
ENDBLK
  5
27D
330
27B
100
AcDbEntity
  8
0
100
AcDbBlockEnd
  0
BLOCK
  5
288
330
287
100
AcDbEntity
  8
0
100
AcDbBlockBegin
  2
*D14
 70
     1
 10
0.0
 20
0.0
 30
0.0
  3
*D14
  1
*D14
  0
LINE
  5
28A
330
287
100
AcDbEntity
  8
치수문자_일반주서
 62
     0
370
    -2
100
AcDbLine
 10
87.47815412831622
 20
-43.04539971171954
 30
0.0
 11
75.28738129048902
 21
-43.04539971171958
 31
0.0
  0
LINE
  5
28B
330
287
100
AcDbEntity
  8
치수문자_일반주서
 62
     0
370
    -2
100
AcDbLine
 10
87.47815412831622
 20
-52.57039971171955
 30
0.0
 11
75.28738129048905
 21
-52.57039971171959
 31
0.0
  0
LINE
  5
28C
330
287
100
AcDbEntity
  8
치수문자_일반주서
 62
     0
370
    -2
100
AcDbLine
 10
75.28738129048904
 20
-46.34739971171958
 30
0.0
 11
75.28738129048904
 21
-49.26839971171959
 31
0.0
  0
SOLID
  5
28D
330
287
100
AcDbEntity
  8
치수문자_일반주서
 62
     0
100
AcDbTrace
 10
75.83771462382236
 20
-46.34739971171958
 30
0.0
 11
74.73704795715571
 21
-46.34739971171958
 31
0.0
 12
75.28738129048902
 22
-43.04539971171958
 32
0.0
 13
75.28738129048902
 23
-43.04539971171958
 33
0.0
  0
SOLID
  5
28E
330
287
100
AcDbEntity
  8
치수문자_일반주서
 62
     0
100
AcDbTrace
 10
74.73704795715571
 20
-49.26839971171959
 30
0.0
 11
75.83771462382236
 21
-49.26839971171959
 31
0.0
 12
75.28738129048905
 22
-52.57039971171959
 32
0.0
 13
75.28738129048905
 23
-52.57039971171959
 33
0.0
  0
MTEXT
  5
28F
330
287
100
AcDbEntity
  8
치수문자_일반주서
 62
     0
100
AcDbMText
 10
70.91238129048904
 20
-47.80789971171956
 30
0.0
 40
3.5
 41
0.0
 71
     2
 72
     1
  1
\A1;%%c9.53 [3/8]
  7
SLDTEXTSTYLE0
 11
-2.983906501879684E-15
 21
1.0
 31
0.0
 73
     1
 44
1.0
  0
POINT
  5
290
330
287
100
AcDbEntity
  8
Defpoints
 62
     0
100
AcDbPoint
 10
87.54065412831622
 20
-43.04539971171954
 30
0.0
  0
POINT
  5
291
330
287
100
AcDbEntity
  8
Defpoints
 62
     0
100
AcDbPoint
 10
87.54065412831622
 20
-52.57039971171955
 30
0.0
  0
POINT
  5
292
330
287
100
AcDbEntity
  8
Defpoints
 62
     0
100
AcDbPoint
 10
75.28738129048905
 20
-52.57039971171959
 30
0.0
  0
ENDBLK
  5
289
330
287
100
AcDbEntity
  8
0
100
AcDbBlockEnd
  0
BLOCK
  5
294
330
293
100
AcDbEntity
  8
0
100
AcDbBlockBegin
  2
*D15
 70
     1
 10
0.0
 20
0.0
 30
0.0
  3
*D15
  1
*D15
  0
LINE
  5
296
330
293
100
AcDbEntity
  8
치수문자_일반주서
 62
     0
370
    -2
100
AcDbLine
 10
146.9756541283163
 20
-45.62508721171955
 30
0.0
 11
162.8600139980552
 21
-45.62508721171949
 31
0.0
  0
LINE
  5
297
330
293
100
AcDbEntity
  8
치수문자_일반주서
 62
     0
370
    -2
100
AcDbLine
 10
146.9756541283163
 20
-49.99071221171954
 30
0.0
 11
162.8600139980553
 21
-49.99071221171948
 31
0.0
  0
LINE
  5
298
330
293
100
AcDbEntity
  8
치수문자_일반주서
 62
     0
370
    -2
100
AcDbLine
 10
162.8600139980552
 20
-45.62508721171949
 30
0.0
 11
162.860013998055
 21
-8.894555080540663
 31
0.0
  0
LINE
  5
299
330
293
100
AcDbEntity
  8
치수문자_일반주서
 62
     0
370
    -2
100
AcDbLine
 10
162.8600139980552
 20
-45.62508721171949
 30
0.0
 11
162.8600139980553
 21
-49.99071221171948
 31
0.0
  0
LINE
  5
29A
330
293
100
AcDbEntity
  8
치수문자_일반주서
 62
     0
370
    -2
100
AcDbLine
 10
162.8600139980552
 20
-42.32308721171949
 30
0.0
 11
162.8600139980552
 21
-39.02108721171949
 31
0.0
  0
LINE
  5
29B
330
293
100
AcDbEntity
  8
치수문자_일반주서
 62
     0
370
    -2
100
AcDbLine
 10
162.8600139980553
 20
-53.29271221171948
 30
0.0
 11
162.8600139980553
 21
-56.59471221171948
 31
0.0
  0
SOLID
  5
29C
330
293
100
AcDbEntity
  8
치수문자_일반주서
 62
     0
100
AcDbTrace
 10
162.3096806647219
 20
-42.3230872117195
 30
0.0
 11
163.4103473313885
 21
-42.32308721171948
 31
0.0
 12
162.8600139980552
 22
-45.62508721171949
 32
0.0
 13
162.8600139980552
 23
-45.62508721171949
 33
0.0
  0
SOLID
  5
29D
330
293
100
AcDbEntity
  8
치수문자_일반주서
 62
     0
100
AcDbTrace
 10
163.4103473313886
 20
-53.29271221171948
 30
0.0
 11
162.309680664722
 21
-53.29271221171949
 31
0.0
 12
162.8600139980553
 22
-49.99071221171948
 32
0.0
 13
162.8600139980553
 23
-49.99071221171948
 33
0.0
  0
MTEXT
  5
29E
330
293
100
AcDbEntity
  8
치수문자_일반주서
 62
     0
100
AcDbMText
 10
158.4850139980551
 20
-23.76955508054069
 30
0.0
 40
3.5
 41
0.0
 71
     2
 72
     1
  1
\A1;%%c4.37 [11/64]
  7
SLDTEXTSTYLE0
 11
-6.510341458646596E-15
 21
1.0
 31
0.0
 73
     1
 44
1.0
  0
POINT
  5
29F
330
293
100
AcDbEntity
  8
Defpoints
 62
     0
100
AcDbPoint
 10
146.9131541283163
 20
-45.62508721171955
 30
0.0
  0
POINT
  5
2A0
330
293
100
AcDbEntity
  8
Defpoints
 62
     0
100
AcDbPoint
 10
146.9131541283163
 20
-49.99071221171954
 30
0.0
  0
POINT
  5
2A1
330
293
100
AcDbEntity
  8
Defpoints
 62
     0
100
AcDbPoint
 10
162.8600139980552
 20
-49.99071221171948
 30
0.0
  0
ENDBLK
  5
295
330
293
100
AcDbEntity
  8
0
100
AcDbBlockEnd
  0
ENDSEC
  0
SECTION
  2
ENTITIES
  0
LINE
  5
96
330
1F
100
AcDbEntity
  8
외형선
  6
Continuous
370
    15
100
AcDbLine
 10
1.999999999999998
 20
-4.761425071276111
 30
0.0
 11
12.36810364977728
 21
-1.983300071276107
 31
0.0
  0
LINE
  5
97
330
1F
100
AcDbEntity
  8
외형선
  6
Continuous
370
    15
100
AcDbLine
 10
12.36810364977728
 20
1.985449928723893
 30
0.0
 11
1.999999999999998
 21
4.763574928723898
 31
0.0
  0
LINE
  5
98
330
1F
100
AcDbEntity
  8
외형선
  6
Continuous
370
    15
100
AcDbLine
 10
-34.89189635022272
 20
-4.761425071276109
 30
0.0
 11
1.999999999999998
 21
-4.761425071276109
 31
0.0
  0
LINE
  5
99
330
1F
100
AcDbEntity
  8
외형선
  6
Continuous
370
    15
100
AcDbLine
 10
1.999999999999998
 20
4.763574928723895
 30
0.0
 11
-11.1619463502226
 21
4.763574928723895
 31
0.0
  0
LINE
  5
9A
330
1F
100
AcDbEntity
  8
외형선
  6
Continuous
370
    15
100
AcDbLine
 10
-34.89189635022272
 20
4.763574928723893
 30
0.0
 11
-35.84439635022271
 21
3.811074928723895
 31
0.0
  0
LINE
  5
9B
330
1F
100
AcDbEntity
  8
외형선
  6
Continuous
370
    15
100
AcDbLine
 10
-35.84439635022271
 20
-3.808925071276108
 30
0.0
 11
-34.89189635022272
 21
-4.761425071276106
 31
0.0
  0
LINE
  5
9C
330
1F
100
AcDbEntity
  8
외형선
  6
Continuous
370
    15
100
AcDbLine
 10
12.36810364977728
 20
-1.983300071276107
 30
0.0
 11
12.8679342186689
 21
-1.983300071276107
 31
0.0
  0
LINE
  5
9D
330
1F
100
AcDbEntity
  8
외형선
  6
Continuous
370
    15
100
AcDbLine
 10
12.8679342186689
 20
1.985449928723893
 30
0.0
 11
12.36810364977728
 21
1.985449928723893
 31
0.0
  0
LINE
  5
9E
330
1F
100
AcDbEntity
  8
0
  6
Continuous
 62
     1
370
    15
100
AcDbLine
 10
15.18679507528105
 20
1.985449928723894
 30
0.0
 11
13.97865262531268
 21
1.985449928723894
 31
0.0
  0
LINE
  5
9F
330
1F
100
AcDbEntity
  8
0
  6
Continuous
 62
     1
370
    15
100
AcDbLine
 10
19.37596545079829
 20
-1.983300071276108
 30
0.0
 11
20.58549739603479
 21
-1.983300071276108
 31
0.0
  0
LINE
  5
A0
330
1F
100
AcDbEntity
  8
0
  6
Continuous
 62
     1
370
    15
100
AcDbLine
 10
20.58549739603479
 20
1.985449928723894
 30
0.0
 11
19.3759654507983
 21
1.985449928723894
 31
0.0
  0
LINE
  5
A1
330
1F
100
AcDbEntity
  8
0
  6
Continuous
 62
     1
370
    15
100
AcDbLine
 10
13.97865262531268
 20
-1.983300071276108
 30
0.0
 11
15.18679507528102
 21
-1.983300071276108
 31
0.0
  0
LINE
  5
A2
330
1F
100
AcDbEntity
  8
외형선
  6
Continuous
370
    15
100
AcDbLine
 10
12.36810364977728
 20
0.0010749287238931
 30
0.0
 11
12.36810364977728
 21
1.985449928723893
 31
0.0
  0
LINE
  5
A3
330
1F
100
AcDbEntity
  8
외형선
  6
Continuous
370
    15
100
AcDbLine
 10
12.36810364977728
 20
-1.983300071276107
 30
0.0
 11
12.36810364977728
 21
0.0010749287238931
 31
0.0
  0
LINE
  5
A4
330
1F
100
AcDbEntity
  8
외형선
  6
Continuous
370
    15
100
AcDbLine
 10
1.999999999999998
 20
0.0010749287238931
 30
0.0
 11
1.999999999999998
 21
4.763574928723898
 31
0.0
  0
LINE
  5
A5
330
1F
100
AcDbEntity
  8
외형선
  6
Continuous
370
    15
100
AcDbLine
 10
1.999999999999998
 20
-4.761425071276111
 30
0.0
 11
1.999999999999998
 21
0.0010749287238931
 31
0.0
  0
LINE
  5
A6
330
1F
100
AcDbEntity
  8
외형선
  6
Continuous
370
    15
100
AcDbLine
 10
-34.89189635022272
 20
0.0010749287238931
 30
0.0
 11
-34.89189635022272
 21
4.763574928723895
 31
0.0
  0
LINE
  5
A7
330
1F
100
AcDbEntity
  8
외형선
  6
Continuous
370
    15
100
AcDbLine
 10
-34.89189635022272
 20
-4.761425071276109
 30
0.0
 11
-34.89189635022272
 21
0.0010749287238931
 31
0.0
  0
LINE
  5
A8
330
1F
100
AcDbEntity
  8
외형선
  6
Continuous
370
    15
100
AcDbLine
 10
-35.84439635022271
 20
0.0010749287238931
 30
0.0
 11
-35.84439635022271
 21
3.811074928723895
 31
0.0
  0
LINE
  5
A9
330
1F
100
AcDbEntity
  8
외형선
  6
Continuous
370
    15
100
AcDbLine
 10
-35.84439635022271
 20
-3.808925071276108
 30
0.0
 11
-35.84439635022271
 21
0.0010749287238931
 31
0.0
  0
SPLINE
  5
AA
330
1F
100
AcDbEntity
  8
외형선
  6
Continuous
370
    15
100
AcDbSpline
210
0.0
220
0.0
230
1.0
 70
     8
 71
     3
 72
     8
 73
     4
 74
     0
 42
0.000000001
 43
0.00000001
 40
0.0
 40
0.0
 40
0.0
 40
0.0
 40
1.0
 40
1.0
 40
1.0
 40
1.0
 10
13.36810364977711
 20
1.954244444130178
 30
0.0
 10
13.20168764277465
 20
1.937305834982769
 30
0.0
 10
13.0340879178845
 20
1.913450326396936
 30
0.0
 10
12.8679342186689
 20
1.883062798086989
 30
0.0
  0
LINE
  5
AB
330
1F
100
AcDbEntity
  8
외형선
  6
Continuous
370
    15
100
AcDbLine
 10
12.86793421866889
 20
1.240580387513068
 30
0.0
 11
12.8679342186689
 21
1.985449928723893
 31
0.0
  0
SPLINE
  5
AC
330
1F
100
AcDbEntity
  8
외형선
  6
Continuous
370
    15
100
AcDbSpline
210
0.0
220
0.0
230
1.0
 70
     8
 71
     3
 72
     8
 73
     4
 74
     0
 42
0.000000001
 43
0.00000001
 40
0.0
 40
0.0
 40
0.0
 40
0.0
 40
1.0
 40
1.0
 40
1.0
 40
1.0
 10
13.36810364977685
 20
1.003564218268664
 30
0.0
 10
13.20168764277447
 20
1.086317982582182
 30
0.0
 10
13.0340879178844
 20
1.165736374453399
 30
0.0
 10
12.8679342186689
 20
1.240579373973959
 30
0.0
  0
SPLINE
  5
AD
330
1F
100
AcDbEntity
  8
외형선
  6
Continuous
370
    15
100
AcDbSpline
210
0.0
220
0.0
230
1.0
 70
     8
 71
     3
 72
     8
 73
     4
 74
     0
 42
0.000000001
 43
0.00000001
 40
0.0
 40
0.0
 40
0.0
 40
0.0
 40
1.0
 40
1.0
 40
1.0
 40
1.0
 10
13.36810364977711
 20
0.3516073590532197
 30
0.0
 10
13.20168764277465
 20
0.445989425183363
 30
0.0
 10
13.0340879178845
 20
0.5393589743858752
 30
0.0
 10
12.8679342186689
 20
0.630253599846149
 30
0.0
  0
LINE
  5
AE
330
1F
100
AcDbEntity
  8
외형선
  6
Continuous
370
    15
100
AcDbLine
 10
12.86793421866889
 20
-1.548560627868954
 30
0.0
 11
12.8679342186689
 21
0.6302598077654624
 31
0.0
  0
SPLINE
  5
AF
330
1F
100
AcDbEntity
  8
외형선
  6
Continuous
370
    15
100
AcDbSpline
210
0.0
220
0.0
230
1.0
 70
     8
 71
     3
 72
     8
 73
     4
 74
     0
 42
0.000000001
 43
0.00000001
 40
0.0
 40
0.0
 40
0.0
 40
0.0
 40
1.0
 40
1.0
 40
1.0
 40
1.0
 10
13.36810364977685
 20
-1.711455177572931
 30
0.0
 10
13.20168764277447
 20
-1.663012372340614
 30
0.0
 10
13.0340879178844
 20
-1.608425954242807
 30
0.0
 10
12.8679342186689
 20
-1.548561438566935
 30
0.0
  0
SPLINE
  5
B0
330
1F
100
AcDbEntity
  8
외형선
  6
Continuous
370
    15
100
AcDbSpline
210
0.0
220
0.0
230
1.0
 70
     8
 71
     3
 72
     8
 73
     4
 74
     0
 42
0.000000001
 43
0.00000001
 40
0.0
 40
0.0
 40
0.0
 40
0.0
 40
1.0
 40
1.0
 40
1.0
 40
1.0
 10
13.36810364977711
 20
-1.952094586682392
 30
0.0
 10
13.20168764277465
 20
-1.935155977534983
 30
0.0
 10
13.0340879178845
 20
-1.91130046894915
 30
0.0
 10
12.8679342186689
 20
-1.880912940639202
 30
0.0
  0
LINE
  5
B1
330
1F
100
AcDbEntity
  8
외형선
  6
Continuous
370
    15
100
AcDbLine
 10
12.8679342186689
 20
-1.983300071276107
 30
0.0
 11
12.8679342186689
 21
-1.880910865221017
 31
0.0
  0
LINE
  5
B2
330
1F
100
AcDbEntity
  8
외형선
  6
Continuous
370
    15
100
AcDbLine
 10
13.36810364977728
 20
-1.952094586661006
 30
0.0
 11
13.36810364977728
 21
-1.711455177573057
 31
0.0
  0
LINE
  5
B3
330
1F
100
AcDbEntity
  8
외형선
  6
Continuous
370
    15
100
AcDbLine
 10
13.36810364977728
 20
0.3516073590558664
 30
0.0
 11
13.36810364977728
 21
1.003564218268447
 31
0.0
  0
SPLINE
  5
B4
330
1F
100
AcDbEntity
  8
외형선
  6
Continuous
370
    15
100
AcDbSpline
210
0.0
220
0.0
230
1.0
 70
    24
 71
     3
 72
    15
 73
    11
 74
     0
 42
0.000000001
 43
0.00000001
 40
0.0
 40
0.0
 40
0.0
 40
0.0
 40
0.052113555856426
 40
0.2008260876210557
 40
0.3495386193856723
 40
0.498251151150313
 40
0.6469636829149419
 40
0.7956762146795708
 40
0.9443887464441575
 40
1.0
 40
1.0
 40
1.0
 40
1.0
 10
13.36810364977728
 20
-1.711455177573057
 30
0.0
 10
13.36810364977726
 20
-1.678835460705634
 30
0.0
 10
13.36810364977724
 20
-1.553131313096921
 30
0.0
 10
13.36810364977727
 20
-1.27785856217671
 30
0.0
 10
13.36810364977732
 20
-0.8802472633180913
 30
0.0
 10
13.3681036497773
 20
-0.4763250808257706
 30
0.0
 10
13.36810364977726
 20
-0.1102336193876056
 30
0.0
 10
13.3681036497773
 20
0.166288105151267
 30
0.0
 10
13.36810364977729
 20
0.3215750896069197
 30
0.0
 10
13.36810364977729
 20
0.3316002161461303
 30
0.0
 10
13.36810364977729
 20
0.3343287768617961
 30
0.0
  0
SPLINE
  5
B5
330
1F
100
AcDbEntity
  8
외형선
  6
Continuous
370
    15
100
AcDbSpline
210
0.0
220
0.0
230
1.0
 70
    24
 71
     3
 72
    13
 73
     9
 74
     0
 42
0.000000001
 43
0.00000001
 40
0.0
 40
0.0
 40
0.0
 40
0.0
 40
0.1123666507156737
 40
0.315187595493745
 40
0.5238903614104437
 40
0.72671130618862
 40
0.9354140721054339
 40
0.9999999999999999
 40
0.9999999999999999
 40
0.9999999999999999
 40
0.9999999999999999
 10
13.36810364977728
 20
1.045759989220931
 30
0.0
 10
13.36810364977729
 20
1.073448777535716
 30
0.0
 10
13.36810364977732
 20
1.151115616900314
 30
0.0
 10
13.36810364977726
 20
1.302394976994572
 30
0.0
 10
13.36810364977733
 20
1.490124597951248
 30
0.0
 10
13.36810364977726
 20
1.689493218314394
 30
0.0
 10
13.3681036497773
 20
1.84510105577897
 30
0.0
 10
13.36810364977728
 20
1.933381299746996
 30
0.0
 10
13.36810364977728
 20
1.954244444108792
 30
0.0
  0
LINE
  5
B6
330
1F
100
AcDbEntity
  8
0
  6
Continuous
 62
     1
370
    15
100
AcDbLine
 10
24.48060364977729
 20
-1.796136498705478
 30
0.0
 11
24.48060364977729
 21
0.171098856153288
 31
0.0
  0
SPLINE
  5
B7
330
1F
100
AcDbEntity
  8
0
  6
Continuous
 62
     1
370
    15
100
AcDbSpline
210
0.0
220
0.0
230
1.0
 70
     8
 71
     3
 72
    18
 73
    14
 74
     0
 42
0.000000001
 43
0.00000001
 40
0.0
 40
0.0
 40
0.0
 40
0.0
 40
0.0910500811784542
 40
0.1868224260839524
 40
0.2825969968723025
 40
0.3782264421417471
 40
0.4737893134650525
 40
0.5613906196446454
 40
0.6492258652541378
 40
0.7370130351405306
 40
0.8245964210564531
 40
0.9121881199790356
 40
1.0
 40
1.0
 40
1.0
 40
1.0
 10
15.18679507528105
 20
1.982438984813202
 30
0.0
 10
15.46883445506122
 20
1.972022764412393
 30
0.0
 10
16.04754103609624
 20
1.950650091914821
 30
0.0
 10
16.92331498656048
 20
1.755420359535627
 30
0.0
 10
17.81328677816184
 20
1.451029373634961
 30
0.0
 10
18.70219977253616
 20
1.047065472788571
 30
0.0
 10
19.56581281269006
 20
0.5876434367159836
 30
0.0
 10
20.40491331043847
 20
0.1060340829174044
 30
0.0
 10
21.22072509369718
 20
-0.3661974815946064
 30
0.0
 10
22.0362805199453
 20
-0.8187148598604335
 30
0.0
 10
22.85056387965785
 20
-1.223837194571263
 30
0.0
 10
23.66492312447495
 20
-1.567532567037608
 30
0.0
 10
24.20848270101135
 20
-1.719871445357505
 30
0.0
 10
24.48060364977729
 20
-1.796136498705478
 30
0.0
  0
SPLINE
  5
B8
330
1F
100
AcDbEntity
  8
0
  6
Continuous
 62
     1
370
    15
100
AcDbSpline
210
0.0
220
0.0
230
1.0
 70
     8
 71
     3
 72
    16
 73
    12
 74
     0
 42
0.000000001
 43
0.00000001
 40
0.0
 40
0.0
 40
0.0
 40
0.0
 40
0.1233505023894886
 40
0.2465146909524057
 40
0.3695937579972726
 40
0.4926901266086244
 40
0.6159059692717065
 40
0.7393092777130095
 40
0.8625857439773025
 40
0.9980611177041411
 40
1.0
 40
1.0
 40
1.0
 40
1.0
 10
24.48060364977729
 20
0.171098856153288
 30
0.0
 10
24.18380041351757
 20
0.3405152497201929
 30
0.0
 10
23.59064224518505
 20
0.6790921431530613
 30
0.0
 10
22.70171182422275
 20
1.139203834618197
 30
0.0
 10
21.81348999033741
 20
1.524151990213559
 30
0.0
 10
20.92511514523935
 20
1.807829379096186
 30
0.0
 10
20.03582795872482
 20
1.97044599054157
 30
0.0
 10
19.14563038711678
 20
2.005344194208313
 30
0.0
 10
18.2263666060422
 20
1.890501446007026
 30
0.0
 10
17.59919036203456
 20
1.75379027201152
 30
0.0
 10
17.26862890572166
 20
1.623451349143046
 30
0.0
 10
17.26396476261244
 20
1.621612298106236
 30
0.0
  0
LINE
  5
B9
330
1F
100
AcDbEntity
  8
0
  6
Continuous
 62
     1
370
    15
100
AcDbLine
 10
24.48060364977729
 20
-1.983300071276103
 30
0.0
 11
24.48060364977729
 21
-1.796136498705478
 31
0.0
  0
SPLINE
  5
BA
330
1F
100
AcDbEntity
  8
0
  6
Continuous
 62
     1
370
    15
100
AcDbSpline
210
0.0
220
0.0
230
1.0
 70
     8
 71
     3
 72
    42
 73
    38
 74
     0
 42
0.000000001
 43
0.00000001
 40
0.0
 40
0.0
 40
0.0
 40
0.0
 40
0.0625000000000007
 40
0.0625000000000007
 40
0.1250000000000013
 40
0.1250000000000013
 40
0.187500000000002
 40
0.187500000000002
 40
0.2500000000000027
 40
0.2500000000000027
 40
0.3125000000000033
 40
0.3125000000000033
 40
0.375000000000004
 40
0.375000000000004
 40
0.4062500000000043
 40
0.4062500000000043
 40
0.4375000000000047
 40
0.4375000000000047
 40
0.468750000000005
 40
0.468750000000005
 40
0.5000000000000053
 40
0.5000000000000053
 40
0.5625000000000047
 40
0.5625000000000047
 40
0.625000000000004
 40
0.625000000000004
 40
0.6875000000000033
 40
0.6875000000000033
 40
0.7500000000000027
 40
0.7500000000000027
 40
0.812500000000002
 40
0.812500000000002
 40
0.8750000000000013
 40
0.8750000000000013
 40
0.9375000000000007
 40
0.9375000000000007
 40
1.0
 40
1.0
 40
1.0
 40
1.0
 10
24.48060364977729
 20
-1.983300071276103
 30
0.0
 10
24.25191989999048
 20
-1.964596182144178
 30
0.0
 10
24.01773477184032
 20
-1.939614226574625
 30
0.0
 10
23.55250829711097
 20
-1.863567739133461
 30
0.0
 10
23.32474487261898
 20
-1.812888311730559
 30
0.0
 10
22.8603826502957
 20
-1.68698088575895
 30
0.0
 10
22.62584127377173
 20
-1.611757273901453
 30
0.0
 10
22.16625487848931
 20
-1.441563970840391
 30
0.0
 10
21.93458903405505
 20
-1.345846954615028
 30
0.0
 10
21.46883735302515
 20
-1.136986589856951
 30
0.0
 10
21.24045330867391
 20
-1.024774181828078
 30
0.0
 10
20.77729228465866
 20
-0.78696223585119
 30
0.0
 10
20.54256883996014
 20
-0.6612909357115165
 30
0.0
 10
20.19645894146243
 20
-0.4683866053852813
 30
0.0
 10
20.08255551870247
 20
-0.4034553248076537
 30
0.0
 10
19.85133804442103
 20
-0.2718002534412081
 30
0.0
 10
19.73484708099526
 20
-0.2052282202612121
 30
0.0
 10
19.50187879969556
 20
-0.0716076758618477
 30
0.0
 10
19.38540452724554
 20
-0.0045609115998524
 30
0.0
 10
19.15425297092585
 20
0.1289787868723183
 30
0.0
 10
19.04036442997599
 20
0.1953207016057535
 30
0.0
 10
18.69414508681063
 20
0.3938950083738038
 30
0.0
 10
18.45941420946131
 20
0.5252298251360393
 30
0.0
 10
17.99637085146215
 20
0.7778081951899687
 30
0.0
 10
17.76790539292482
 20
0.8991346688408317
 30
0.0
 10
17.30212472400443
 20
1.129457662765075
 30
0.0
 10
17.0706450863482
 20
1.237429465982163
 30
0.0
 10
16.61088485622438
 20
1.434761100014126
 30
0.0
 10
16.37632120034532
 20
1.524953227700141
 30
0.0
 10
15.91204809916511
 20
1.682722595445554
 30
0.0
 10
15.68425601563596
 20
1.750246626320782
 30
0.0
 10
15.21897163574863
 20
1.861552776723353
 30
0.0
 10
14.98502450023249
 20
1.904862143115322
 30
0.0
 10
14.5274556739428
 20
1.964664612193538
 30
0.0
 10
14.29323347542675
 20
1.981608210781887
 30
0.0
 10
13.82806736066737
 20
1.988118385982641
 30
0.0
 10
13.60032810170922
 20
1.977881348395584
 30
0.0
 10
13.36810364977721
 20
1.954244444130187
 30
0.0
  0
SPLINE
  5
BB
330
1F
100
AcDbEntity
  8
0
  6
Continuous
 62
     1
370
    15
100
AcDbSpline
210
0.0
220
0.0
230
1.0
 70
     8
 71
     3
 72
    14
 73
    10
 74
     0
 42
0.000000001
 43
0.00000001
 40
0.0
 40
0.0
 40
0.0
 40
0.0
 40
0.0383688177539643
 40
0.1864540358460128
 40
0.3491931284918863
 40
0.5118985673566983
 40
0.6745890328520314
 40
0.837283267985926
 40
1.0
 40
1.0
 40
1.0
 40
1.0
 10
19.37596545079828
 20
-1.970577198643692
 30
0.0
 10
19.29910712559681
 20
-1.974366861268304
 30
0.0
 10
18.92561255992963
 20
-1.992782802447015
 30
0.0
 10
18.22636557850711
 20
-1.889467873360855
 30
0.0
 10
17.27800873217862
 20
-1.649115381472795
 30
0.0
 10
16.30049654741895
 20
-1.256607133170655
 30
0.0
 10
15.32307669645128
 20
-0.766725647343907
 30
0.0
 10
14.3456371269929
 20
-0.2122332767144144
 30
0.0
 10
13.69396315973731
 20
0.163651818348682
 30
0.0
 10
13.36810364977722
 20
0.3516073590531693
 30
0.0
  0
SPLINE
  5
BC
330
1F
100
AcDbEntity
  8
0
  6
Continuous
 62
     1
370
    15
100
AcDbSpline
210
0.0
220
0.0
230
1.0
 70
     8
 71
     3
 72
    18
 73
    14
 74
     0
 42
0.000000001
 43
0.00000001
 40
0.0
 40
0.0
 40
0.0
 40
0.0
 40
0.0954813499133204
 40
0.1909487950695236
 40
0.2864817833439852
 40
0.3821588148959607
 40
0.4778380701155728
 40
0.5733723442462806
 40
0.668840110685738
 40
0.7563542353906245
 40
0.8441020667071414
 40
0.9318018701458777
 40
1.0
 40
1.0
 40
1.0
 40
1.0
 10
13.36810364977684
 20
1.003564218268672
 30
0.0
 10
13.66415730453839
 20
0.8494745553641747
 30
0.0
 10
14.25622150036269
 20
0.5413176693231446
 30
0.0
 10
15.14443376799476
 20
0.025083944881223
 30
0.0
 10
16.033360030329
 20
-0.4881268851277374
 30
0.0
 10
16.92331323486047
 20
-0.96981672237979
 30
0.0
 10
17.81328722991639
 20
-1.386567406677319
 30
0.0
 10
18.70219971436017
 20
-1.711325911468688
 30
0.0
 10
19.56581259888567
 20
-1.915887358085808
 30
0.0
 10
20.40491413162285
 20
-1.999718724121869
 30
0.0
 10
21.22072198398393
 20
-1.966166412048325
 30
0.0
 10
21.97643543024449
 20
-1.843227330093869
 30
0.0
 10
22.45967245408911
 20
-1.688861402863807
 30
0.0
 10
22.671066284696
 20
-1.62133345475104
 30
0.0
  0
SPLINE
  5
BD
330
1F
100
AcDbEntity
  8
외형선
  6
Continuous
370
    15
100
AcDbSpline
210
0.0
220
0.0
230
1.0
 70
    24
 71
     3
 72
    12
 73
     8
 74
     0
 42
0.000000001
 43
0.00000001
 40
0.0
 40
0.0
 40
0.0
 40
0.0
 40
0.1948145632544954
 40
0.394788068606914
 40
0.5982182225756825
 40
0.8075478647908818
 40
1.0
 40
1.0
 40
1.0
 40
1.0
 10
13.36810364977728
 20
1.954244444132984
 30
0.0
 10
13.36810364977728
 20
1.891204770644505
 30
0.0
 10
13.36810364977728
 20
1.763456051419572
 30
0.0
 10
13.36810364977733
 20
1.569707968059106
 30
0.0
 10
13.36810364977729
 20
1.378386304373418
 30
0.0
 10
13.36810364977726
 20
1.199346193989767
 30
0.0
 10
13.36810364977729
 20
1.095494571176512
 30
0.0
 10
13.36810364977732
 20
1.045749989220931
 30
0.0
  0
SPLINE
  5
BE
330
1F
100
AcDbEntity
  8
0
  6
Continuous
 62
     1
370
    15
100
AcDbSpline
210
0.0
220
0.0
230
1.0
 70
     8
 71
     3
 72
    12
 73
     8
 74
     0
 42
0.000000001
 43
0.00000001
 40
0.0
 40
0.0
 40
0.0
 40
0.0
 40
0.2280063662526782
 40
0.4559795283964199
 40
0.6841092053803952
 40
0.9125828530384225
 40
1.0
 40
1.0
 40
1.0
 40
1.0
 10
13.36810364977685
 20
-1.711455177572927
 30
0.0
 10
13.66415714913507
 20
-1.78668703375899
 30
0.0
 10
14.2562210341753
 20
-1.937139790267078
 30
0.0
 10
15.14443563296083
 20
-2.005168393672036
 30
0.0
 10
16.03335302685439
 20
-1.941033150562173
 30
0.0
 10
16.74008684901185
 20
-1.806041986149062
 30
0.0
 10
17.15041402918624
 20
-1.659903626825606
 30
0.0
 10
17.26396476261241
 20
-1.61946244065845
 30
0.0
  0
SPLINE
  5
BF
330
1F
100
AcDbEntity
  8
외형선
  6
Continuous
370
    15
100
AcDbSpline
210
0.0
220
0.0
230
1.0
 70
    24
 71
     3
 72
    21
 73
    17
 74
     0
 42
0.000000001
 43
0.00000001
 40
0.0
 40
0.0
 40
0.0
 40
0.0
 40
0.0242203970694603
 40
0.0976511511508975
 40
0.173211402075249
 40
0.2466421561566875
 40
0.3222024070810399
 40
0.3956331611625795
 40
0.471193412086835
 40
0.5446241661681728
 40
0.6201844170924159
 40
0.6936151711739541
 40
0.769175422098415
 40
0.8426061761797305
 40
0.9181664271042088
 40
1.0
 40
1.0
 40
1.0
 40
1.0
 10
13.36810364977729
 20
0.3459324458426014
 30
0.0
 10
13.36810364977729
 20
0.3438474559154999
 30
0.0
 10
13.3681036497773
 20
0.335441249116512
 30
0.0
 10
13.36810364977733
 20
0.2873124164212854
 30
0.0
 10
13.36810364977726
 20
0.2023378988626283
 30
0.0
 10
13.36810364977728
 20
0.0848658771437544
 30
0.0
 10
13.36810364977733
 20
-0.0567783867623461
 30
0.0
 10
13.3681036497773
 20
-0.221909540612238
 30
0.0
 10
13.36810364977728
 20
-0.4026752002149072
 30
0.0
 10
13.36810364977732
 20
-0.5972646205985209
 30
0.0
 10
13.36810364977725
 20
-0.7966649871712929
 30
0.0
 10
13.3681036497773
 20
-0.9987796781689318
 30
0.0
 10
13.36810364977728
 20
-1.194418399745901
 30
0.0
 10
13.36810364977729
 20
-1.380931848906683
 30
0.0
 10
13.36810364977733
 20
-1.558506804509517
 30
0.0
 10
13.36810364977728
 20
-1.659135451621084
 30
0.0
 10
13.36810364977728
 20
-1.711455177573054
 30
0.0
  0
SPLINE
  5
C0
330
1F
100
AcDbEntity
  8
0
  6
Continuous
 62
     1
370
    15
100
AcDbSpline
210
0.0
220
0.0
230
1.0
 70
     8
 71
     3
 72
    12
 73
     8
 74
     0
 42
0.000000001
 43
0.00000001
 40
0.0
 40
0.0
 40
0.0
 40
0.0
 40
0.1630691999858565
 40
0.3725253116151447
 40
0.5814952041520264
 40
0.7904849311368484
 40
0.9999999999999999
 40
0.9999999999999999
 40
0.9999999999999999
 40
0.9999999999999999
 10
20.58549739603479
 20
1.975827619097599
 30
0.0
 10
20.7972780583925
 20
1.973155345830251
 30
0.0
 10
21.28108283112523
 20
1.967050640393993
 30
0.0
 10
22.03628999146035
 20
1.826814005834015
 30
0.0
 10
22.85056135634302
 20
1.585046504434422
 30
0.0
 10
23.66492375717901
 20
1.254391192903442
 30
0.0
 10
24.20848291208911
 20
0.979824423684066
 30
0.0
 10
24.48060364977729
 20
0.8423687096008576
 30
0.0
  0
LINE
  5
C1
330
1F
100
AcDbEntity
  8
0
  6
Continuous
 62
     1
370
    15
100
AcDbLine
 10
24.48060364977729
 20
0.1710988561532879
 30
0.0
 11
24.48060364977729
 21
0.8423687096008576
 31
0.0
  0
SPLINE
  5
C2
330
1F
100
AcDbEntity
  8
0
  6
Continuous
 62
     1
370
    15
100
AcDbSpline
210
0.0
220
0.0
230
1.0
 70
     8
 71
     3
 72
    10
 73
     6
 74
     0
 42
0.000000001
 43
0.00000001
 40
0.0
 40
0.0
 40
0.0
 40
0.0
 40
0.4919534389372707
 40
0.9831638105507133
 40
1.0
 40
1.0
 40
1.0
 40
1.0
 10
24.48060364977729
 20
1.985449928723897
 30
0.0
 10
24.18380163241076
 20
1.948519002006404
 30
0.0
 10
23.59064590002355
 20
1.889296623242344
 30
0.0
 10
22.98757416244757
 20
1.745969296045376
 30
0.0
 10
22.68121862174045
 20
1.62741218436487
 30
0.0
 10
22.671066284696
 20
1.623483312198827
 30
0.0
  0
LINE
  5
C3
330
1F
100
AcDbEntity
  8
0
  6
Continuous
 62
     1
370
    15
100
AcDbLine
 10
13.97865262531268
 20
-1.964505802571042
 30
0.0
 11
13.36810364977721
 21
-1.952094586682401
 31
0.0
  0
LINE
  5
C4
330
1F
100
AcDbEntity
  8
0
  6
Continuous
 62
     1
370
    15
100
AcDbLine
 10
24.48060364977729
 20
0.8375112517373473
 30
0.0
 11
24.48060364977729
 21
1.985449928723897
 31
0.0
  0
LINE
  5
C5
330
1F
100
AcDbEntity
  8
중심선
 48
0.8
100
AcDbLine
 10
-38.84439635022272
 20
0.0010749287238892
 30
0.0
 11
27.48060364977731
 21
0.0010749287238974
 31
0.0
  0
LINE
  5
C6
330
1F
100
AcDbEntity
  8
참조1
100
AcDbLine
 10
-5.681896350222704
 20
0.0010749287238892
 30
0.0
 11
-5.681896350222699
 21
-39.99892507127611
 31
0.0
  0
LINE
  5
C7
330
1F
100
AcDbEntity
  8
참조1
100
AcDbLine
 10
-5.681896350222699
 20
-39.99892507127611
 30
0.0
 11
-21.63450316453139
 21
-39.9989250712761
 31
0.0
  0
CIRCLE
  5
C8
330
1F
100
AcDbEntity
  8
해칭선
100
AcDbCircle
 10
0.0000000000000017
 20
0.0
 30
0.0
 40
3.0
  0
INSERT
  5
C9
330
1F
100
AcDbEntity
  8
0
  6
Continuous
 62
     7
100
AcDbBlockReference
 66
     1
  2
블럭10
 10
-19.62216928234791
 20
-52.04609937292004
 30
0.0
  0
ATTRIB
  5
CA
330
C9
100
AcDbEntity
  8
FORMAT
 62
     2
100
AcDbText
 10
-28.80346457108919
 20
-49.97073246008785
 30
0.0
 40
4.233333333333333
  1
E2031010 [ 4 FLUTE ]
 41
0.75
  7
SLDTEXTSTYLE0
 11
-28.80346457108919
 21
-52.08739912675452
 31
0.0
100
AcDbAttribute
  2
AUTOATTR0
 70
     0
 74
     1
  0
SEQEND
  5
CB
330
C9
100
AcDbEntity
  8
0
  6
Continuous
 62
     7
  0
HATCH
  5
CC
330
1F
100
AcDbEntity
  8
중심선
100
AcDbHatch
 10
0.0
 20
0.0
 30
0.0
210
0.0
220
0.0
230
1.0
  2
SOLID
 70
     1
 71
     0
 91
        1
 92
        0
 93
        4
 72
     1
 10
-13.90725997796707
 20
-35.7989250712761
 11
-17.35353522180436
 21
-35.7989250712761
 72
     1
 10
-17.35353522180436
 20
-35.7989250712761
 11
-19.48176508100838
 21
-38.3352506518487
 72
     1
 10
-19.48176508100838
 20
-38.3352506518487
 11
-16.03545675205795
 21
-38.33521122254621
 72
     1
 10
-16.03545675205795
 20
-38.33521122254621
 11
-13.90725997796707
 21
-35.7989250712761
 97
        0
 75
     0
 76
     1
 98
        1
 10
0.0
 20
0.0
  0
HATCH
  5
CD
330
1F
100
AcDbEntity
  8
중심선
100
AcDbHatch
 10
0.0
 20
0.0
 30
0.0
210
0.0
220
0.0
230
1.0
  2
SOLID
 70
     1
 71
     0
 91
        1
 92
        0
 93
        4
 72
     1
 10
-8.894495986931123
 20
-35.7989250712761
 11
-12.34077123076841
 21
-35.7989250712761
 72
     1
 10
-12.34077123076841
 20
-35.7989250712761
 11
-16.87190923912579
 21
-41.19892507127612
 72
     1
 10
-16.87190923912579
 20
-41.19892507127612
 11
-13.42563399528851
 21
-41.19892507127612
 72
     1
 10
-13.42563399528851
 20
-41.19892507127612
 11
-8.894495986931123
 21
-35.7989250712761
 97
        0
 75
     0
 76
     1
 98
        1
 10
0.0
 20
0.0
  0
HATCH
  5
CE
330
1F
100
AcDbEntity
  8
중심선
100
AcDbHatch
 10
0.0
 20
0.0
 30
0.0
210
0.0
220
0.0
230
1.0
  2
SOLID
 70
     1
 71
     0
 91
        1
 92
        0
 93
        4
 72
     1
 10
-3.881731995895227
 20
-35.79892507127613
 11
-7.328007239732315
 21
-35.79892507127608
 72
     1
 10
-7.328007239732315
 20
-35.79892507127608
 11
-14.37644414162159
 21
-44.19892507127612
 72
     1
 10
-14.37644414162159
 20
-44.19892507127612
 11
-10.93016889778431
 21
-44.19892507127612
 72
     1
 10
-10.93016889778431
 20
-44.19892507127612
 11
-3.881731995895227
 21
-35.79892507127613
 97
        0
 75
     0
 76
     1
 98
        1
 10
0.0
 20
0.0
  0
HATCH
  5
CF
330
1F
100
AcDbEntity
  8
중심선
100
AcDbHatch
 10
0.0
 20
0.0
 30
0.0
210
0.0
220
0.0
230
1.0
  2
SOLID
 70
     1
 71
     0
 91
        1
 92
        0
 93
        6
 72
     3
 10
0.9181584351169725
 20
-39.99892507132738
 11
3.960054785062284
 21
1.540850780301639E-10
 40
0.3939339440162633
 50
17.09539180608433
 51
320.0019657685075
 73
     0
 72
     1
 10
2.60115809081754
 20
-38.58681907591441
 11
4.906459964518605
 21
-36.65249236586649
 72
     3
 10
0.9181584350641259
 20
-39.99892507127625
 11
6.600054785286829
 21
-1.249000902703301E-13
 40
0.6363583540795982
 50
39.99873849337408
 51
368.4976242363725
 73
     1
 72
     1
 10
7.343490926964735
 20
-39.03892507120613
 11
-0.4017742580999517
 21
-39.0389250712061
 72
     1
 10
-0.4017742580999517
 20
-39.0389250712061
 11
-0.4017993025458855
 21
-40.95892507120602
 72
     1
 10
-0.4017993025458855
 20
-40.95892507120602
 11
4.039580466926152
 21
-40.95892507120599
 97
        0
 75
     0
 76
     1
 98
        1
 10
0.0
 20
0.0
  0
DIMENSION
  5
D0
330
1F
100
AcDbEntity
  8
치수문자_일반주서
100
AcDbDimension
  2
_D
 10
13.36810364977728
 20
14.67121592479094
 30
0.0
 11
-5.485896350222719
 21
14.67121592479094
 31
0.0
 70
   160
  1
<>
 71
     2
 42
11.11250000000001
  3
SLDDIMSTYLE2
100
AcDbAlignedDimension
 13
24.48060364977729
 23
1.985449928723897
 33
0.0
 14
13.36810364977728
 24
1.954244444132984
 34
0.0
100
AcDbRotatedDimension
1001
ACAD
1000
DSTYLE
1002
{
1070
   171
1070
     6
1070
   273
1070
     7
1002
}
  0
DIMENSION
  5
E5
330
1F
100
AcDbEntity
  8
치수문자_일반주서
100
AcDbDimension
  2
_D_1
 10
-35.84439635022271
 20
30.88019565503949
 30
0.0
 11
-5.681896350222714
 21
30.88019565503949
 31
0.0
 70
   160
  1
<>
 71
     2
 42
60.325
  3
SLDDIMSTYLE2
100
AcDbAlignedDimension
 13
24.48060364977729
 23
1.985449928723897
 33
0.0
 14
-35.84439635022271
 24
3.811074928723895
 34
0.0
 50
0.0000000000000067
100
AcDbRotatedDimension
1001
ACAD
1000
DSTYLE
1002
{
1070
   171
1070
     6
1070
   273
1070
     7
1002
}
  0
DIMENSION
  5
F8
330
1F
100
AcDbEntity
  8
치수문자_일반주서
100
AcDbDimension
  2
_D_2
 10
-47.14516918804989
 20
-4.761425071276156
 30
0.0
 11
-47.14516918804991
 21
0.0010749287238959
 31
0.0
 70
   160
  1
%%c<>
 71
     2
 42
9.525000000000006
 52
-270.0
  3
SLDDIMSTYLE2
100
AcDbAlignedDimension
 13
-34.89189635022272
 23
4.763574928723896
 33
0.0
 14
-34.89189635022272
 24
-4.761425071276109
 34
0.0
 50
90.0000000000002
100
AcDbRotatedDimension
1001
ACAD
1000
DSTYLE
1002
{
1070
   171
1070
     6
1070
   273
1070
     7
1002
}
  0
DIMENSION
  5
10D
330
1F
100
AcDbEntity
  8
치수문자_일반주서
100
AcDbDimension
  2
_D_3
 10
39.09000358946663
 20
-1.983300071276052
 30
0.0
 11
39.09000358946653
 21
23.02694992872396
 31
0.0
 70
   160
  1
%%c<>
 71
     2
 42
3.96875
 52
-270.0
  3
SLDDIMSTYLE2
100
AcDbAlignedDimension
 13
24.48060364977729
 23
1.985449928723897
 33
0.0
 14
24.48060364977729
 24
-1.983300071276103
 34
0.0
 50
90.0000000000002
100
AcDbRotatedDimension
1001
ACAD
1000
DSTYLE
1002
{
1070
   171
1070
     6
1070
   273
1070
     7
1002
}
  0
LINE
  5
121
330
1F
100
AcDbEntity
  8
참조1
100
AcDbLine
 10
76.33783746512287
 20
7.441074928723896
 30
0.0
 11
76.33783746512287
 21
-7.438925071276109
 31
0.0
  0
LINE
  5
122
330
1F
100
AcDbEntity
  8
참조1
100
AcDbLine
 10
89.03783746512288
 20
5.441074928723896
 30
0.0
 11
76.33783746512287
 21
5.441074928723896
 31
0.0
  0
SOLID
  5
123
330
1F
100
AcDbEntity
  8
참조1
100
AcDbTrace
 10
76.33783746512287
 20
5.441074928723896
 30
0.0
 11
82.68783746512287
 21
4.425074928723896
 31
0.0
 12
82.68783746512287
 22
6.457074928723896
 32
0.0
 13
82.68783746512287
 23
6.457074928723896
 33
0.0
  0
LINE
  5
124
330
1F
100
AcDbEntity
  8
참조1
100
AcDbLine
 10
89.03783746512288
 20
-5.438925071276109
 30
0.0
 11
76.33783746512287
 21
-5.438925071276109
 31
0.0
  0
SOLID
  5
125
330
1F
100
AcDbEntity
  8
참조1
100
AcDbTrace
 10
76.33783746512287
 20
-5.438925071276109
 30
0.0
 11
82.68783746512287
 21
-6.454925071276109
 31
0.0
 12
82.68783746512287
 22
-4.422925071276109
 32
0.0
 13
82.68783746512287
 23
-4.422925071276109
 33
0.0
  0
MTEXT
  5
126
330
1F
100
AcDbEntity
  8
참조1
100
AcDbMText
 10
85.72218759774887
 20
11.01136670591222
 30
0.0
 40
3.5
 41
0.0
 71
     1
 72
     1
  1
A
  7
SLDTEXTSTYLE0
 73
     1
 44
1.0
  0
MTEXT
  5
127
330
1F
100
AcDbEntity
  8
참조1
100
AcDbMText
 10
85.72218759774887
 20
0.1313667059122201
 30
0.0
 40
3.5
 41
0.0
 71
     1
 72
     1
  1
A
  7
SLDTEXTSTYLE0
 73
     1
 44
1.0
  0
INSERT
  5
12E
330
1F
100
AcDbEntity
  8
해칭선
100
AcDbBlockReference
  2
SW_DOWELSYMBOL_0
 10
0.0000000000000017
 20
0.0
 30
0.0
  0
LINE
  5
267
330
1F
100
AcDbEntity
  8
외형선
  6
Continuous
370
    15
100
AcDbLine
 10
-19.56934635022282
 20
3.493574928723923
 30
0.0
 11
-12.43194635022269
 21
3.493574928723923
 31
0.0
  0
LINE
  5
268
330
1F
100
AcDbEntity
  8
외형선
  6
Continuous
370
    15
100
AcDbLine
 10
-19.56934635022282
 20
3.493574928723923
 30
0.0
 11
-20.8393463502228
 21
4.763574928723905
 31
0.0
  0
LINE
  5
269
330
1F
100
AcDbEntity
  8
외형선
  6
Continuous
370
    15
100
AcDbLine
 10
-12.43194635022269
 20
3.493574928723923
 30
0.0
 11
-11.16194635022259
 21
4.763574928723905
 31
0.0
  0
LINE
  5
2A4
330
1F
100
AcDbEntity
  8
외형선
  6
Continuous
370
    15
100
AcDbLine
 10
-20.83934635022279
 20
4.763574928723895
 30
0.0
 11
-34.89189635022272
 21
4.763574928723895
 31
0.0
  0
ENDSEC
  0
SECTION
  2
OBJECTS
  0
DICTIONARY
  5
C
330
0
100
AcDbDictionary
281
     1
  3
ACAD_GROUP
350
D
  3
ACAD_IMAGE_VARS
350
152
  3
ACAD_LAYOUT
350
1A
  3
ACAD_MLINESTYLE
350
17
  3
ACAD_PLOTSETTINGS
350
19
  3
ACAD_PLOTSTYLENAME
350
E
  3
ACAD_SCALELIST
350
47
  3
APPDATA
350
150
  3
DWGPROPS
350
2A7
  0
DICTIONARY
  5
1F5
330
2
100
AcDbDictionary
280
     1
281
     1
  3
ACAD_LAYERSTATES
360
1F6
  0
DICTIONARY
  5
D
102
{ACAD_REACTORS
330
C
102
}
330
C
100
AcDbDictionary
281
     1
  0
RASTERVARIABLES
  5
152
102
{ACAD_REACTORS
330
C
102
}
330
C
100
AcDbRasterVariables
 90
        0
 70
     1
 71
     1
 72
     1
  0
DICTIONARY
  5
1A
102
{ACAD_REACTORS
330
C
102
}
330
C
100
AcDbDictionary
281
     1
  3
Layout1
350
1E
  3
Layout2
350
26
  3
Model
350
22
  0
DICTIONARY
  5
17
102
{ACAD_REACTORS
330
C
102
}
330
C
100
AcDbDictionary
281
     1
  3
Standard
350
18
  0
DICTIONARY
  5
19
102
{ACAD_REACTORS
330
C
102
}
330
C
100
AcDbDictionary
281
     1
  0
ACDBDICTIONARYWDFLT
  5
E
102
{ACAD_REACTORS
330
C
102
}
330
C
100
AcDbDictionary
281
     1
  3
Normal
350
F
100
AcDbDictionaryWithDefault
340
F
  0
DICTIONARY
  5
47
102
{ACAD_REACTORS
330
C
102
}
330
C
100
AcDbDictionary
281
     1
  3
A0
350
48
  3
A1
350
49
  3
A2
350
4A
  3
A3
350
4B
  3
A4
350
4C
  3
A5
350
4D
  3
A6
350
4E
  3
A7
350
4F
  3
A8
350
50
  3
A9
350
51
  3
B0
350
52
  3
B1
350
53
  3
B2
350
54
  3
B3
350
55
  3
B4
350
56
  3
B5
350
57
  3
B6
350
58
  3
B7
350
59
  3
B8
350
5A
  3
B9
350
5B
  3
C0
350
5C
  3
C1
350
5D
  3
C2
350
5E
  3
C3
350
5F
  3
C4
350
60
  3
C5
350
61
  3
C6
350
62
  3
C7
350
63
  3
C8
350
64
  3
C9
350
65
  3
D0
350
66
  3
D1
350
67
  3
D2
350
68
  0
DICTIONARY
  5
150
102
{ACAD_REACTORS
330
C
102
}
330
C
100
AcDbDictionary
281
     1
  0
XRECORD
  5
2A7
102
{ACAD_REACTORS
330
C
102
}
330
C
100
AcDbXrecord
280
     1
  1
DWGPROPS COOKIE
  2

  3

  4

  6

  7

  8
12017012
  9

300
=
301
=
302
=
303
=
304
=
305
=
306
=
307
=
308
=
309
=
 40
0.0
 41
2458312.291149919
 42
2458320.238063599
  1

 90
        0
  0
DICTIONARY
  5
1F6
102
{ACAD_REACTORS
330
1F5
102
}
330
1F5
100
AcDbDictionary
281
     1
  0
LAYOUT
  5
1E
102
{ACAD_REACTORS
330
1A
102
}
330
1A
100
AcDbPlotSettings
  1

  2
none_device
  4

  6

 40
0.0
 41
0.0
 42
0.0
 43
0.0
 44
0.0
 45
0.0
 46
0.0
 47
0.0
 48
0.0
 49
0.0
140
0.0
141
0.0
142
1.0
143
1.0
 70
   688
 72
     1
 73
     0
 74
     5
  7

 75
    16
147
1.0
148
0.0
149
0.0
100
AcDbLayout
  1
Layout1
 70
     1
 71
     1
 10
0.0
 20
0.0
 11
420.0
 21
297.0
 12
0.0
 22
0.0
 32
0.0
 14
1.000000000000000E+20
 24
1.000000000000000E+20
 34
1.000000000000000E+20
 15
-1.000000000000000E+20
 25
-1.000000000000000E+20
 35
-1.000000000000000E+20
146
0.0
 13
0.0
 23
0.0
 33
0.0
 16
1.0
 26
0.0
 36
0.0
 17
0.0
 27
1.0
 37
0.0
 76
     0
330
1B
  0
LAYOUT
  5
26
102
{ACAD_REACTORS
330
1A
102
}
330
1A
100
AcDbPlotSettings
  1

  2
none_device
  4

  6

 40
0.0
 41
0.0
 42
0.0
 43
0.0
 44
0.0
 45
0.0
 46
0.0
 47
0.0
 48
0.0
 49
0.0
140
0.0
141
0.0
142
1.0
143
1.0
 70
   688
 72
     1
 73
     0
 74
     5
  7

 75
    16
147
1.0
148
0.0
149
0.0
100
AcDbLayout
  1
Layout2
 70
     1
 71
     2
 10
0.0
 20
0.0
 11
0.0
 21
0.0
 12
0.0
 22
0.0
 32
0.0
 14
0.0
 24
0.0
 34
0.0
 15
0.0
 25
0.0
 35
0.0
146
0.0
 13
0.0
 23
0.0
 33
0.0
 16
1.0
 26
0.0
 36
0.0
 17
0.0
 27
1.0
 37
0.0
 76
     0
330
23
  0
LAYOUT
  5
22
102
{ACAD_REACTORS
330
1A
102
}
330
1A
100
AcDbPlotSettings
  1

  2
none_device
  4
ANSI_A_(11.00_x_8.50_Inches)
  6

 40
6.35
 41
19.05
 42
6.35000508
 43
19.05000254
 44
279.4
 45
215.9
 46
104.0853757014623
 47
97.40808328111103
 48
0.0
 49
0.0
140
0.0
141
0.0
142
0.0740937858640012
143
1.0
 70
  1696
 72
     0
 73
     0
 74
     0
  7

 75
     0
147
0.0235690232323232
148
0.0
149
0.0
100
AcDbLayout
  1
Model
 70
     1
 71
     0
 10
0.0
 20
0.0
 11
420.0
 21
297.0
 12
0.0
 22
0.0
 32
0.0
 14
1.000000000000000E+20
 24
1.000000000000000E+20
 34
1.000000000000000E+20
 15
-1.000000000000000E+20
 25
-1.000000000000000E+20
 35
-1.000000000000000E+20
146
0.0
 13
0.0
 23
0.0
 33
0.0
 16
1.0
 26
0.0
 36
0.0
 17
0.0
 27
1.0
 37
0.0
 76
     0
330
1F
331
29
  0
MLINESTYLE
  5
18
102
{ACAD_REACTORS
330
17
102
}
330
17
100
AcDbMlineStyle
  2
Standard
 70
     0
  3

 62
   256
 51
90.0
 52
90.0
 71
     2
 49
0.5
 62
   256
  6
BYLAYER
 49
-0.5
 62
   256
  6
BYLAYER
  0
ACDBPLACEHOLDER
  5
F
102
{ACAD_REACTORS
330
E
102
}
330
E
  0
SCALE
  5
48
102
{ACAD_REACTORS
330
47
102
}
330
47
100
AcDbScale
 70
     0
300
1:1
140
1.0
141
1.0
290
     1
  0
SCALE
  5
49
102
{ACAD_REACTORS
330
47
102
}
330
47
100
AcDbScale
 70
     0
300
1:2
140
1.0
141
2.0
290
     0
  0
SCALE
  5
4A
102
{ACAD_REACTORS
330
47
102
}
330
47
100
AcDbScale
 70
     0
300
1:4
140
1.0
141
4.0
290
     0
  0
SCALE
  5
4B
102
{ACAD_REACTORS
330
47
102
}
330
47
100
AcDbScale
 70
     0
300
1:5
140
1.0
141
5.0
290
     0
  0
SCALE
  5
4C
102
{ACAD_REACTORS
330
47
102
}
330
47
100
AcDbScale
 70
     0
300
1:8
140
1.0
141
8.0
290
     0
  0
SCALE
  5
4D
102
{ACAD_REACTORS
330
47
102
}
330
47
100
AcDbScale
 70
     0
300
1:10
140
1.0
141
10.0
290
     0
  0
SCALE
  5
4E
102
{ACAD_REACTORS
330
47
102
}
330
47
100
AcDbScale
 70
     0
300
1:16
140
1.0
141
16.0
290
     0
  0
SCALE
  5
4F
102
{ACAD_REACTORS
330
47
102
}
330
47
100
AcDbScale
 70
     0
300
1:20
140
1.0
141
20.0
290
     0
  0
SCALE
  5
50
102
{ACAD_REACTORS
330
47
102
}
330
47
100
AcDbScale
 70
     0
300
1:30
140
1.0
141
30.0
290
     0
  0
SCALE
  5
51
102
{ACAD_REACTORS
330
47
102
}
330
47
100
AcDbScale
 70
     0
300
1:40
140
1.0
141
40.0
290
     0
  0
SCALE
  5
52
102
{ACAD_REACTORS
330
47
102
}
330
47
100
AcDbScale
 70
     0
300
1:50
140
1.0
141
50.0
290
     0
  0
SCALE
  5
53
102
{ACAD_REACTORS
330
47
102
}
330
47
100
AcDbScale
 70
     0
300
1:100
140
1.0
141
100.0
290
     0
  0
SCALE
  5
54
102
{ACAD_REACTORS
330
47
102
}
330
47
100
AcDbScale
 70
     0
300
2:1
140
2.0
141
1.0
290
     0
  0
SCALE
  5
55
102
{ACAD_REACTORS
330
47
102
}
330
47
100
AcDbScale
 70
     0
300
4:1
140
4.0
141
1.0
290
     0
  0
SCALE
  5
56
102
{ACAD_REACTORS
330
47
102
}
330
47
100
AcDbScale
 70
     0
300
8:1
140
8.0
141
1.0
290
     0
  0
SCALE
  5
57
102
{ACAD_REACTORS
330
47
102
}
330
47
100
AcDbScale
 70
     0
300
10:1
140
10.0
141
1.0
290
     0
  0
SCALE
  5
58
102
{ACAD_REACTORS
330
47
102
}
330
47
100
AcDbScale
 70
     0
300
100:1
140
100.0
141
1.0
290
     0
  0
SCALE
  5
59
102
{ACAD_REACTORS
330
47
102
}
330
47
100
AcDbScale
 70
     0
300
1/128" = 1'-0"
140
0.0078125
141
12.0
290
     0
  0
SCALE
  5
5A
102
{ACAD_REACTORS
330
47
102
}
330
47
100
AcDbScale
 70
     0
300
1/64" = 1'-0"
140
0.015625
141
12.0
290
     0
  0
SCALE
  5
5B
102
{ACAD_REACTORS
330
47
102
}
330
47
100
AcDbScale
 70
     0
300
1/32" = 1'-0"
140
0.03125
141
12.0
290
     0
  0
SCALE
  5
5C
102
{ACAD_REACTORS
330
47
102
}
330
47
100
AcDbScale
 70
     0
300
1/16" = 1'-0"
140
0.0625
141
12.0
290
     0
  0
SCALE
  5
5D
102
{ACAD_REACTORS
330
47
102
}
330
47
100
AcDbScale
 70
     0
300
3/32" = 1'-0"
140
0.09375
141
12.0
290
     0
  0
SCALE
  5
5E
102
{ACAD_REACTORS
330
47
102
}
330
47
100
AcDbScale
 70
     0
300
1/8" = 1'-0"
140
0.125
141
12.0
290
     0
  0
SCALE
  5
5F
102
{ACAD_REACTORS
330
47
102
}
330
47
100
AcDbScale
 70
     0
300
3/16" = 1'-0"
140
0.1875
141
12.0
290
     0
  0
SCALE
  5
60
102
{ACAD_REACTORS
330
47
102
}
330
47
100
AcDbScale
 70
     0
300
1/4" = 1'-0"
140
0.25
141
12.0
290
     0
  0
SCALE
  5
61
102
{ACAD_REACTORS
330
47
102
}
330
47
100
AcDbScale
 70
     0
300
3/8" = 1'-0"
140
0.375
141
12.0
290
     0
  0
SCALE
  5
62
102
{ACAD_REACTORS
330
47
102
}
330
47
100
AcDbScale
 70
     0
300
1/2" = 1'-0"
140
0.5
141
12.0
290
     0
  0
SCALE
  5
63
102
{ACAD_REACTORS
330
47
102
}
330
47
100
AcDbScale
 70
     0
300
3/4" = 1'-0"
140
0.75
141
12.0
290
     0
  0
SCALE
  5
64
102
{ACAD_REACTORS
330
47
102
}
330
47
100
AcDbScale
 70
     0
300
1" = 1'-0"
140
1.0
141
12.0
290
     0
  0
SCALE
  5
65
102
{ACAD_REACTORS
330
47
102
}
330
47
100
AcDbScale
 70
     0
300
1-1/2" = 1'-0"
140
1.5
141
12.0
290
     0
  0
SCALE
  5
66
102
{ACAD_REACTORS
330
47
102
}
330
47
100
AcDbScale
 70
     0
300
3" = 1'-0"
140
3.0
141
12.0
290
     0
  0
SCALE
  5
67
102
{ACAD_REACTORS
330
47
102
}
330
47
100
AcDbScale
 70
     0
300
6" = 1'-0"
140
6.0
141
12.0
290
     0
  0
SCALE
  5
68
102
{ACAD_REACTORS
330
47
102
}
330
47
100
AcDbScale
 70
     0
300
1'-0" = 1'-0"
140
12.0
141
12.0
290
     0
  0
ENDSEC
  0
EOF
