  0
SECTION
  2
HEADER
  9
$ACADVER
  1
AC1015
  9
$ACADMAINTVER
 70
     6
  9
$DWGCODEPAGE
  3
ANSI_949
  9
$INSBASE
 10
0.0
 20
0.0
 30
0.0
  9
$EXTMIN
 10
1.000000000000000E+20
 20
1.000000000000000E+20
 30
1.000000000000000E+20
  9
$EXTMAX
 10
-1.000000000000000E+20
 20
-1.000000000000000E+20
 30
-1.000000000000000E+20
  9
$LIMMIN
 10
0.0
 20
0.0
  9
$LIMMAX
 10
420.0
 20
297.0
  9
$ORTHOMODE
 70
     0
  9
$REGENMODE
 70
     1
  9
$FILLMODE
 70
     1
  9
$QTEXTMODE
 70
     0
  9
$MIRRTEXT
 70
     1
  9
$LTSCALE
 40
1.0
  9
$ATTMODE
 70
     1
  9
$TEXTSIZE
 40
3.5
  9
$TRACEWID
 40
1.0
  9
$TEXTSTYLE
  7
Standard
  9
$CLAYER
  8
0
  9
$CELTYPE
  6
ByLayer
  9
$CECOLOR
 62
   256
  9
$CELTSCALE
 40
1.0
  9
$DISPSILH
 70
     0
  9
$DIMSCALE
 40
1.0
  9
$DIMASZ
 40
3.302
  9
$DIMEXO
 40
1.0
  9
$DIMDLI
 40
3.75
  9
$DIMRND
 40
0.0
  9
$DIMDLE
 40
0.0
  9
$DIMEXE
 40
1.0
  9
$DIMTP
 40
0.0
  9
$DIMTM
 40
0.0
  9
$DIMTXT
 40
3.5
  9
$DIMCEN
 40
2.5
  9
$DIMTSZ
 40
0.0
  9
$DIMTOL
 70
     0
  9
$DIMLIM
 70
     0
  9
$DIMTIH
 70
     1
  9
$DIMTOH
 70
     1
  9
$DIMSE1
 70
     0
  9
$DIMSE2
 70
     0
  9
$DIMTAD
 70
     1
  9
$DIMZIN
 70
     0
  9
$DIMBLK
  1

  9
$DIMASO
 70
     1
  9
$DIMSHO
 70
     1
  9
$DIMPOST
  1

  9
$DIMAPOST
  1

  9
$DIMALT
 70
     0
  9
$DIMALTD
 70
     3
  9
$DIMALTF
 40
0.0393700787401575
  9
$DIMLFAC
 40
1.0
  9
$DIMTOFL
 70
     1
  9
$DIMTVP
 40
0.0
  9
$DIMTIX
 70
     0
  9
$DIMSOXD
 70
     0
  9
$DIMSAH
 70
     0
  9
$DIMBLK1
  1

  9
$DIMBLK2
  1

  9
$DIMSTYLE
  2
ISO-25
  9
$DIMCLRD
 70
     0
  9
$DIMCLRE
 70
     0
  9
$DIMCLRT
 70
     0
  9
$DIMTFAC
 40
1.0
  9
$DIMGAP
 40
1.524
  9
$DIMJUST
 70
     0
  9
$DIMSD1
 70
     0
  9
$DIMSD2
 70
     0
  9
$DIMTOLJ
 70
     0
  9
$DIMTZIN
 70
     0
  9
$DIMALTZ
 70
     0
  9
$DIMALTTZ
 70
     0
  9
$DIMUPT
 70
     0
  9
$DIMDEC
 70
     2
  9
$DIMTDEC
 70
     2
  9
$DIMALTU
 70
     2
  9
$DIMALTTD
 70
     3
  9
$DIMTXSTY
  7
Standard
  9
$DIMAUNIT
 70
     0
  9
$DIMADEC
 70
     2
  9
$DIMALTRND
 40
0.0
  9
$DIMAZIN
 70
     0
  9
$DIMDSEP
 70
    44
  9
$DIMATFIT
 70
     3
  9
$DIMFRAC
 70
     0
  9
$DIMLDRBLK
  1

  9
$DIMLUNIT
 70
     2
  9
$DIMLWD
 70
    -2
  9
$DIMLWE
 70
    -2
  9
$DIMTMOVE
 70
     0
  9
$LUNITS
 70
     2
  9
$LUPREC
 70
     2
  9
$SKETCHINC
 40
1.0
  9
$FILLETRAD
 40
10.0
  9
$AUNITS
 70
     0
  9
$AUPREC
 70
     2
  9
$MENU
  1
.
  9
$ELEVATION
 40
0.0
  9
$PELEVATION
 40
0.0
  9
$THICKNESS
 40
0.0
  9
$LIMCHECK
 70
     0
  9
$CHAMFERA
 40
0.0
  9
$CHAMFERB
 40
0.0
  9
$CHAMFERC
 40
0.0
  9
$CHAMFERD
 40
0.0
  9
$SKPOLY
 70
     0
  9
$TDCREATE
 40
2458312.666573322
  9
$TDUCREATE
 40
2458312.291573322
  9
$TDUPDATE
 40
2458320.610922928
  9
$TDUUPDATE
 40
2458320.235922928
  9
$TDINDWG
 40
0.0013058681
  9
$TDUSRTIMER
 40
2458320.234617627
  9
$USRTIMER
 70
     1
  9
$ANGBASE
 50
0.0
  9
$ANGDIR
 70
     0
  9
$PDMODE
 70
     0
  9
$PDSIZE
 40
-1.0
  9
$PLINEWID
 40
0.0
  9
$SPLFRAME
 70
     0
  9
$SPLINETYPE
 70
     6
  9
$SPLINESEGS
 70
     8
  9
$HANDSEED
  5
2A5
  9
$SURFTAB1
 70
     6
  9
$SURFTAB2
 70
     6
  9
$SURFTYPE
 70
     6
  9
$SURFU
 70
     6
  9
$SURFV
 70
     6
  9
$UCSBASE
  2

  9
$UCSNAME
  2

  9
$UCSORG
 10
0.0
 20
0.0
 30
0.0
  9
$UCSXDIR
 10
1.0
 20
0.0
 30
0.0
  9
$UCSYDIR
 10
0.0
 20
1.0
 30
0.0
  9
$UCSORTHOREF
  2

  9
$UCSORTHOVIEW
 70
     0
  9
$UCSORGTOP
 10
0.0
 20
0.0
 30
0.0
  9
$UCSORGBOTTOM
 10
0.0
 20
0.0
 30
0.0
  9
$UCSORGLEFT
 10
0.0
 20
0.0
 30
0.0
  9
$UCSORGRIGHT
 10
0.0
 20
0.0
 30
0.0
  9
$UCSORGFRONT
 10
0.0
 20
0.0
 30
0.0
  9
$UCSORGBACK
 10
0.0
 20
0.0
 30
0.0
  9
$PUCSBASE
  2

  9
$PUCSNAME
  2

  9
$PUCSORG
 10
0.0
 20
0.0
 30
0.0
  9
$PUCSXDIR
 10
1.0
 20
0.0
 30
0.0
  9
$PUCSYDIR
 10
0.0
 20
1.0
 30
0.0
  9
$PUCSORTHOREF
  2

  9
$PUCSORTHOVIEW
 70
     0
  9
$PUCSORGTOP
 10
0.0
 20
0.0
 30
0.0
  9
$PUCSORGBOTTOM
 10
0.0
 20
0.0
 30
0.0
  9
$PUCSORGLEFT
 10
0.0
 20
0.0
 30
0.0
  9
$PUCSORGRIGHT
 10
0.0
 20
0.0
 30
0.0
  9
$PUCSORGFRONT
 10
0.0
 20
0.0
 30
0.0
  9
$PUCSORGBACK
 10
0.0
 20
0.0
 30
0.0
  9
$USERI1
 70
     0
  9
$USERI2
 70
     0
  9
$USERI3
 70
     0
  9
$USERI4
 70
     0
  9
$USERI5
 70
     0
  9
$USERR1
 40
0.0
  9
$USERR2
 40
0.0
  9
$USERR3
 40
0.0
  9
$USERR4
 40
0.0
  9
$USERR5
 40
0.0
  9
$WORLDVIEW
 70
     1
  9
$SHADEDGE
 70
     3
  9
$SHADEDIF
 70
    70
  9
$TILEMODE
 70
     1
  9
$MAXACTVP
 70
    64
  9
$PINSBASE
 10
0.0
 20
0.0
 30
0.0
  9
$PLIMCHECK
 70
     0
  9
$PEXTMIN
 10
1.000000000000000E+20
 20
1.000000000000000E+20
 30
1.000000000000000E+20
  9
$PEXTMAX
 10
-1.000000000000000E+20
 20
-1.000000000000000E+20
 30
-1.000000000000000E+20
  9
$PLIMMIN
 10
0.0
 20
0.0
  9
$PLIMMAX
 10
0.0
 20
0.0
  9
$UNITMODE
 70
     0
  9
$VISRETAIN
 70
     1
  9
$PLINEGEN
 70
     0
  9
$PSLTSCALE
 70
     1
  9
$TREEDEPTH
 70
  3020
  9
$CMLSTYLE
  2
Standard
  9
$CMLJUST
 70
     0
  9
$CMLSCALE
 40
20.0
  9
$PROXYGRAPHICS
 70
     1
  9
$MEASUREMENT
 70
     1
  9
$CELWEIGHT
370
    -1
  9
$ENDCAPS
280
     0
  9
$JOINSTYLE
280
     0
  9
$LWDISPLAY
290
     1
  9
$INSUNITS
 70
     4
  9
$HYPERLINKBASE
  1

  9
$STYLESHEET
  1

  9
$XEDIT
290
     1
  9
$CEPSNTYPE
380
     0
  9
$PSTYLEMODE
290
     1
  9
$FINGERPRINTGUID
  2
{C67721ED-5535-4F2C-8E21-33B2AB19D1A8}
  9
$VERSIONGUID
  2
{FAEB1C32-E019-11D5-929B-00C0DF256EC4}
  9
$EXTNAMES
290
     1
  9
$PSVPSCALE
 40
0.0
  9
$OLESTARTUP
290
     0
  0
ENDSEC
  0
SECTION
  2
CLASSES
  0
CLASS
  1
ACDBDICTIONARYWDFLT
  2
AcDbDictionaryWithDefault
  3
ObjectDBX Classes
 90
        0
280
     0
281
     0
  0
CLASS
  1
VISUALSTYLE
  2
AcDbVisualStyle
  3
ObjectDBX Classes
 90
     4095
280
     0
281
     0
  0
CLASS
  1
MATERIAL
  2
AcDbMaterial
  3
ObjectDBX Classes
 90
     1153
280
     0
281
     0
  0
CLASS
  1
SCALE
  2
AcDbScale
  3
ObjectDBX Classes
 90
     1153
280
     0
281
     0
  0
CLASS
  1
SUN
  2
AcDbSun
  3
SCENEOE
 90
     1153
280
     0
281
     0
  0
CLASS
  1
ACDBPLACEHOLDER
  2
AcDbPlaceHolder
  3
ObjectDBX Classes
 90
        0
280
     0
281
     0
  0
CLASS
  1
LAYOUT
  2
AcDbLayout
  3
ObjectDBX Classes
 90
        0
280
     0
281
     0
  0
CLASS
  1
TABLESTYLE
  2
AcDbTableStyle
  3
ObjectDBX Classes
 90
     4095
280
     0
281
     0
  0
CLASS
  1
MLEADERSTYLE
  2
AcDbMLeaderStyle
  3
ACDB_MLEADERSTYLE_CLASS
 90
     4095
280
     0
281
     0
  0
CLASS
  1
RASTERVARIABLES
  2
AcDbRasterVariables
  3
ISM
 90
        0
280
     0
281
     0
  0
ENDSEC
  0
SECTION
  2
TABLES
  0
TABLE
  2
VPORT
  5
8
330
0
100
AcDbSymbolTable
 70
     1
  0
VPORT
  5
29
330
8
100
AcDbSymbolTableRecord
100
AcDbViewportTableRecord
  2
*Active
 70
     0
 10
0.0
 20
0.0
 11
1.0
 21
1.0
 12
-7.548553834304997
 22
-15.07856709685766
 13
0.0
 23
0.0
 14
10.0
 24
10.0
 15
10.0
 25
10.0
 16
0.0
 26
0.0
 36
1.0
 17
0.0
 27
0.0
 37
0.0
 40
120.0487623335956
 41
1.632093933463796
 42
50.0
 43
0.0
 44
0.0
 50
0.0
 51
0.0
 71
    16
 72
  2000
 73
     1
 74
     3
 75
     0
 76
     0
 77
     0
 78
     0
281
     0
 65
     1
110
0.0
120
0.0
130
0.0
111
1.0
121
0.0
131
0.0
112
0.0
122
1.0
132
0.0
 79
     0
146
0.0
  0
ENDTAB
  0
TABLE
  2
LTYPE
  5
5
330
0
100
AcDbSymbolTable
 70
     6
  0
LTYPE
  5
14
330
5
100
AcDbSymbolTableRecord
100
AcDbLinetypeTableRecord
  2
ByBlock
 70
     0
  3

 72
    65
 73
     0
 40
0.0
  0
LTYPE
  5
15
330
5
100
AcDbSymbolTableRecord
100
AcDbLinetypeTableRecord
  2
ByLayer
 70
     0
  3

 72
    65
 73
     0
 40
0.0
  0
LTYPE
  5
16
330
5
100
AcDbSymbolTableRecord
100
AcDbLinetypeTableRecord
  2
Continuous
 70
     0
  3
Solid line
 72
    65
 73
     0
 40
0.0
  0
LTYPE
  5
6A
330
5
100
AcDbSymbolTableRecord
100
AcDbLinetypeTableRecord
  2
HIDDEN
 70
     0
  3
Hidden __ __ __ __ __ __ __ __ __ __ __ __ __ __
 72
    65
 73
     2
 40
1.905
 49
1.27
 74
     0
 49
-0.635
 74
     0
  0
LTYPE
  5
6B
330
5
100
AcDbSymbolTableRecord
100
AcDbLinetypeTableRecord
  2
PHANTOM
 70
     0
  3
Phantom ______  __  __  ______  __  __  ______
 72
    65
 73
     6
 40
12.7
 49
6.35
 74
     0
 49
-1.27
 74
     0
 49
1.27
 74
     0
 49
-1.27
 74
     0
 49
1.27
 74
     0
 49
-1.27
 74
     0
  0
LTYPE
  5
6C
330
5
100
AcDbSymbolTableRecord
100
AcDbLinetypeTableRecord
  2
CENTER
 70
     0
  3
Center ____ _ ____ _ ____ _ ____ _ ____ _ ____
 72
    65
 73
     4
 40
10.16
 49
6.35
 74
     0
 49
-1.27
 74
     0
 49
1.27
 74
     0
 49
-1.27
 74
     0
  0
LTYPE
  5
6D
330
5
100
AcDbSymbolTableRecord
100
AcDbLinetypeTableRecord
  2
CENTERX2
 70
     0
  3
Center (2x) ________  __  ________  __  _____
 72
    65
 73
     4
 40
20.32
 49
12.7
 74
     0
 49
-2.54
 74
     0
 49
2.54
 74
     0
 49
-2.54
 74
     0
  0
LTYPE
  5
6E
330
5
100
AcDbSymbolTableRecord
100
AcDbLinetypeTableRecord
  2
DOT2
 70
     0
  3
Dot (.5x) ........................................
 72
    65
 73
     2
 40
0.635
 49
0.0
 74
     0
 49
-0.635
 74
     0
  0
ENDTAB
  0
TABLE
  2
LAYER
  5
2
102
{ACAD_XDICTIONARY
360
1F4
102
}
330
0
100
AcDbSymbolTable
 70
    18
  0
LAYER
  5
10
330
2
100
AcDbSymbolTableRecord
100
AcDbLayerTableRecord
  2
0
 70
     0
 62
     7
  6
Continuous
370
    -3
390
F
  0
LAYER
  5
6F
330
2
100
AcDbSymbolTableRecord
100
AcDbLayerTableRecord
  2
FORMAT
 70
     0
 62
     2
  6
Continuous
370
    -3
390
F
  0
LAYER
  5
70
330
2
100
AcDbSymbolTableRecord
100
AcDbLayerTableRecord
  2
외형선
 70
     0
 62
     4
  6
Continuous
370
    30
390
F
  0
LAYER
  5
71
330
2
100
AcDbSymbolTableRecord
100
AcDbLayerTableRecord
  2
숨은선
 70
     0
 62
     2
  6
HIDDEN
370
    15
390
F
  0
LAYER
  5
72
330
2
100
AcDbSymbolTableRecord
100
AcDbLayerTableRecord
  2
중심선
 70
     0
 62
     1
  6
CENTERX2
370
    -3
390
F
  0
LAYER
  5
73
330
2
100
AcDbSymbolTableRecord
100
AcDbLayerTableRecord
  2
파단선
 70
     0
 62
     4
  6
Continuous
370
    -3
390
F
  0
LAYER
  5
74
330
2
100
AcDbSymbolTableRecord
100
AcDbLayerTableRecord
  2
해칭선
 70
     0
 62
   100
  6
Continuous
370
    -3
390
F
  0
LAYER
  5
75
330
2
100
AcDbSymbolTableRecord
100
AcDbLayerTableRecord
  2
가는실선
 70
     0
 62
     4
  6
Continuous
370
    -3
390
F
  0
LAYER
  5
76
330
2
100
AcDbSymbolTableRecord
100
AcDbLayerTableRecord
  2
치수_보조선
 70
     0
 62
     4
  6
Continuous
370
    -3
390
F
  0
LAYER
  5
77
330
2
100
AcDbSymbolTableRecord
100
AcDbLayerTableRecord
  2
치수문자_일반주서
 70
     0
 62
     7
  6
Continuous
370
    15
390
F
  0
LAYER
  5
78
330
2
100
AcDbSymbolTableRecord
100
AcDbLayerTableRecord
  2
개별주서
 70
     0
 62
   100
  6
Continuous
370
    30
390
F
  0
LAYER
  5
79
330
2
100
AcDbSymbolTableRecord
100
AcDbLayerTableRecord
  2
중간선
 70
     0
 62
     2
  6
Continuous
370
    15
390
F
  0
LAYER
  5
7A
330
2
100
AcDbSymbolTableRecord
100
AcDbLayerTableRecord
  2
윤곽선
 70
     0
 62
     3
  6
Continuous
370
    40
390
F
  0
LAYER
  5
7B
330
2
100
AcDbSymbolTableRecord
100
AcDbLayerTableRecord
  2
중심마크
 70
     0
 62
   100
  6
Continuous
370
    30
390
F
  0
LAYER
  5
7C
330
2
100
AcDbSymbolTableRecord
100
AcDbLayerTableRecord
  2
가상선
 70
     0
 62
     4
  6
PHANTOM
370
    -3
390
F
  0
LAYER
  5
7D
330
2
100
AcDbSymbolTableRecord
100
AcDbLayerTableRecord
  2
특수지정선
 70
     0
 62
     5
  6
CENTERX2
370
    60
390
F
  0
LAYER
  5
7E
330
2
100
AcDbSymbolTableRecord
100
AcDbLayerTableRecord
  2
참조1
 70
     0
 62
    -4
  6
Continuous
370
    -3
390
F
  0
LAYER
  5
155
330
2
100
AcDbSymbolTableRecord
100
AcDbLayerTableRecord
  2
Defpoints
 70
     0
 62
     7
  6
Continuous
290
     0
370
    -3
390
F
  0
ENDTAB
  0
TABLE
  2
STYLE
  5
3
330
0
100
AcDbSymbolTable
 70
     2
  0
STYLE
  5
11
330
3
100
AcDbSymbolTableRecord
100
AcDbTextStyleTableRecord
  2
Standard
 70
     0
 40
0.0
 41
1.0
 50
0.0
 71
     0
 42
3.5
  3
txt
  4

  0
STYLE
  5
94
330
3
100
AcDbSymbolTableRecord
100
AcDbTextStyleTableRecord
  2
SLDTEXTSTYLE0
 70
     0
 40
0.0
 41
0.75
 50
0.0
 71
     0
 42
3.5
  3
TXT
  4

  0
ENDTAB
  0
TABLE
  2
VIEW
  5
6
330
0
100
AcDbSymbolTable
 70
     0
  0
ENDTAB
  0
TABLE
  2
UCS
  5
7
330
0
100
AcDbSymbolTable
 70
     0
  0
ENDTAB
  0
TABLE
  2
APPID
  5
9
330
0
100
AcDbSymbolTable
 70
     1
  0
APPID
  5
12
330
9
100
AcDbSymbolTableRecord
100
AcDbRegAppTableRecord
  2
ACAD
 70
     0
  0
ENDTAB
  0
TABLE
  2
DIMSTYLE
  5
A
330
0
100
AcDbSymbolTable
 70
     4
100
AcDbDimStyleTable
  0
DIMSTYLE
105
27
330
A
100
AcDbSymbolTableRecord
100
AcDbDimStyleTableRecord
  2
ISO-25
 70
     0
 41
2.5
 42
0.625
 43
3.75
 44
1.25
 73
     0
 74
     0
 77
     1
 78
     8
140
2.5
141
2.5
143
0.03937007874016
147
0.625
171
     3
172
     1
178
     0
271
     2
272
     2
274
     3
278
    44
283
     0
284
     8
340
11
  0
DIMSTYLE
105
D1
330
A
100
AcDbSymbolTableRecord
100
AcDbDimStyleTableRecord
  2
SLDDIMSTYLE0
 70
     0
 41
3.302
 44
0.0
 45
0.000000001
 73
     0
 74
     0
 77
     1
 78
     4
 79
     1
140
3.5
143
0.0393700787401575
147
0.875
148
0.000000001
170
     1
173
     1
178
     0
271
     2
272
     2
276
     2
284
    12
340
94
  0
DIMSTYLE
105
E6
330
A
100
AcDbSymbolTableRecord
100
AcDbDimStyleTableRecord
  2
SLDDIMSTYLE1
 70
     0
 41
3.302
 44
0.0
 45
0.000000001
 73
     0
 74
     0
 77
     1
 78
    12
 79
     3
140
3.5
143
0.0393700787401575
147
0.875
148
0.000000001
170
     1
173
     1
178
     0
271
     2
272
     2
276
     2
284
    12
340
94
  0
DIMSTYLE
105
FA
102
{ACAD_REACTORS
330
F9
330
10E
330
1AE
330
1BE
330
1CB
330
1D8
330
E5
330
D0
102
}
330
A
100
AcDbSymbolTableRecord
100
AcDbDimStyleTableRecord
  2
SLDDIMSTYLE2
 70
     0
 41
3.302
 44
0.0
 45
0.000000001
 73
     0
 74
     0
 77
     1
 78
    12
 79
     3
140
3.5
143
0.0393700787401575
147
0.875
148
0.000000001
170
     1
172
     1
173
     1
178
     0
271
     2
272
     2
276
     2
284
    12
289
     0
340
94
  0
ENDTAB
  0
TABLE
  2
BLOCK_RECORD
  5
1
330
0
100
AcDbSymbolTable
 70
    16
  0
BLOCK_RECORD
  5
1F
330
1
100
AcDbSymbolTableRecord
100
AcDbBlockTableRecord
  2
*Model_Space
340
22
  0
BLOCK_RECORD
  5
1B
330
1
100
AcDbSymbolTableRecord
100
AcDbBlockTableRecord
  2
*Paper_Space
340
1E
  0
BLOCK_RECORD
  5
23
330
1
100
AcDbSymbolTableRecord
100
AcDbBlockTableRecord
  2
*Paper_Space0
340
26
  0
BLOCK_RECORD
  5
7F
330
1
100
AcDbSymbolTableRecord
100
AcDbBlockTableRecord
  2
블럭10
340
0
102
{BLKREFS
331
C9
102
}
  0
BLOCK_RECORD
  5
D2
330
1
100
AcDbSymbolTableRecord
100
AcDbBlockTableRecord
  2
_D
340
0
  0
BLOCK_RECORD
  5
E7
330
1
100
AcDbSymbolTableRecord
100
AcDbBlockTableRecord
  2
_D_1
340
0
  0
BLOCK_RECORD
  5
FB
330
1
100
AcDbSymbolTableRecord
100
AcDbBlockTableRecord
  2
_D_2
340
0
  0
BLOCK_RECORD
  5
10F
330
1
100
AcDbSymbolTableRecord
100
AcDbBlockTableRecord
  2
_D_3
340
0
  0
BLOCK_RECORD
  5
129
330
1
100
AcDbSymbolTableRecord
100
AcDbBlockTableRecord
  2
SW_DOWELSYMBOL_0
340
0
102
{BLKREFS
331
12F
331
1E8
331
0
102
}
  0
BLOCK_RECORD
  5
1F8
330
1
100
AcDbSymbolTableRecord
100
AcDbBlockTableRecord
  2
*D8
340
0
  0
BLOCK_RECORD
  5
207
330
1
100
AcDbSymbolTableRecord
100
AcDbBlockTableRecord
  2
*D9
340
0
  0
BLOCK_RECORD
  5
213
330
1
100
AcDbSymbolTableRecord
100
AcDbBlockTableRecord
  2
*D10
340
0
  0
BLOCK_RECORD
  5
21F
330
1
100
AcDbSymbolTableRecord
100
AcDbBlockTableRecord
  2
*D11
340
0
  0
BLOCK_RECORD
  5
269
330
1
100
AcDbSymbolTableRecord
100
AcDbBlockTableRecord
  2
*D12
340
0
  0
BLOCK_RECORD
  5
278
330
1
100
AcDbSymbolTableRecord
100
AcDbBlockTableRecord
  2
*D13
340
0
  0
BLOCK_RECORD
  5
284
330
1
100
AcDbSymbolTableRecord
100
AcDbBlockTableRecord
  2
*D14
340
0
  0
BLOCK_RECORD
  5
290
330
1
100
AcDbSymbolTableRecord
100
AcDbBlockTableRecord
  2
*D15
340
0
  0
ENDTAB
  0
ENDSEC
  0
SECTION
  2
BLOCKS
  0
BLOCK
  5
20
330
1F
100
AcDbEntity
  8
0
100
AcDbBlockBegin
  2
*Model_Space
 70
     0
 10
0.0
 20
0.0
 30
0.0
  3
*Model_Space
  1
*Model_Space
  0
ENDBLK
  5
21
330
1F
100
AcDbEntity
  8
0
100
AcDbBlockEnd
  0
BLOCK
  5
1C
330
1B
100
AcDbEntity
 67
     1
  8
0
100
AcDbBlockBegin
  2
*Paper_Space
 70
     0
 10
0.0
 20
0.0
 30
0.0
  3
*Paper_Space
  1
*Paper_Space
  0
ENDBLK
  5
1D
330
1B
100
AcDbEntity
 67
     1
  8
0
100
AcDbBlockEnd
  0
BLOCK
  5
24
330
23
100
AcDbEntity
  8
0
100
AcDbBlockBegin
  2
*Paper_Space0
 70
     0
 10
0.0
 20
0.0
 30
0.0
  3
*Paper_Space0
  1
*Paper_Space0
  0
ENDBLK
  5
25
330
23
100
AcDbEntity
  8
0
100
AcDbBlockEnd
  0
BLOCK
  5
80
330
7F
100
AcDbEntity
  8
0
100
AcDbBlockBegin
  2
블럭10
 70
     2
 10
0.0
 20
0.0
 30
0.0
  3
블럭10
  1
블럭10
  0
ELLIPSE
  5
82
330
7F
100
AcDbEntity
  8
중심선
100
AcDbEllipse
 10
20.54032771741204
 20
12.0471743016438
 30
0.0
 11
6.600054785286829
 21
-1.261213355974178E-13
 31
0.0
210
0.0
220
0.0
230
1.0
 40
0.636358354079598
 41
0.9219305317359503
 42
6.513795318482858
  0
ELLIPSE
  5
83
330
7F
100
AcDbEntity
  8
중심선
100
AcDbEllipse
 10
20.54032771746488
 20
12.04717430159265
 30
0.0
 11
3.960054785062283
 21
1.540847449632565E-10
 31
0.0
210
0.0
220
0.0
230
1.0
 40
0.3939339440162632
 41
1.131841032648279
 42
5.62031148352944
  0
LINE
  5
84
330
7F
100
AcDbEntity
  8
중심선
100
AcDbLine
 10
2.268634060543552
 20
16.24717430164393
 30
0.0
 11
5.714909304380834
 21
16.24717430164393
 31
0.0
  0
LINE
  5
85
330
7F
100
AcDbEntity
  8
중심선
100
AcDbLine
 10
5.245725140726316
 20
7.84717430164391
 30
0.0
 11
8.692000384563599
 21
7.84717430164391
 31
0.0
  0
LINE
  5
86
330
7F
100
AcDbEntity
  8
중심선
100
AcDbLine
 10
15.74043728645272
 20
16.24717430164393
 30
0.0
 11
8.692000384563599
 21
7.84717430164391
 31
0.0
  0
LINE
  5
87
330
7F
100
AcDbEntity
  8
중심선
100
AcDbLine
 10
0.1404042013395286
 20
13.71084872107135
 30
0.0
 11
3.58671253028996
 21
13.71088815037384
 31
0.0
  0
LINE
  5
88
330
7F
100
AcDbEntity
  8
중심선
100
AcDbLine
 10
2.750260043222114
 20
10.84717430164391
 30
0.0
 11
6.196535287059397
 21
10.84717430164391
 31
0.0
  0
LINE
  5
89
330
7F
100
AcDbEntity
  8
중심선
100
AcDbLine
 10
12.29416204261559
 20
16.24717430164393
 30
0.0
 11
5.245725140726316
 21
7.84717430164391
 31
0.0
  0
LINE
  5
8A
330
7F
100
AcDbEntity
  8
중심선
100
AcDbLine
 10
10.72767329541681
 20
16.24717430164393
 30
0.0
 11
6.196535287059397
 21
10.84717430164391
 31
0.0
  0
LINE
  5
8B
330
7F
100
AcDbEntity
  8
중심선
100
AcDbLine
 10
7.28139805157953
 20
16.24717430164393
 30
0.0
 11
2.750260043222114
 21
10.84717430164391
 31
0.0
  0
LINE
  5
8C
330
7F
100
AcDbEntity
  8
중심선
100
AcDbLine
 10
5.714909304380834
 20
16.24717430164393
 30
0.0
 11
3.58671253028996
 21
13.71088815037384
 31
0.0
  0
LINE
  5
8D
330
7F
100
AcDbEntity
  8
중심선
100
AcDbLine
 10
2.268634060543552
 20
16.24717430164393
 30
0.0
 11
0.1404042013395286
 21
13.71084872107135
 31
0.0
  0
LINE
  5
8E
330
7F
100
AcDbEntity
  8
중심선
100
AcDbLine
 10
7.28139805157953
 20
16.24717430164393
 30
0.0
 11
10.72767329541681
 21
16.24717430164393
 31
0.0
  0
LINE
  5
8F
330
7F
100
AcDbEntity
  8
중심선
100
AcDbLine
 10
12.29416204261559
 20
16.24717430164393
 30
0.0
 11
15.74043728645272
 21
16.24717430164393
 31
0.0
  0
LINE
  5
90
330
7F
100
AcDbEntity
  8
중심선
100
AcDbLine
 10
19.22036997980202
 20
11.08717430171403
 30
0.0
 11
23.66174974927406
 21
11.08717430171406
 31
0.0
  0
LINE
  5
91
330
7F
100
AcDbEntity
  8
중심선
100
AcDbLine
 10
19.22039502424796
 20
13.00717430171391
 30
0.0
 11
19.22036997980202
 21
11.08717430171403
 31
0.0
  0
LINE
  5
92
330
7F
100
AcDbEntity
  8
중심선
100
AcDbLine
 10
19.22039502424796
 20
13.00717430171391
 30
0.0
 11
26.96566020931264
 21
13.00717430171391
 31
0.0
  0
LINE
  5
93
330
7F
100
AcDbEntity
  8
중심선
100
AcDbLine
 10
22.22332737316547
 20
13.45928029700563
 30
0.0
 11
24.52862924686651
 21
15.39360700705356
 31
0.0
  0
ATTDEF
  5
95
330
7F
100
AcDbEntity
  8
FORMAT
 62
     2
100
AcDbText
 10
4.408487351596664
 20
2.075366912832191
 30
0.0
 40
4.233333333333333
  1
E2031012
 41
0.75
  7
SLDTEXTSTYLE0
 11
4.408487351596664
 21
-0.0412997538344756
 31
0.0
100
AcDbAttributeDefinition
  3

  2
AUTOATTR0
 70
     0
 74
     1
  0
ENDBLK
  5
81
330
7F
100
AcDbEntity
  8
0
100
AcDbBlockEnd
  0
BLOCK
  5
D3
330
D2
100
AcDbEntity
  8
0
100
AcDbBlockBegin
  2
_D
 70
     0
 10
0.0
 20
0.0
 30
0.0
  3
_D
  1
_D
  0
LINE
  5
D5
330
D2
100
AcDbEntity
  8
치수문자_일반주서
 62
     0
370
    -2
100
AcDbLine
 10
24.5869459855234
 20
2.444824928723897
 30
0.0
 11
24.5869459855234
 21
13.74895982642208
 31
0.0
  0
LINE
  5
D6
330
D2
100
AcDbEntity
  8
치수문자_일반주서
 62
     0
370
    -2
100
AcDbLine
 10
11.88694598552339
 20
2.4441836551674
 30
0.0
 11
11.88694598552339
 21
13.74895982642208
 31
0.0
  0
LINE
  5
D7
330
D2
100
AcDbEntity
  8
치수문자_일반주서
 62
     0
370
    -2
100
AcDbLine
 10
11.88694598552339
 20
13.74895982642208
 30
0.0
 11
-18.82924587966991
 21
13.74895982642208
 31
0.0
  0
LINE
  5
D8
330
D2
100
AcDbEntity
  8
치수문자_일반주서
 62
     0
370
    -2
100
AcDbLine
 10
24.5869459855234
 20
13.74895982642208
 30
0.0
 11
11.88694598552339
 21
13.74895982642208
 31
0.0
  0
LINE
  5
D9
330
D2
100
AcDbEntity
  8
치수문자_일반주서
 62
     0
370
    -2
100
AcDbLine
 10
27.8889459855234
 20
13.74895982642208
 30
0.0
 11
31.1909459855234
 21
13.74895982642208
 31
0.0
  0
LINE
  5
DA
330
D2
100
AcDbEntity
  8
치수문자_일반주서
 62
     0
370
    -2
100
AcDbLine
 10
8.584945985523394
 20
13.74895982642208
 30
0.0
 11
5.282945985523394
 21
13.74895982642208
 31
0.0
  0
SOLID
  5
DB
330
D2
100
AcDbEntity
  8
치수문자_일반주서
 62
     0
100
AcDbTrace
 10
27.8889459855234
 20
14.29929315975541
 30
0.0
 11
27.8889459855234
 21
13.19862649308874
 31
0.0
 12
24.5869459855234
 22
13.74895982642208
 32
0.0
 13
24.5869459855234
 23
13.74895982642208
 33
0.0
  0
SOLID
  5
DC
330
D2
100
AcDbEntity
  8
치수문자_일반주서
 62
     0
100
AcDbTrace
 10
8.584945985523394
 20
13.19862649308874
 30
0.0
 11
8.584945985523394
 21
14.29929315975541
 31
0.0
 12
11.88694598552339
 22
13.74895982642208
 32
0.0
 13
11.88694598552339
 23
13.74895982642208
 33
0.0
  0
MTEXT
  5
DD
330
D2
100
AcDbEntity
  8
치수문자_일반주서
 62
     0
100
AcDbMText
 10
-7.891745879669913
 20
18.12395982642208
 30
0.0
 40
3.5
 41
0.0
 71
     2
 72
     1
  1
\A1;12.7 [1/2]
  7
SLDTEXTSTYLE0
 73
     1
 44
1.0
  0
POINT
  5
DE
330
D2
100
AcDbEntity
  8
Defpoints
 62
     0
100
AcDbPoint
 10
24.5869459855234
 20
2.382324928723897
 30
0.0
  0
POINT
  5
29F
330
D2
100
AcDbEntity
  8
Defpoints
 62
     0
100
AcDbPoint
 10
11.88694598552339
 20
2.3816836551674
 30
0.0
  0
POINT
  5
2A0
330
D2
100
AcDbEntity
  8
Defpoints
 62
     0
100
AcDbPoint
 10
11.88694598552339
 20
13.74895982642208
 30
0.0
  0
ENDBLK
  5
D4
330
D2
100
AcDbEntity
  8
0
100
AcDbBlockEnd
  0
BLOCK
  5
E8
330
E7
100
AcDbEntity
  8
0
100
AcDbBlockBegin
  2
_D_1
 70
     0
 10
0.0
 20
0.0
 30
0.0
  3
_D_1
  1
_D_1
  0
LINE
  5
EA
330
E7
100
AcDbEntity
  8
치수문자_일반주서
 62
     0
370
    -2
100
AcDbLine
 10
24.5869459855234
 20
2.444824928723897
 30
0.0
 11
24.5869459855234
 21
31.27561118355229
 31
0.0
  0
LINE
  5
EB
330
E7
100
AcDbEntity
  8
치수문자_일반주서
 62
     0
370
    -2
100
AcDbLine
 10
-35.7380540144766
 20
3.873574928723895
 30
0.0
 11
-35.7380540144766
 21
31.27561118355229
 31
0.0
  0
LINE
  5
EC
330
E7
100
AcDbEntity
  8
치수문자_일반주서
 62
     0
370
    -2
100
AcDbLine
 10
21.2849459855234
 20
31.27561118355229
 30
0.0
 11
-32.4360540144766
 21
31.27561118355229
 31
0.0
  0
SOLID
  5
ED
330
E7
100
AcDbEntity
  8
치수문자_일반주서
 62
     0
100
AcDbTrace
 10
21.2849459855234
 20
30.72527785021896
 30
0.0
 11
21.2849459855234
 21
31.82594451688563
 31
0.0
 12
24.5869459855234
 22
31.27561118355229
 32
0.0
 13
24.5869459855234
 23
31.27561118355229
 33
0.0
  0
SOLID
  5
EE
330
E7
100
AcDbEntity
  8
치수문자_일반주서
 62
     0
100
AcDbTrace
 10
-32.4360540144766
 20
31.82594451688563
 30
0.0
 11
-32.4360540144766
 21
30.72527785021896
 31
0.0
 12
-35.7380540144766
 22
31.27561118355229
 32
0.0
 13
-35.7380540144766
 23
31.27561118355229
 33
0.0
  0
MTEXT
  5
EF
330
E7
100
AcDbEntity
  8
치수문자_일반주서
 62
     0
100
AcDbMText
 10
-5.575554014476609
 20
35.65061118355229
 30
0.0
 40
3.5
 41
0.0
 71
     2
 72
     1
  1
\A1;60.33 [2 3/8]
  7
SLDTEXTSTYLE0
 73
     1
 44
1.0
  0
POINT
  5
F0
330
E7
100
AcDbEntity
  8
Defpoints
 62
     0
100
AcDbPoint
 10
24.5869459855234
 20
2.382324928723897
 30
0.0
  0
POINT
  5
F1
330
E7
100
AcDbEntity
  8
Defpoints
 62
     0
100
AcDbPoint
 10
-35.7380540144766
 20
3.811074928723895
 30
0.0
  0
POINT
  5
F2
330
E7
100
AcDbEntity
  8
Defpoints
 62
     0
100
AcDbPoint
 10
-35.7380540144766
 20
31.27561118355229
 30
0.0
  0
ENDBLK
  5
E9
330
E7
100
AcDbEntity
  8
0
100
AcDbBlockEnd
  0
BLOCK
  5
FC
330
FB
100
AcDbEntity
  8
0
100
AcDbBlockBegin
  2
_D_2
 70
     0
 10
0.0
 20
0.0
 30
0.0
  3
_D_2
  1
_D_2
  0
LINE
  5
FE
330
FB
100
AcDbEntity
  8
치수문자_일반주서
 62
     0
370
    -2
100
AcDbLine
 10
-34.84805401447661
 20
4.763574928723896
 30
0.0
 11
-47.03882685230382
 21
4.76357492872385
 31
0.0
  0
LINE
  5
FF
330
FB
100
AcDbEntity
  8
치수문자_일반주서
 62
     0
370
    -2
100
AcDbLine
 10
-34.84805401447661
 20
-4.761425071276109
 30
0.0
 11
-47.03882685230379
 21
-4.761425071276156
 31
0.0
  0
LINE
  5
100
330
FB
100
AcDbEntity
  8
치수문자_일반주서
 62
     0
370
    -2
100
AcDbLine
 10
-47.03882685230381
 20
1.46157492872385
 30
0.0
 11
-47.0388268523038
 21
-1.459425071276156
 31
0.0
  0
SOLID
  5
101
330
FB
100
AcDbEntity
  8
치수문자_일반주서
 62
     0
100
AcDbTrace
 10
-46.48849351897047
 20
1.461574928723852
 30
0.0
 11
-47.58916018563714
 21
1.461574928723848
 31
0.0
 12
-47.03882685230382
 22
4.76357492872385
 32
0.0
 13
-47.03882685230382
 23
4.76357492872385
 33
0.0
  0
SOLID
  5
102
330
FB
100
AcDbEntity
  8
치수문자_일반주서
 62
     0
100
AcDbTrace
 10
-47.58916018563713
 20
-1.459425071276158
 30
0.0
 11
-46.48849351897046
 21
-1.459425071276154
 31
0.0
 12
-47.03882685230379
 22
-4.761425071276156
 32
0.0
 13
-47.03882685230379
 23
-4.761425071276156
 33
0.0
  0
MTEXT
  5
103
330
FB
100
AcDbEntity
  8
치수문자_일반주서
 62
     0
100
AcDbMText
 10
-51.41382685230381
 20
0.0010749287238796
 30
0.0
 40
3.5
 41
0.0
 71
     2
 72
     1
  1
\A1;%%c9.53 [3/8]
  7
SLDTEXTSTYLE0
 11
-3.729883127349605E-15
 21
1.0
 31
0.0
 73
     1
 44
1.0
  0
POINT
  5
104
330
FB
100
AcDbEntity
  8
Defpoints
 62
     0
100
AcDbPoint
 10
-34.78555401447661
 20
4.763574928723896
 30
0.0
  0
POINT
  5
105
330
FB
100
AcDbEntity
  8
Defpoints
 62
     0
100
AcDbPoint
 10
-34.78555401447661
 20
-4.761425071276109
 30
0.0
  0
POINT
  5
106
330
FB
100
AcDbEntity
  8
Defpoints
 62
     0
100
AcDbPoint
 10
-47.03882685230379
 20
-4.761425071276156
 30
0.0
  0
ENDBLK
  5
FD
330
FB
100
AcDbEntity
  8
0
100
AcDbBlockEnd
  0
BLOCK
  5
110
330
10F
100
AcDbEntity
  8
0
100
AcDbBlockBegin
  2
_D_3
 70
     0
 10
0.0
 20
0.0
 30
0.0
  3
_D_3
  1
_D_3
  0
LINE
  5
112
330
10F
100
AcDbEntity
  8
치수문자_일반주서
 62
     0
370
    -2
100
AcDbLine
 10
24.6494459855234
 20
2.382324928723897
 30
0.0
 11
39.68139379264534
 21
2.382324928723953
 31
0.0
  0
LINE
  5
113
330
10F
100
AcDbEntity
  8
치수문자_일반주서
 62
     0
370
    -2
100
AcDbLine
 10
24.6494459855234
 20
-2.380175071276102
 30
0.0
 11
39.68139379264536
 21
-2.380175071276046
 31
0.0
  0
LINE
  5
114
330
10F
100
AcDbEntity
  8
치수문자_일반주서
 62
     0
370
    -2
100
AcDbLine
 10
39.68139379264534
 20
2.382324928723953
 30
0.0
 11
39.68139379264524
 21
37.86132492872395
 31
0.0
  0
LINE
  5
115
330
10F
100
AcDbEntity
  8
치수문자_일반주서
 62
     0
370
    -2
100
AcDbLine
 10
39.68139379264534
 20
2.382324928723953
 30
0.0
 11
39.68139379264536
 21
-2.380175071276046
 31
0.0
  0
LINE
  5
116
330
10F
100
AcDbEntity
  8
치수문자_일반주서
 62
     0
370
    -2
100
AcDbLine
 10
39.68139379264534
 20
5.684324928723953
 30
0.0
 11
39.68139379264533
 21
8.986324928723953
 31
0.0
  0
LINE
  5
117
330
10F
100
AcDbEntity
  8
치수문자_일반주서
 62
     0
370
    -2
100
AcDbLine
 10
39.68139379264537
 20
-5.682175071276045
 30
0.0
 11
39.68139379264537
 21
-8.984175071276045
 31
0.0
  0
SOLID
  5
118
330
10F
100
AcDbEntity
  8
치수문자_일반주서
 62
     0
100
AcDbTrace
 10
39.131060459312
 20
5.684324928723951
 30
0.0
 11
40.23172712597867
 21
5.684324928723955
 31
0.0
 12
39.68139379264534
 22
2.382324928723953
 32
0.0
 13
39.68139379264534
 23
2.382324928723953
 33
0.0
  0
SOLID
  5
119
330
10F
100
AcDbEntity
  8
치수문자_일반주서
 62
     0
100
AcDbTrace
 10
40.2317271259787
 20
-5.682175071276044
 30
0.0
 11
39.13106045931203
 21
-5.682175071276047
 31
0.0
 12
39.68139379264536
 22
-2.380175071276046
 32
0.0
 13
39.68139379264536
 23
-2.380175071276046
 33
0.0
  0
MTEXT
  5
11A
330
10F
100
AcDbEntity
  8
치수문자_일반주서
 62
     0
100
AcDbMText
 10
35.30639379264528
 20
23.86132492872393
 30
0.0
 40
3.5
 41
0.0
 71
     2
 72
     1
  1
\A1;%%c4.76 [3/16]
  7
SLDTEXTSTYLE0
 11
-2.983906501879687E-15
 21
1.0
 31
0.0
 73
     1
 44
1.0
  0
POINT
  5
11B
330
10F
100
AcDbEntity
  8
Defpoints
 62
     0
100
AcDbPoint
 10
24.5869459855234
 20
2.382324928723897
 30
0.0
  0
POINT
  5
11C
330
10F
100
AcDbEntity
  8
Defpoints
 62
     0
100
AcDbPoint
 10
24.5869459855234
 20
-2.380175071276103
 30
0.0
  0
POINT
  5
11D
330
10F
100
AcDbEntity
  8
Defpoints
 62
     0
100
AcDbPoint
 10
39.68139379264536
 20
-2.380175071276046
 30
0.0
  0
ENDBLK
  5
111
330
10F
100
AcDbEntity
  8
0
100
AcDbBlockEnd
  0
BLOCK
  5
12A
330
129
100
AcDbEntity
  8
0
100
AcDbBlockBegin
  2
SW_DOWELSYMBOL_0
 70
     0
 10
0.0
 20
0.0
 30
0.0
  3
SW_DOWELSYMBOL_0
  1
SW_DOWELSYMBOL_0
  0
CIRCLE
  5
12C
330
129
100
AcDbEntity
  8
해칭선
 62
     0
100
AcDbCircle
 10
0.0
 20
0.0
 30
0.0
 40
2.999999999999999
  0
HATCH
  5
12D
330
129
100
AcDbEntity
  8
0
  6
Continuous
 62
     0
370
     0
100
AcDbHatch
 10
0.0
 20
0.0
 30
0.0
210
0.0
220
0.0
230
1.0
  2
SOLID
 70
     1
 71
     0
 91
        1
 92
        0
 93
        3
 72
     2
 10
0.0
 20
0.0
 40
2.999999999999999
 50
0.0
 51
90.0
 73
     1
 72
     1
 10
0.0
 20
2.999999999999999
 11
0.0
 21
0.0
 72
     1
 10
0.0
 20
0.0
 11
2.999999999999999
 21
0.0
 97
        0
 75
     0
 76
     1
 98
        1
 10
0.0
 20
0.0
  0
HATCH
  5
12E
330
129
100
AcDbEntity
  8
0
  6
Continuous
 62
     0
370
     0
100
AcDbHatch
 10
0.0
 20
0.0
 30
0.0
210
0.0
220
0.0
230
1.0
  2
SOLID
 70
     1
 71
     0
 91
        1
 92
        0
 93
        3
 72
     2
 10
0.0
 20
0.0
 40
2.999999999999999
 50
180.0
 51
270.0000000000008
 73
     1
 72
     1
 10
0.0
 20
-2.999999999999999
 11
0.0
 21
0.0
 72
     1
 10
0.0
 20
0.0
 11
-2.999999999999999
 21
0.0
 97
        0
 75
     0
 76
     1
 98
        1
 10
0.0
 20
0.0
  0
ENDBLK
  5
12B
330
129
100
AcDbEntity
  8
0
100
AcDbBlockEnd
  0
BLOCK
  5
1F9
330
1F8
100
AcDbEntity
  8
0
100
AcDbBlockBegin
  2
*D8
 70
     1
 10
0.0
 20
0.0
 30
0.0
  3
*D8
  1
*D8
  0
LINE
  5
1FB
330
1F8
100
AcDbEntity
  8
치수문자_일반주서
 62
     0
370
    -2
100
AcDbLine
 10
77.58827283782725
 20
14.89218750000001
 30
0.0
 11
77.58827283782725
 21
27.04317962779714
 31
0.0
  0
LINE
  5
1FC
330
1F8
100
AcDbEntity
  8
치수문자_일반주서
 62
     0
370
    -2
100
AcDbLine
 10
63.30077283782727
 20
14.86621816408962
 30
0.0
 11
63.30077283782727
 21
27.04317962779714
 31
0.0
  0
LINE
  5
1FD
330
1F8
100
AcDbEntity
  8
치수문자_일반주서
 62
     0
370
    -2
100
AcDbLine
 10
63.30077283782727
 20
27.04317962779714
 30
0.0
 11
29.57177283782727
 21
27.04317962779714
 31
0.0
  0
LINE
  5
1FE
330
1F8
100
AcDbEntity
  8
치수문자_일반주서
 62
     0
370
    -2
100
AcDbLine
 10
77.58827283782725
 20
27.04317962779714
 30
0.0
 11
63.30077283782727
 21
27.04317962779714
 31
0.0
  0
LINE
  5
1FF
330
1F8
100
AcDbEntity
  8
치수문자_일반주서
 62
     0
370
    -2
100
AcDbLine
 10
80.89027283782724
 20
27.04317962779714
 30
0.0
 11
84.19227283782723
 21
27.04317962779714
 31
0.0
  0
LINE
  5
200
330
1F8
100
AcDbEntity
  8
치수문자_일반주서
 62
     0
370
    -2
100
AcDbLine
 10
59.99877283782727
 20
27.04317962779714
 30
0.0
 11
56.69677283782727
 21
27.04317962779714
 31
0.0
  0
SOLID
  5
201
330
1F8
100
AcDbEntity
  8
치수문자_일반주서
 62
     0
100
AcDbTrace
 10
80.89027283782724
 20
27.59351296113047
 30
0.0
 11
80.89027283782724
 21
26.4928462944638
 31
0.0
 12
77.58827283782725
 22
27.04317962779714
 32
0.0
 13
77.58827283782725
 23
27.04317962779714
 33
0.0
  0
SOLID
  5
202
330
1F8
100
AcDbEntity
  8
치수문자_일반주서
 62
     0
100
AcDbTrace
 10
59.99877283782727
 20
26.4928462944638
 30
0.0
 11
59.99877283782727
 21
27.59351296113047
 31
0.0
 12
63.30077283782727
 22
27.04317962779714
 32
0.0
 13
63.30077283782727
 23
27.04317962779714
 33
0.0
  0
MTEXT
  5
203
330
1F8
100
AcDbEntity
  8
치수문자_일반주서
 62
     0
100
AcDbMText
 10
43.13427283782727
 20
31.41817962779714
 30
0.0
 40
3.5
 41
0.0
 71
     2
 72
     1
  1
\A1;14.29 [9/16]
  7
SLDTEXTSTYLE0
 73
     1
 44
1.0
  0
POINT
  5
204
330
1F8
100
AcDbEntity
  8
Defpoints
 62
     0
100
AcDbPoint
 10
77.58827283782725
 20
14.82968750000001
 30
0.0
  0
POINT
  5
205
330
1F8
100
AcDbEntity
  8
Defpoints
 62
     0
100
AcDbPoint
 10
63.30077283782727
 20
14.80371816408962
 30
0.0
  0
POINT
  5
206
330
1F8
100
AcDbEntity
  8
Defpoints
 62
     0
100
AcDbPoint
 10
63.30077283782727
 20
27.04317962779714
 30
0.0
  0
ENDBLK
  5
1FA
330
1F8
100
AcDbEntity
  8
0
100
AcDbBlockEnd
  0
BLOCK
  5
208
330
207
100
AcDbEntity
  8
0
100
AcDbBlockBegin
  2
*D9
 70
     1
 10
0.0
 20
0.0
 30
0.0
  3
*D9
  1
*D9
  0
LINE
  5
20A
330
207
100
AcDbEntity
  8
치수문자_일반주서
 62
     0
370
    -2
100
AcDbLine
 10
77.58827283782725
 20
14.89218750000001
 30
0.0
 11
77.58827283782725
 21
43.72224401908481
 31
0.0
  0
LINE
  5
20B
330
207
100
AcDbEntity
  8
치수문자_일반주서
 62
     0
370
    -2
100
AcDbLine
 10
15.67577283782725
 20
16.12250000000001
 30
0.0
 11
15.67577283782725
 21
43.72224401908481
 31
0.0
  0
LINE
  5
20C
330
207
100
AcDbEntity
  8
치수문자_일반주서
 62
     0
370
    -2
100
AcDbLine
 10
74.28627283782725
 20
43.72224401908481
 30
0.0
 11
18.97777283782725
 21
43.72224401908481
 31
0.0
  0
SOLID
  5
20D
330
207
100
AcDbEntity
  8
치수문자_일반주서
 62
     0
100
AcDbTrace
 10
74.28627283782725
 20
43.17191068575148
 30
0.0
 11
74.28627283782725
 21
44.27257735241815
 31
0.0
 12
77.58827283782725
 22
43.72224401908481
 32
0.0
 13
77.58827283782725
 23
43.72224401908481
 33
0.0
  0
SOLID
  5
20E
330
207
100
AcDbEntity
  8
치수문자_일반주서
 62
     0
100
AcDbTrace
 10
18.97777283782725
 20
44.27257735241815
 30
0.0
 11
18.97777283782725
 21
43.17191068575148
 31
0.0
 12
15.67577283782725
 22
43.72224401908481
 32
0.0
 13
15.67577283782725
 23
43.72224401908481
 33
0.0
  0
MTEXT
  5
20F
330
207
100
AcDbEntity
  8
치수문자_일반주서
 62
     0
100
AcDbMText
 10
46.63202283782724
 20
48.09724401908481
 30
0.0
 40
3.5
 41
0.0
 71
     2
 72
     1
  1
\A1;61.91 [2 7/16]
  7
SLDTEXTSTYLE0
 73
     1
 44
1.0
  0
POINT
  5
210
330
207
100
AcDbEntity
  8
Defpoints
 62
     0
100
AcDbPoint
 10
77.58827283782725
 20
14.82968750000001
 30
0.0
  0
POINT
  5
211
330
207
100
AcDbEntity
  8
Defpoints
 62
     0
100
AcDbPoint
 10
15.67577283782725
 20
16.06000000000001
 30
0.0
  0
POINT
  5
212
330
207
100
AcDbEntity
  8
Defpoints
 62
     0
100
AcDbPoint
 10
15.67577283782725
 20
43.72224401908481
 30
0.0
  0
ENDBLK
  5
209
330
207
100
AcDbEntity
  8
0
100
AcDbBlockEnd
  0
BLOCK
  5
214
330
213
100
AcDbEntity
  8
0
100
AcDbBlockBegin
  2
*D10
 70
     1
 10
0.0
 20
0.0
 30
0.0
  3
*D10
  1
*D10
  0
LINE
  5
216
330
213
100
AcDbEntity
  8
치수문자_일반주서
 62
     0
370
    -2
100
AcDbLine
 10
16.56577283782725
 20
17.01250000000001
 30
0.0
 11
4.375000000000034
 21
17.01249999999997
 31
0.0
  0
LINE
  5
217
330
213
100
AcDbEntity
  8
치수문자_일반주서
 62
     0
370
    -2
100
AcDbLine
 10
16.56577283782725
 20
7.487500000000008
 30
0.0
 11
4.375000000000067
 21
7.487499999999962
 31
0.0
  0
LINE
  5
218
330
213
100
AcDbEntity
  8
치수문자_일반주서
 62
     0
370
    -2
100
AcDbLine
 10
4.375000000000045
 20
13.71049999999997
 30
0.0
 11
4.375000000000055
 21
10.78949999999996
 31
0.0
  0
SOLID
  5
219
330
213
100
AcDbEntity
  8
치수문자_일반주서
 62
     0
100
AcDbTrace
 10
4.925333333333379
 20
13.71049999999997
 30
0.0
 11
3.824666666666712
 21
13.71049999999997
 31
0.0
 12
4.375000000000034
 22
17.01249999999997
 32
0.0
 13
4.375000000000034
 23
17.01249999999997
 33
0.0
  0
SOLID
  5
21A
330
213
100
AcDbEntity
  8
치수문자_일반주서
 62
     0
100
AcDbTrace
 10
3.824666666666722
 20
10.78949999999996
 30
0.0
 11
4.925333333333389
 21
10.78949999999996
 31
0.0
 12
4.375000000000067
 22
7.487499999999962
 32
0.0
 13
4.375000000000067
 23
7.487499999999962
 33
0.0
  0
MTEXT
  5
21B
330
213
100
AcDbEntity
  8
치수문자_일반주서
 62
     0
100
AcDbMText
 10
0.0000000000000497
 20
12.25
 30
0.0
 40
3.5
 41
0.0
 71
     2
 72
     1
  1
\A1;%%c9.53 [3/8]
  7
SLDTEXTSTYLE0
 11
-3.450141892798385E-15
 21
1.0
 31
0.0
 73
     1
 44
1.0
  0
POINT
  5
21C
330
213
100
AcDbEntity
  8
Defpoints
 62
     0
100
AcDbPoint
 10
16.62827283782725
 20
17.01250000000001
 30
0.0
  0
POINT
  5
21D
330
213
100
AcDbEntity
  8
Defpoints
 62
     0
100
AcDbPoint
 10
16.62827283782725
 20
7.487500000000008
 30
0.0
  0
POINT
  5
21E
330
213
100
AcDbEntity
  8
Defpoints
 62
     0
100
AcDbPoint
 10
4.375000000000071
 20
7.487499999999962
 30
0.0
  0
ENDBLK
  5
215
330
213
100
AcDbEntity
  8
0
100
AcDbBlockEnd
  0
BLOCK
  5
220
330
21F
100
AcDbEntity
  8
0
100
AcDbBlockBegin
  2
*D11
 70
     1
 10
0.0
 20
0.0
 30
0.0
  3
*D11
  1
*D11
  0
LINE
  5
222
330
21F
100
AcDbEntity
  8
치수문자_일반주서
 62
     0
370
    -2
100
AcDbLine
 10
77.65077283782725
 20
14.82968750000001
 30
0.0
 11
92.3091199960196
 21
14.82968750000007
 31
0.0
  0
LINE
  5
223
330
21F
100
AcDbEntity
  8
치수문자_일반주서
 62
     0
370
    -2
100
AcDbLine
 10
77.65077283782723
 20
9.670312500000014
 30
0.0
 11
92.30911999601962
 21
9.670312500000069
 31
0.0
  0
LINE
  5
224
330
21F
100
AcDbEntity
  8
치수문자_일반주서
 62
     0
370
    -2
100
AcDbLine
 10
92.3091199960196
 20
14.82968750000007
 30
0.0
 11
92.3091199960195
 21
51.18368750000007
 31
0.0
  0
LINE
  5
225
330
21F
100
AcDbEntity
  8
치수문자_일반주서
 62
     0
370
    -2
100
AcDbLine
 10
92.3091199960196
 20
14.82968750000007
 30
0.0
 11
92.30911999601962
 21
9.670312500000069
 31
0.0
  0
LINE
  5
226
330
21F
100
AcDbEntity
  8
치수문자_일반주서
 62
     0
370
    -2
100
AcDbLine
 10
92.30911999601959
 20
18.13168750000007
 30
0.0
 11
92.30911999601958
 21
21.43368750000007
 31
0.0
  0
LINE
  5
227
330
21F
100
AcDbEntity
  8
치수문자_일반주서
 62
     0
370
    -2
100
AcDbLine
 10
92.30911999601963
 20
6.368312500000069
 30
0.0
 11
92.30911999601965
 21
3.06631250000007
 31
0.0
  0
SOLID
  5
228
330
21F
100
AcDbEntity
  8
치수문자_일반주서
 62
     0
100
AcDbTrace
 10
91.75878666268626
 20
18.13168750000007
 30
0.0
 11
92.85945332935292
 21
18.13168750000007
 31
0.0
 12
92.3091199960196
 22
14.82968750000007
 32
0.0
 13
92.3091199960196
 23
14.82968750000007
 33
0.0
  0
SOLID
  5
229
330
21F
100
AcDbEntity
  8
치수문자_일반주서
 62
     0
100
AcDbTrace
 10
92.85945332935296
 20
6.368312500000071
 30
0.0
 11
91.7587866626863
 21
6.368312500000068
 31
0.0
 12
92.30911999601962
 22
9.670312500000069
 32
0.0
 13
92.30911999601962
 23
9.670312500000069
 33
0.0
  0
MTEXT
  5
22A
330
21F
100
AcDbEntity
  8
치수문자_일반주서
 62
     0
100
AcDbMText
 10
87.93411999601955
 20
36.30868750000005
 30
0.0
 40
3.5
 41
0.0
 71
     2
 72
     1
  1
\A1;%%c5.16 [13/64]
  7
SLDTEXTSTYLE0
 11
-2.754375232504325E-15
 21
1.0
 31
0.0
 73
     1
 44
1.0
  0
POINT
  5
22B
330
21F
100
AcDbEntity
  8
Defpoints
 62
     0
100
AcDbPoint
 10
77.58827283782725
 20
14.82968750000001
 30
0.0
  0
POINT
  5
22C
330
21F
100
AcDbEntity
  8
Defpoints
 62
     0
100
AcDbPoint
 10
77.58827283782723
 20
9.670312500000014
 30
0.0
  0
POINT
  5
22D
330
21F
100
AcDbEntity
  8
Defpoints
 62
     0
100
AcDbPoint
 10
92.30911999601965
 20
9.670312500000069
 30
0.0
  0
ENDBLK
  5
221
330
21F
100
AcDbEntity
  8
0
100
AcDbBlockEnd
  0
BLOCK
  5
26A
330
269
100
AcDbEntity
  8
0
100
AcDbBlockBegin
  2
*D12
 70
     1
 10
0.0
 20
0.0
 30
0.0
  3
*D12
  1
*D12
  0
LINE
  5
26C
330
269
100
AcDbEntity
  8
치수문자_일반주서
 62
     0
370
    -2
100
AcDbLine
 10
152.1141762442132
 20
-34.98211343016705
 30
0.0
 11
152.1141762442132
 21
-22.83112130236993
 31
0.0
  0
LINE
  5
26D
330
269
100
AcDbEntity
  8
치수문자_일반주서
 62
     0
370
    -2
100
AcDbLine
 10
137.8266762442133
 20
-35.00808276607745
 30
0.0
 11
137.8266762442133
 21
-22.83112130236993
 31
0.0
  0
LINE
  5
26E
330
269
100
AcDbEntity
  8
치수문자_일반주서
 62
     0
370
    -2
100
AcDbLine
 10
137.8266762442133
 20
-22.83112130236993
 30
0.0
 11
104.0976762442133
 21
-22.83112130236993
 31
0.0
  0
LINE
  5
26F
330
269
100
AcDbEntity
  8
치수문자_일반주서
 62
     0
370
    -2
100
AcDbLine
 10
152.1141762442132
 20
-22.83112130236993
 30
0.0
 11
137.8266762442133
 21
-22.83112130236993
 31
0.0
  0
LINE
  5
270
330
269
100
AcDbEntity
  8
치수문자_일반주서
 62
     0
370
    -2
100
AcDbLine
 10
155.4161762442132
 20
-22.83112130236993
 30
0.0
 11
158.7181762442132
 21
-22.83112130236993
 31
0.0
  0
LINE
  5
271
330
269
100
AcDbEntity
  8
치수문자_일반주서
 62
     0
370
    -2
100
AcDbLine
 10
134.5246762442133
 20
-22.83112130236993
 30
0.0
 11
131.2226762442133
 21
-22.83112130236993
 31
0.0
  0
SOLID
  5
272
330
269
100
AcDbEntity
  8
치수문자_일반주서
 62
     0
100
AcDbTrace
 10
155.4161762442132
 20
-22.2807879690366
 30
0.0
 11
155.4161762442132
 21
-23.38145463570326
 31
0.0
 12
152.1141762442132
 22
-22.83112130236993
 32
0.0
 13
152.1141762442132
 23
-22.83112130236993
 33
0.0
  0
SOLID
  5
273
330
269
100
AcDbEntity
  8
치수문자_일반주서
 62
     0
100
AcDbTrace
 10
134.5246762442133
 20
-23.38145463570326
 30
0.0
 11
134.5246762442133
 21
-22.2807879690366
 31
0.0
 12
137.8266762442133
 22
-22.83112130236993
 32
0.0
 13
137.8266762442133
 23
-22.83112130236993
 33
0.0
  0
MTEXT
  5
274
330
269
100
AcDbEntity
  8
치수문자_일반주서
 62
     0
100
AcDbMText
 10
117.6601762442133
 20
-18.45612130236993
 30
0.0
 40
3.5
 41
0.0
 71
     2
 72
     1
  1
\A1;14.29 [9/16]
  7
SLDTEXTSTYLE0
 73
     1
 44
1.0
  0
POINT
  5
275
330
269
100
AcDbEntity
  8
Defpoints
 62
     0
100
AcDbPoint
 10
152.1141762442132
 20
-35.04461343016705
 30
0.0
  0
POINT
  5
276
330
269
100
AcDbEntity
  8
Defpoints
 62
     0
100
AcDbPoint
 10
137.8266762442133
 20
-35.07058276607745
 30
0.0
  0
POINT
  5
277
330
269
100
AcDbEntity
  8
Defpoints
 62
     0
100
AcDbPoint
 10
137.8266762442133
 20
-22.83112130236993
 30
0.0
  0
ENDBLK
  5
26B
330
269
100
AcDbEntity
  8
0
100
AcDbBlockEnd
  0
BLOCK
  5
279
330
278
100
AcDbEntity
  8
0
100
AcDbBlockBegin
  2
*D13
 70
     1
 10
0.0
 20
0.0
 30
0.0
  3
*D13
  1
*D13
  0
LINE
  5
27B
330
278
100
AcDbEntity
  8
치수문자_일반주서
 62
     0
370
    -2
100
AcDbLine
 10
152.1141762442132
 20
-34.98211343016705
 30
0.0
 11
152.1141762442132
 21
-6.152056911082255
 31
0.0
  0
LINE
  5
27C
330
278
100
AcDbEntity
  8
치수문자_일반주서
 62
     0
370
    -2
100
AcDbLine
 10
90.20167624421325
 20
-33.75180093016705
 30
0.0
 11
90.20167624421325
 21
-6.152056911082255
 31
0.0
  0
LINE
  5
27D
330
278
100
AcDbEntity
  8
치수문자_일반주서
 62
     0
370
    -2
100
AcDbLine
 10
148.8121762442132
 20
-6.152056911082255
 30
0.0
 11
93.50367624421324
 21
-6.152056911082255
 31
0.0
  0
SOLID
  5
27E
330
278
100
AcDbEntity
  8
치수문자_일반주서
 62
     0
100
AcDbTrace
 10
148.8121762442132
 20
-6.702390244415589
 30
0.0
 11
148.8121762442132
 21
-5.601723577748921
 31
0.0
 12
152.1141762442132
 22
-6.152056911082255
 32
0.0
 13
152.1141762442132
 23
-6.152056911082255
 33
0.0
  0
SOLID
  5
27F
330
278
100
AcDbEntity
  8
치수문자_일반주서
 62
     0
100
AcDbTrace
 10
93.50367624421324
 20
-5.601723577748921
 30
0.0
 11
93.50367624421324
 21
-6.702390244415589
 31
0.0
 12
90.20167624421325
 22
-6.152056911082255
 32
0.0
 13
90.20167624421325
 23
-6.152056911082255
 33
0.0
  0
MTEXT
  5
280
330
278
100
AcDbEntity
  8
치수문자_일반주서
 62
     0
100
AcDbMText
 10
121.1579262442132
 20
-1.777056911082255
 30
0.0
 40
3.5
 41
0.0
 71
     2
 72
     1
  1
\A1;61.91 [2 7/16]
  7
SLDTEXTSTYLE0
 73
     1
 44
1.0
  0
POINT
  5
281
330
278
100
AcDbEntity
  8
Defpoints
 62
     0
100
AcDbPoint
 10
152.1141762442132
 20
-35.04461343016705
 30
0.0
  0
POINT
  5
282
330
278
100
AcDbEntity
  8
Defpoints
 62
     0
100
AcDbPoint
 10
90.20167624421325
 20
-33.81430093016705
 30
0.0
  0
POINT
  5
283
330
278
100
AcDbEntity
  8
Defpoints
 62
     0
100
AcDbPoint
 10
90.20167624421325
 20
-6.152056911082255
 30
0.0
  0
ENDBLK
  5
27A
330
278
100
AcDbEntity
  8
0
100
AcDbBlockEnd
  0
BLOCK
  5
285
330
284
100
AcDbEntity
  8
0
100
AcDbBlockBegin
  2
*D14
 70
     1
 10
0.0
 20
0.0
 30
0.0
  3
*D14
  1
*D14
  0
LINE
  5
287
330
284
100
AcDbEntity
  8
치수문자_일반주서
 62
     0
370
    -2
100
AcDbLine
 10
91.09167624421323
 20
-32.86180093016705
 30
0.0
 11
78.90090340638604
 21
-32.86180093016709
 31
0.0
  0
LINE
  5
288
330
284
100
AcDbEntity
  8
치수문자_일반주서
 62
     0
370
    -2
100
AcDbLine
 10
91.09167624421323
 20
-42.38680093016706
 30
0.0
 11
78.90090340638606
 21
-42.3868009301671
 31
0.0
  0
LINE
  5
289
330
284
100
AcDbEntity
  8
치수문자_일반주서
 62
     0
370
    -2
100
AcDbLine
 10
78.90090340638605
 20
-36.16380093016709
 30
0.0
 11
78.90090340638605
 21
-39.0848009301671
 31
0.0
  0
SOLID
  5
28A
330
284
100
AcDbEntity
  8
치수문자_일반주서
 62
     0
100
AcDbTrace
 10
79.45123673971938
 20
-36.16380093016709
 30
0.0
 11
78.35057007305272
 21
-36.16380093016709
 31
0.0
 12
78.90090340638604
 22
-32.86180093016709
 32
0.0
 13
78.90090340638604
 23
-32.86180093016709
 33
0.0
  0
SOLID
  5
28B
330
284
100
AcDbEntity
  8
치수문자_일반주서
 62
     0
100
AcDbTrace
 10
78.35057007305272
 20
-39.0848009301671
 30
0.0
 11
79.45123673971938
 21
-39.0848009301671
 31
0.0
 12
78.90090340638606
 22
-42.3868009301671
 32
0.0
 13
78.90090340638606
 23
-42.3868009301671
 33
0.0
  0
MTEXT
  5
28C
330
284
100
AcDbEntity
  8
치수문자_일반주서
 62
     0
100
AcDbMText
 10
74.52590340638605
 20
-37.62430093016707
 30
0.0
 40
3.5
 41
0.0
 71
     2
 72
     1
  1
\A1;%%c9.53 [3/8]
  7
SLDTEXTSTYLE0
 11
-2.983906501879684E-15
 21
1.0
 31
0.0
 73
     1
 44
1.0
  0
POINT
  5
28D
330
284
100
AcDbEntity
  8
Defpoints
 62
     0
100
AcDbPoint
 10
91.15417624421323
 20
-32.86180093016705
 30
0.0
  0
POINT
  5
28E
330
284
100
AcDbEntity
  8
Defpoints
 62
     0
100
AcDbPoint
 10
91.15417624421323
 20
-42.38680093016706
 30
0.0
  0
POINT
  5
28F
330
284
100
AcDbEntity
  8
Defpoints
 62
     0
100
AcDbPoint
 10
78.90090340638606
 20
-42.3868009301671
 30
0.0
  0
ENDBLK
  5
286
330
284
100
AcDbEntity
  8
0
100
AcDbBlockEnd
  0
BLOCK
  5
291
330
290
100
AcDbEntity
  8
0
100
AcDbBlockBegin
  2
*D15
 70
     1
 10
0.0
 20
0.0
 30
0.0
  3
*D15
  1
*D15
  0
LINE
  5
293
330
290
100
AcDbEntity
  8
치수문자_일반주서
 62
     0
370
    -2
100
AcDbLine
 10
152.1766762442132
 20
-35.04461343016705
 30
0.0
 11
166.8350234024057
 21
-35.044613430167
 31
0.0
  0
LINE
  5
294
330
290
100
AcDbEntity
  8
치수문자_일반주서
 62
     0
370
    -2
100
AcDbLine
 10
152.1766762442132
 20
-40.20398843016705
 30
0.0
 11
166.8350234024057
 21
-40.20398843016699
 31
0.0
  0
LINE
  5
295
330
290
100
AcDbEntity
  8
치수문자_일반주서
 62
     0
370
    -2
100
AcDbLine
 10
166.8350234024057
 20
-35.044613430167
 30
0.0
 11
166.8350234024055
 21
1.309386569833002
 31
0.0
  0
LINE
  5
296
330
290
100
AcDbEntity
  8
치수문자_일반주서
 62
     0
370
    -2
100
AcDbLine
 10
166.8350234024057
 20
-35.044613430167
 30
0.0
 11
166.8350234024057
 21
-40.20398843016699
 31
0.0
  0
LINE
  5
297
330
290
100
AcDbEntity
  8
치수문자_일반주서
 62
     0
370
    -2
100
AcDbLine
 10
166.8350234024056
 20
-31.742613430167
 30
0.0
 11
166.8350234024056
 21
-28.440613430167
 31
0.0
  0
LINE
  5
298
330
290
100
AcDbEntity
  8
치수문자_일반주서
 62
     0
370
    -2
100
AcDbLine
 10
166.8350234024057
 20
-43.50598843016699
 30
0.0
 11
166.8350234024057
 21
-46.80798843016699
 31
0.0
  0
SOLID
  5
299
330
290
100
AcDbEntity
  8
치수문자_일반주서
 62
     0
100
AcDbTrace
 10
166.2846900690723
 20
-31.742613430167
 30
0.0
 11
167.385356735739
 21
-31.74261343016699
 31
0.0
 12
166.8350234024057
 22
-35.044613430167
 32
0.0
 13
166.8350234024057
 23
-35.044613430167
 33
0.0
  0
SOLID
  5
29A
330
290
100
AcDbEntity
  8
치수문자_일반주서
 62
     0
100
AcDbTrace
 10
167.385356735739
 20
-43.50598843016699
 30
0.0
 11
166.2846900690724
 21
-43.50598843016699
 31
0.0
 12
166.8350234024057
 22
-40.20398843016699
 32
0.0
 13
166.8350234024057
 23
-40.20398843016699
 33
0.0
  0
MTEXT
  5
29B
330
290
100
AcDbEntity
  8
치수문자_일반주서
 62
     0
100
AcDbMText
 10
162.4600234024055
 20
-13.56561343016702
 30
0.0
 40
3.5
 41
0.0
 71
     2
 72
     1
  1
\A1;%%c5.16 [13/64]
  7
SLDTEXTSTYLE0
 11
-5.508750465008654E-15
 21
1.0
 31
0.0
 73
     1
 44
1.0
  0
POINT
  5
29C
330
290
100
AcDbEntity
  8
Defpoints
 62
     0
100
AcDbPoint
 10
152.1141762442132
 20
-35.04461343016705
 30
0.0
  0
POINT
  5
29D
330
290
100
AcDbEntity
  8
Defpoints
 62
     0
100
AcDbPoint
 10
152.1141762442132
 20
-40.20398843016705
 30
0.0
  0
POINT
  5
29E
330
290
100
AcDbEntity
  8
Defpoints
 62
     0
100
AcDbPoint
 10
166.8350234024056
 20
-40.20398843016699
 30
0.0
  0
ENDBLK
  5
292
330
290
100
AcDbEntity
  8
0
100
AcDbBlockEnd
  0
ENDSEC
  0
SECTION
  2
ENTITIES
  0
LINE
  5
96
330
1F
100
AcDbEntity
  8
외형선
  6
Continuous
370
    15
100
AcDbLine
 10
1.999999999999996
 20
-4.761425071276111
 30
0.0
 11
10.88694598552339
 21
-2.380175071276107
 31
0.0
  0
LINE
  5
97
330
1F
100
AcDbEntity
  8
외형선
  6
Continuous
370
    15
100
AcDbLine
 10
10.88694598552339
 20
2.382324928723893
 30
0.0
 11
1.999999999999996
 21
4.763574928723898
 31
0.0
  0
LINE
  5
98
330
1F
100
AcDbEntity
  8
외형선
  6
Continuous
370
    15
100
AcDbLine
 10
-34.78555401447661
 20
-4.761425071276109
 30
0.0
 11
1.999999999999996
 21
-4.761425071276109
 31
0.0
  0
LINE
  5
99
330
1F
100
AcDbEntity
  8
외형선
  6
Continuous
370
    15
100
AcDbLine
 10
1.999999999999996
 20
4.763574928723895
 30
0.0
 11
-11.05560401447648
 21
4.763574928723895
 31
0.0
  0
LINE
  5
9A
330
1F
100
AcDbEntity
  8
외형선
  6
Continuous
370
    15
100
AcDbLine
 10
-34.78555401447661
 20
4.763574928723893
 30
0.0
 11
-35.7380540144766
 21
3.811074928723895
 31
0.0
  0
LINE
  5
9B
330
1F
100
AcDbEntity
  8
외형선
  6
Continuous
370
    15
100
AcDbLine
 10
-35.7380540144766
 20
-3.808925071276108
 30
0.0
 11
-34.78555401447661
 21
-4.761425071276106
 31
0.0
  0
LINE
  5
9C
330
1F
100
AcDbEntity
  8
외형선
  6
Continuous
370
    15
100
AcDbLine
 10
10.88694598552339
 20
-2.380175071276107
 30
0.0
 11
11.38710198063626
 21
-2.380175071276107
 31
0.0
  0
LINE
  5
9D
330
1F
100
AcDbEntity
  8
외형선
  6
Continuous
370
    15
100
AcDbLine
 10
11.38710198063626
 20
2.382324928723893
 30
0.0
 11
10.88694598552339
 21
2.382324928723893
 31
0.0
  0
LINE
  5
9E
330
1F
100
AcDbEntity
  8
0
  6
Continuous
 62
     1
370
    15
100
AcDbLine
 10
18.46297900097905
 20
-2.380175071276108
 30
0.0
 11
19.91374815248983
 21
-2.380175071276108
 31
0.0
  0
LINE
  5
9F
330
1F
100
AcDbEntity
  8
0
  6
Continuous
 62
     1
370
    15
100
AcDbLine
 10
13.43536447768549
 20
2.382324928723894
 30
0.0
 11
11.98244811889849
 21
2.382324928723894
 31
0.0
  0
LINE
  5
A0
330
1F
100
AcDbEntity
  8
0
  6
Continuous
 62
     1
370
    15
100
AcDbLine
 10
19.91374815248984
 20
2.382324928723894
 30
0.0
 11
18.46297900097908
 21
2.382324928723894
 31
0.0
  0
LINE
  5
A1
330
1F
100
AcDbEntity
  8
0
  6
Continuous
 62
     1
370
    15
100
AcDbLine
 10
11.9824481188985
 20
-2.380175071276108
 30
0.0
 11
13.43536447768545
 21
-2.380175071276108
 31
0.0
  0
LINE
  5
A2
330
1F
100
AcDbEntity
  8
외형선
  6
Continuous
370
    15
100
AcDbLine
 10
10.88694598552339
 20
0.0010749287238931
 30
0.0
 11
10.88694598552339
 21
2.382324928723893
 31
0.0
  0
LINE
  5
A3
330
1F
100
AcDbEntity
  8
외형선
  6
Continuous
370
    15
100
AcDbLine
 10
10.88694598552339
 20
-2.380175071276107
 30
0.0
 11
10.88694598552339
 21
0.0010749287238931
 31
0.0
  0
LINE
  5
A4
330
1F
100
AcDbEntity
  8
외형선
  6
Continuous
370
    15
100
AcDbLine
 10
1.999999999999996
 20
0.0010749287238931
 30
0.0
 11
1.999999999999996
 21
4.763574928723898
 31
0.0
  0
LINE
  5
A5
330
1F
100
AcDbEntity
  8
외형선
  6
Continuous
370
    15
100
AcDbLine
 10
1.999999999999996
 20
-4.761425071276111
 30
0.0
 11
1.999999999999996
 21
0.0010749287238931
 31
0.0
  0
LINE
  5
A6
330
1F
100
AcDbEntity
  8
외형선
  6
Continuous
370
    15
100
AcDbLine
 10
-34.78555401447661
 20
0.0010749287238931
 30
0.0
 11
-34.78555401447661
 21
4.763574928723895
 31
0.0
  0
LINE
  5
A7
330
1F
100
AcDbEntity
  8
외형선
  6
Continuous
370
    15
100
AcDbLine
 10
-34.78555401447661
 20
-4.761425071276109
 30
0.0
 11
-34.78555401447661
 21
0.0010749287238931
 31
0.0
  0
LINE
  5
A8
330
1F
100
AcDbEntity
  8
외형선
  6
Continuous
370
    15
100
AcDbLine
 10
-35.7380540144766
 20
0.0010749287238931
 30
0.0
 11
-35.7380540144766
 21
3.811074928723895
 31
0.0
  0
LINE
  5
A9
330
1F
100
AcDbEntity
  8
외형선
  6
Continuous
370
    15
100
AcDbLine
 10
-35.7380540144766
 20
-3.808925071276108
 30
0.0
 11
-35.7380540144766
 21
0.0010749287238931
 31
0.0
  0
SPLINE
  5
AA
330
1F
100
AcDbEntity
  8
외형선
  6
Continuous
370
    15
100
AcDbSpline
210
0.0
220
0.0
230
1.0
 70
     8
 71
     3
 72
     8
 73
     4
 74
     0
 42
0.000000001
 43
0.00000001
 40
0.0
 40
0.0
 40
0.0
 40
0.0
 40
1.0
 40
1.0
 40
1.0
 40
1.0
 10
11.88694598552354
 20
2.381683655167244
 30
0.0
 10
11.71951463690836
 20
2.37944079078111
 30
0.0
 10
11.55445923682238
 20
2.371355219235154
 30
0.0
 10
11.38710198063627
 20
2.357413911552652
 30
0.0
  0
LINE
  5
AB
330
1F
100
AcDbEntity
  8
외형선
  6
Continuous
370
    15
100
AcDbLine
 10
11.38710198063626
 20
1.136003626052484
 30
0.0
 11
11.38710198063626
 21
2.382324928723893
 31
0.0
  0
SPLINE
  5
AC
330
1F
100
AcDbEntity
  8
외형선
  6
Continuous
370
    15
100
AcDbSpline
210
0.0
220
0.0
230
1.0
 70
     8
 71
     3
 72
     8
 73
     4
 74
     0
 42
0.000000001
 43
0.00000001
 40
0.0
 40
0.0
 40
0.0
 40
0.0
 40
1.0
 40
1.0
 40
1.0
 40
1.0
 10
11.88694598552356
 20
0.8737799481734065
 30
0.0
 10
11.71951463690838
 20
0.9637044416743593
 30
0.0
 10
11.55445923682239
 20
1.051058278549214
 30
0.0
 10
11.38710198063624
 20
1.136011276472711
 30
0.0
  0
SPLINE
  5
AD
330
1F
100
AcDbEntity
  8
외형선
  6
Continuous
370
    15
100
AcDbSpline
210
0.0
220
0.0
230
1.0
 70
     8
 71
     3
 72
     8
 73
     4
 74
     0
 42
0.000000001
 43
0.00000001
 40
0.0
 40
0.0
 40
0.0
 40
0.0
 40
1.0
 40
1.0
 40
1.0
 40
1.0
 10
11.88694598552354
 20
0.0563348064089635
 30
0.0
 10
11.71951463690836
 20
0.1529579397479333
 30
0.0
 10
11.55445923682238
 20
0.2489886523856233
 30
0.0
 10
11.38710198063627
 20
0.3446126420852296
 30
0.0
  0
LINE
  5
AE
330
1F
100
AcDbEntity
  8
외형선
  6
Continuous
370
    15
100
AcDbLine
 10
11.38710198063626
 20
-2.092316676896042
 30
0.0
 11
11.38710198063626
 21
0.3446327832913368
 31
0.0
  0
SPLINE
  5
AF
330
1F
100
AcDbEntity
  8
외형선
  6
Continuous
370
    15
100
AcDbSpline
210
0.0
220
0.0
230
1.0
 70
     8
 71
     3
 72
     8
 73
     4
 74
     0
 42
0.000000001
 43
0.00000001
 40
0.0
 40
0.0
 40
0.0
 40
0.0
 40
1.0
 40
1.0
 40
1.0
 40
1.0
 10
11.88694598552356
 20
-2.214492157041648
 30
0.0
 10
11.71951463690838
 20
-2.179071177305157
 30
0.0
 10
11.55445923682239
 20
-2.138370054222747
 30
0.0
 10
11.38710198063624
 20
-2.092312529215645
 30
0.0
  0
SPLINE
  5
B0
330
1F
100
AcDbEntity
  8
외형선
  6
Continuous
370
    15
100
AcDbSpline
210
0.0
220
0.0
230
1.0
 70
     8
 71
     3
 72
     8
 73
     4
 74
     0
 42
0.000000001
 43
0.00000001
 40
0.0
 40
0.0
 40
0.0
 40
0.0
 40
1.0
 40
1.0
 40
1.0
 40
1.0
 10
11.88694598552354
 20
-2.379533797719457
 30
0.0
 10
11.71951463690836
 20
-2.377290933333323
 30
0.0
 10
11.55445923682238
 20
-2.369205361787368
 30
0.0
 10
11.38710198063627
 20
-2.355264054104866
 30
0.0
  0
LINE
  5
B1
330
1F
100
AcDbEntity
  8
외형선
  6
Continuous
370
    15
100
AcDbLine
 10
11.38710198063626
 20
-2.380175071276107
 30
0.0
 11
11.38710198063626
 21
-2.35526111757023
 31
0.0
  0
LINE
  5
B2
330
1F
100
AcDbEntity
  8
외형선
  6
Continuous
370
    15
100
AcDbLine
 10
11.88694598552339
 20
-2.379533797719522
 30
0.0
 11
11.8869459855234
 21
-2.21449215704161
 31
0.0
  0
LINE
  5
B3
330
1F
100
AcDbEntity
  8
외형선
  6
Continuous
370
    15
100
AcDbLine
 10
11.88694598552339
 20
0.0563348064090415
 30
0.0
 11
11.8869459855234
 21
0.873779948173504
 31
0.0
  0
SPLINE
  5
B4
330
1F
100
AcDbEntity
  8
외형선
  6
Continuous
370
    15
100
AcDbSpline
210
0.0
220
0.0
230
1.0
 70
    24
 71
     3
 72
    14
 73
    10
 74
     0
 42
0.000000001
 43
0.00000001
 40
0.0
 40
0.0
 40
0.0
 40
0.0
 40
0.0818768874367463
 40
0.2355670667290146
 40
0.3892572460209091
 40
0.5429474253135563
 40
0.696637604605828
 40
0.8503277838980962
 40
0.9999999999999999
 40
0.9999999999999999
 40
0.9999999999999999
 40
0.9999999999999999
 10
11.8869459855234
 20
-2.21449215704161
 30
0.0
 10
11.8869459855234
 20
-2.145311992127258
 30
0.0
 10
11.88694598552343
 20
-1.946274522153898
 30
0.0
 10
11.88694598552338
 20
-1.552089757282091
 30
0.0
 10
11.8869459855234
 20
-1.064613223825516
 30
0.0
 10
11.88694598552342
 20
-0.6030659887495585
 30
0.0
 10
11.88694598552342
 20
-0.2256248749992559
 30
0.0
 10
11.88694598552338
 20
0.0389336719706413
 30
0.0
 10
11.88694598552337
 20
0.0853638154197385
 30
0.0
 10
11.88694598552338
 20
0.1082714090090037
 30
0.0
  0
SPLINE
  5
B5
330
1F
100
AcDbEntity
  8
외형선
  6
Continuous
370
    15
100
AcDbSpline
210
0.0
220
0.0
230
1.0
 70
    24
 71
     3
 72
    14
 73
    10
 74
     0
 42
0.000000001
 43
0.00000001
 40
0.0
 40
0.0
 40
0.0
 40
0.0
 40
0.1116737861406404
 40
0.2588443452841526
 40
0.4102828606128692
 40
0.557453419756314
 40
0.7088919350849548
 40
0.8524694708625392
 40
1.0
 40
1.0
 40
1.0
 40
1.0
 10
11.8869459855234
 20
0.9159757191259884
 30
0.0
 10
11.8869459855234
 20
0.956170480324672
 30
0.0
 10
11.8869459855234
 20
1.049336361109113
 30
0.0
 10
11.88694598552342
 20
1.229901913197952
 30
0.0
 10
11.88694598552335
 20
1.443690633518656
 30
0.0
 10
11.88694598552342
 20
1.675954237024737
 30
0.0
 10
11.88694598552335
 20
1.91244470405074
 30
0.0
 10
11.88694598552342
 20
2.151802660025248
 30
0.0
 10
11.8869459855234
 20
2.304366097360495
 30
0.0
 10
11.88694598552339
 20
2.381683655167309
 30
0.0
  0
SPLINE
  5
B6
330
1F
100
AcDbEntity
  8
0
  6
Continuous
 62
     1
370
    15
100
AcDbSpline
210
0.0
220
0.0
230
1.0
 70
     8
 71
     3
 72
    18
 73
    14
 74
     0
 42
0.000000001
 43
0.00000001
 40
0.0
 40
0.0
 40
0.0
 40
0.0
 40
0.0964800333398075
 40
0.1930324247762231
 40
0.2895273524412127
 40
0.3859559849986743
 40
0.4823478941687885
 40
0.5787329195896086
 40
0.6751409512190107
 40
0.763610591353149
 40
0.85215641629359
 40
0.9405459807080645
 40
0.9999999999999999
 40
0.9999999999999999
 40
0.9999999999999999
 40
0.9999999999999999
 10
11.88694598552355
 20
0.8737799481734196
 30
0.0
 10
12.2256999704283
 20
0.6867019044005044
 30
0.0
 10
12.90346199895565
 20
0.3124055120610704
 30
0.0
 10
13.92031256350822
 20
-0.2814523082669133
 30
0.0
 10
14.93676507903073
 20
-0.8547287130461363
 30
0.0
 10
15.95251857780734
 20
-1.377264460730235
 30
0.0
 10
16.96780906366459
 20
-1.816239239100759
 30
0.0
 10
17.98300687730877
 20
-2.145686393400613
 30
0.0
 10
18.97046263717202
 20
-2.339754645411347
 30
0.0
 10
19.93041996729848
 20
-2.401111726778566
 30
0.0
 10
20.86260190154636
 20
-2.334985137460529
 30
0.0
 10
21.69236629320334
 20
-2.183071272924503
 30
0.0
 10
22.21128594337735
 20
-2.011742731259055
 30
0.0
 10
22.41996499537916
 20
-1.942844439117649
 30
0.0
  0
SPLINE
  5
B7
330
1F
100
AcDbEntity
  8
0
  6
Continuous
 62
     1
370
    15
100
AcDbSpline
210
0.0
220
0.0
230
1.0
 70
     8
 71
     3
 72
    38
 73
    34
 74
     0
 42
0.000000001
 43
0.00000001
 40
0.0
 40
0.0
 40
0.0
 40
0.0
 40
0.0625
 40
0.0625
 40
0.125
 40
0.125
 40
0.1875
 40
0.1875
 40
0.25
 40
0.25
 40
0.3125
 40
0.3125
 40
0.375
 40
0.375
 40
0.4375
 40
0.4375
 40
0.5
 40
0.5
 40
0.5625
 40
0.5625
 40
0.625
 40
0.625
 40
0.6875
 40
0.6875
 40
0.75
 40
0.75
 40
0.8125
 40
0.8125
 40
0.875
 40
0.875
 40
0.9375
 40
0.9375
 40
1.0
 40
1.0
 40
1.0
 40
1.0
 10
24.5869459855234
 20
-2.380175071276103
 30
0.0
 10
24.32507957525113
 20
-2.358375419412754
 30
0.0
 10
24.05776826858835
 20
-2.330564476740648
 30
0.0
 10
23.52692809638765
 20
-2.246551687263109
 30
0.0
 10
23.26595683572733
 20
-2.190681316617393
 30
0.0
 10
22.73488965678424
 20
-2.052001501026681
 30
0.0
 10
22.4683548083311
 20
-1.969350218295977
 30
0.0
 10
21.94395075889384
 20
-1.781871070825075
 30
0.0
 10
21.67653092301584
 20
-1.675894002216981
 30
0.0
 10
21.1459473490659
 20
-1.445050094826534
 30
0.0
 10
20.88492489190038
 20
-1.320632998767172
 30
0.0
 10
20.35366034000218
 20
-1.055610548789676
 30
0.0
 10
20.08785178322804
 20
-0.915676485327637
 30
0.0
 10
19.56280490690624
 20
-0.6274589447987291
 30
0.0
 10
19.29529170714083
 20
-0.4776568663123671
 30
0.0
 10
18.76499427518632
 20
-0.1748452071972613
 30
0.0
 10
18.5038694345232
 20
-0.0221885371682736
 30
0.0
 10
17.97243718023489
 20
0.2832904145129116
 30
0.0
 10
17.70730461458547
 20
0.435103294884058
 30
0.0
 10
17.18164343139341
 20
0.7306861155523724
 30
0.0
 10
16.91405205089129
 20
0.8757531112471552
 30
0.0
 10
16.38407025144734
 20
1.152370606906894
 30
0.0
 10
16.12279185931583
 20
1.283800706323321
 30
0.0
 10
15.59122160446451
 20
1.530715164625999
 30
0.0
 10
15.32671460452709
 20
1.645234783638048
 30
0.0
 10
14.8004677474153
 20
1.85234765114319
 30
0.0
 10
14.53281338425767
 20
1.945645212624627
 30
0.0
 10
14.00317664916458
 20
2.106435875807692
 30
0.0
 10
13.74169356611707
 20
2.174031393557956
 30
0.0
 10
13.21001503826429
 20
2.282330013888558
 30
0.0
 10
12.94608306298106
 20
2.322531581056128
 30
0.0
 10
12.41927927272309
 20
2.373955996104994
 30
0.0
 10
12.15157713702319
 20
2.385228581431466
 30
0.0
 10
11.88694598552358
 20
2.381683655167245
 30
0.0
  0
SPLINE
  5
B8
330
1F
100
AcDbEntity
  8
외형선
  6
Continuous
370
    15
100
AcDbSpline
210
0.0
220
0.0
230
1.0
 70
    24
 71
     3
 72
    14
 73
    10
 74
     0
 42
0.000000001
 43
0.00000001
 40
0.0
 40
0.0
 40
0.0
 40
0.0
 40
0.1517775572820328
 40
0.3082554902592038
 40
0.4553765564992607
 40
0.6067641436269676
 40
0.7538852098670252
 40
0.905272796994732
 40
1.0
 40
1.0
 40
1.0
 40
1.0
 10
11.88694598552339
 20
2.3816836551674
 30
0.0
 10
11.88694598552338
 20
2.302077163746778
 30
0.0
 10
11.88694598552333
 20
2.140398859785931
 30
0.0
 10
11.88694598552344
 20
1.893640779919196
 30
0.0
 10
11.88694598552333
 20
1.650932210703381
 30
0.0
 10
11.8869459855234
 20
1.421989531429421
 30
0.0
 10
11.88694598552339
 20
1.208283396351886
 30
0.0
 10
11.88694598552338
 20
1.036753785091069
 30
0.0
 10
11.8869459855234
 20
0.9495352788505353
 30
0.0
 10
11.8869459855234
 20
0.9159657191259883
 30
0.0
  0
SPLINE
  5
B9
330
1F
100
AcDbEntity
  8
0
  6
Continuous
 62
     1
370
    15
100
AcDbSpline
210
0.0
220
0.0
230
1.0
 70
     8
 71
     3
 72
    14
 73
    10
 74
     0
 42
0.000000001
 43
0.00000001
 40
0.0
 40
0.0
 40
0.0
 40
0.0
 40
0.1500665174608661
 40
0.291882073072928
 40
0.4334476084562416
 40
0.5749178414182171
 40
0.7164615641286365
 40
0.8582454313829987
 40
1.0
 40
1.0
 40
1.0
 40
1.0
 10
18.46297900097906
 20
-2.378138244381474
 30
0.0
 10
18.13399510245285
 20
-2.365872650202124
 30
0.0
 10
17.49411550816239
 20
-2.342015849117407
 30
0.0
 10
16.54368167478212
 20
-2.144006739058896
 30
0.0
 10
15.61262183001496
 20
-1.850410668594053
 30
0.0
 10
14.6822235812255
 20
-1.460301593019284
 30
0.0
 10
13.75131263719381
 20
-0.9965636153366698
 30
0.0
 10
12.81926772989587
 20
-0.4822636803115046
 30
0.0
 10
12.19769849095154
 20
-0.123185654395898
 30
0.0
 10
11.88694598552358
 20
0.0563348064089436
 30
0.0
  0
LINE
  5
BA
330
1F
100
AcDbEntity
  8
0
  6
Continuous
 62
     1
370
    15
100
AcDbLine
 10
24.5869459855234
 20
-2.380175071276103
 30
0.0
 11
24.58694598552339
 21
-2.155578784191353
 31
0.0
  0
SPLINE
  5
BB
330
1F
100
AcDbEntity
  8
0
  6
Continuous
 62
     1
370
    15
100
AcDbSpline
210
0.0
220
0.0
230
1.0
 70
     8
 71
     3
 72
    19
 73
    15
 74
     0
 42
0.000000001
 43
0.00000001
 40
0.0
 40
0.0
 40
0.0
 40
0.0
 40
0.0434902631681504
 40
0.134629681569171
 40
0.2257064842691477
 40
0.3167486017452943
 40
0.4077842175231408
 40
0.4988415626552716
 40
0.5824011003748744
 40
0.6660325946118335
 40
0.7495165008480523
 40
0.8329394601952367
 40
0.9164009993913438
 40
1.0
 40
1.0
 40
1.0
 40
1.0
 10
13.43536447768549
 20
2.364311927424524
 30
0.0
 10
13.59707151027462
 20
2.368053552868229
 30
0.0
 10
14.09765634740926
 20
2.379636233802798
 30
0.0
 10
14.93676598728706
 20
2.244181063397579
 30
0.0
 10
15.95251833436198
 20
1.973804699923013
 30
0.0
 10
16.96780912982036
 20
1.576608619579425
 30
0.0
 10
17.98300685606635
 20
1.086449891358817
 30
0.0
 10
18.97046265487567
 20
0.5454801174883193
 30
0.0
 10
19.93041992059982
 20
-0.008814860142705
 30
0.0
 10
20.86260207253477
 20
-0.5456903628098503
 30
0.0
 10
21.79370751492297
 20
-1.056004614942219
 30
0.0
 10
22.72411051435597
 20
-1.510329180395164
 30
0.0
 10
23.65497578642942
 20
-1.895881322454229
 30
0.0
 10
24.27611888868598
 20
-2.068965491012802
 30
0.0
 10
24.58694598552339
 20
-2.155578784191352
 30
0.0
  0
SPLINE
  5
BC
330
1F
100
AcDbEntity
  8
0
  6
Continuous
 62
     1
370
    15
100
AcDbSpline
210
0.0
220
0.0
230
1.0
 70
     8
 71
     3
 72
    12
 73
     8
 74
     0
 42
0.000000001
 43
0.00000001
 40
0.0
 40
0.0
 40
0.0
 40
0.0
 40
0.249178034582038
 40
0.4985429477095589
 40
0.7477594497189671
 40
0.9968047320052448
 40
1.0
 40
1.0
 40
1.0
 40
1.0
 10
11.88694598552358
 20
-2.21449215704165
 30
0.0
 10
12.22569987287794
 20
-2.272962209551404
 30
0.0
 10
12.90346170623132
 20
-2.389946165941623
 30
0.0
 10
13.92031373513957
 20
-2.388417497528852
 30
0.0
 10
14.93676068971622
 20
-2.239004329242106
 30
0.0
 10
15.61845077933854
 20
-2.079557041715261
 30
0.0
 10
15.96132130255394
 20
-1.947109698403891
 30
0.0
 10
15.96566462961992
 20
-1.945431915998953
 30
0.0
  0
SPLINE
  5
BD
330
1F
100
AcDbEntity
  8
외형선
  6
Continuous
370
    15
100
AcDbSpline
210
0.0
220
0.0
230
1.0
 70
    24
 71
     3
 72
    21
 73
    17
 74
     0
 42
0.000000001
 43
0.00000001
 40
0.0
 40
0.0
 40
0.0
 40
0.0
 40
0.0040641856848855
 40
0.0798937670860397
 40
0.1579224114848879
 40
0.2337519928860423
 40
0.3117806372848906
 40
0.3876102186861091
 40
0.4656388630848947
 40
0.5414684444860082
 40
0.6194970888848127
 40
0.69532667028601
 40
0.7733553146849049
 40
0.8491848960858757
 40
0.9272135404849098
 40
1.0
 40
1.0
 40
1.0
 40
1.0
 10
11.8869459855234
 20
0.1090922046871286
 30
0.0
 10
11.88694598552339
 20
0.1092002106691386
 30
0.0
 10
11.88694598552345
 20
0.1113233923935102
 30
0.0
 10
11.88694598552329
 20
0.0769227252854112
 30
0.0
 10
11.8869459855234
 20
0.0053203959749269
 30
0.0
 10
11.88694598552345
 20
-0.1094952590156325
 30
0.0
 10
11.88694598552336
 20
-0.2560949107687171
 30
0.0
 10
11.88694598552333
 20
-0.4346084696585353
 30
0.0
 10
11.88694598552342
 20
-0.6363322181799645
 30
0.0
 10
11.88694598552337
 20
-0.8593017201894362
 30
0.0
 10
11.88694598552339
 20
-1.09317296475909
 30
0.0
 10
11.88694598552336
 20
-1.335500312422687
 30
0.0
 10
11.8869459855234
 20
-1.575223601881736
 30
0.0
 10
11.88694598552338
 20
-1.809264549191723
 30
0.0
 10
11.88694598552338
 20
-2.026139515997375
 30
0.0
 10
11.8869459855234
 20
-2.153179876073297
 30
0.0
 10
11.8869459855234
 20
-2.214492157041613
 30
0.0
  0
LINE
  5
BE
330
1F
100
AcDbEntity
  8
0
  6
Continuous
 62
     1
370
    15
100
AcDbLine
 10
24.58694598552339
 20
-2.155578784191353
 30
0.0
 11
24.58694598552339
 21
0.205103641639167
 31
0.0
  0
SPLINE
  5
BF
330
1F
100
AcDbEntity
  8
0
  6
Continuous
 62
     1
370
    15
100
AcDbSpline
210
0.0
220
0.0
230
1.0
 70
     8
 71
     3
 72
    16
 73
    12
 74
     0
 42
0.000000001
 43
0.00000001
 40
0.0
 40
0.0
 40
0.0
 40
0.0
 40
0.1179369526642252
 40
0.2357784386854766
 40
0.3535603806846854
 40
0.4713191350112119
 40
0.5890912274350355
 40
0.7069130862359392
 40
0.8248207767912452
 40
0.9329959860918919
 40
1.0
 40
1.0
 40
1.0
 40
1.0
 10
24.58694598552339
 20
0.2051036416391668
 30
0.0
 10
24.24795314750329
 20
0.3987399957610805
 30
0.0
 10
23.57024187662196
 20
0.7858559608275734
 30
0.0
 10
22.55420781425419
 20
1.316053340989528
 30
0.0
 10
21.53877266418952
 20
1.767598440929153
 30
0.0
 10
20.52358119484862
 20
2.112365814672857
 30
0.0
 10
19.50825130297567
 20
2.329442825430295
 30
0.0
 10
18.4924058312436
 20
2.407293781867742
 30
0.0
 10
17.50400139643457
 20
2.336965347436935
 30
0.0
 10
16.66146437460443
 20
2.179685004619724
 30
0.0
 10
16.15816918255769
 20
2.011796986335841
 30
0.0
 10
15.96566462961995
 20
1.947581773446738
 30
0.0
  0
SPLINE
  5
C0
330
1F
100
AcDbEntity
  8
0
  6
Continuous
 62
     1
370
    15
100
AcDbSpline
210
0.0
220
0.0
230
1.0
 70
     8
 71
     3
 72
    13
 73
     9
 74
     0
 42
0.000000001
 43
0.00000001
 40
0.0
 40
0.0
 40
0.0
 40
0.0
 40
0.0035233900809577
 40
0.2030852853218695
 40
0.4022950053277073
 40
0.6013592935581585
 40
0.8005156412195633
 40
1.0
 40
1.0
 40
1.0
 40
1.0
 10
19.91374815248984
 20
2.381275061013235
 30
0.0
 10
19.91923715877042
 20
2.381624275723365
 30
0.0
 10
20.23561893342757
 20
2.401752722309098
 30
0.0
 10
20.8626212967941
 20
2.330455616021052
 30
0.0
 10
21.79370237369447
 20
2.160251190812671
 30
0.0
 10
22.72411188556008
 20
1.865074065487093
 30
0.0
 10
23.6549754429035
 20
1.482645475776267
 30
0.0
 10
24.27611877411453
 20
1.168053087159763
 30
0.0
 10
24.58694598552339
 20
1.010627465776251
 30
0.0
  0
LINE
  5
C1
330
1F
100
AcDbEntity
  8
0
  6
Continuous
 62
     1
370
    15
100
AcDbLine
 10
24.58694598552339
 20
0.2051036416391669
 30
0.0
 11
24.58694598552339
 21
1.010627465776251
 31
0.0
  0
SPLINE
  5
C2
330
1F
100
AcDbEntity
  8
0
  6
Continuous
 62
     1
370
    15
100
AcDbSpline
210
0.0
220
0.0
230
1.0
 70
     8
 71
     3
 72
    10
 73
     6
 74
     0
 42
0.000000001
 43
0.00000001
 40
0.0
 40
0.0
 40
0.0
 40
0.0
 40
0.4692461639019622
 40
0.9381124862446496
 40
1.0
 40
1.0
 40
1.0
 40
1.0
 10
24.5869459855234
 20
2.382324928723897
 30
0.0
 10
24.24795449412282
 20
2.34085678130119
 30
0.0
 10
23.57024591539053
 20
2.275460623193567
 30
0.0
 10
22.84797110379552
 20
2.106540704747773
 30
0.0
 10
22.46466021269491
 20
1.961864036689011
 30
0.0
 10
22.41996499537915
 20
1.944994296565435
 30
0.0
  0
LINE
  5
C3
330
1F
100
AcDbEntity
  8
외형선
  6
Continuous
370
    15
100
AcDbLine
 10
11.9824481188985
 20
-2.37460719039471
 30
0.0
 11
11.88694598552358
 21
-2.379533797719458
 31
0.0
  0
LINE
  5
C4
330
1F
100
AcDbEntity
  8
0
  6
Continuous
 62
     1
370
    15
100
AcDbLine
 10
24.58694598552339
 20
0.9985641439533354
 30
0.0
 11
24.5869459855234
 21
2.382324928723897
 31
0.0
  0
LINE
  5
C5
330
1F
100
AcDbEntity
  8
중심선
 48
0.8
100
AcDbLine
 10
-38.73805401447661
 20
0.0010749287238892
 30
0.0
 11
27.58694598552341
 21
0.0010749287238974
 31
0.0
  0
LINE
  5
C6
330
1F
100
AcDbEntity
  8
참조1
100
AcDbLine
 10
-5.681896350222704
 20
0.0010749287238892
 30
0.0
 11
-5.681896350222699
 21
-39.99892507127611
 31
0.0
  0
LINE
  5
C7
330
1F
100
AcDbEntity
  8
참조1
100
AcDbLine
 10
-5.681896350222699
 20
-39.99892507127611
 30
0.0
 11
-21.63450316453139
 21
-39.9989250712761
 31
0.0
  0
CIRCLE
  5
C8
330
1F
100
AcDbEntity
  8
해칭선
100
AcDbCircle
 10
0.0
 20
0.0
 30
0.0
 40
3.0
  0
INSERT
  5
C9
330
1F
100
AcDbEntity
  8
0
  6
Continuous
 62
     7
100
AcDbBlockReference
 66
     1
  2
블럭10
 10
-19.62216928234791
 20
-52.04609937292004
 30
0.0
  0
ATTRIB
  5
CA
330
C9
100
AcDbEntity
  8
FORMAT
 62
     2
100
AcDbText
 10
-28.80346457108919
 20
-49.97073246008785
 30
0.0
 40
4.233333333333333
  1
E2031012 [ 4 FLUTE ]
 41
0.75
  7
SLDTEXTSTYLE0
 11
-28.80346457108919
 21
-52.08739912675452
 31
0.0
100
AcDbAttribute
  2
AUTOATTR0
 70
     0
 74
     1
  0
SEQEND
  5
CB
330
C9
100
AcDbEntity
  8
0
  6
Continuous
 62
     7
  0
HATCH
  5
CC
330
1F
100
AcDbEntity
  8
중심선
100
AcDbHatch
 10
0.0
 20
0.0
 30
0.0
210
0.0
220
0.0
230
1.0
  2
SOLID
 70
     1
 71
     0
 91
        1
 92
        0
 93
        4
 72
     1
 10
-13.90725997796707
 20
-35.7989250712761
 11
-17.35353522180436
 21
-35.7989250712761
 72
     1
 10
-17.35353522180436
 20
-35.7989250712761
 11
-19.48176508100838
 21
-38.3352506518487
 72
     1
 10
-19.48176508100838
 20
-38.3352506518487
 11
-16.03545675205795
 21
-38.33521122254621
 72
     1
 10
-16.03545675205795
 20
-38.33521122254621
 11
-13.90725997796707
 21
-35.7989250712761
 97
        0
 75
     0
 76
     1
 98
        1
 10
0.0
 20
0.0
  0
HATCH
  5
CD
330
1F
100
AcDbEntity
  8
중심선
100
AcDbHatch
 10
0.0
 20
0.0
 30
0.0
210
0.0
220
0.0
230
1.0
  2
SOLID
 70
     1
 71
     0
 91
        1
 92
        0
 93
        4
 72
     1
 10
-8.894495986931123
 20
-35.7989250712761
 11
-12.34077123076841
 21
-35.7989250712761
 72
     1
 10
-12.34077123076841
 20
-35.7989250712761
 11
-16.87190923912579
 21
-41.19892507127612
 72
     1
 10
-16.87190923912579
 20
-41.19892507127612
 11
-13.42563399528851
 21
-41.19892507127612
 72
     1
 10
-13.42563399528851
 20
-41.19892507127612
 11
-8.894495986931123
 21
-35.7989250712761
 97
        0
 75
     0
 76
     1
 98
        1
 10
0.0
 20
0.0
  0
HATCH
  5
CE
330
1F
100
AcDbEntity
  8
중심선
100
AcDbHatch
 10
0.0
 20
0.0
 30
0.0
210
0.0
220
0.0
230
1.0
  2
SOLID
 70
     1
 71
     0
 91
        1
 92
        0
 93
        4
 72
     1
 10
-3.881731995895227
 20
-35.79892507127613
 11
-7.328007239732315
 21
-35.79892507127608
 72
     1
 10
-7.328007239732315
 20
-35.79892507127608
 11
-14.37644414162159
 21
-44.19892507127612
 72
     1
 10
-14.37644414162159
 20
-44.19892507127612
 11
-10.93016889778431
 21
-44.19892507127612
 72
     1
 10
-10.93016889778431
 20
-44.19892507127612
 11
-3.881731995895227
 21
-35.79892507127613
 97
        0
 75
     0
 76
     1
 98
        1
 10
0.0
 20
0.0
  0
HATCH
  5
CF
330
1F
100
AcDbEntity
  8
중심선
100
AcDbHatch
 10
0.0
 20
0.0
 30
0.0
210
0.0
220
0.0
230
1.0
  2
SOLID
 70
     1
 71
     0
 91
        1
 92
        0
 93
        6
 72
     3
 10
0.9181584351169725
 20
-39.99892507132738
 11
3.960054785062284
 21
1.540850780301639E-10
 40
0.3939339440162633
 50
17.09539180608433
 51
320.0019657685075
 73
     0
 72
     1
 10
2.60115809081754
 20
-38.58681907591441
 11
4.906459964518605
 21
-36.65249236586649
 72
     3
 10
0.9181584350641259
 20
-39.99892507127625
 11
6.600054785286829
 21
-1.249000902703301E-13
 40
0.6363583540795982
 50
39.99873849337408
 51
368.4976242363725
 73
     1
 72
     1
 10
7.343490926964735
 20
-39.03892507120613
 11
-0.4017742580999517
 21
-39.0389250712061
 72
     1
 10
-0.4017742580999517
 20
-39.0389250712061
 11
-0.4017993025458855
 21
-40.95892507120602
 72
     1
 10
-0.4017993025458855
 20
-40.95892507120602
 11
4.039580466926152
 21
-40.95892507120599
 97
        0
 75
     0
 76
     1
 98
        1
 10
0.0
 20
0.0
  0
DIMENSION
  5
D0
330
1F
100
AcDbEntity
  8
치수문자_일반주서
100
AcDbDimension
  2
_D
 10
11.88694598552339
 20
13.74895982642208
 30
0.0
 11
-7.891745879669913
 21
13.74895982642208
 31
0.0
 70
   160
  1
<>
 71
     2
 42
12.70000000000001
  3
SLDDIMSTYLE2
100
AcDbAlignedDimension
 13
24.5869459855234
 23
2.382324928723897
 33
0.0
 14
11.88694598552339
 24
2.3816836551674
 34
0.0
100
AcDbRotatedDimension
1001
ACAD
1000
DSTYLE
1002
{
1070
   171
1070
     6
1070
   273
1070
     7
1002
}
  0
DIMENSION
  5
E5
330
1F
100
AcDbEntity
  8
치수문자_일반주서
100
AcDbDimension
  2
_D_1
 10
-35.7380540144766
 20
31.27561118355229
 30
0.0
 11
-5.575554014476609
 21
31.27561118355229
 31
0.0
 70
   160
  1
<>
 71
     2
 42
60.325
  3
SLDDIMSTYLE2
100
AcDbAlignedDimension
 13
24.5869459855234
 23
2.382324928723897
 33
0.0
 14
-35.7380540144766
 24
3.811074928723895
 34
0.0
 50
0.0000000000000067
100
AcDbRotatedDimension
1001
ACAD
1000
DSTYLE
1002
{
1070
   171
1070
     6
1070
   273
1070
     7
1002
}
  0
DIMENSION
  5
F9
330
1F
100
AcDbEntity
  8
치수문자_일반주서
100
AcDbDimension
  2
_D_2
 10
-47.03882685230379
 20
-4.761425071276156
 30
0.0
 11
-47.03882685230381
 21
0.0010749287238959
 31
0.0
 70
   160
  1
%%c<>
 71
     2
 42
9.525000000000006
 52
-270.0
  3
SLDDIMSTYLE2
100
AcDbAlignedDimension
 13
-34.78555401447661
 23
4.763574928723896
 33
0.0
 14
-34.78555401447661
 24
-4.761425071276109
 34
0.0
 50
90.0000000000002
100
AcDbRotatedDimension
1001
ACAD
1000
DSTYLE
1002
{
1070
   171
1070
     6
1070
   273
1070
     7
1002
}
  0
DIMENSION
  5
10E
330
1F
100
AcDbEntity
  8
치수문자_일반주서
100
AcDbDimension
  2
_D_3
 10
39.68139379264536
 20
-2.380175071276046
 30
0.0
 11
39.68139379264528
 21
23.86132492872395
 31
0.0
 70
   160
  1
%%c<>
 71
     2
 42
4.762499999999999
 52
-270.0
  3
SLDDIMSTYLE2
100
AcDbAlignedDimension
 13
24.5869459855234
 23
2.382324928723897
 33
0.0
 14
24.5869459855234
 24
-2.380175071276103
 34
0.0
 50
90.0000000000002
100
AcDbRotatedDimension
1001
ACAD
1000
DSTYLE
1002
{
1070
   171
1070
     6
1070
   273
1070
     7
1002
}
  0
LINE
  5
122
330
1F
100
AcDbEntity
  8
참조1
100
AcDbLine
 10
76.33783746512287
 20
7.441074928723896
 30
0.0
 11
76.33783746512287
 21
-7.438925071276109
 31
0.0
  0
LINE
  5
123
330
1F
100
AcDbEntity
  8
참조1
100
AcDbLine
 10
89.03783746512288
 20
5.441074928723896
 30
0.0
 11
76.33783746512287
 21
5.441074928723896
 31
0.0
  0
SOLID
  5
124
330
1F
100
AcDbEntity
  8
참조1
100
AcDbTrace
 10
76.33783746512287
 20
5.441074928723896
 30
0.0
 11
82.68783746512287
 21
4.425074928723896
 31
0.0
 12
82.68783746512287
 22
6.457074928723896
 32
0.0
 13
82.68783746512287
 23
6.457074928723896
 33
0.0
  0
LINE
  5
125
330
1F
100
AcDbEntity
  8
참조1
100
AcDbLine
 10
89.03783746512288
 20
-5.438925071276109
 30
0.0
 11
76.33783746512287
 21
-5.438925071276109
 31
0.0
  0
SOLID
  5
126
330
1F
100
AcDbEntity
  8
참조1
100
AcDbTrace
 10
76.33783746512287
 20
-5.438925071276109
 30
0.0
 11
82.68783746512287
 21
-6.454925071276109
 31
0.0
 12
82.68783746512287
 22
-4.422925071276109
 32
0.0
 13
82.68783746512287
 23
-4.422925071276109
 33
0.0
  0
MTEXT
  5
127
330
1F
100
AcDbEntity
  8
참조1
100
AcDbMText
 10
85.72218759774887
 20
11.01136670591222
 30
0.0
 40
3.5
 41
0.0
 71
     1
 72
     1
  1
A
  7
SLDTEXTSTYLE0
 73
     1
 44
1.0
  0
MTEXT
  5
128
330
1F
100
AcDbEntity
  8
참조1
100
AcDbMText
 10
85.72218759774887
 20
0.1313667059122201
 30
0.0
 40
3.5
 41
0.0
 71
     1
 72
     1
  1
A
  7
SLDTEXTSTYLE0
 73
     1
 44
1.0
  0
INSERT
  5
12F
330
1F
100
AcDbEntity
  8
해칭선
100
AcDbBlockReference
  2
SW_DOWELSYMBOL_0
 10
0.0
 20
0.0
 30
0.0
  0
LINE
  5
264
330
1F
100
AcDbEntity
  8
외형선
  6
Continuous
370
    15
100
AcDbLine
 10
-19.4630040144767
 20
3.493574928723923
 30
0.0
 11
-12.32560401447657
 21
3.493574928723923
 31
0.0
  0
LINE
  5
265
330
1F
100
AcDbEntity
  8
외형선
  6
Continuous
370
    15
100
AcDbLine
 10
-19.4630040144767
 20
3.493574928723923
 30
0.0
 11
-20.73300401447668
 21
4.763574928723905
 31
0.0
  0
LINE
  5
266
330
1F
100
AcDbEntity
  8
외형선
  6
Continuous
370
    15
100
AcDbLine
 10
-12.32560401447657
 20
3.493574928723923
 30
0.0
 11
-11.05560401447647
 21
4.763574928723905
 31
0.0
  0
LINE
  5
2A1
330
1F
100
AcDbEntity
  8
외형선
  6
Continuous
370
    15
100
AcDbLine
 10
-20.73300401447667
 20
4.763574928723895
 30
0.0
 11
-34.78555401447661
 21
4.763574928723895
 31
0.0
  0
ENDSEC
  0
SECTION
  2
OBJECTS
  0
DICTIONARY
  5
C
330
0
100
AcDbDictionary
281
     1
  3
ACAD_GROUP
350
D
  3
ACAD_IMAGE_VARS
350
153
  3
ACAD_LAYOUT
350
1A
  3
ACAD_MLINESTYLE
350
17
  3
ACAD_PLOTSETTINGS
350
19
  3
ACAD_PLOTSTYLENAME
350
E
  3
ACAD_SCALELIST
350
47
  3
APPDATA
350
151
  3
DWGPROPS
350
2A4
  0
DICTIONARY
  5
1F4
330
2
100
AcDbDictionary
280
     1
281
     1
  3
ACAD_LAYERSTATES
360
1F5
  0
DICTIONARY
  5
D
102
{ACAD_REACTORS
330
C
102
}
330
C
100
AcDbDictionary
281
     1
  0
RASTERVARIABLES
  5
153
102
{ACAD_REACTORS
330
C
102
}
330
C
100
AcDbRasterVariables
 90
        0
 70
     1
 71
     1
 72
     1
  0
DICTIONARY
  5
1A
102
{ACAD_REACTORS
330
C
102
}
330
C
100
AcDbDictionary
281
     1
  3
Layout1
350
1E
  3
Layout2
350
26
  3
Model
350
22
  0
DICTIONARY
  5
17
102
{ACAD_REACTORS
330
C
102
}
330
C
100
AcDbDictionary
281
     1
  3
Standard
350
18
  0
DICTIONARY
  5
19
102
{ACAD_REACTORS
330
C
102
}
330
C
100
AcDbDictionary
281
     1
  0
ACDBDICTIONARYWDFLT
  5
E
102
{ACAD_REACTORS
330
C
102
}
330
C
100
AcDbDictionary
281
     1
  3
Normal
350
F
100
AcDbDictionaryWithDefault
340
F
  0
DICTIONARY
  5
47
102
{ACAD_REACTORS
330
C
102
}
330
C
100
AcDbDictionary
281
     1
  3
A0
350
48
  3
A1
350
49
  3
A2
350
4A
  3
A3
350
4B
  3
A4
350
4C
  3
A5
350
4D
  3
A6
350
4E
  3
A7
350
4F
  3
A8
350
50
  3
A9
350
51
  3
B0
350
52
  3
B1
350
53
  3
B2
350
54
  3
B3
350
55
  3
B4
350
56
  3
B5
350
57
  3
B6
350
58
  3
B7
350
59
  3
B8
350
5A
  3
B9
350
5B
  3
C0
350
5C
  3
C1
350
5D
  3
C2
350
5E
  3
C3
350
5F
  3
C4
350
60
  3
C5
350
61
  3
C6
350
62
  3
C7
350
63
  3
C8
350
64
  3
C9
350
65
  3
D0
350
66
  3
D1
350
67
  3
D2
350
68
  0
DICTIONARY
  5
151
102
{ACAD_REACTORS
330
C
102
}
330
C
100
AcDbDictionary
281
     1
  0
XRECORD
  5
2A4
102
{ACAD_REACTORS
330
C
102
}
330
C
100
AcDbXrecord
280
     1
  1
DWGPROPS COOKIE
  2

  3

  4

  6

  7

  8
12017012
  9

300
=
301
=
302
=
303
=
304
=
305
=
306
=
307
=
308
=
309
=
 40
0.0
 41
2458312.291573322
 42
2458320.235922928
  1

 90
        0
  0
DICTIONARY
  5
1F5
102
{ACAD_REACTORS
330
1F4
102
}
330
1F4
100
AcDbDictionary
281
     1
  0
LAYOUT
  5
1E
102
{ACAD_REACTORS
330
1A
102
}
330
1A
100
AcDbPlotSettings
  1

  2
none_device
  4

  6

 40
0.0
 41
0.0
 42
0.0
 43
0.0
 44
0.0
 45
0.0
 46
0.0
 47
0.0
 48
0.0
 49
0.0
140
0.0
141
0.0
142
1.0
143
1.0
 70
   688
 72
     1
 73
     0
 74
     5
  7

 75
    16
147
1.0
148
0.0
149
0.0
100
AcDbLayout
  1
Layout1
 70
     1
 71
     1
 10
0.0
 20
0.0
 11
420.0
 21
297.0
 12
0.0
 22
0.0
 32
0.0
 14
1.000000000000000E+20
 24
1.000000000000000E+20
 34
1.000000000000000E+20
 15
-1.000000000000000E+20
 25
-1.000000000000000E+20
 35
-1.000000000000000E+20
146
0.0
 13
0.0
 23
0.0
 33
0.0
 16
1.0
 26
0.0
 36
0.0
 17
0.0
 27
1.0
 37
0.0
 76
     0
330
1B
  0
LAYOUT
  5
26
102
{ACAD_REACTORS
330
1A
102
}
330
1A
100
AcDbPlotSettings
  1

  2
none_device
  4

  6

 40
0.0
 41
0.0
 42
0.0
 43
0.0
 44
0.0
 45
0.0
 46
0.0
 47
0.0
 48
0.0
 49
0.0
140
0.0
141
0.0
142
1.0
143
1.0
 70
   688
 72
     1
 73
     0
 74
     5
  7

 75
    16
147
1.0
148
0.0
149
0.0
100
AcDbLayout
  1
Layout2
 70
     1
 71
     2
 10
0.0
 20
0.0
 11
0.0
 21
0.0
 12
0.0
 22
0.0
 32
0.0
 14
0.0
 24
0.0
 34
0.0
 15
0.0
 25
0.0
 35
0.0
146
0.0
 13
0.0
 23
0.0
 33
0.0
 16
1.0
 26
0.0
 36
0.0
 17
0.0
 27
1.0
 37
0.0
 76
     0
330
23
  0
LAYOUT
  5
22
102
{ACAD_REACTORS
330
1A
102
}
330
1A
100
AcDbPlotSettings
  1

  2
none_device
  4
ANSI_A_(11.00_x_8.50_Inches)
  6

 40
6.35
 41
19.05
 42
6.35000508
 43
19.05000254
 44
279.4
 45
215.9
 46
104.0853757014623
 47
97.03600079570005
 48
0.0
 49
0.0
140
0.0
141
0.0
142
0.0740937858640012
143
1.0
 70
  1696
 72
     0
 73
     0
 74
     0
  7

 75
     0
147
0.0235690232323232
148
0.0
149
0.0
100
AcDbLayout
  1
Model
 70
     1
 71
     0
 10
0.0
 20
0.0
 11
420.0
 21
297.0
 12
0.0
 22
0.0
 32
0.0
 14
1.000000000000000E+20
 24
1.000000000000000E+20
 34
1.000000000000000E+20
 15
-1.000000000000000E+20
 25
-1.000000000000000E+20
 35
-1.000000000000000E+20
146
0.0
 13
0.0
 23
0.0
 33
0.0
 16
1.0
 26
0.0
 36
0.0
 17
0.0
 27
1.0
 37
0.0
 76
     0
330
1F
331
29
  0
MLINESTYLE
  5
18
102
{ACAD_REACTORS
330
17
102
}
330
17
100
AcDbMlineStyle
  2
Standard
 70
     0
  3

 62
   256
 51
90.0
 52
90.0
 71
     2
 49
0.5
 62
   256
  6
BYLAYER
 49
-0.5
 62
   256
  6
BYLAYER
  0
ACDBPLACEHOLDER
  5
F
102
{ACAD_REACTORS
330
E
102
}
330
E
  0
SCALE
  5
48
102
{ACAD_REACTORS
330
47
102
}
330
47
100
AcDbScale
 70
     0
300
1:1
140
1.0
141
1.0
290
     1
  0
SCALE
  5
49
102
{ACAD_REACTORS
330
47
102
}
330
47
100
AcDbScale
 70
     0
300
1:2
140
1.0
141
2.0
290
     0
  0
SCALE
  5
4A
102
{ACAD_REACTORS
330
47
102
}
330
47
100
AcDbScale
 70
     0
300
1:4
140
1.0
141
4.0
290
     0
  0
SCALE
  5
4B
102
{ACAD_REACTORS
330
47
102
}
330
47
100
AcDbScale
 70
     0
300
1:5
140
1.0
141
5.0
290
     0
  0
SCALE
  5
4C
102
{ACAD_REACTORS
330
47
102
}
330
47
100
AcDbScale
 70
     0
300
1:8
140
1.0
141
8.0
290
     0
  0
SCALE
  5
4D
102
{ACAD_REACTORS
330
47
102
}
330
47
100
AcDbScale
 70
     0
300
1:10
140
1.0
141
10.0
290
     0
  0
SCALE
  5
4E
102
{ACAD_REACTORS
330
47
102
}
330
47
100
AcDbScale
 70
     0
300
1:16
140
1.0
141
16.0
290
     0
  0
SCALE
  5
4F
102
{ACAD_REACTORS
330
47
102
}
330
47
100
AcDbScale
 70
     0
300
1:20
140
1.0
141
20.0
290
     0
  0
SCALE
  5
50
102
{ACAD_REACTORS
330
47
102
}
330
47
100
AcDbScale
 70
     0
300
1:30
140
1.0
141
30.0
290
     0
  0
SCALE
  5
51
102
{ACAD_REACTORS
330
47
102
}
330
47
100
AcDbScale
 70
     0
300
1:40
140
1.0
141
40.0
290
     0
  0
SCALE
  5
52
102
{ACAD_REACTORS
330
47
102
}
330
47
100
AcDbScale
 70
     0
300
1:50
140
1.0
141
50.0
290
     0
  0
SCALE
  5
53
102
{ACAD_REACTORS
330
47
102
}
330
47
100
AcDbScale
 70
     0
300
1:100
140
1.0
141
100.0
290
     0
  0
SCALE
  5
54
102
{ACAD_REACTORS
330
47
102
}
330
47
100
AcDbScale
 70
     0
300
2:1
140
2.0
141
1.0
290
     0
  0
SCALE
  5
55
102
{ACAD_REACTORS
330
47
102
}
330
47
100
AcDbScale
 70
     0
300
4:1
140
4.0
141
1.0
290
     0
  0
SCALE
  5
56
102
{ACAD_REACTORS
330
47
102
}
330
47
100
AcDbScale
 70
     0
300
8:1
140
8.0
141
1.0
290
     0
  0
SCALE
  5
57
102
{ACAD_REACTORS
330
47
102
}
330
47
100
AcDbScale
 70
     0
300
10:1
140
10.0
141
1.0
290
     0
  0
SCALE
  5
58
102
{ACAD_REACTORS
330
47
102
}
330
47
100
AcDbScale
 70
     0
300
100:1
140
100.0
141
1.0
290
     0
  0
SCALE
  5
59
102
{ACAD_REACTORS
330
47
102
}
330
47
100
AcDbScale
 70
     0
300
1/128" = 1'-0"
140
0.0078125
141
12.0
290
     0
  0
SCALE
  5
5A
102
{ACAD_REACTORS
330
47
102
}
330
47
100
AcDbScale
 70
     0
300
1/64" = 1'-0"
140
0.015625
141
12.0
290
     0
  0
SCALE
  5
5B
102
{ACAD_REACTORS
330
47
102
}
330
47
100
AcDbScale
 70
     0
300
1/32" = 1'-0"
140
0.03125
141
12.0
290
     0
  0
SCALE
  5
5C
102
{ACAD_REACTORS
330
47
102
}
330
47
100
AcDbScale
 70
     0
300
1/16" = 1'-0"
140
0.0625
141
12.0
290
     0
  0
SCALE
  5
5D
102
{ACAD_REACTORS
330
47
102
}
330
47
100
AcDbScale
 70
     0
300
3/32" = 1'-0"
140
0.09375
141
12.0
290
     0
  0
SCALE
  5
5E
102
{ACAD_REACTORS
330
47
102
}
330
47
100
AcDbScale
 70
     0
300
1/8" = 1'-0"
140
0.125
141
12.0
290
     0
  0
SCALE
  5
5F
102
{ACAD_REACTORS
330
47
102
}
330
47
100
AcDbScale
 70
     0
300
3/16" = 1'-0"
140
0.1875
141
12.0
290
     0
  0
SCALE
  5
60
102
{ACAD_REACTORS
330
47
102
}
330
47
100
AcDbScale
 70
     0
300
1/4" = 1'-0"
140
0.25
141
12.0
290
     0
  0
SCALE
  5
61
102
{ACAD_REACTORS
330
47
102
}
330
47
100
AcDbScale
 70
     0
300
3/8" = 1'-0"
140
0.375
141
12.0
290
     0
  0
SCALE
  5
62
102
{ACAD_REACTORS
330
47
102
}
330
47
100
AcDbScale
 70
     0
300
1/2" = 1'-0"
140
0.5
141
12.0
290
     0
  0
SCALE
  5
63
102
{ACAD_REACTORS
330
47
102
}
330
47
100
AcDbScale
 70
     0
300
3/4" = 1'-0"
140
0.75
141
12.0
290
     0
  0
SCALE
  5
64
102
{ACAD_REACTORS
330
47
102
}
330
47
100
AcDbScale
 70
     0
300
1" = 1'-0"
140
1.0
141
12.0
290
     0
  0
SCALE
  5
65
102
{ACAD_REACTORS
330
47
102
}
330
47
100
AcDbScale
 70
     0
300
1-1/2" = 1'-0"
140
1.5
141
12.0
290
     0
  0
SCALE
  5
66
102
{ACAD_REACTORS
330
47
102
}
330
47
100
AcDbScale
 70
     0
300
3" = 1'-0"
140
3.0
141
12.0
290
     0
  0
SCALE
  5
67
102
{ACAD_REACTORS
330
47
102
}
330
47
100
AcDbScale
 70
     0
300
6" = 1'-0"
140
6.0
141
12.0
290
     0
  0
SCALE
  5
68
102
{ACAD_REACTORS
330
47
102
}
330
47
100
AcDbScale
 70
     0
300
1'-0" = 1'-0"
140
12.0
141
12.0
290
     0
  0
ENDSEC
  0
EOF
