  0
SECTION
  2
HEADER
  9
$ACADVER
  1
AC1015
  9
$ACADMAINTVER
 70
     6
  9
$DWGCODEPAGE
  3
ANSI_949
  9
$INSBASE
 10
0.0
 20
0.0
 30
0.0
  9
$EXTMIN
 10
1.000000000000000E+20
 20
1.000000000000000E+20
 30
1.000000000000000E+20
  9
$EXTMAX
 10
-1.000000000000000E+20
 20
-1.000000000000000E+20
 30
-1.000000000000000E+20
  9
$LIMMIN
 10
0.0
 20
0.0
  9
$LIMMAX
 10
420.0
 20
297.0
  9
$ORTHOMODE
 70
     1
  9
$REGENMODE
 70
     1
  9
$FILLMODE
 70
     1
  9
$QTEXTMODE
 70
     0
  9
$MIRRTEXT
 70
     1
  9
$LTSCALE
 40
1.0
  9
$ATTMODE
 70
     1
  9
$TEXTSIZE
 40
3.5
  9
$TRACEWID
 40
1.0
  9
$TEXTSTYLE
  7
Standard
  9
$CLAYER
  8
0
  9
$CELTYPE
  6
ByLayer
  9
$CECOLOR
 62
   256
  9
$CELTSCALE
 40
1.0
  9
$DISPSILH
 70
     0
  9
$DIMSCALE
 40
1.0
  9
$DIMASZ
 40
3.302
  9
$DIMEXO
 40
1.0
  9
$DIMDLI
 40
3.75
  9
$DIMRND
 40
0.0
  9
$DIMDLE
 40
0.0
  9
$DIMEXE
 40
1.0
  9
$DIMTP
 40
0.0
  9
$DIMTM
 40
0.0
  9
$DIMTXT
 40
3.5
  9
$DIMCEN
 40
2.5
  9
$DIMTSZ
 40
0.0
  9
$DIMTOL
 70
     0
  9
$DIMLIM
 70
     0
  9
$DIMTIH
 70
     1
  9
$DIMTOH
 70
     1
  9
$DIMSE1
 70
     0
  9
$DIMSE2
 70
     0
  9
$DIMTAD
 70
     1
  9
$DIMZIN
 70
     0
  9
$DIMBLK
  1

  9
$DIMASO
 70
     1
  9
$DIMSHO
 70
     1
  9
$DIMPOST
  1

  9
$DIMAPOST
  1

  9
$DIMALT
 70
     0
  9
$DIMALTD
 70
     3
  9
$DIMALTF
 40
0.0393700787401575
  9
$DIMLFAC
 40
1.0
  9
$DIMTOFL
 70
     1
  9
$DIMTVP
 40
0.0
  9
$DIMTIX
 70
     0
  9
$DIMSOXD
 70
     0
  9
$DIMSAH
 70
     0
  9
$DIMBLK1
  1

  9
$DIMBLK2
  1

  9
$DIMSTYLE
  2
ISO-25
  9
$DIMCLRD
 70
     0
  9
$DIMCLRE
 70
     0
  9
$DIMCLRT
 70
     0
  9
$DIMTFAC
 40
1.0
  9
$DIMGAP
 40
1.524
  9
$DIMJUST
 70
     0
  9
$DIMSD1
 70
     0
  9
$DIMSD2
 70
     0
  9
$DIMTOLJ
 70
     0
  9
$DIMTZIN
 70
     0
  9
$DIMALTZ
 70
     0
  9
$DIMALTTZ
 70
     0
  9
$DIMUPT
 70
     0
  9
$DIMDEC
 70
     2
  9
$DIMTDEC
 70
     2
  9
$DIMALTU
 70
     2
  9
$DIMALTTD
 70
     3
  9
$DIMTXSTY
  7
Standard
  9
$DIMAUNIT
 70
     0
  9
$DIMADEC
 70
     2
  9
$DIMALTRND
 40
0.0
  9
$DIMAZIN
 70
     0
  9
$DIMDSEP
 70
    44
  9
$DIMATFIT
 70
     3
  9
$DIMFRAC
 70
     0
  9
$DIMLDRBLK
  1

  9
$DIMLUNIT
 70
     2
  9
$DIMLWD
 70
    -2
  9
$DIMLWE
 70
    -2
  9
$DIMTMOVE
 70
     0
  9
$LUNITS
 70
     2
  9
$LUPREC
 70
     2
  9
$SKETCHINC
 40
1.0
  9
$FILLETRAD
 40
10.0
  9
$AUNITS
 70
     0
  9
$AUPREC
 70
     2
  9
$MENU
  1
.
  9
$ELEVATION
 40
0.0
  9
$PELEVATION
 40
0.0
  9
$THICKNESS
 40
0.0
  9
$LIMCHECK
 70
     0
  9
$CHAMFERA
 40
0.0
  9
$CHAMFERB
 40
0.0
  9
$CHAMFERC
 40
0.0
  9
$CHAMFERD
 40
0.0
  9
$SKPOLY
 70
     0
  9
$TDCREATE
 40
2458312.666785116
  9
$TDUCREATE
 40
2458312.291785116
  9
$TDUPDATE
 40
2458320.60961022
  9
$TDUUPDATE
 40
2458320.23461022
  9
$TDINDWG
 40
0.000726875
  9
$TDUSRTIMER
 40
2458320.233258264
  9
$USRTIMER
 70
     1
  9
$ANGBASE
 50
0.0
  9
$ANGDIR
 70
     0
  9
$PDMODE
 70
     0
  9
$PDSIZE
 40
-1.0
  9
$PLINEWID
 40
0.0
  9
$SPLFRAME
 70
     0
  9
$SPLINETYPE
 70
     6
  9
$SPLINESEGS
 70
     8
  9
$HANDSEED
  5
2AC
  9
$SURFTAB1
 70
     6
  9
$SURFTAB2
 70
     6
  9
$SURFTYPE
 70
     6
  9
$SURFU
 70
     6
  9
$SURFV
 70
     6
  9
$UCSBASE
  2

  9
$UCSNAME
  2

  9
$UCSORG
 10
0.0
 20
0.0
 30
0.0
  9
$UCSXDIR
 10
1.0
 20
0.0
 30
0.0
  9
$UCSYDIR
 10
0.0
 20
1.0
 30
0.0
  9
$UCSORTHOREF
  2

  9
$UCSORTHOVIEW
 70
     0
  9
$UCSORGTOP
 10
0.0
 20
0.0
 30
0.0
  9
$UCSORGBOTTOM
 10
0.0
 20
0.0
 30
0.0
  9
$UCSORGLEFT
 10
0.0
 20
0.0
 30
0.0
  9
$UCSORGRIGHT
 10
0.0
 20
0.0
 30
0.0
  9
$UCSORGFRONT
 10
0.0
 20
0.0
 30
0.0
  9
$UCSORGBACK
 10
0.0
 20
0.0
 30
0.0
  9
$PUCSBASE
  2

  9
$PUCSNAME
  2

  9
$PUCSORG
 10
0.0
 20
0.0
 30
0.0
  9
$PUCSXDIR
 10
1.0
 20
0.0
 30
0.0
  9
$PUCSYDIR
 10
0.0
 20
1.0
 30
0.0
  9
$PUCSORTHOREF
  2

  9
$PUCSORTHOVIEW
 70
     0
  9
$PUCSORGTOP
 10
0.0
 20
0.0
 30
0.0
  9
$PUCSORGBOTTOM
 10
0.0
 20
0.0
 30
0.0
  9
$PUCSORGLEFT
 10
0.0
 20
0.0
 30
0.0
  9
$PUCSORGRIGHT
 10
0.0
 20
0.0
 30
0.0
  9
$PUCSORGFRONT
 10
0.0
 20
0.0
 30
0.0
  9
$PUCSORGBACK
 10
0.0
 20
0.0
 30
0.0
  9
$USERI1
 70
     0
  9
$USERI2
 70
     0
  9
$USERI3
 70
     0
  9
$USERI4
 70
     0
  9
$USERI5
 70
     0
  9
$USERR1
 40
0.0
  9
$USERR2
 40
0.0
  9
$USERR3
 40
0.0
  9
$USERR4
 40
0.0
  9
$USERR5
 40
0.0
  9
$WORLDVIEW
 70
     1
  9
$SHADEDGE
 70
     3
  9
$SHADEDIF
 70
    70
  9
$TILEMODE
 70
     1
  9
$MAXACTVP
 70
    64
  9
$PINSBASE
 10
0.0
 20
0.0
 30
0.0
  9
$PLIMCHECK
 70
     0
  9
$PEXTMIN
 10
1.000000000000000E+20
 20
1.000000000000000E+20
 30
1.000000000000000E+20
  9
$PEXTMAX
 10
-1.000000000000000E+20
 20
-1.000000000000000E+20
 30
-1.000000000000000E+20
  9
$PLIMMIN
 10
0.0
 20
0.0
  9
$PLIMMAX
 10
0.0
 20
0.0
  9
$UNITMODE
 70
     0
  9
$VISRETAIN
 70
     1
  9
$PLINEGEN
 70
     0
  9
$PSLTSCALE
 70
     1
  9
$TREEDEPTH
 70
  3020
  9
$CMLSTYLE
  2
Standard
  9
$CMLJUST
 70
     0
  9
$CMLSCALE
 40
20.0
  9
$PROXYGRAPHICS
 70
     1
  9
$MEASUREMENT
 70
     1
  9
$CELWEIGHT
370
    -1
  9
$ENDCAPS
280
     0
  9
$JOINSTYLE
280
     0
  9
$LWDISPLAY
290
     1
  9
$INSUNITS
 70
     4
  9
$HYPERLINKBASE
  1

  9
$STYLESHEET
  1

  9
$XEDIT
290
     1
  9
$CEPSNTYPE
380
     0
  9
$PSTYLEMODE
290
     1
  9
$FINGERPRINTGUID
  2
{55C29EC4-4626-4AAC-ABE6-BA063228B62E}
  9
$VERSIONGUID
  2
{FAEB1C32-E019-11D5-929B-00C0DF256EC4}
  9
$EXTNAMES
290
     1
  9
$PSVPSCALE
 40
0.0
  9
$OLESTARTUP
290
     0
  0
ENDSEC
  0
SECTION
  2
CLASSES
  0
CLASS
  1
ACDBDICTIONARYWDFLT
  2
AcDbDictionaryWithDefault
  3
ObjectDBX Classes
 90
        0
280
     0
281
     0
  0
CLASS
  1
VISUALSTYLE
  2
AcDbVisualStyle
  3
ObjectDBX Classes
 90
     4095
280
     0
281
     0
  0
CLASS
  1
MATERIAL
  2
AcDbMaterial
  3
ObjectDBX Classes
 90
     1153
280
     0
281
     0
  0
CLASS
  1
SCALE
  2
AcDbScale
  3
ObjectDBX Classes
 90
     1153
280
     0
281
     0
  0
CLASS
  1
SUN
  2
AcDbSun
  3
SCENEOE
 90
     1153
280
     0
281
     0
  0
CLASS
  1
ACDBPLACEHOLDER
  2
AcDbPlaceHolder
  3
ObjectDBX Classes
 90
        0
280
     0
281
     0
  0
CLASS
  1
LAYOUT
  2
AcDbLayout
  3
ObjectDBX Classes
 90
        0
280
     0
281
     0
  0
CLASS
  1
TABLESTYLE
  2
AcDbTableStyle
  3
ObjectDBX Classes
 90
     4095
280
     0
281
     0
  0
CLASS
  1
MLEADERSTYLE
  2
AcDbMLeaderStyle
  3
ACDB_MLEADERSTYLE_CLASS
 90
     4095
280
     0
281
     0
  0
CLASS
  1
RASTERVARIABLES
  2
AcDbRasterVariables
  3
ISM
 90
        0
280
     0
281
     0
  0
ENDSEC
  0
SECTION
  2
TABLES
  0
TABLE
  2
VPORT
  5
8
330
0
100
AcDbSymbolTable
 70
     1
  0
VPORT
  5
29
330
8
100
AcDbSymbolTableRecord
100
AcDbViewportTableRecord
  2
*Active
 70
     0
 10
0.0
 20
0.0
 11
1.0
 21
1.0
 12
3.072582789593859
 22
-0.2550914963780713
 13
0.0
 23
0.0
 14
10.0
 24
10.0
 15
10.0
 25
10.0
 16
0.0
 26
0.0
 36
1.0
 17
0.0
 27
0.0
 37
0.0
 40
120.3008397330226
 41
1.632093933463796
 42
50.0
 43
0.0
 44
0.0
 50
0.0
 51
0.0
 71
    16
 72
  2000
 73
     1
 74
     3
 75
     0
 76
     0
 77
     0
 78
     0
281
     0
 65
     1
110
0.0
120
0.0
130
0.0
111
1.0
121
0.0
131
0.0
112
0.0
122
1.0
132
0.0
 79
     0
146
0.0
  0
ENDTAB
  0
TABLE
  2
LTYPE
  5
5
330
0
100
AcDbSymbolTable
 70
     6
  0
LTYPE
  5
14
330
5
100
AcDbSymbolTableRecord
100
AcDbLinetypeTableRecord
  2
ByBlock
 70
     0
  3

 72
    65
 73
     0
 40
0.0
  0
LTYPE
  5
15
330
5
100
AcDbSymbolTableRecord
100
AcDbLinetypeTableRecord
  2
ByLayer
 70
     0
  3

 72
    65
 73
     0
 40
0.0
  0
LTYPE
  5
16
330
5
100
AcDbSymbolTableRecord
100
AcDbLinetypeTableRecord
  2
Continuous
 70
     0
  3
Solid line
 72
    65
 73
     0
 40
0.0
  0
LTYPE
  5
6A
330
5
100
AcDbSymbolTableRecord
100
AcDbLinetypeTableRecord
  2
HIDDEN
 70
     0
  3
Hidden __ __ __ __ __ __ __ __ __ __ __ __ __ __
 72
    65
 73
     2
 40
1.905
 49
1.27
 74
     0
 49
-0.635
 74
     0
  0
LTYPE
  5
6B
330
5
100
AcDbSymbolTableRecord
100
AcDbLinetypeTableRecord
  2
PHANTOM
 70
     0
  3
Phantom ______  __  __  ______  __  __  ______
 72
    65
 73
     6
 40
12.7
 49
6.35
 74
     0
 49
-1.27
 74
     0
 49
1.27
 74
     0
 49
-1.27
 74
     0
 49
1.27
 74
     0
 49
-1.27
 74
     0
  0
LTYPE
  5
6C
330
5
100
AcDbSymbolTableRecord
100
AcDbLinetypeTableRecord
  2
CENTER
 70
     0
  3
Center ____ _ ____ _ ____ _ ____ _ ____ _ ____
 72
    65
 73
     4
 40
10.16
 49
6.35
 74
     0
 49
-1.27
 74
     0
 49
1.27
 74
     0
 49
-1.27
 74
     0
  0
LTYPE
  5
6D
330
5
100
AcDbSymbolTableRecord
100
AcDbLinetypeTableRecord
  2
CENTERX2
 70
     0
  3
Center (2x) ________  __  ________  __  _____
 72
    65
 73
     4
 40
20.32
 49
12.7
 74
     0
 49
-2.54
 74
     0
 49
2.54
 74
     0
 49
-2.54
 74
     0
  0
LTYPE
  5
6E
330
5
100
AcDbSymbolTableRecord
100
AcDbLinetypeTableRecord
  2
DOT2
 70
     0
  3
Dot (.5x) ........................................
 72
    65
 73
     2
 40
0.635
 49
0.0
 74
     0
 49
-0.635
 74
     0
  0
ENDTAB
  0
TABLE
  2
LAYER
  5
2
102
{ACAD_XDICTIONARY
360
1F7
102
}
330
0
100
AcDbSymbolTable
 70
    18
  0
LAYER
  5
10
330
2
100
AcDbSymbolTableRecord
100
AcDbLayerTableRecord
  2
0
 70
     0
 62
     7
  6
Continuous
370
    -3
390
F
  0
LAYER
  5
6F
330
2
100
AcDbSymbolTableRecord
100
AcDbLayerTableRecord
  2
FORMAT
 70
     0
 62
     2
  6
Continuous
370
    -3
390
F
  0
LAYER
  5
70
330
2
100
AcDbSymbolTableRecord
100
AcDbLayerTableRecord
  2
외형선
 70
     0
 62
     4
  6
Continuous
370
    30
390
F
  0
LAYER
  5
71
330
2
100
AcDbSymbolTableRecord
100
AcDbLayerTableRecord
  2
숨은선
 70
     0
 62
     2
  6
HIDDEN
370
    15
390
F
  0
LAYER
  5
72
330
2
100
AcDbSymbolTableRecord
100
AcDbLayerTableRecord
  2
중심선
 70
     0
 62
     1
  6
CENTERX2
370
    -3
390
F
  0
LAYER
  5
73
330
2
100
AcDbSymbolTableRecord
100
AcDbLayerTableRecord
  2
파단선
 70
     0
 62
     4
  6
Continuous
370
    -3
390
F
  0
LAYER
  5
74
330
2
100
AcDbSymbolTableRecord
100
AcDbLayerTableRecord
  2
해칭선
 70
     0
 62
   100
  6
Continuous
370
    -3
390
F
  0
LAYER
  5
75
330
2
100
AcDbSymbolTableRecord
100
AcDbLayerTableRecord
  2
가는실선
 70
     0
 62
     4
  6
Continuous
370
    -3
390
F
  0
LAYER
  5
76
330
2
100
AcDbSymbolTableRecord
100
AcDbLayerTableRecord
  2
치수_보조선
 70
     0
 62
     4
  6
Continuous
370
    -3
390
F
  0
LAYER
  5
77
330
2
100
AcDbSymbolTableRecord
100
AcDbLayerTableRecord
  2
치수문자_일반주서
 70
     0
 62
     7
  6
Continuous
370
    15
390
F
  0
LAYER
  5
78
330
2
100
AcDbSymbolTableRecord
100
AcDbLayerTableRecord
  2
개별주서
 70
     0
 62
   100
  6
Continuous
370
    30
390
F
  0
LAYER
  5
79
330
2
100
AcDbSymbolTableRecord
100
AcDbLayerTableRecord
  2
중간선
 70
     0
 62
     2
  6
Continuous
370
    15
390
F
  0
LAYER
  5
7A
330
2
100
AcDbSymbolTableRecord
100
AcDbLayerTableRecord
  2
윤곽선
 70
     0
 62
     3
  6
Continuous
370
    40
390
F
  0
LAYER
  5
7B
330
2
100
AcDbSymbolTableRecord
100
AcDbLayerTableRecord
  2
중심마크
 70
     0
 62
   100
  6
Continuous
370
    30
390
F
  0
LAYER
  5
7C
330
2
100
AcDbSymbolTableRecord
100
AcDbLayerTableRecord
  2
가상선
 70
     0
 62
     4
  6
PHANTOM
370
    -3
390
F
  0
LAYER
  5
7D
330
2
100
AcDbSymbolTableRecord
100
AcDbLayerTableRecord
  2
특수지정선
 70
     0
 62
     5
  6
CENTERX2
370
    60
390
F
  0
LAYER
  5
7E
330
2
100
AcDbSymbolTableRecord
100
AcDbLayerTableRecord
  2
참조1
 70
     0
 62
    -4
  6
Continuous
370
    -3
390
F
  0
LAYER
  5
154
330
2
100
AcDbSymbolTableRecord
100
AcDbLayerTableRecord
  2
Defpoints
 70
     0
 62
     7
  6
Continuous
290
     0
370
    -3
390
F
  0
ENDTAB
  0
TABLE
  2
STYLE
  5
3
330
0
100
AcDbSymbolTable
 70
     2
  0
STYLE
  5
11
330
3
100
AcDbSymbolTableRecord
100
AcDbTextStyleTableRecord
  2
Standard
 70
     0
 40
0.0
 41
1.0
 50
0.0
 71
     0
 42
3.5
  3
txt
  4

  0
STYLE
  5
94
330
3
100
AcDbSymbolTableRecord
100
AcDbTextStyleTableRecord
  2
SLDTEXTSTYLE0
 70
     0
 40
0.0
 41
0.75
 50
0.0
 71
     0
 42
3.5
  3
TXT
  4

  0
ENDTAB
  0
TABLE
  2
VIEW
  5
6
330
0
100
AcDbSymbolTable
 70
     0
  0
ENDTAB
  0
TABLE
  2
UCS
  5
7
330
0
100
AcDbSymbolTable
 70
     0
  0
ENDTAB
  0
TABLE
  2
APPID
  5
9
330
0
100
AcDbSymbolTable
 70
     1
  0
APPID
  5
12
330
9
100
AcDbSymbolTableRecord
100
AcDbRegAppTableRecord
  2
ACAD
 70
     0
  0
ENDTAB
  0
TABLE
  2
DIMSTYLE
  5
A
330
0
100
AcDbSymbolTable
 70
     4
100
AcDbDimStyleTable
  0
DIMSTYLE
105
27
330
A
100
AcDbSymbolTableRecord
100
AcDbDimStyleTableRecord
  2
ISO-25
 70
     0
 41
2.5
 42
0.625
 43
3.75
 44
1.25
 73
     0
 74
     0
 77
     1
 78
     8
140
2.5
141
2.5
143
0.03937007874016
147
0.625
171
     3
172
     1
178
     0
271
     2
272
     2
274
     3
278
    44
283
     0
284
     8
340
11
  0
DIMSTYLE
105
D1
330
A
100
AcDbSymbolTableRecord
100
AcDbDimStyleTableRecord
  2
SLDDIMSTYLE0
 70
     0
 41
3.302
 44
0.0
 45
0.000000001
 73
     0
 74
     0
 77
     1
 78
    12
 79
     3
140
3.5
143
0.0393700787401575
147
0.875
148
0.000000001
170
     1
173
     1
178
     0
271
     2
272
     2
276
     2
284
    12
340
94
  0
DIMSTYLE
105
F9
330
A
100
AcDbSymbolTableRecord
100
AcDbDimStyleTableRecord
  2
SLDDIMSTYLE1
 70
     0
 41
3.302
 44
0.0
 45
0.000000001
 73
     0
 74
     0
 77
     1
 78
    12
 79
     3
140
3.5
143
0.0393700787401575
147
0.875
148
0.000000001
170
     1
172
     1
173
     1
178
     0
271
     2
272
     2
276
     2
284
    12
289
     0
340
94
  0
DIMSTYLE
105
15D
102
{ACAD_REACTORS
330
1B1
330
1C1
330
1DB
330
1CE
330
D0
330
E5
330
10D
330
F8
102
}
330
A
100
AcDbSymbolTableRecord
100
AcDbDimStyleTableRecord
  2
SLDDIMSTYLE2
 70
     0
 41
3.302
 44
0.0
 45
0.000000001
 73
     0
 74
     0
 77
     1
 78
    12
 79
     3
140
3.5
143
0.0393700787401575
147
0.875
148
0.000000001
170
     1
172
     1
173
     1
178
     0
271
     2
272
     2
276
     2
284
    12
289
     0
340
94
  0
ENDTAB
  0
TABLE
  2
BLOCK_RECORD
  5
1
330
0
100
AcDbSymbolTable
 70
    16
  0
BLOCK_RECORD
  5
1F
330
1
100
AcDbSymbolTableRecord
100
AcDbBlockTableRecord
  2
*Model_Space
340
22
  0
BLOCK_RECORD
  5
1B
330
1
100
AcDbSymbolTableRecord
100
AcDbBlockTableRecord
  2
*Paper_Space
340
1E
  0
BLOCK_RECORD
  5
23
330
1
100
AcDbSymbolTableRecord
100
AcDbBlockTableRecord
  2
*Paper_Space0
340
26
  0
BLOCK_RECORD
  5
7F
330
1
100
AcDbSymbolTableRecord
100
AcDbBlockTableRecord
  2
블럭10
340
0
102
{BLKREFS
331
C9
102
}
  0
BLOCK_RECORD
  5
D2
330
1
100
AcDbSymbolTableRecord
100
AcDbBlockTableRecord
  2
_D
340
0
  0
BLOCK_RECORD
  5
E6
330
1
100
AcDbSymbolTableRecord
100
AcDbBlockTableRecord
  2
_D_1
340
0
  0
BLOCK_RECORD
  5
FA
330
1
100
AcDbSymbolTableRecord
100
AcDbBlockTableRecord
  2
_D_2
340
0
  0
BLOCK_RECORD
  5
10E
330
1
100
AcDbSymbolTableRecord
100
AcDbBlockTableRecord
  2
_D_3
340
0
  0
BLOCK_RECORD
  5
128
330
1
100
AcDbSymbolTableRecord
100
AcDbBlockTableRecord
  2
SW_DOWELSYMBOL_0
340
0
102
{BLKREFS
331
12E
331
1EB
331
0
102
}
  0
BLOCK_RECORD
  5
1FB
330
1
100
AcDbSymbolTableRecord
100
AcDbBlockTableRecord
  2
*D8
340
0
  0
BLOCK_RECORD
  5
20A
330
1
100
AcDbSymbolTableRecord
100
AcDbBlockTableRecord
  2
*D9
340
0
  0
BLOCK_RECORD
  5
216
330
1
100
AcDbSymbolTableRecord
100
AcDbBlockTableRecord
  2
*D10
340
0
  0
BLOCK_RECORD
  5
222
330
1
100
AcDbSymbolTableRecord
100
AcDbBlockTableRecord
  2
*D11
340
0
  0
BLOCK_RECORD
  5
270
330
1
100
AcDbSymbolTableRecord
100
AcDbBlockTableRecord
  2
*D12
340
0
  0
BLOCK_RECORD
  5
27F
330
1
100
AcDbSymbolTableRecord
100
AcDbBlockTableRecord
  2
*D13
340
0
  0
BLOCK_RECORD
  5
28B
330
1
100
AcDbSymbolTableRecord
100
AcDbBlockTableRecord
  2
*D14
340
0
  0
BLOCK_RECORD
  5
297
330
1
100
AcDbSymbolTableRecord
100
AcDbBlockTableRecord
  2
*D15
340
0
  0
ENDTAB
  0
ENDSEC
  0
SECTION
  2
BLOCKS
  0
BLOCK
  5
20
330
1F
100
AcDbEntity
  8
0
100
AcDbBlockBegin
  2
*Model_Space
 70
     0
 10
0.0
 20
0.0
 30
0.0
  3
*Model_Space
  1
*Model_Space
  0
ENDBLK
  5
21
330
1F
100
AcDbEntity
  8
0
100
AcDbBlockEnd
  0
BLOCK
  5
1C
330
1B
100
AcDbEntity
 67
     1
  8
0
100
AcDbBlockBegin
  2
*Paper_Space
 70
     0
 10
0.0
 20
0.0
 30
0.0
  3
*Paper_Space
  1
*Paper_Space
  0
ENDBLK
  5
1D
330
1B
100
AcDbEntity
 67
     1
  8
0
100
AcDbBlockEnd
  0
BLOCK
  5
24
330
23
100
AcDbEntity
  8
0
100
AcDbBlockBegin
  2
*Paper_Space0
 70
     0
 10
0.0
 20
0.0
 30
0.0
  3
*Paper_Space0
  1
*Paper_Space0
  0
ENDBLK
  5
25
330
23
100
AcDbEntity
  8
0
100
AcDbBlockEnd
  0
BLOCK
  5
80
330
7F
100
AcDbEntity
  8
0
100
AcDbBlockBegin
  2
블럭10
 70
     2
 10
0.0
 20
0.0
 30
0.0
  3
블럭10
  1
블럭10
  0
ELLIPSE
  5
82
330
7F
100
AcDbEntity
  8
중심선
100
AcDbEllipse
 10
20.54032771741204
 20
12.0471743016438
 30
0.0
 11
6.600054785286829
 21
-1.261213355974178E-13
 31
0.0
210
0.0
220
0.0
230
1.0
 40
0.636358354079598
 41
0.9219305317359503
 42
6.513795318482858
  0
ELLIPSE
  5
83
330
7F
100
AcDbEntity
  8
중심선
100
AcDbEllipse
 10
20.54032771746488
 20
12.04717430159265
 30
0.0
 11
3.960054785062283
 21
1.540847449632565E-10
 31
0.0
210
0.0
220
0.0
230
1.0
 40
0.3939339440162632
 41
1.131841032648279
 42
5.62031148352944
  0
LINE
  5
84
330
7F
100
AcDbEntity
  8
중심선
100
AcDbLine
 10
2.268634060543552
 20
16.24717430164393
 30
0.0
 11
5.714909304380834
 21
16.24717430164393
 31
0.0
  0
LINE
  5
85
330
7F
100
AcDbEntity
  8
중심선
100
AcDbLine
 10
5.245725140726316
 20
7.84717430164391
 30
0.0
 11
8.692000384563599
 21
7.84717430164391
 31
0.0
  0
LINE
  5
86
330
7F
100
AcDbEntity
  8
중심선
100
AcDbLine
 10
15.74043728645272
 20
16.24717430164393
 30
0.0
 11
8.692000384563599
 21
7.84717430164391
 31
0.0
  0
LINE
  5
87
330
7F
100
AcDbEntity
  8
중심선
100
AcDbLine
 10
0.1404042013395286
 20
13.71084872107135
 30
0.0
 11
3.58671253028996
 21
13.71088815037384
 31
0.0
  0
LINE
  5
88
330
7F
100
AcDbEntity
  8
중심선
100
AcDbLine
 10
2.750260043222114
 20
10.84717430164391
 30
0.0
 11
6.196535287059397
 21
10.84717430164391
 31
0.0
  0
LINE
  5
89
330
7F
100
AcDbEntity
  8
중심선
100
AcDbLine
 10
12.29416204261559
 20
16.24717430164393
 30
0.0
 11
5.245725140726316
 21
7.84717430164391
 31
0.0
  0
LINE
  5
8A
330
7F
100
AcDbEntity
  8
중심선
100
AcDbLine
 10
10.72767329541681
 20
16.24717430164393
 30
0.0
 11
6.196535287059397
 21
10.84717430164391
 31
0.0
  0
LINE
  5
8B
330
7F
100
AcDbEntity
  8
중심선
100
AcDbLine
 10
7.28139805157953
 20
16.24717430164393
 30
0.0
 11
2.750260043222114
 21
10.84717430164391
 31
0.0
  0
LINE
  5
8C
330
7F
100
AcDbEntity
  8
중심선
100
AcDbLine
 10
5.714909304380834
 20
16.24717430164393
 30
0.0
 11
3.58671253028996
 21
13.71088815037384
 31
0.0
  0
LINE
  5
8D
330
7F
100
AcDbEntity
  8
중심선
100
AcDbLine
 10
2.268634060543552
 20
16.24717430164393
 30
0.0
 11
0.1404042013395286
 21
13.71084872107135
 31
0.0
  0
LINE
  5
8E
330
7F
100
AcDbEntity
  8
중심선
100
AcDbLine
 10
7.28139805157953
 20
16.24717430164393
 30
0.0
 11
10.72767329541681
 21
16.24717430164393
 31
0.0
  0
LINE
  5
8F
330
7F
100
AcDbEntity
  8
중심선
100
AcDbLine
 10
12.29416204261559
 20
16.24717430164393
 30
0.0
 11
15.74043728645272
 21
16.24717430164393
 31
0.0
  0
LINE
  5
90
330
7F
100
AcDbEntity
  8
중심선
100
AcDbLine
 10
19.22036997980202
 20
11.08717430171403
 30
0.0
 11
23.66174974927406
 21
11.08717430171406
 31
0.0
  0
LINE
  5
91
330
7F
100
AcDbEntity
  8
중심선
100
AcDbLine
 10
19.22039502424796
 20
13.00717430171391
 30
0.0
 11
19.22036997980202
 21
11.08717430171403
 31
0.0
  0
LINE
  5
92
330
7F
100
AcDbEntity
  8
중심선
100
AcDbLine
 10
19.22039502424796
 20
13.00717430171391
 30
0.0
 11
26.96566020931264
 21
13.00717430171391
 31
0.0
  0
LINE
  5
93
330
7F
100
AcDbEntity
  8
중심선
100
AcDbLine
 10
22.22332737316547
 20
13.45928029700563
 30
0.0
 11
24.52862924686651
 21
15.39360700705356
 31
0.0
  0
ATTDEF
  5
95
330
7F
100
AcDbEntity
  8
FORMAT
 62
     2
100
AcDbText
 10
4.408487351596664
 20
2.075366912832191
 30
0.0
 40
4.233333333333333
  1
E2031013
 41
0.75
  7
SLDTEXTSTYLE0
 11
4.408487351596664
 21
-0.0412997538344756
 31
0.0
100
AcDbAttributeDefinition
  3

  2
AUTOATTR0
 70
     0
 74
     1
  0
ENDBLK
  5
81
330
7F
100
AcDbEntity
  8
0
100
AcDbBlockEnd
  0
BLOCK
  5
D3
330
D2
100
AcDbEntity
  8
0
100
AcDbBlockBegin
  2
_D
 70
     0
 10
0.0
 20
0.0
 30
0.0
  3
_D
  1
_D
  0
LINE
  5
D5
330
D2
100
AcDbEntity
  8
치수문자_일반주서
 62
     0
370
    -2
100
AcDbLine
 10
25.43386715339644
 20
2.643262428723897
 30
0.0
 11
25.43386715339645
 21
14.79425455652102
 31
0.0
  0
LINE
  5
D6
330
D2
100
AcDbEntity
  8
치수문자_일반주서
 62
     0
370
    -2
100
AcDbLine
 10
11.14636715339646
 20
2.617293092813504
 30
0.0
 11
11.14636715339646
 21
14.79425455652102
 31
0.0
  0
LINE
  5
D7
330
D2
100
AcDbEntity
  8
치수문자_일반주서
 62
     0
370
    -2
100
AcDbLine
 10
11.14636715339646
 20
14.79425455652102
 30
0.0
 11
-22.58263284660353
 21
14.79425455652102
 31
0.0
  0
LINE
  5
D8
330
D2
100
AcDbEntity
  8
치수문자_일반주서
 62
     0
370
    -2
100
AcDbLine
 10
25.43386715339645
 20
14.79425455652102
 30
0.0
 11
11.14636715339646
 21
14.79425455652102
 31
0.0
  0
LINE
  5
D9
330
D2
100
AcDbEntity
  8
치수문자_일반주서
 62
     0
370
    -2
100
AcDbLine
 10
28.73586715339644
 20
14.79425455652102
 30
0.0
 11
32.03786715339645
 21
14.79425455652102
 31
0.0
  0
LINE
  5
DA
330
D2
100
AcDbEntity
  8
치수문자_일반주서
 62
     0
370
    -2
100
AcDbLine
 10
7.844367153396465
 20
14.79425455652102
 30
0.0
 11
4.542367153396466
 21
14.79425455652102
 31
0.0
  0
SOLID
  5
DB
330
D2
100
AcDbEntity
  8
치수문자_일반주서
 62
     0
100
AcDbTrace
 10
28.73586715339644
 20
15.34458788985435
 30
0.0
 11
28.73586715339644
 21
14.24392122318769
 31
0.0
 12
25.43386715339645
 22
14.79425455652102
 32
0.0
 13
25.43386715339645
 23
14.79425455652102
 33
0.0
  0
SOLID
  5
DC
330
D2
100
AcDbEntity
  8
치수문자_일반주서
 62
     0
100
AcDbTrace
 10
7.844367153396465
 20
14.24392122318769
 30
0.0
 11
7.844367153396465
 21
15.34458788985435
 31
0.0
 12
11.14636715339646
 22
14.79425455652102
 32
0.0
 13
11.14636715339646
 23
14.79425455652102
 33
0.0
  0
MTEXT
  5
DD
330
D2
100
AcDbEntity
  8
치수문자_일반주서
 62
     0
100
AcDbMText
 10
-9.020132846603534
 20
19.16925455652102
 30
0.0
 40
3.5
 41
0.0
 71
     2
 72
     1
  1
\A1;14.29 [9/16]
  7
SLDTEXTSTYLE0
 73
     1
 44
1.0
  0
POINT
  5
DE
330
D2
100
AcDbEntity
  8
Defpoints
 62
     0
100
AcDbPoint
 10
25.43386715339644
 20
2.580762428723897
 30
0.0
  0
POINT
  5
2A6
330
D2
100
AcDbEntity
  8
Defpoints
 62
     0
100
AcDbPoint
 10
11.14636715339646
 20
2.554793092813504
 30
0.0
  0
POINT
  5
2A7
330
D2
100
AcDbEntity
  8
Defpoints
 62
     0
100
AcDbPoint
 10
11.14636715339646
 20
14.79425455652102
 30
0.0
  0
ENDBLK
  5
D4
330
D2
100
AcDbEntity
  8
0
100
AcDbBlockEnd
  0
BLOCK
  5
E7
330
E6
100
AcDbEntity
  8
0
100
AcDbBlockBegin
  2
_D_1
 70
     0
 10
0.0
 20
0.0
 30
0.0
  3
_D_1
  1
_D_1
  0
LINE
  5
E9
330
E6
100
AcDbEntity
  8
치수문자_일반주서
 62
     0
370
    -2
100
AcDbLine
 10
25.43386715339644
 20
2.643262428723897
 30
0.0
 11
25.43386715339644
 21
31.47331894780869
 31
0.0
  0
LINE
  5
EA
330
E6
100
AcDbEntity
  8
치수문자_일반주서
 62
     0
370
    -2
100
AcDbLine
 10
-36.47863284660355
 20
3.873574928723895
 30
0.0
 11
-36.47863284660355
 21
31.47331894780869
 31
0.0
  0
LINE
  5
EB
330
E6
100
AcDbEntity
  8
치수문자_일반주서
 62
     0
370
    -2
100
AcDbLine
 10
22.13186715339644
 20
31.47331894780869
 30
0.0
 11
-33.17663284660355
 21
31.47331894780869
 31
0.0
  0
SOLID
  5
EC
330
E6
100
AcDbEntity
  8
치수문자_일반주서
 62
     0
100
AcDbTrace
 10
22.13186715339644
 20
30.92298561447536
 30
0.0
 11
22.13186715339644
 21
32.02365228114203
 31
0.0
 12
25.43386715339644
 22
31.47331894780869
 32
0.0
 13
25.43386715339644
 23
31.47331894780869
 33
0.0
  0
SOLID
  5
ED
330
E6
100
AcDbEntity
  8
치수문자_일반주서
 62
     0
100
AcDbTrace
 10
-33.17663284660355
 20
32.02365228114203
 30
0.0
 11
-33.17663284660355
 21
30.92298561447536
 31
0.0
 12
-36.47863284660355
 22
31.47331894780869
 32
0.0
 13
-36.47863284660355
 23
31.47331894780869
 33
0.0
  0
MTEXT
  5
EE
330
E6
100
AcDbEntity
  8
치수문자_일반주서
 62
     0
100
AcDbMText
 10
-5.522382846603563
 20
35.84831894780869
 30
0.0
 40
3.5
 41
0.0
 71
     2
 72
     1
  1
\A1;61.91 [2 7/16]
  7
SLDTEXTSTYLE0
 73
     1
 44
1.0
  0
POINT
  5
EF
330
E6
100
AcDbEntity
  8
Defpoints
 62
     0
100
AcDbPoint
 10
25.43386715339644
 20
2.580762428723897
 30
0.0
  0
POINT
  5
F0
330
E6
100
AcDbEntity
  8
Defpoints
 62
     0
100
AcDbPoint
 10
-36.47863284660355
 20
3.811074928723895
 30
0.0
  0
POINT
  5
F1
330
E6
100
AcDbEntity
  8
Defpoints
 62
     0
100
AcDbPoint
 10
-36.47863284660355
 20
31.47331894780869
 30
0.0
  0
ENDBLK
  5
E8
330
E6
100
AcDbEntity
  8
0
100
AcDbBlockEnd
  0
BLOCK
  5
FB
330
FA
100
AcDbEntity
  8
0
100
AcDbBlockBegin
  2
_D_2
 70
     0
 10
0.0
 20
0.0
 30
0.0
  3
_D_2
  1
_D_2
  0
LINE
  5
FD
330
FA
100
AcDbEntity
  8
치수문자_일반주서
 62
     0
370
    -2
100
AcDbLine
 10
-35.58863284660356
 20
4.763574928723896
 30
0.0
 11
-47.77940568443077
 21
4.76357492872385
 31
0.0
  0
LINE
  5
FE
330
FA
100
AcDbEntity
  8
치수문자_일반주서
 62
     0
370
    -2
100
AcDbLine
 10
-35.58863284660356
 20
-4.761425071276109
 30
0.0
 11
-47.77940568443073
 21
-4.761425071276156
 31
0.0
  0
LINE
  5
FF
330
FA
100
AcDbEntity
  8
치수문자_일반주서
 62
     0
370
    -2
100
AcDbLine
 10
-47.77940568443076
 20
1.46157492872385
 30
0.0
 11
-47.77940568443075
 21
-1.459425071276156
 31
0.0
  0
SOLID
  5
100
330
FA
100
AcDbEntity
  8
치수문자_일반주서
 62
     0
100
AcDbTrace
 10
-47.22907235109742
 20
1.461574928723852
 30
0.0
 11
-48.32973901776409
 21
1.461574928723848
 31
0.0
 12
-47.77940568443077
 22
4.76357492872385
 32
0.0
 13
-47.77940568443077
 23
4.76357492872385
 33
0.0
  0
SOLID
  5
101
330
FA
100
AcDbEntity
  8
치수문자_일반주서
 62
     0
100
AcDbTrace
 10
-48.32973901776408
 20
-1.459425071276158
 30
0.0
 11
-47.22907235109741
 21
-1.459425071276154
 31
0.0
 12
-47.77940568443073
 22
-4.761425071276156
 32
0.0
 13
-47.77940568443073
 23
-4.761425071276156
 33
0.0
  0
MTEXT
  5
102
330
FA
100
AcDbEntity
  8
치수문자_일반주서
 62
     0
100
AcDbMText
 10
-52.15440568443076
 20
0.0010749287238796
 30
0.0
 40
3.5
 41
0.0
 71
     2
 72
     1
  1
\A1;%%c9.53 [3/8]
  7
SLDTEXTSTYLE0
 11
-3.729883127349605E-15
 21
1.0
 31
0.0
 73
     1
 44
1.0
  0
POINT
  5
103
330
FA
100
AcDbEntity
  8
Defpoints
 62
     0
100
AcDbPoint
 10
-35.52613284660356
 20
4.763574928723896
 30
0.0
  0
POINT
  5
104
330
FA
100
AcDbEntity
  8
Defpoints
 62
     0
100
AcDbPoint
 10
-35.52613284660356
 20
-4.761425071276109
 30
0.0
  0
POINT
  5
105
330
FA
100
AcDbEntity
  8
Defpoints
 62
     0
100
AcDbPoint
 10
-47.77940568443073
 20
-4.761425071276156
 30
0.0
  0
ENDBLK
  5
FC
330
FA
100
AcDbEntity
  8
0
100
AcDbBlockEnd
  0
BLOCK
  5
10F
330
10E
100
AcDbEntity
  8
0
100
AcDbBlockBegin
  2
_D_3
 70
     0
 10
0.0
 20
0.0
 30
0.0
  3
_D_3
  1
_D_3
  0
LINE
  5
111
330
10E
100
AcDbEntity
  8
치수문자_일반주서
 62
     0
370
    -2
100
AcDbLine
 10
25.49636715339644
 20
2.580762428723897
 30
0.0
 11
40.15471431158882
 21
2.580762428723951
 31
0.0
  0
LINE
  5
112
330
10E
100
AcDbEntity
  8
치수문자_일반주서
 62
     0
370
    -2
100
AcDbLine
 10
25.49636715339643
 20
-2.578612571276103
 30
0.0
 11
40.15471431158884
 21
-2.57861257127605
 31
0.0
  0
LINE
  5
113
330
10E
100
AcDbEntity
  8
치수문자_일반주서
 62
     0
370
    -2
100
AcDbLine
 10
40.15471431158882
 20
2.580762428723951
 30
0.0
 11
40.15471431158867
 21
38.93476242872395
 31
0.0
  0
LINE
  5
114
330
10E
100
AcDbEntity
  8
치수문자_일반주서
 62
     0
370
    -2
100
AcDbLine
 10
40.15471431158882
 20
2.580762428723951
 30
0.0
 11
40.15471431158884
 21
-2.57861257127605
 31
0.0
  0
LINE
  5
115
330
10E
100
AcDbEntity
  8
치수문자_일반주서
 62
     0
370
    -2
100
AcDbLine
 10
40.1547143115888
 20
5.88276242872395
 30
0.0
 11
40.15471431158879
 21
9.18476242872395
 31
0.0
  0
LINE
  5
116
330
10E
100
AcDbEntity
  8
치수문자_일반주서
 62
     0
370
    -2
100
AcDbLine
 10
40.15471431158885
 20
-5.88061257127605
 30
0.0
 11
40.15471431158887
 21
-9.18261257127605
 31
0.0
  0
SOLID
  5
117
330
10E
100
AcDbEntity
  8
치수문자_일반주서
 62
     0
100
AcDbTrace
 10
39.60438097825547
 20
5.882762428723948
 30
0.0
 11
40.70504764492214
 21
5.882762428723953
 31
0.0
 12
40.15471431158882
 22
2.580762428723951
 32
0.0
 13
40.15471431158882
 23
2.580762428723951
 33
0.0
  0
SOLID
  5
118
330
10E
100
AcDbEntity
  8
치수문자_일반주서
 62
     0
100
AcDbTrace
 10
40.70504764492219
 20
-5.880612571276047
 30
0.0
 11
39.60438097825552
 21
-5.880612571276052
 31
0.0
 12
40.15471431158884
 22
-2.57861257127605
 32
0.0
 13
40.15471431158884
 23
-2.57861257127605
 33
0.0
  0
MTEXT
  5
119
330
10E
100
AcDbEntity
  8
치수문자_일반주서
 62
     0
100
AcDbMText
 10
35.77971431158873
 20
24.05976242872393
 30
0.0
 40
3.5
 41
0.0
 71
     2
 72
     1
  1
\A1;%%c5.16 [13/64]
  7
SLDTEXTSTYLE0
 11
-4.131562848756488E-15
 21
1.0
 31
0.0
 73
     1
 44
1.0
  0
POINT
  5
11A
330
10E
100
AcDbEntity
  8
Defpoints
 62
     0
100
AcDbPoint
 10
25.43386715339644
 20
2.580762428723897
 30
0.0
  0
POINT
  5
11B
330
10E
100
AcDbEntity
  8
Defpoints
 62
     0
100
AcDbPoint
 10
25.43386715339643
 20
-2.578612571276103
 30
0.0
  0
POINT
  5
11C
330
10E
100
AcDbEntity
  8
Defpoints
 62
     0
100
AcDbPoint
 10
40.15471431158884
 20
-2.578612571276048
 30
0.0
  0
ENDBLK
  5
110
330
10E
100
AcDbEntity
  8
0
100
AcDbBlockEnd
  0
BLOCK
  5
129
330
128
100
AcDbEntity
  8
0
100
AcDbBlockBegin
  2
SW_DOWELSYMBOL_0
 70
     0
 10
0.0
 20
0.0
 30
0.0
  3
SW_DOWELSYMBOL_0
  1
SW_DOWELSYMBOL_0
  0
CIRCLE
  5
12B
330
128
100
AcDbEntity
  8
해칭선
 62
     0
100
AcDbCircle
 10
0.0
 20
0.0
 30
0.0
 40
2.999999999999999
  0
HATCH
  5
12C
330
128
100
AcDbEntity
  8
0
  6
Continuous
 62
     0
370
     0
100
AcDbHatch
 10
0.0
 20
0.0
 30
0.0
210
0.0
220
0.0
230
1.0
  2
SOLID
 70
     1
 71
     0
 91
        1
 92
        0
 93
        3
 72
     2
 10
0.0
 20
0.0
 40
2.999999999999999
 50
0.0
 51
90.0
 73
     1
 72
     1
 10
0.0
 20
2.999999999999999
 11
0.0
 21
0.0
 72
     1
 10
0.0
 20
0.0
 11
2.999999999999999
 21
0.0
 97
        0
 75
     0
 76
     1
 98
        1
 10
0.0
 20
0.0
  0
HATCH
  5
12D
330
128
100
AcDbEntity
  8
0
  6
Continuous
 62
     0
370
     0
100
AcDbHatch
 10
0.0
 20
0.0
 30
0.0
210
0.0
220
0.0
230
1.0
  2
SOLID
 70
     1
 71
     0
 91
        1
 92
        0
 93
        3
 72
     2
 10
0.0
 20
0.0
 40
2.999999999999999
 50
180.0
 51
270.0000000000008
 73
     1
 72
     1
 10
0.0
 20
-2.999999999999999
 11
0.0
 21
0.0
 72
     1
 10
0.0
 20
0.0
 11
-2.999999999999999
 21
0.0
 97
        0
 75
     0
 76
     1
 98
        1
 10
0.0
 20
0.0
  0
ENDBLK
  5
12A
330
128
100
AcDbEntity
  8
0
100
AcDbBlockEnd
  0
BLOCK
  5
1FC
330
1FB
100
AcDbEntity
  8
0
100
AcDbBlockBegin
  2
*D8
 70
     1
 10
0.0
 20
0.0
 30
0.0
  3
*D8
  1
*D8
  0
LINE
  5
1FE
330
1FB
100
AcDbEntity
  8
치수문자_일반주서
 62
     0
370
    -2
100
AcDbLine
 10
77.58827283782725
 20
15.09062500000002
 30
0.0
 11
77.58827283782725
 21
25.68701690824506
 31
0.0
  0
LINE
  5
1FF
330
1FB
100
AcDbEntity
  8
치수문자_일반주서
 62
     0
370
    -2
100
AcDbLine
 10
63.30077283782724
 20
15.08024295157446
 30
0.0
 11
63.30077283782724
 21
25.68701690824506
 31
0.0
  0
LINE
  5
200
330
1FB
100
AcDbEntity
  8
치수문자_일반주서
 62
     0
370
    -2
100
AcDbLine
 10
63.30077283782724
 20
25.68701690824506
 30
0.0
 11
29.57177283782724
 21
25.68701690824506
 31
0.0
  0
LINE
  5
201
330
1FB
100
AcDbEntity
  8
치수문자_일반주서
 62
     0
370
    -2
100
AcDbLine
 10
77.58827283782725
 20
25.68701690824506
 30
0.0
 11
63.30077283782724
 21
25.68701690824506
 31
0.0
  0
LINE
  5
202
330
1FB
100
AcDbEntity
  8
치수문자_일반주서
 62
     0
370
    -2
100
AcDbLine
 10
80.89027283782724
 20
25.68701690824506
 30
0.0
 11
84.19227283782723
 21
25.68701690824506
 31
0.0
  0
LINE
  5
203
330
1FB
100
AcDbEntity
  8
치수문자_일반주서
 62
     0
370
    -2
100
AcDbLine
 10
59.99877283782724
 20
25.68701690824506
 30
0.0
 11
56.69677283782724
 21
25.68701690824506
 31
0.0
  0
SOLID
  5
204
330
1FB
100
AcDbEntity
  8
치수문자_일반주서
 62
     0
100
AcDbTrace
 10
80.89027283782724
 20
26.23735024157839
 30
0.0
 11
80.89027283782724
 21
25.13668357491172
 31
0.0
 12
77.58827283782725
 22
25.68701690824506
 32
0.0
 13
77.58827283782725
 23
25.68701690824506
 33
0.0
  0
SOLID
  5
205
330
1FB
100
AcDbEntity
  8
치수문자_일반주서
 62
     0
100
AcDbTrace
 10
59.99877283782724
 20
25.13668357491172
 30
0.0
 11
59.99877283782724
 21
26.23735024157839
 31
0.0
 12
63.30077283782724
 22
25.68701690824506
 32
0.0
 13
63.30077283782724
 23
25.68701690824506
 33
0.0
  0
MTEXT
  5
206
330
1FB
100
AcDbEntity
  8
치수문자_일반주서
 62
     0
100
AcDbMText
 10
43.13427283782724
 20
30.06201690824506
 30
0.0
 40
3.5
 41
0.0
 71
     2
 72
     1
  1
\A1;14.29 [9/16]
  7
SLDTEXTSTYLE0
 73
     1
 44
1.0
  0
POINT
  5
207
330
1FB
100
AcDbEntity
  8
Defpoints
 62
     0
100
AcDbPoint
 10
77.58827283782725
 20
15.02812500000002
 30
0.0
  0
POINT
  5
208
330
1FB
100
AcDbEntity
  8
Defpoints
 62
     0
100
AcDbPoint
 10
63.30077283782724
 20
15.01774295157446
 30
0.0
  0
POINT
  5
209
330
1FB
100
AcDbEntity
  8
Defpoints
 62
     0
100
AcDbPoint
 10
63.30077283782724
 20
25.68701690824506
 30
0.0
  0
ENDBLK
  5
1FD
330
1FB
100
AcDbEntity
  8
0
100
AcDbBlockEnd
  0
BLOCK
  5
20B
330
20A
100
AcDbEntity
  8
0
100
AcDbBlockBegin
  2
*D9
 70
     1
 10
0.0
 20
0.0
 30
0.0
  3
*D9
  1
*D9
  0
LINE
  5
20D
330
20A
100
AcDbEntity
  8
치수문자_일반주서
 62
     0
370
    -2
100
AcDbLine
 10
77.58827283782725
 20
15.09062500000002
 30
0.0
 11
77.58827283782725
 21
43.91995178334121
 31
0.0
  0
LINE
  5
20E
330
20A
100
AcDbEntity
  8
치수문자_일반주서
 62
     0
370
    -2
100
AcDbLine
 10
15.67577283782725
 20
16.12250000000002
 30
0.0
 11
15.67577283782725
 21
43.91995178334121
 31
0.0
  0
LINE
  5
20F
330
20A
100
AcDbEntity
  8
치수문자_일반주서
 62
     0
370
    -2
100
AcDbLine
 10
74.28627283782725
 20
43.91995178334121
 30
0.0
 11
18.97777283782725
 21
43.91995178334121
 31
0.0
  0
SOLID
  5
210
330
20A
100
AcDbEntity
  8
치수문자_일반주서
 62
     0
100
AcDbTrace
 10
74.28627283782725
 20
43.36961845000788
 30
0.0
 11
74.28627283782725
 21
44.47028511667455
 31
0.0
 12
77.58827283782725
 22
43.91995178334121
 32
0.0
 13
77.58827283782725
 23
43.91995178334121
 33
0.0
  0
SOLID
  5
211
330
20A
100
AcDbEntity
  8
치수문자_일반주서
 62
     0
100
AcDbTrace
 10
18.97777283782725
 20
44.47028511667455
 30
0.0
 11
18.97777283782725
 21
43.36961845000788
 31
0.0
 12
15.67577283782725
 22
43.91995178334121
 32
0.0
 13
15.67577283782725
 23
43.91995178334121
 33
0.0
  0
MTEXT
  5
212
330
20A
100
AcDbEntity
  8
치수문자_일반주서
 62
     0
100
AcDbMText
 10
46.63202283782724
 20
48.29495178334121
 30
0.0
 40
3.5
 41
0.0
 71
     2
 72
     1
  1
\A1;61.91 [2 7/16]
  7
SLDTEXTSTYLE0
 73
     1
 44
1.0
  0
POINT
  5
213
330
20A
100
AcDbEntity
  8
Defpoints
 62
     0
100
AcDbPoint
 10
77.58827283782725
 20
15.02812500000002
 30
0.0
  0
POINT
  5
214
330
20A
100
AcDbEntity
  8
Defpoints
 62
     0
100
AcDbPoint
 10
15.67577283782725
 20
16.06000000000002
 30
0.0
  0
POINT
  5
215
330
20A
100
AcDbEntity
  8
Defpoints
 62
     0
100
AcDbPoint
 10
15.67577283782725
 20
43.91995178334121
 30
0.0
  0
ENDBLK
  5
20C
330
20A
100
AcDbEntity
  8
0
100
AcDbBlockEnd
  0
BLOCK
  5
217
330
216
100
AcDbEntity
  8
0
100
AcDbBlockBegin
  2
*D10
 70
     1
 10
0.0
 20
0.0
 30
0.0
  3
*D10
  1
*D10
  0
LINE
  5
219
330
216
100
AcDbEntity
  8
치수문자_일반주서
 62
     0
370
    -2
100
AcDbLine
 10
16.56577283782725
 20
17.01250000000002
 30
0.0
 11
4.375000000000034
 21
17.01249999999997
 31
0.0
  0
LINE
  5
21A
330
216
100
AcDbEntity
  8
치수문자_일반주서
 62
     0
370
    -2
100
AcDbLine
 10
16.56577283782725
 20
7.487500000000011
 30
0.0
 11
4.375000000000067
 21
7.487499999999965
 31
0.0
  0
LINE
  5
21B
330
216
100
AcDbEntity
  8
치수문자_일반주서
 62
     0
370
    -2
100
AcDbLine
 10
4.375000000000045
 20
13.71049999999997
 30
0.0
 11
4.375000000000055
 21
10.78949999999996
 31
0.0
  0
SOLID
  5
21C
330
216
100
AcDbEntity
  8
치수문자_일반주서
 62
     0
100
AcDbTrace
 10
4.925333333333379
 20
13.71049999999997
 30
0.0
 11
3.824666666666712
 21
13.71049999999997
 31
0.0
 12
4.375000000000034
 22
17.01249999999997
 32
0.0
 13
4.375000000000034
 23
17.01249999999997
 33
0.0
  0
SOLID
  5
21D
330
216
100
AcDbEntity
  8
치수문자_일반주서
 62
     0
100
AcDbTrace
 10
3.824666666666722
 20
10.78949999999996
 30
0.0
 11
4.925333333333389
 21
10.78949999999997
 31
0.0
 12
4.375000000000067
 22
7.487499999999965
 32
0.0
 13
4.375000000000067
 23
7.487499999999965
 33
0.0
  0
MTEXT
  5
21E
330
216
100
AcDbEntity
  8
치수문자_일반주서
 62
     0
100
AcDbMText
 10
0.0000000000000497
 20
12.25
 30
0.0
 40
3.5
 41
0.0
 71
     2
 72
     1
  1
\A1;%%c9.53 [3/8]
  7
SLDTEXTSTYLE0
 11
-3.450141892798385E-15
 21
1.0
 31
0.0
 73
     1
 44
1.0
  0
POINT
  5
21F
330
216
100
AcDbEntity
  8
Defpoints
 62
     0
100
AcDbPoint
 10
16.62827283782725
 20
17.01250000000002
 30
0.0
  0
POINT
  5
220
330
216
100
AcDbEntity
  8
Defpoints
 62
     0
100
AcDbPoint
 10
16.62827283782725
 20
7.487500000000011
 30
0.0
  0
POINT
  5
221
330
216
100
AcDbEntity
  8
Defpoints
 62
     0
100
AcDbPoint
 10
4.375000000000071
 20
7.487499999999965
 30
0.0
  0
ENDBLK
  5
218
330
216
100
AcDbEntity
  8
0
100
AcDbBlockEnd
  0
BLOCK
  5
223
330
222
100
AcDbEntity
  8
0
100
AcDbBlockBegin
  2
*D11
 70
     1
 10
0.0
 20
0.0
 30
0.0
  3
*D11
  1
*D11
  0
LINE
  5
225
330
222
100
AcDbEntity
  8
치수문자_일반주서
 62
     0
370
    -2
100
AcDbLine
 10
77.65077283782725
 20
15.02812500000002
 30
0.0
 11
93.64819174871832
 21
15.02812500000008
 31
0.0
  0
LINE
  5
226
330
222
100
AcDbEntity
  8
치수문자_일반주서
 62
     0
370
    -2
100
AcDbLine
 10
77.65077283782725
 20
9.471875000000018
 30
0.0
 11
93.64819174871833
 21
9.471875000000079
 31
0.0
  0
LINE
  5
227
330
222
100
AcDbEntity
  8
치수문자_일반주서
 62
     0
370
    -2
100
AcDbLine
 10
93.64819174871832
 20
15.02812500000008
 30
0.0
 11
93.64819174871822
 21
52.10685444662851
 31
0.0
  0
LINE
  5
228
330
222
100
AcDbEntity
  8
치수문자_일반주서
 62
     0
370
    -2
100
AcDbLine
 10
93.64819174871832
 20
15.02812500000008
 30
0.0
 11
93.64819174871833
 21
9.471875000000079
 31
0.0
  0
LINE
  5
229
330
222
100
AcDbEntity
  8
치수문자_일반주서
 62
     0
370
    -2
100
AcDbLine
 10
93.6481917487183
 20
18.33012500000008
 30
0.0
 11
93.64819174871829
 21
21.63212500000008
 31
0.0
  0
LINE
  5
22A
330
222
100
AcDbEntity
  8
치수문자_일반주서
 62
     0
370
    -2
100
AcDbLine
 10
93.64819174871835
 20
6.169875000000079
 30
0.0
 11
93.64819174871836
 21
2.86787500000008
 31
0.0
  0
SOLID
  5
22B
330
222
100
AcDbEntity
  8
치수문자_일반주서
 62
     0
100
AcDbTrace
 10
93.09785841538498
 20
18.33012500000008
 30
0.0
 11
94.19852508205163
 21
18.33012500000008
 31
0.0
 12
93.64819174871832
 22
15.02812500000008
 32
0.0
 13
93.64819174871832
 23
15.02812500000008
 33
0.0
  0
SOLID
  5
22C
330
222
100
AcDbEntity
  8
치수문자_일반주서
 62
     0
100
AcDbTrace
 10
94.19852508205167
 20
6.169875000000081
 30
0.0
 11
93.09785841538502
 21
6.169875000000077
 31
0.0
 12
93.64819174871833
 22
9.471875000000079
 32
0.0
 13
93.64819174871833
 23
9.471875000000079
 33
0.0
  0
MTEXT
  5
22D
330
222
100
AcDbEntity
  8
치수문자_일반주서
 62
     0
100
AcDbMText
 10
89.27319174871826
 20
37.6693544466285
 30
0.0
 40
3.5
 41
0.0
 71
     2
 72
     1
  1
\A1;%%c5.56 [7/32]
  7
SLDTEXTSTYLE0
 11
-2.557634144468303E-15
 21
1.0
 31
0.0
 73
     1
 44
1.0
  0
POINT
  5
22E
330
222
100
AcDbEntity
  8
Defpoints
 62
     0
100
AcDbPoint
 10
77.58827283782725
 20
15.02812500000002
 30
0.0
  0
POINT
  5
22F
330
222
100
AcDbEntity
  8
Defpoints
 62
     0
100
AcDbPoint
 10
77.58827283782725
 20
9.471875000000018
 30
0.0
  0
POINT
  5
230
330
222
100
AcDbEntity
  8
Defpoints
 62
     0
100
AcDbPoint
 10
93.64819174871838
 20
9.471875000000079
 30
0.0
  0
ENDBLK
  5
224
330
222
100
AcDbEntity
  8
0
100
AcDbBlockEnd
  0
BLOCK
  5
271
330
270
100
AcDbEntity
  8
0
100
AcDbBlockBegin
  2
*D12
 70
     1
 10
0.0
 20
0.0
 30
0.0
  3
*D12
  1
*D12
  0
LINE
  5
273
330
270
100
AcDbEntity
  8
치수문자_일반주서
 62
     0
370
    -2
100
AcDbLine
 10
164.6124027972966
 20
-29.60635762652161
 30
0.0
 11
164.6124027972966
 21
-19.00996571827658
 31
0.0
  0
LINE
  5
274
330
270
100
AcDbEntity
  8
치수문자_일반주서
 62
     0
370
    -2
100
AcDbLine
 10
150.3249027972966
 20
-29.61673967494717
 30
0.0
 11
150.3249027972966
 21
-19.00996571827658
 31
0.0
  0
LINE
  5
275
330
270
100
AcDbEntity
  8
치수문자_일반주서
 62
     0
370
    -2
100
AcDbLine
 10
150.3249027972966
 20
-19.00996571827658
 30
0.0
 11
116.5959027972966
 21
-19.00996571827658
 31
0.0
  0
LINE
  5
276
330
270
100
AcDbEntity
  8
치수문자_일반주서
 62
     0
370
    -2
100
AcDbLine
 10
164.6124027972966
 20
-19.00996571827658
 30
0.0
 11
150.3249027972966
 21
-19.00996571827658
 31
0.0
  0
LINE
  5
277
330
270
100
AcDbEntity
  8
치수문자_일반주서
 62
     0
370
    -2
100
AcDbLine
 10
167.9144027972966
 20
-19.00996571827658
 30
0.0
 11
171.2164027972966
 21
-19.00996571827658
 31
0.0
  0
LINE
  5
278
330
270
100
AcDbEntity
  8
치수문자_일반주서
 62
     0
370
    -2
100
AcDbLine
 10
147.0229027972966
 20
-19.00996571827658
 30
0.0
 11
143.7209027972966
 21
-19.00996571827658
 31
0.0
  0
SOLID
  5
279
330
270
100
AcDbEntity
  8
치수문자_일반주서
 62
     0
100
AcDbTrace
 10
167.9144027972966
 20
-18.45963238494324
 30
0.0
 11
167.9144027972966
 21
-19.56029905160991
 31
0.0
 12
164.6124027972966
 22
-19.00996571827658
 32
0.0
 13
164.6124027972966
 23
-19.00996571827658
 33
0.0
  0
SOLID
  5
27A
330
270
100
AcDbEntity
  8
치수문자_일반주서
 62
     0
100
AcDbTrace
 10
147.0229027972966
 20
-19.56029905160991
 30
0.0
 11
147.0229027972966
 21
-18.45963238494324
 31
0.0
 12
150.3249027972966
 22
-19.00996571827658
 32
0.0
 13
150.3249027972966
 23
-19.00996571827658
 33
0.0
  0
MTEXT
  5
27B
330
270
100
AcDbEntity
  8
치수문자_일반주서
 62
     0
100
AcDbMText
 10
130.1584027972966
 20
-14.63496571827658
 30
0.0
 40
3.5
 41
0.0
 71
     2
 72
     1
  1
\A1;14.29 [9/16]
  7
SLDTEXTSTYLE0
 73
     1
 44
1.0
  0
POINT
  5
27C
330
270
100
AcDbEntity
  8
Defpoints
 62
     0
100
AcDbPoint
 10
164.6124027972966
 20
-29.66885762652161
 30
0.0
  0
POINT
  5
27D
330
270
100
AcDbEntity
  8
Defpoints
 62
     0
100
AcDbPoint
 10
150.3249027972966
 20
-29.67923967494717
 30
0.0
  0
POINT
  5
27E
330
270
100
AcDbEntity
  8
Defpoints
 62
     0
100
AcDbPoint
 10
150.3249027972966
 20
-19.00996571827658
 30
0.0
  0
ENDBLK
  5
272
330
270
100
AcDbEntity
  8
0
100
AcDbBlockEnd
  0
BLOCK
  5
280
330
27F
100
AcDbEntity
  8
0
100
AcDbBlockBegin
  2
*D13
 70
     1
 10
0.0
 20
0.0
 30
0.0
  3
*D13
  1
*D13
  0
LINE
  5
282
330
27F
100
AcDbEntity
  8
치수문자_일반주서
 62
     0
370
    -2
100
AcDbLine
 10
164.6124027972966
 20
-29.60635762652161
 30
0.0
 11
164.6124027972966
 21
-0.7770308431804196
 31
0.0
  0
LINE
  5
283
330
27F
100
AcDbEntity
  8
치수문자_일반주서
 62
     0
370
    -2
100
AcDbLine
 10
102.6999027972966
 20
-28.57448262652161
 30
0.0
 11
102.6999027972966
 21
-0.7770308431804196
 31
0.0
  0
LINE
  5
284
330
27F
100
AcDbEntity
  8
치수문자_일반주서
 62
     0
370
    -2
100
AcDbLine
 10
161.3104027972966
 20
-0.7770308431804196
 30
0.0
 11
106.0019027972966
 21
-0.7770308431804196
 31
0.0
  0
SOLID
  5
285
330
27F
100
AcDbEntity
  8
치수문자_일반주서
 62
     0
100
AcDbTrace
 10
161.3104027972966
 20
-1.327364176513753
 30
0.0
 11
161.3104027972966
 21
-0.2266975098470864
 31
0.0
 12
164.6124027972966
 22
-0.7770308431804196
 32
0.0
 13
164.6124027972966
 23
-0.7770308431804196
 33
0.0
  0
SOLID
  5
286
330
27F
100
AcDbEntity
  8
치수문자_일반주서
 62
     0
100
AcDbTrace
 10
106.0019027972966
 20
-0.2266975098470864
 30
0.0
 11
106.0019027972966
 21
-1.327364176513753
 31
0.0
 12
102.6999027972966
 22
-0.7770308431804196
 32
0.0
 13
102.6999027972966
 23
-0.7770308431804196
 33
0.0
  0
MTEXT
  5
287
330
27F
100
AcDbEntity
  8
치수문자_일반주서
 62
     0
100
AcDbMText
 10
133.6561527972966
 20
3.59796915681958
 30
0.0
 40
3.5
 41
0.0
 71
     2
 72
     1
  1
\A1;61.91 [2 7/16]
  7
SLDTEXTSTYLE0
 73
     1
 44
1.0
  0
POINT
  5
288
330
27F
100
AcDbEntity
  8
Defpoints
 62
     0
100
AcDbPoint
 10
164.6124027972966
 20
-29.66885762652161
 30
0.0
  0
POINT
  5
289
330
27F
100
AcDbEntity
  8
Defpoints
 62
     0
100
AcDbPoint
 10
102.6999027972966
 20
-28.63698262652161
 30
0.0
  0
POINT
  5
28A
330
27F
100
AcDbEntity
  8
Defpoints
 62
     0
100
AcDbPoint
 10
102.6999027972966
 20
-0.7770308431804196
 30
0.0
  0
ENDBLK
  5
281
330
27F
100
AcDbEntity
  8
0
100
AcDbBlockEnd
  0
BLOCK
  5
28C
330
28B
100
AcDbEntity
  8
0
100
AcDbBlockBegin
  2
*D14
 70
     1
 10
0.0
 20
0.0
 30
0.0
  3
*D14
  1
*D14
  0
LINE
  5
28E
330
28B
100
AcDbEntity
  8
치수문자_일반주서
 62
     0
370
    -2
100
AcDbLine
 10
103.5899027972966
 20
-27.68448262652161
 30
0.0
 11
91.39912995946942
 21
-27.68448262652166
 31
0.0
  0
LINE
  5
28F
330
28B
100
AcDbEntity
  8
치수문자_일반주서
 62
     0
370
    -2
100
AcDbLine
 10
103.5899027972966
 20
-37.20948262652162
 30
0.0
 11
91.39912995946945
 21
-37.20948262652166
 31
0.0
  0
LINE
  5
290
330
28B
100
AcDbEntity
  8
치수문자_일반주서
 62
     0
370
    -2
100
AcDbLine
 10
91.39912995946943
 20
-30.98648262652166
 30
0.0
 11
91.39912995946943
 21
-33.90748262652166
 31
0.0
  0
SOLID
  5
291
330
28B
100
AcDbEntity
  8
치수문자_일반주서
 62
     0
100
AcDbTrace
 10
91.94946329280276
 20
-30.98648262652166
 30
0.0
 11
90.8487966261361
 21
-30.98648262652166
 31
0.0
 12
91.39912995946942
 22
-27.68448262652166
 32
0.0
 13
91.39912995946942
 23
-27.68448262652166
 33
0.0
  0
SOLID
  5
292
330
28B
100
AcDbEntity
  8
치수문자_일반주서
 62
     0
100
AcDbTrace
 10
90.8487966261361
 20
-33.90748262652166
 30
0.0
 11
91.94946329280276
 21
-33.90748262652166
 31
0.0
 12
91.39912995946945
 22
-37.20948262652166
 32
0.0
 13
91.39912995946945
 23
-37.20948262652166
 33
0.0
  0
MTEXT
  5
293
330
28B
100
AcDbEntity
  8
치수문자_일반주서
 62
     0
100
AcDbMText
 10
87.02412995946943
 20
-32.44698262652163
 30
0.0
 40
3.5
 41
0.0
 71
     2
 72
     1
  1
\A1;%%c9.53 [3/8]
  7
SLDTEXTSTYLE0
 11
-2.983906501879685E-15
 21
1.0
 31
0.0
 73
     1
 44
1.0
  0
POINT
  5
294
330
28B
100
AcDbEntity
  8
Defpoints
 62
     0
100
AcDbPoint
 10
103.6524027972966
 20
-27.68448262652161
 30
0.0
  0
POINT
  5
295
330
28B
100
AcDbEntity
  8
Defpoints
 62
     0
100
AcDbPoint
 10
103.6524027972966
 20
-37.20948262652162
 30
0.0
  0
POINT
  5
296
330
28B
100
AcDbEntity
  8
Defpoints
 62
     0
100
AcDbPoint
 10
91.39912995946945
 20
-37.20948262652166
 30
0.0
  0
ENDBLK
  5
28D
330
28B
100
AcDbEntity
  8
0
100
AcDbBlockEnd
  0
BLOCK
  5
298
330
297
100
AcDbEntity
  8
0
100
AcDbBlockBegin
  2
*D15
 70
     1
 10
0.0
 20
0.0
 30
0.0
  3
*D15
  1
*D15
  0
LINE
  5
29A
330
297
100
AcDbEntity
  8
치수문자_일반주서
 62
     0
370
    -2
100
AcDbLine
 10
164.6749027972966
 20
-29.66885762652161
 30
0.0
 11
180.6723217081878
 21
-29.66885762652155
 31
0.0
  0
LINE
  5
29B
330
297
100
AcDbEntity
  8
치수문자_일반주서
 62
     0
370
    -2
100
AcDbLine
 10
164.6749027972966
 20
-35.22510762652161
 30
0.0
 11
180.6723217081878
 21
-35.22510762652155
 31
0.0
  0
LINE
  5
29C
330
297
100
AcDbEntity
  8
치수문자_일반주서
 62
     0
370
    -2
100
AcDbLine
 10
180.6723217081878
 20
-29.66885762652155
 30
0.0
 11
180.6723217081876
 21
7.409871820106879
 31
0.0
  0
LINE
  5
29D
330
297
100
AcDbEntity
  8
치수문자_일반주서
 62
     0
370
    -2
100
AcDbLine
 10
180.6723217081878
 20
-29.66885762652155
 30
0.0
 11
180.6723217081878
 21
-35.22510762652155
 31
0.0
  0
LINE
  5
29E
330
297
100
AcDbEntity
  8
치수문자_일반주서
 62
     0
370
    -2
100
AcDbLine
 10
180.6723217081877
 20
-26.36685762652155
 30
0.0
 11
180.6723217081877
 21
-23.06485762652155
 31
0.0
  0
LINE
  5
29F
330
297
100
AcDbEntity
  8
치수문자_일반주서
 62
     0
370
    -2
100
AcDbLine
 10
180.6723217081878
 20
-38.52710762652155
 30
0.0
 11
180.6723217081878
 21
-41.82910762652155
 31
0.0
  0
SOLID
  5
2A0
330
297
100
AcDbEntity
  8
치수문자_일반주서
 62
     0
100
AcDbTrace
 10
180.1219883748544
 20
-26.36685762652156
 30
0.0
 11
181.2226550415211
 21
-26.36685762652155
 31
0.0
 12
180.6723217081878
 22
-29.66885762652155
 32
0.0
 13
180.6723217081878
 23
-29.66885762652155
 33
0.0
  0
SOLID
  5
2A1
330
297
100
AcDbEntity
  8
치수문자_일반주서
 62
     0
100
AcDbTrace
 10
181.2226550415211
 20
-38.52710762652155
 30
0.0
 11
180.1219883748545
 21
-38.52710762652155
 31
0.0
 12
180.6723217081878
 22
-35.22510762652155
 32
0.0
 13
180.6723217081878
 23
-35.22510762652155
 33
0.0
  0
MTEXT
  5
2A2
330
297
100
AcDbEntity
  8
치수문자_일반주서
 62
     0
100
AcDbMText
 10
176.2973217081876
 20
-7.027628179893143
 30
0.0
 40
3.5
 41
0.0
 71
     2
 72
     1
  1
\A1;%%c5.56 [7/32]
  7
SLDTEXTSTYLE0
 11
-5.115268288936602E-15
 21
1.0
 31
0.0
 73
     1
 44
1.0
  0
POINT
  5
2A3
330
297
100
AcDbEntity
  8
Defpoints
 62
     0
100
AcDbPoint
 10
164.6124027972966
 20
-29.66885762652161
 30
0.0
  0
POINT
  5
2A4
330
297
100
AcDbEntity
  8
Defpoints
 62
     0
100
AcDbPoint
 10
164.6124027972966
 20
-35.22510762652161
 30
0.0
  0
POINT
  5
2A5
330
297
100
AcDbEntity
  8
Defpoints
 62
     0
100
AcDbPoint
 10
180.6723217081877
 20
-35.22510762652156
 30
0.0
  0
ENDBLK
  5
299
330
297
100
AcDbEntity
  8
0
100
AcDbBlockEnd
  0
ENDSEC
  0
SECTION
  2
ENTITIES
  0
LINE
  5
96
330
1F
100
AcDbEntity
  8
외형선
  6
Continuous
370
    15
100
AcDbLine
 10
1.999999999999997
 20
-4.761425071276111
 30
0.0
 11
10.14636715339644
 21
-2.578612571276107
 31
0.0
  0
LINE
  5
97
330
1F
100
AcDbEntity
  8
외형선
  6
Continuous
370
    15
100
AcDbLine
 10
10.14636715339644
 20
2.580762428723893
 30
0.0
 11
1.999999999999997
 21
4.763574928723898
 31
0.0
  0
LINE
  5
98
330
1F
100
AcDbEntity
  8
외형선
  6
Continuous
370
    15
100
AcDbLine
 10
-35.52613284660356
 20
-4.761425071276109
 30
0.0
 11
1.999999999999997
 21
-4.761425071276109
 31
0.0
  0
LINE
  5
99
330
1F
100
AcDbEntity
  8
외형선
  6
Continuous
370
    15
100
AcDbLine
 10
1.999999999999997
 20
4.763574928723895
 30
0.0
 11
-11.79618284660343
 21
4.763574928723895
 31
0.0
  0
LINE
  5
9A
330
1F
100
AcDbEntity
  8
외형선
  6
Continuous
370
    15
100
AcDbLine
 10
-35.52613284660356
 20
4.763574928723893
 30
0.0
 11
-36.47863284660355
 21
3.811074928723895
 31
0.0
  0
LINE
  5
9B
330
1F
100
AcDbEntity
  8
외형선
  6
Continuous
370
    15
100
AcDbLine
 10
-36.47863284660355
 20
-3.808925071276108
 30
0.0
 11
-35.52613284660356
 21
-4.761425071276106
 31
0.0
  0
LINE
  5
9C
330
1F
100
AcDbEntity
  8
외형선
  6
Continuous
370
    15
100
AcDbLine
 10
10.14636715339644
 20
-2.578612571276107
 30
0.0
 11
10.64629256353531
 21
-2.578612571276107
 31
0.0
  0
LINE
  5
9D
330
1F
100
AcDbEntity
  8
외형선
  6
Continuous
370
    15
100
AcDbLine
 10
10.64629256353531
 20
2.580762428723893
 30
0.0
 11
10.14636715339644
 21
2.580762428723893
 31
0.0
  0
LINE
  5
9E
330
1F
100
AcDbEntity
  8
0
  6
Continuous
 62
     1
370
    15
100
AcDbLine
 10
18.79812864845995
 20
-2.578612571276107
 30
0.0
 11
20.37174394818141
 21
-2.578612571276107
 31
0.0
  0
LINE
  5
9F
330
1F
100
AcDbEntity
  8
0
  6
Continuous
 62
     1
370
    15
100
AcDbLine
 10
13.3519895520788
 20
2.580762428723894
 30
0.0
 11
11.78094536103509
 21
2.580762428723894
 31
0.0
  0
LINE
  5
A0
330
1F
100
AcDbEntity
  8
0
  6
Continuous
 62
     1
370
    15
100
AcDbLine
 10
20.37174394818139
 20
2.580762428723894
 30
0.0
 11
18.79812864845997
 21
2.580762428723894
 31
0.0
  0
LINE
  5
A1
330
1F
100
AcDbEntity
  8
0
  6
Continuous
 62
     1
370
    15
100
AcDbLine
 10
11.78094536103509
 20
-2.578612571276107
 30
0.0
 11
13.35198955207878
 21
-2.578612571276107
 31
0.0
  0
LINE
  5
A2
330
1F
100
AcDbEntity
  8
외형선
  6
Continuous
370
    15
100
AcDbLine
 10
10.14636715339644
 20
0.0010749287238931
 30
0.0
 11
10.14636715339644
 21
2.580762428723893
 31
0.0
  0
LINE
  5
A3
330
1F
100
AcDbEntity
  8
외형선
  6
Continuous
370
    15
100
AcDbLine
 10
10.14636715339644
 20
-2.578612571276108
 30
0.0
 11
10.14636715339644
 21
0.0010749287238931
 31
0.0
  0
LINE
  5
A4
330
1F
100
AcDbEntity
  8
외형선
  6
Continuous
370
    15
100
AcDbLine
 10
1.999999999999997
 20
0.0010749287238931
 30
0.0
 11
1.999999999999997
 21
4.763574928723898
 31
0.0
  0
LINE
  5
A5
330
1F
100
AcDbEntity
  8
외형선
  6
Continuous
370
    15
100
AcDbLine
 10
1.999999999999997
 20
-4.761425071276111
 30
0.0
 11
1.999999999999997
 21
0.0010749287238931
 31
0.0
  0
LINE
  5
A6
330
1F
100
AcDbEntity
  8
외형선
  6
Continuous
370
    15
100
AcDbLine
 10
-35.52613284660356
 20
0.0010749287238931
 30
0.0
 11
-35.52613284660356
 21
4.763574928723895
 31
0.0
  0
LINE
  5
A7
330
1F
100
AcDbEntity
  8
외형선
  6
Continuous
370
    15
100
AcDbLine
 10
-35.52613284660356
 20
-4.761425071276109
 30
0.0
 11
-35.52613284660356
 21
0.0010749287238931
 31
0.0
  0
LINE
  5
A8
330
1F
100
AcDbEntity
  8
외형선
  6
Continuous
370
    15
100
AcDbLine
 10
-36.47863284660355
 20
0.0010749287238931
 30
0.0
 11
-36.47863284660355
 21
3.811074928723895
 31
0.0
  0
LINE
  5
A9
330
1F
100
AcDbEntity
  8
외형선
  6
Continuous
370
    15
100
AcDbLine
 10
-36.47863284660355
 20
-3.808925071276108
 30
0.0
 11
-36.47863284660355
 21
0.0010749287238931
 31
0.0
  0
SPLINE
  5
AA
330
1F
100
AcDbEntity
  8
외형선
  6
Continuous
370
    15
100
AcDbSpline
210
0.0
220
0.0
230
1.0
 70
     8
 71
     3
 72
     8
 73
     4
 74
     0
 42
0.000000001
 43
0.00000001
 40
0.0
 40
0.0
 40
0.0
 40
0.0
 40
1.0
 40
1.0
 40
1.0
 40
1.0
 10
11.14636715339643
 20
2.554793092812026
 30
0.0
 10
10.98036395757037
 20
2.541223260470233
 30
0.0
 10
10.81315368841751
 20
2.522312992656158
 30
0.0
 10
10.64629256353532
 20
2.498211493575992
 30
0.0
  0
LINE
  5
AB
330
1F
100
AcDbEntity
  8
외형선
  6
Continuous
370
    15
100
AcDbLine
 10
10.64629256353531
 20
1.469757408059264
 30
0.0
 11
10.64629256353531
 21
2.580762428723893
 31
0.0
  0
SPLINE
  5
AC
330
1F
100
AcDbEntity
  8
외형선
  6
Continuous
370
    15
100
AcDbSpline
210
0.0
220
0.0
230
1.0
 70
     8
 71
     3
 72
     8
 73
     4
 74
     0
 42
0.000000001
 43
0.00000001
 40
0.0
 40
0.0
 40
0.0
 40
0.0
 40
1.0
 40
1.0
 40
1.0
 40
1.0
 10
11.14636715339645
 20
1.224324496111129
 30
0.0
 10
10.98036395757039
 20
1.308735837082133
 30
0.0
 10
10.81315368841751
 20
1.390808880556089
 30
0.0
 10
10.64629256353531
 20
1.469764687566896
 30
0.0
  0
SPLINE
  5
AD
330
1F
100
AcDbEntity
  8
외형선
  6
Continuous
370
    15
100
AcDbSpline
210
0.0
220
0.0
230
1.0
 70
     8
 71
     3
 72
     8
 73
     4
 74
     0
 42
0.000000001
 43
0.00000001
 40
0.0
 40
0.0
 40
0.0
 40
0.0
 40
1.0
 40
1.0
 40
1.0
 40
1.0
 10
11.14636715339643
 20
0.3661929042641129
 30
0.0
 10
10.98036395757037
 20
0.4611033980123181
 30
0.0
 10
10.81315368841751
 20
0.5554845128758071
 30
0.0
 10
10.64629256353532
 20
0.648451615155307
 30
0.0
  0
LINE
  5
AE
330
1F
100
AcDbEntity
  8
외형선
  6
Continuous
370
    15
100
AcDbLine
 10
10.64629256353531
 20
-2.11971722812447
 30
0.0
 11
10.64629256353531
 21
0.6484521592738097
 31
0.0
  0
SPLINE
  5
AF
330
1F
100
AcDbEntity
  8
외형선
  6
Continuous
370
    15
100
AcDbSpline
210
0.0
220
0.0
230
1.0
 70
     8
 71
     3
 72
     8
 73
     4
 74
     0
 42
0.000000001
 43
0.00000001
 40
0.0
 40
0.0
 40
0.0
 40
0.0
 40
1.0
 40
1.0
 40
1.0
 40
1.0
 10
11.14636715339645
 20
-2.270146789546514
 30
0.0
 10
10.98036395757039
 20
-2.224683972995081
 30
0.0
 10
10.81315368841751
 20
-2.174390746745444
 30
0.0
 10
10.64629256353531
 20
-2.119712186930554
 30
0.0
  0
SPLINE
  5
B0
330
1F
100
AcDbEntity
  8
외형선
  6
Continuous
370
    15
100
AcDbSpline
210
0.0
220
0.0
230
1.0
 70
     8
 71
     3
 72
     8
 73
     4
 74
     0
 42
0.000000001
 43
0.00000001
 40
0.0
 40
0.0
 40
0.0
 40
0.0
 40
1.0
 40
1.0
 40
1.0
 40
1.0
 10
11.14636715339643
 20
-2.552643235364239
 30
0.0
 10
10.98036395757037
 20
-2.539073403022447
 30
0.0
 10
10.81315368841751
 20
-2.520163135208372
 30
0.0
 10
10.64629256353532
 20
-2.496061636128206
 30
0.0
  0
LINE
  5
B1
330
1F
100
AcDbEntity
  8
외형선
  6
Continuous
370
    15
100
AcDbLine
 10
10.64629256353531
 20
-2.578612571276107
 30
0.0
 11
10.64629256353531
 21
-2.496061495066721
 31
0.0
  0
LINE
  5
B2
330
1F
100
AcDbEntity
  8
외형선
  6
Continuous
370
    15
100
AcDbLine
 10
11.14636715339643
 20
-2.552643235364285
 30
0.0
 11
11.14636715339645
 21
-2.270146789546514
 31
0.0
  0
LINE
  5
B3
330
1F
100
AcDbEntity
  8
외형선
  6
Continuous
370
    15
100
AcDbLine
 10
11.14636715339643
 20
0.3661929042641128
 30
0.0
 11
11.14636715339645
 21
1.224324496111129
 31
0.0
  0
SPLINE
  5
B4
330
1F
100
AcDbEntity
  8
외형선
  6
Continuous
370
    15
100
AcDbSpline
210
0.0
220
0.0
230
1.0
 70
    24
 71
     3
 72
    20
 73
    16
 74
     0
 42
0.000000001
 43
0.00000001
 40
0.0
 40
0.0
 40
0.0
 40
0.0
 40
0.1321797701117514
 40
0.2078281510267597
 40
0.283476531941768
 40
0.3591249128569421
 40
0.4347732937721161
 40
0.5104216746872078
 40
0.5860700556022994
 40
0.6617184365173902
 40
0.7373668174324806
 40
0.8130151983475692
 40
0.8886635792626578
 40
0.9643119601777662
 40
1.0
 40
1.0
 40
1.0
 40
1.0
 10
11.14636715339645
 20
-2.270146789546514
 30
0.0
 10
11.14636715339645
 20
-2.154686402529322
 30
0.0
 10
11.14636715339647
 20
-1.973146377680363
 30
0.0
 10
11.14636715339645
 20
-1.671341017246688
 30
0.0
 10
11.14636715339645
 20
-1.418165121626521
 30
0.0
 10
11.14636715339645
 20
-1.156840199563811
 30
0.0
 10
11.14636715339645
 20
-0.8958254811863678
 30
0.0
 10
11.14636715339645
 20
-0.6424448073207268
 30
0.0
 10
11.14636715339648
 20
-0.4035121186191591
 30
0.0
 10
11.14636715339647
 20
-0.1864807864597524
 30
0.0
 10
11.14636715339646
 20
0.0032788257937206
 30
0.0
 10
11.14636715339644
 20
0.1599433189379468
 30
0.0
 10
11.14636715339649
 20
0.2774845403619497
 30
0.0
 10
11.14636715339645
 20
0.3473441277085758
 30
0.0
 10
11.14636715339645
 20
0.3616176391296264
 30
0.0
 10
11.14636715339645
 20
0.3661929042641082
 30
0.0
  0
SPLINE
  5
B5
330
1F
100
AcDbEntity
  8
외형선
  6
Continuous
370
    15
100
AcDbSpline
210
0.0
220
0.0
230
1.0
 70
    24
 71
     3
 72
    14
 73
    10
 74
     0
 42
0.000000001
 43
0.00000001
 40
0.0
 40
0.0
 40
0.0
 40
0.0
 40
0.0110613743614227
 40
0.1963534708519453
 40
0.3870190506932704
 40
0.5723111471838384
 40
0.7629767270252112
 40
0.8808179060534828
 40
1.0
 40
1.0
 40
1.0
 40
1.0
 10
11.14636715339645
 20
1.267578338676712
 30
0.0
 10
11.14636715339645
 20
1.271089476412037
 30
0.0
 10
11.14636715339643
 20
1.333416639244049
 30
0.0
 10
11.14636715339645
 20
1.484547942092975
 30
0.0
 10
11.14636715339646
 20
1.713949775658671
 30
0.0
 10
11.14636715339647
 20
1.965839472113409
 30
0.0
 10
11.14636715339645
 20
2.193027805020141
 30
0.0
 10
11.14636715339643
 20
2.391341996965531
 30
0.0
 10
11.14636715339642
 20
2.500104293400614
 30
0.0
 10
11.14636715339643
 20
2.554793092812071
 30
0.0
  0
SPLINE
  5
B6
330
1F
100
AcDbEntity
  8
0
  6
Continuous
 62
     1
370
    15
100
AcDbSpline
210
0.0
220
0.0
230
1.0
 70
     8
 71
     3
 72
    19
 73
    15
 74
     0
 42
0.000000001
 43
0.00000001
 40
0.0
 40
0.0
 40
0.0
 40
0.0
 40
0.0836547134493172
 40
0.1672650734055168
 40
0.2509417595879925
 40
0.3347735214551178
 40
0.4185119630771534
 40
0.502137105721706
 40
0.5857593658020603
 40
0.6694892110577363
 40
0.7572944621978231
 40
0.8449916708847737
 40
0.9326134904928078
 40
1.0
 40
1.0
 40
1.0
 40
1.0
 10
11.14636715339645
 20
1.224324496111129
 30
0.0
 10
11.47954828842691
 20
1.048991159463802
 30
0.0
 10
12.14573390678977
 20
0.6984174474097011
 30
0.0
 10
13.144996398308
 20
0.121019666522034
 30
0.0
 10
14.145093938122
 20
-0.4581677575043079
 30
0.0
 10
15.14632727279158
 20
-1.014862529985208
 30
0.0
 10
16.14694089292277
 20
-1.521134025407547
 30
0.0
 10
17.14641869683029
 20
-1.951503441465902
 30
0.0
 10
18.1458568296539
 20
-2.284452649502176
 30
0.0
 10
19.16222719301241
 20
-2.506492924626495
 30
0.0
 10
20.1952757251393
 20
-2.600954677425253
 30
0.0
 10
21.24337005706293
 20
-2.550717499870361
 30
0.0
 10
22.20999062990775
 20
-2.388251638474414
 30
0.0
 10
22.82733573873076
 20
-2.189493215172145
 30
0.0
 10
23.09571313678653
 20
-2.103087301000033
 30
0.0
  0
SPLINE
  5
B7
330
1F
100
AcDbEntity
  8
0
  6
Continuous
 62
     1
370
    15
100
AcDbSpline
210
0.0
220
0.0
230
1.0
 70
     8
 71
     3
 72
    52
 73
    48
 74
     0
 42
0.000000001
 43
0.00000001
 40
0.0
 40
0.0
 40
0.0
 40
0.0
 40
0.0624999999999999
 40
0.0624999999999999
 40
0.1249999999999998
 40
0.1249999999999998
 40
0.1562499999999998
 40
0.1562499999999998
 40
0.1874999999999998
 40
0.1874999999999998
 40
0.2499999999999997
 40
0.2499999999999997
 40
0.2812499999999996
 40
0.2812499999999996
 40
0.3124999999999996
 40
0.3124999999999996
 40
0.3437499999999996
 40
0.3437499999999996
 40
0.3749999999999995
 40
0.3749999999999995
 40
0.4374999999999994
 40
0.4374999999999994
 40
0.4687499999999994
 40
0.4687499999999994
 40
0.4999999999999994
 40
0.4999999999999994
 40
0.5624999999999993
 40
0.5624999999999993
 40
0.6249999999999992
 40
0.6249999999999992
 40
0.6874999999999992
 40
0.6874999999999992
 40
0.7499999999999992
 40
0.7499999999999992
 40
0.7812499999999992
 40
0.7812499999999992
 40
0.8124999999999991
 40
0.8124999999999991
 40
0.8750000000000001
 40
0.8750000000000001
 40
0.9062500000000001
 40
0.9062500000000001
 40
0.9375000000000001
 40
0.9375000000000001
 40
0.96875
 40
0.96875
 40
1.0
 40
1.0
 40
1.0
 40
1.0
 10
25.43386715339643
 20
-2.578612571276103
 30
0.0
 10
25.13921485233472
 20
-2.554450211467573
 30
0.0
 10
24.83819781174774
 20
-2.522502753082552
 30
0.0
 10
24.2412525190193
 20
-2.425530362926449
 30
0.0
 10
23.94742215207547
 20
-2.360852606313937
 30
0.0
 10
23.49889196304724
 20
-2.240374721246966
 30
0.0
 10
23.34906019522461
 20
-2.19636825435191
 30
0.0
 10
23.0509966311166
 20
-2.101343808939684
 30
0.0
 10
22.90379776810768
 20
-2.050456899646416
 30
0.0
 10
22.45938568871684
 20
-1.887545490376046
 30
0.0
 10
22.1579932275095
 20
-1.76493170973942
 30
0.0
 10
21.71164606741282
 20
-1.56538362744323
 30
0.0
 10
21.5647934593304
 20
-1.496449864918437
 30
0.0
 10
21.26783901662432
 20
-1.353343662408917
 30
0.0
 10
21.11824121127345
 20
-1.279235256404821
 30
0.0
 10
20.81903621012746
 20
-1.126983205795937
 30
0.0
 10
20.66943275136593
 20
-1.048841462298864
 30
0.0
 10
20.37245597514615
 20
-0.8897223161449895
 30
0.0
 10
20.22560936145333
 20
-0.8088498662892415
 30
0.0
 10
19.77929100316521
 20
-0.5615504571209161
 30
0.0
 10
19.47789526218975
 20
-0.3910960192425972
 30
0.0
 10
19.03344501766377
 20
-0.134642185063697
 30
0.0
 10
18.88626413182993
 20
-0.0489770371807825
 30
0.0
 10
18.5882166173159
 20
0.1229437043132412
 30
0.0
 10
18.43838729273458
 20
0.2089986606493697
 30
0.0
 10
17.98984750683109
 20
0.4655110346797762
 30
0.0
 10
17.69600647144144
 20
0.6335776286058948
 30
0.0
 10
17.09908694234083
 20
0.9608178328570658
 30
0.0
 10
16.79806007606463
 20
1.119528921581501
 30
0.0
 10
16.20869230611906
 20
1.417894297434885
 30
0.0
 10
15.90774824352918
 20
1.559658033849367
 30
0.0
 10
15.310777410873
 20
1.819750056920011
 30
0.0
 10
15.01695734317491
 20
1.937901955678668
 30
0.0
 10
14.56843691982681
 20
2.09567232016907
 30
0.0
 10
14.41860276543429
 20
2.144882954500983
 30
0.0
 10
14.12052326307031
 20
2.235830128926257
 30
0.0
 10
13.97330600101506
 20
2.277482623303464
 30
0.0
 10
13.52893225042351
 20
2.391188748813883
 30
0.0
 10
13.22754318448164
 20
2.451912886329442
 30
0.0
 10
12.78116738864896
 20
2.517568129309036
 30
0.0
 10
12.63430836387602
 20
2.535225611832932
 30
0.0
 10
12.33737636463792
 20
2.562208549565461
 30
0.0
 10
12.18778426907365
 20
2.571490040877423
 30
0.0
 10
11.88857938069642
 20
2.581429313236951
 30
0.0
 10
11.73897032490721
 20
2.582086966924317
 30
0.0
 10
11.44197132515588
 20
2.574831867155019
 30
0.0
 10
11.29513028354433
 20
2.566953646256201
 30
0.0
 10
11.14636715339664
 20
2.554793092812043
 30
0.0
  0
SPLINE
  5
B8
330
1F
100
AcDbEntity
  8
외형선
  6
Continuous
370
    15
100
AcDbSpline
210
0.0
220
0.0
230
1.0
 70
    24
 71
     3
 72
    13
 73
     9
 74
     0
 42
0.000000001
 43
0.00000001
 40
0.0
 40
0.0
 40
0.0
 40
0.0
 40
0.1821745082772451
 40
0.3694739040807995
 40
0.5543012757341518
 40
0.7444886536865453
 40
0.9293160253399013
 40
1.0
 40
1.0
 40
1.0
 40
1.0
 10
11.14636715339646
 20
2.554793092813504
 30
0.0
 10
11.14636715339645
 20
2.470704168024705
 30
0.0
 10
11.14636715339643
 20
2.300160749928074
 30
0.0
 10
11.14636715339643
 20
2.042617347805212
 30
0.0
 10
11.14636715339647
 20
1.788755868169722
 30
0.0
 10
11.14636715339644
 20
1.552305686864967
 30
0.0
 10
11.14636715339647
 20
1.37528201673425
 30
0.0
 10
11.14636715339647
 20
1.29090905021004
 30
0.0
 10
11.14636715339646
 20
1.267568338676712
 30
0.0
  0
SPLINE
  5
B9
330
1F
100
AcDbEntity
  8
0
  6
Continuous
 62
     1
370
    15
100
AcDbSpline
210
0.0
220
0.0
230
1.0
 70
     8
 71
     3
 72
    15
 73
    11
 74
     0
 42
0.000000001
 43
0.00000001
 40
0.0
 40
0.0
 40
0.0
 40
0.0
 40
0.0477977086678927
 40
0.1783960677015504
 40
0.3153636644319819
 40
0.4524884042329601
 40
0.5894601502052267
 40
0.7263042189957948
 40
0.8631181869900172
 40
1.0
 40
1.0
 40
1.0
 40
1.0
 10
18.79812864845995
 20
-2.56364498689072
 30
0.0
 10
18.67624082612877
 20
-2.567590679961409
 30
0.0
 10
18.22131717370698
 20
-2.582317246313346
 30
0.0
 10
17.41716595317677
 20
-2.472191727977586
 30
0.0
 10
16.38486950357641
 20
-2.232900823267722
 30
0.0
 10
15.33595281601557
 20
-1.858888447946037
 30
0.0
 10
14.28774766307573
 20
-1.385058365617038
 30
0.0
 10
13.24051217600525
 20
-0.8351702829851873
 30
0.0
 10
12.19357429864306
 20
-0.2382645642491898
 30
0.0
 10
11.4954938829799
 20
0.164673787332715
 30
0.0
 10
11.14636715339664
 20
0.3661929042639971
 30
0.0
  0
SPLINE
  5
BA
330
1F
100
AcDbEntity
  8
0
  6
Continuous
 62
     1
370
    15
100
AcDbSpline
210
0.0
220
0.0
230
1.0
 70
     8
 71
     3
 72
    12
 73
     8
 74
     0
 42
0.000000001
 43
0.00000001
 40
0.0
 40
0.0
 40
0.0
 40
0.0
 40
0.2022387700152718
 40
0.4043703136051084
 40
0.6066622036221664
 40
0.8093289955954878
 40
1.0
 40
1.0
 40
1.0
 40
1.0
 10
11.14636715339645
 20
-2.270146789546514
 30
0.0
 10
11.47954819256529
 20
-2.350372644553647
 30
0.0
 10
12.14573361925577
 20
-2.51078181904587
 30
0.0
 10
13.1449975481125
 20
-2.596485601479437
 30
0.0
 10
14.14508961908189
 20
-2.558238146750975
 30
0.0
 10
15.12694114717196
 20
-2.40218476402443
 30
0.0
 10
15.77500802520726
 20
-2.203422853540719
 30
0.0
 10
16.08915928067825
 20
-2.107072760927486
 30
0.0
  0
SPLINE
  5
BB
330
1F
100
AcDbEntity
  8
외형선
  6
Continuous
370
    15
100
AcDbSpline
210
0.0
220
0.0
230
1.0
 70
    24
 71
     3
 72
    21
 73
    17
 74
     0
 42
0.000000001
 43
0.00000001
 40
0.0
 40
0.0
 40
0.0
 40
0.0
 40
0.022020535155139
 40
0.0959412754312729
 40
0.1720057221831616
 40
0.2459264624592971
 40
0.3219909092111873
 40
0.3959116494874078
 40
0.4719760962392157
 40
0.5458968365152782
 40
0.6219612832670883
 40
0.6958820235432978
 40
0.7719464702952682
 40
0.8458672105712594
 40
0.9219316573232934
 40
1.0
 40
1.0
 40
1.0
 40
1.0
 10
11.14636715339643
 20
0.3709323092109614
 30
0.0
 10
11.14636715339644
 20
0.3691822065687665
 30
0.0
 10
11.14636715339645
 20
0.3615571839049263
 30
0.0
 10
11.14636715339642
 20
0.3041673678357225
 30
0.0
 10
11.14636715339645
 20
0.2000503230162586
 30
0.0
 10
11.14636715339648
 20
0.0528755008372125
 30
0.0
 10
11.14636715339644
 20
-0.1264151555389482
 30
0.0
 10
11.14636715339645
 20
-0.3370814820713231
 30
0.0
 10
11.14636715339648
 20
-0.5690737653603344
 30
0.0
 10
11.14636715339646
 20
-0.8200764516336861
 30
0.0
 10
11.14636715339644
 20
-1.078461025783706
 30
0.0
 10
11.14636715339639
 20
-1.341514155296862
 30
0.0
 10
11.14636715339644
 20
-1.597262542016345
 30
0.0
 10
11.14636715339646
 20
-1.842291268065559
 30
0.0
 10
11.14636715339641
 20
-2.072341829843558
 30
0.0
 10
11.14636715339644
 20
-2.203642784000883
 30
0.0
 10
11.14636715339646
 20
-2.270146789546515
 30
0.0
  0
LINE
  5
BC
330
1F
100
AcDbEntity
  8
0
  6
Continuous
 62
     1
370
    15
100
AcDbLine
 10
25.43386715339644
 20
-2.578612571276103
 30
0.0
 11
25.43386715339644
 21
-2.335299926934289
 31
0.0
  0
SPLINE
  5
BD
330
1F
100
AcDbEntity
  8
0
  6
Continuous
 62
     1
370
    15
100
AcDbSpline
210
0.0
220
0.0
230
1.0
 70
     8
 71
     3
 72
    19
 73
    15
 74
     0
 42
0.000000001
 43
0.00000001
 40
0.0
 40
0.0
 40
0.0
 40
0.0
 40
0.0656083617485535
 40
0.1485244663511132
 40
0.2313482700043542
 40
0.3140600121947427
 40
0.3967689033059069
 40
0.4795842044870967
 40
0.5664303976963617
 40
0.6531697285524299
 40
0.7398344937711537
 40
0.8264865518456236
 40
0.9131879172417299
 40
1.0
 40
1.0
 40
1.0
 40
1.0
 10
13.3519895520788
 20
2.570167422018246
 30
0.0
 10
13.61616061841868
 20
2.566577688920967
 30
0.0
 10
14.21419211330508
 20
2.558451237072351
 30
0.0
 10
15.14633251659536
 20
2.393359978610246
 30
0.0
 10
16.14693949191091
 20
2.111180448036083
 30
0.0
 10
17.14641906720935
 20
1.719698171809959
 30
0.0
 10
18.14585674810301
 20
1.243475468064026
 30
0.0
 10
19.16222714881557
 20
0.6965020801845523
 30
0.0
 10
20.1952760030094
 20
0.104261915128076
 30
0.0
 10
21.24336899668011
 20
-0.5030988947745436
 30
0.0
 10
22.2905343610768
 20
-1.083321417193172
 30
0.0
 10
23.33751389795137
 20
-1.601706716915708
 30
0.0
 10
24.38517963884611
 20
-2.041634614372112
 30
0.0
 10
25.08415597838589
 20
-2.23736985711745
 30
0.0
 10
25.43386715339644
 20
-2.335299926934288
 30
0.0
  0
LINE
  5
BE
330
1F
100
AcDbEntity
  8
0
  6
Continuous
 62
     1
370
    15
100
AcDbLine
 10
25.43386715339644
 20
-2.335299926934289
 30
0.0
 11
25.43386715339644
 21
0.2221060343821062
 31
0.0
  0
SPLINE
  5
BF
330
1F
100
AcDbEntity
  8
0
  6
Continuous
 62
     1
370
    15
100
AcDbSpline
210
0.0
220
0.0
230
1.0
 70
     8
 71
     3
 72
    17
 73
    13
 74
     0
 42
0.000000001
 43
0.00000001
 40
0.0
 40
0.0
 40
0.0
 40
0.0
 40
0.1071470213194411
 40
0.2141090495211313
 40
0.3210267951936082
 40
0.4280417571681326
 40
0.5352484132445162
 40
0.6423098138333475
 40
0.7492386757391511
 40
0.8561762997746215
 40
0.9683292354820756
 40
1.0
 40
1.0
 40
1.0
 40
1.0
 10
25.43386715339644
 20
0.2221060343821064
 30
0.0
 10
25.10001667565711
 20
0.4128502373541054
 30
0.0
 10
24.43289212482297
 20
0.7940093166927883
 30
0.0
 10
23.43314237560364
 20
1.323823985596507
 30
0.0
 10
22.4338313041037
 20
1.788253809458762
 30
0.0
 10
21.43363597266712
 20
2.163341247452043
 30
0.0
 10
20.43236256004313
 20
2.430346746112368
 30
0.0
 10
19.43185856390471
 20
2.575891227861423
 30
0.0
 10
18.43244155068788
 20
2.594999496061719
 30
0.0
 10
17.41715890655906
 20
2.474786685643724
 30
0.0
 10
16.63599641235039
 20
2.307492823354534
 30
0.0
 10
16.18784472954516
 20
2.145003627092579
 30
0.0
 10
16.08915928067827
 20
2.109222618375274
 30
0.0
  0
SPLINE
  5
C0
330
1F
100
AcDbEntity
  8
0
  6
Continuous
 62
     1
370
    15
100
AcDbSpline
210
0.0
220
0.0
230
1.0
 70
     8
 71
     3
 72
    12
 73
     8
 74
     0
 42
0.000000001
 43
0.00000001
 40
0.0
 40
0.0
 40
0.0
 40
0.0
 40
0.1722297280226539
 40
0.3790701401254957
 40
0.5858802244365582
 40
0.7928079891763535
 40
1.0
 40
1.0
 40
1.0
 40
1.0
 10
20.37174394818139
 20
2.570870163190606
 30
0.0
 10
20.66238905779865
 20
2.565384987489232
 30
0.0
 10
21.30208630225411
 20
2.553312354352059
 30
0.0
 10
22.29052761141044
 20
2.365812915233661
 30
0.0
 10
23.33751569881806
 20
2.05139730764569
 30
0.0
 10
24.38517918785176
 20
1.624947284589978
 30
0.0
 10
25.08415582799051
 20
1.271562154724511
 30
0.0
 10
25.43386715339645
 20
1.094756843863947
 30
0.0
  0
LINE
  5
C1
330
1F
100
AcDbEntity
  8
0
  6
Continuous
 62
     1
370
    15
100
AcDbLine
 10
25.43386715339644
 20
0.2221060343821062
 30
0.0
 11
25.43386715339644
 21
1.094756843863946
 31
0.0
  0
SPLINE
  5
C2
330
1F
100
AcDbEntity
  8
0
  6
Continuous
 62
     1
370
    15
100
AcDbSpline
210
0.0
220
0.0
230
1.0
 70
     8
 71
     3
 72
    10
 73
     6
 74
     0
 42
0.000000001
 43
0.00000001
 40
0.0
 40
0.0
 40
0.0
 40
0.0
 40
0.4282252115432449
 40
0.8557110771298085
 40
1.0
 40
1.0
 40
1.0
 40
1.0
 10
25.43386715339644
 20
2.580762428723897
 30
0.0
 10
25.10001618190901
 20
2.541008022264671
 30
0.0
 10
24.43289064443118
 20
2.480524597177983
 30
0.0
 10
23.65368035201901
 20
2.305011585896136
 30
0.0
 10
23.20814515534755
 20
2.145492287282809
 30
0.0
 10
23.09571313678653
 20
2.10523715844782
 30
0.0
  0
LINE
  5
C3
330
1F
100
AcDbEntity
  8
0
  6
Continuous
 62
     1
370
    15
100
AcDbLine
 10
11.78094536103508
 20
-2.561700948653789
 30
0.0
 11
11.14636715339664
 21
-2.552643235364257
 31
0.0
  0
LINE
  5
C4
330
1F
100
AcDbEntity
  8
0
  6
Continuous
 62
     1
370
    15
100
AcDbLine
 10
25.43386715339644
 20
1.094756843863946
 30
0.0
 11
25.43386715339644
 21
2.580762428723897
 31
0.0
  0
LINE
  5
C5
330
1F
100
AcDbEntity
  8
중심선
 48
0.8
100
AcDbLine
 10
-39.47863284660356
 20
0.0010749287238892
 30
0.0
 11
28.43386715339646
 21
0.0010749287238976
 31
0.0
  0
LINE
  5
C6
330
1F
100
AcDbEntity
  8
참조1
100
AcDbLine
 10
-4.888146350222708
 20
0.0010749287238892
 30
0.0
 11
-4.888146350222703
 21
-39.99892507127611
 31
0.0
  0
LINE
  5
C7
330
1F
100
AcDbEntity
  8
참조1
100
AcDbLine
 10
-4.888146350222703
 20
-39.99892507127611
 30
0.0
 11
-21.63450316453139
 21
-39.9989250712761
 31
0.0
  0
CIRCLE
  5
C8
330
1F
100
AcDbEntity
  8
해칭선
100
AcDbCircle
 10
0.0
 20
0.0
 30
0.0
 40
2.999999999999999
  0
INSERT
  5
C9
330
1F
100
AcDbEntity
  8
0
  6
Continuous
 62
     7
100
AcDbBlockReference
 66
     1
  2
블럭10
 10
-18.82841928234792
 20
-52.04609937292004
 30
0.0
  0
ATTRIB
  5
CA
330
C9
100
AcDbEntity
  8
FORMAT
 62
     2
100
AcDbText
 10
-28.00971457108919
 20
-49.97073246008785
 30
0.0
 40
4.233333333333333
  1
E2031013 [ 4 FLUTE ]
 41
0.75
  7
SLDTEXTSTYLE0
 11
-28.00971457108919
 21
-52.08739912675452
 31
0.0
100
AcDbAttribute
  2
AUTOATTR0
 70
     0
 74
     1
  0
SEQEND
  5
CB
330
C9
100
AcDbEntity
  8
0
  6
Continuous
 62
     7
  0
HATCH
  5
CC
330
1F
100
AcDbEntity
  8
중심선
100
AcDbHatch
 10
0.0
 20
0.0
 30
0.0
210
0.0
220
0.0
230
1.0
  2
SOLID
 70
     1
 71
     0
 91
        1
 92
        0
 93
        4
 72
     1
 10
-13.11350997796706
 20
-35.7989250712761
 11
-16.55978522180435
 21
-35.7989250712761
 72
     1
 10
-16.55978522180435
 20
-35.7989250712761
 11
-18.68801508100837
 21
-38.3352506518487
 72
     1
 10
-18.68801508100837
 20
-38.3352506518487
 11
-15.24170675205794
 21
-38.33521122254621
 72
     1
 10
-15.24170675205794
 20
-38.33521122254621
 11
-13.11350997796706
 21
-35.7989250712761
 97
        0
 75
     0
 76
     1
 98
        1
 10
0.0
 20
0.0
  0
HATCH
  5
CD
330
1F
100
AcDbEntity
  8
중심선
100
AcDbHatch
 10
0.0
 20
0.0
 30
0.0
210
0.0
220
0.0
230
1.0
  2
SOLID
 70
     1
 71
     0
 91
        1
 92
        0
 93
        4
 72
     1
 10
-8.100745986931084
 20
-35.7989250712761
 11
-11.54702123076837
 21
-35.7989250712761
 72
     1
 10
-11.54702123076837
 20
-35.7989250712761
 11
-16.07815923912578
 21
-41.19892507127612
 72
     1
 10
-16.07815923912578
 20
-41.19892507127612
 11
-12.6318839952885
 21
-41.19892507127612
 72
     1
 10
-12.6318839952885
 20
-41.19892507127612
 11
-8.100745986931084
 21
-35.7989250712761
 97
        0
 75
     0
 76
     1
 98
        1
 10
0.0
 20
0.0
  0
HATCH
  5
CE
330
1F
100
AcDbEntity
  8
중심선
100
AcDbHatch
 10
0.0
 20
0.0
 30
0.0
210
0.0
220
0.0
230
1.0
  2
SOLID
 70
     1
 71
     0
 91
        1
 92
        0
 93
        4
 72
     1
 10
-3.087981995895245
 20
-35.79892507127613
 11
-6.534257239732333
 21
-35.79892507127608
 72
     1
 10
-6.534257239732333
 20
-35.79892507127608
 11
-13.58269414162158
 21
-44.19892507127612
 72
     1
 10
-13.58269414162158
 20
-44.19892507127612
 11
-10.1364188977843
 21
-44.19892507127612
 72
     1
 10
-10.1364188977843
 20
-44.19892507127612
 11
-3.087981995895245
 21
-35.79892507127613
 97
        0
 75
     0
 76
     1
 98
        1
 10
0.0
 20
0.0
  0
HATCH
  5
CF
330
1F
100
AcDbEntity
  8
중심선
100
AcDbHatch
 10
0.0
 20
0.0
 30
0.0
210
0.0
220
0.0
230
1.0
  2
SOLID
 70
     1
 71
     0
 91
        1
 92
        0
 93
        6
 72
     3
 10
1.711908435116982
 20
-39.99892507132738
 11
3.960054785062284
 21
1.540850780301639E-10
 40
0.3939339440162633
 50
17.09539180608434
 51
320.0019657685081
 73
     0
 72
     1
 10
3.394908090817577
 20
-38.58681907591441
 11
5.700209964518644
 21
-36.65249236586646
 72
     3
 10
1.711908435064136
 20
-39.99892507127625
 11
6.600054785286829
 21
-1.249000902703301E-13
 40
0.6363583540795982
 50
39.99873849337411
 51
368.4976242363725
 73
     1
 72
     1
 10
8.137240926964745
 20
-39.03892507120613
 11
0.3919757419000858
 21
-39.03892507120613
 72
     1
 10
0.3919757419000858
 20
-39.03892507120613
 11
0.3919506974541243
 21
-40.95892507120602
 72
     1
 10
0.3919506974541243
 20
-40.95892507120602
 11
4.833330466926161
 21
-40.95892507120599
 97
        0
 75
     0
 76
     1
 98
        1
 10
0.0
 20
0.0
  0
DIMENSION
  5
D0
330
1F
100
AcDbEntity
  8
치수문자_일반주서
100
AcDbDimension
  2
_D
 10
11.14636715339646
 20
14.79425455652102
 30
0.0
 11
-9.020132846603534
 21
14.79425455652102
 31
0.0
 70
   160
  1
<>
 71
     2
 42
14.28749999999998
  3
SLDDIMSTYLE2
100
AcDbAlignedDimension
 13
25.43386715339644
 23
2.580762428723897
 33
0.0
 14
11.14636715339646
 24
2.554793092813504
 34
0.0
100
AcDbRotatedDimension
1001
ACAD
1000
DSTYLE
1002
{
1070
   171
1070
     6
1070
   273
1070
     7
1002
}
  0
DIMENSION
  5
E5
330
1F
100
AcDbEntity
  8
치수문자_일반주서
100
AcDbDimension
  2
_D_1
 10
-36.47863284660355
 20
31.47331894780869
 30
0.0
 11
-5.522382846603563
 21
31.47331894780869
 31
0.0
 70
   160
  1
<>
 71
     2
 42
61.91249999999999
  3
SLDDIMSTYLE2
100
AcDbAlignedDimension
 13
25.43386715339644
 23
2.580762428723897
 33
0.0
 14
-36.47863284660355
 24
3.811074928723895
 34
0.0
 50
0.0000000000000066
100
AcDbRotatedDimension
1001
ACAD
1000
DSTYLE
1002
{
1070
   171
1070
     6
1070
   273
1070
     7
1002
}
  0
DIMENSION
  5
F8
330
1F
100
AcDbEntity
  8
치수문자_일반주서
100
AcDbDimension
  2
_D_2
 10
-47.77940568443073
 20
-4.761425071276156
 30
0.0
 11
-47.77940568443076
 21
0.0010749287238959
 31
0.0
 70
   160
  1
%%c<>
 71
     2
 42
9.525000000000006
 52
-270.0
  3
SLDDIMSTYLE2
100
AcDbAlignedDimension
 13
-35.52613284660356
 23
4.763574928723896
 33
0.0
 14
-35.52613284660356
 24
-4.761425071276109
 34
0.0
 50
90.0000000000002
100
AcDbRotatedDimension
1001
ACAD
1000
DSTYLE
1002
{
1070
   171
1070
     6
1070
   273
1070
     7
1002
}
  0
DIMENSION
  5
10D
330
1F
100
AcDbEntity
  8
치수문자_일반주서
100
AcDbDimension
  2
_D_3
 10
40.15471431158884
 20
-2.57861257127605
 30
0.0
 11
40.15471431158873
 21
24.05976242872395
 31
0.0
 70
   160
  1
%%c<>
 71
     2
 42
5.159375
 52
-270.0
  3
SLDDIMSTYLE2
100
AcDbAlignedDimension
 13
25.43386715339644
 23
2.580762428723897
 33
0.0
 14
25.43386715339643
 24
-2.578612571276103
 34
0.0
 50
90.0000000000002
100
AcDbRotatedDimension
1001
ACAD
1000
DSTYLE
1002
{
1070
   171
1070
     6
1070
   273
1070
     7
1002
}
  0
LINE
  5
121
330
1F
100
AcDbEntity
  8
참조1
100
AcDbLine
 10
76.33783746512287
 20
7.441074928723896
 30
0.0
 11
76.33783746512287
 21
-7.438925071276109
 31
0.0
  0
LINE
  5
122
330
1F
100
AcDbEntity
  8
참조1
100
AcDbLine
 10
89.03783746512288
 20
5.441074928723896
 30
0.0
 11
76.33783746512287
 21
5.441074928723896
 31
0.0
  0
SOLID
  5
123
330
1F
100
AcDbEntity
  8
참조1
100
AcDbTrace
 10
76.33783746512287
 20
5.441074928723896
 30
0.0
 11
82.68783746512287
 21
4.425074928723896
 31
0.0
 12
82.68783746512287
 22
6.457074928723896
 32
0.0
 13
82.68783746512287
 23
6.457074928723896
 33
0.0
  0
LINE
  5
124
330
1F
100
AcDbEntity
  8
참조1
100
AcDbLine
 10
89.03783746512288
 20
-5.438925071276109
 30
0.0
 11
76.33783746512287
 21
-5.438925071276109
 31
0.0
  0
SOLID
  5
125
330
1F
100
AcDbEntity
  8
참조1
100
AcDbTrace
 10
76.33783746512287
 20
-5.438925071276109
 30
0.0
 11
82.68783746512287
 21
-6.454925071276109
 31
0.0
 12
82.68783746512287
 22
-4.422925071276109
 32
0.0
 13
82.68783746512287
 23
-4.422925071276109
 33
0.0
  0
MTEXT
  5
126
330
1F
100
AcDbEntity
  8
참조1
100
AcDbMText
 10
85.72218759774887
 20
11.01136670591222
 30
0.0
 40
3.5
 41
0.0
 71
     1
 72
     1
  1
A
  7
SLDTEXTSTYLE0
 73
     1
 44
1.0
  0
MTEXT
  5
127
330
1F
100
AcDbEntity
  8
참조1
100
AcDbMText
 10
85.72218759774887
 20
0.1313667059122201
 30
0.0
 40
3.5
 41
0.0
 71
     1
 72
     1
  1
A
  7
SLDTEXTSTYLE0
 73
     1
 44
1.0
  0
INSERT
  5
12E
330
1F
100
AcDbEntity
  8
해칭선
100
AcDbBlockReference
  2
SW_DOWELSYMBOL_0
 10
0.0
 20
0.0
 30
0.0
  0
LINE
  5
26B
330
1F
100
AcDbEntity
  8
외형선
  6
Continuous
370
    15
100
AcDbLine
 10
-20.20358284660364
 20
3.493574928723923
 30
0.0
 11
-13.06618284660352
 21
3.493574928723923
 31
0.0
  0
LINE
  5
26C
330
1F
100
AcDbEntity
  8
외형선
  6
Continuous
370
    15
100
AcDbLine
 10
-20.20358284660364
 20
3.493574928723923
 30
0.0
 11
-21.47358284660363
 21
4.763574928723905
 31
0.0
  0
LINE
  5
26D
330
1F
100
AcDbEntity
  8
외형선
  6
Continuous
370
    15
100
AcDbLine
 10
-13.06618284660352
 20
3.493574928723923
 30
0.0
 11
-11.79618284660342
 21
4.763574928723905
 31
0.0
  0
LINE
  5
2A8
330
1F
100
AcDbEntity
  8
외형선
  6
Continuous
370
    15
100
AcDbLine
 10
-21.47358284660362
 20
4.763574928723895
 30
0.0
 11
-35.52613284660356
 21
4.763574928723895
 31
0.0
  0
ENDSEC
  0
SECTION
  2
OBJECTS
  0
DICTIONARY
  5
C
330
0
100
AcDbDictionary
281
     1
  3
ACAD_GROUP
350
D
  3
ACAD_IMAGE_VARS
350
152
  3
ACAD_LAYOUT
350
1A
  3
ACAD_MLINESTYLE
350
17
  3
ACAD_PLOTSETTINGS
350
19
  3
ACAD_PLOTSTYLENAME
350
E
  3
ACAD_SCALELIST
350
47
  3
APPDATA
350
150
  3
DWGPROPS
350
2AB
  0
DICTIONARY
  5
1F7
330
2
100
AcDbDictionary
280
     1
281
     1
  3
ACAD_LAYERSTATES
360
1F8
  0
DICTIONARY
  5
D
102
{ACAD_REACTORS
330
C
102
}
330
C
100
AcDbDictionary
281
     1
  0
RASTERVARIABLES
  5
152
102
{ACAD_REACTORS
330
C
102
}
330
C
100
AcDbRasterVariables
 90
        0
 70
     1
 71
     1
 72
     1
  0
DICTIONARY
  5
1A
102
{ACAD_REACTORS
330
C
102
}
330
C
100
AcDbDictionary
281
     1
  3
Layout1
350
1E
  3
Layout2
350
26
  3
Model
350
22
  0
DICTIONARY
  5
17
102
{ACAD_REACTORS
330
C
102
}
330
C
100
AcDbDictionary
281
     1
  3
Standard
350
18
  0
DICTIONARY
  5
19
102
{ACAD_REACTORS
330
C
102
}
330
C
100
AcDbDictionary
281
     1
  0
ACDBDICTIONARYWDFLT
  5
E
102
{ACAD_REACTORS
330
C
102
}
330
C
100
AcDbDictionary
281
     1
  3
Normal
350
F
100
AcDbDictionaryWithDefault
340
F
  0
DICTIONARY
  5
47
102
{ACAD_REACTORS
330
C
102
}
330
C
100
AcDbDictionary
281
     1
  3
A0
350
48
  3
A1
350
49
  3
A2
350
4A
  3
A3
350
4B
  3
A4
350
4C
  3
A5
350
4D
  3
A6
350
4E
  3
A7
350
4F
  3
A8
350
50
  3
A9
350
51
  3
B0
350
52
  3
B1
350
53
  3
B2
350
54
  3
B3
350
55
  3
B4
350
56
  3
B5
350
57
  3
B6
350
58
  3
B7
350
59
  3
B8
350
5A
  3
B9
350
5B
  3
C0
350
5C
  3
C1
350
5D
  3
C2
350
5E
  3
C3
350
5F
  3
C4
350
60
  3
C5
350
61
  3
C6
350
62
  3
C7
350
63
  3
C8
350
64
  3
C9
350
65
  3
D0
350
66
  3
D1
350
67
  3
D2
350
68
  0
DICTIONARY
  5
150
102
{ACAD_REACTORS
330
C
102
}
330
C
100
AcDbDictionary
281
     1
  0
XRECORD
  5
2AB
102
{ACAD_REACTORS
330
C
102
}
330
C
100
AcDbXrecord
280
     1
  1
DWGPROPS COOKIE
  2

  3

  4

  6

  7

  8
12017012
  9

300
=
301
=
302
=
303
=
304
=
305
=
306
=
307
=
308
=
309
=
 40
0.0
 41
2458312.291785116
 42
2458320.23461022
  1

 90
        0
  0
DICTIONARY
  5
1F8
102
{ACAD_REACTORS
330
1F7
102
}
330
1F7
100
AcDbDictionary
281
     1
  0
LAYOUT
  5
1E
102
{ACAD_REACTORS
330
1A
102
}
330
1A
100
AcDbPlotSettings
  1

  2
none_device
  4

  6

 40
0.0
 41
0.0
 42
0.0
 43
0.0
 44
0.0
 45
0.0
 46
0.0
 47
0.0
 48
0.0
 49
0.0
140
0.0
141
0.0
142
1.0
143
1.0
 70
   688
 72
     1
 73
     0
 74
     5
  7

 75
    16
147
1.0
148
0.0
149
0.0
100
AcDbLayout
  1
Layout1
 70
     1
 71
     1
 10
0.0
 20
0.0
 11
420.0
 21
297.0
 12
0.0
 22
0.0
 32
0.0
 14
1.000000000000000E+20
 24
1.000000000000000E+20
 34
1.000000000000000E+20
 15
-1.000000000000000E+20
 25
-1.000000000000000E+20
 35
-1.000000000000000E+20
146
0.0
 13
0.0
 23
0.0
 33
0.0
 16
1.0
 26
0.0
 36
0.0
 17
0.0
 27
1.0
 37
0.0
 76
     0
330
1B
  0
LAYOUT
  5
26
102
{ACAD_REACTORS
330
1A
102
}
330
1A
100
AcDbPlotSettings
  1

  2
none_device
  4

  6

 40
0.0
 41
0.0
 42
0.0
 43
0.0
 44
0.0
 45
0.0
 46
0.0
 47
0.0
 48
0.0
 49
0.0
140
0.0
141
0.0
142
1.0
143
1.0
 70
   688
 72
     1
 73
     0
 74
     5
  7

 75
    16
147
1.0
148
0.0
149
0.0
100
AcDbLayout
  1
Layout2
 70
     1
 71
     2
 10
0.0
 20
0.0
 11
0.0
 21
0.0
 12
0.0
 22
0.0
 32
0.0
 14
0.0
 24
0.0
 34
0.0
 15
0.0
 25
0.0
 35
0.0
146
0.0
 13
0.0
 23
0.0
 33
0.0
 16
1.0
 26
0.0
 36
0.0
 17
0.0
 27
1.0
 37
0.0
 76
     0
330
23
  0
LAYOUT
  5
22
102
{ACAD_REACTORS
330
1A
102
}
330
1A
100
AcDbPlotSettings
  1

  2
none_device
  4
ANSI_A_(11.00_x_8.50_Inches)
  6

 40
6.35
 41
19.05
 42
6.35000508
 43
19.05000254
 44
279.4
 45
215.9
 46
104.0853757014623
 47
96.84995955299453
 48
0.0
 49
0.0
140
0.0
141
0.0
142
0.0740937858640012
143
1.0
 70
  1696
 72
     0
 73
     0
 74
     0
  7

 75
     0
147
0.0235690232323232
148
0.0
149
0.0
100
AcDbLayout
  1
Model
 70
     1
 71
     0
 10
0.0
 20
0.0
 11
420.0
 21
297.0
 12
0.0
 22
0.0
 32
0.0
 14
1.000000000000000E+20
 24
1.000000000000000E+20
 34
1.000000000000000E+20
 15
-1.000000000000000E+20
 25
-1.000000000000000E+20
 35
-1.000000000000000E+20
146
0.0
 13
0.0
 23
0.0
 33
0.0
 16
1.0
 26
0.0
 36
0.0
 17
0.0
 27
1.0
 37
0.0
 76
     0
330
1F
331
29
  0
MLINESTYLE
  5
18
102
{ACAD_REACTORS
330
17
102
}
330
17
100
AcDbMlineStyle
  2
Standard
 70
     0
  3

 62
   256
 51
90.0
 52
90.0
 71
     2
 49
0.5
 62
   256
  6
BYLAYER
 49
-0.5
 62
   256
  6
BYLAYER
  0
ACDBPLACEHOLDER
  5
F
102
{ACAD_REACTORS
330
E
102
}
330
E
  0
SCALE
  5
48
102
{ACAD_REACTORS
330
47
102
}
330
47
100
AcDbScale
 70
     0
300
1:1
140
1.0
141
1.0
290
     1
  0
SCALE
  5
49
102
{ACAD_REACTORS
330
47
102
}
330
47
100
AcDbScale
 70
     0
300
1:2
140
1.0
141
2.0
290
     0
  0
SCALE
  5
4A
102
{ACAD_REACTORS
330
47
102
}
330
47
100
AcDbScale
 70
     0
300
1:4
140
1.0
141
4.0
290
     0
  0
SCALE
  5
4B
102
{ACAD_REACTORS
330
47
102
}
330
47
100
AcDbScale
 70
     0
300
1:5
140
1.0
141
5.0
290
     0
  0
SCALE
  5
4C
102
{ACAD_REACTORS
330
47
102
}
330
47
100
AcDbScale
 70
     0
300
1:8
140
1.0
141
8.0
290
     0
  0
SCALE
  5
4D
102
{ACAD_REACTORS
330
47
102
}
330
47
100
AcDbScale
 70
     0
300
1:10
140
1.0
141
10.0
290
     0
  0
SCALE
  5
4E
102
{ACAD_REACTORS
330
47
102
}
330
47
100
AcDbScale
 70
     0
300
1:16
140
1.0
141
16.0
290
     0
  0
SCALE
  5
4F
102
{ACAD_REACTORS
330
47
102
}
330
47
100
AcDbScale
 70
     0
300
1:20
140
1.0
141
20.0
290
     0
  0
SCALE
  5
50
102
{ACAD_REACTORS
330
47
102
}
330
47
100
AcDbScale
 70
     0
300
1:30
140
1.0
141
30.0
290
     0
  0
SCALE
  5
51
102
{ACAD_REACTORS
330
47
102
}
330
47
100
AcDbScale
 70
     0
300
1:40
140
1.0
141
40.0
290
     0
  0
SCALE
  5
52
102
{ACAD_REACTORS
330
47
102
}
330
47
100
AcDbScale
 70
     0
300
1:50
140
1.0
141
50.0
290
     0
  0
SCALE
  5
53
102
{ACAD_REACTORS
330
47
102
}
330
47
100
AcDbScale
 70
     0
300
1:100
140
1.0
141
100.0
290
     0
  0
SCALE
  5
54
102
{ACAD_REACTORS
330
47
102
}
330
47
100
AcDbScale
 70
     0
300
2:1
140
2.0
141
1.0
290
     0
  0
SCALE
  5
55
102
{ACAD_REACTORS
330
47
102
}
330
47
100
AcDbScale
 70
     0
300
4:1
140
4.0
141
1.0
290
     0
  0
SCALE
  5
56
102
{ACAD_REACTORS
330
47
102
}
330
47
100
AcDbScale
 70
     0
300
8:1
140
8.0
141
1.0
290
     0
  0
SCALE
  5
57
102
{ACAD_REACTORS
330
47
102
}
330
47
100
AcDbScale
 70
     0
300
10:1
140
10.0
141
1.0
290
     0
  0
SCALE
  5
58
102
{ACAD_REACTORS
330
47
102
}
330
47
100
AcDbScale
 70
     0
300
100:1
140
100.0
141
1.0
290
     0
  0
SCALE
  5
59
102
{ACAD_REACTORS
330
47
102
}
330
47
100
AcDbScale
 70
     0
300
1/128" = 1'-0"
140
0.0078125
141
12.0
290
     0
  0
SCALE
  5
5A
102
{ACAD_REACTORS
330
47
102
}
330
47
100
AcDbScale
 70
     0
300
1/64" = 1'-0"
140
0.015625
141
12.0
290
     0
  0
SCALE
  5
5B
102
{ACAD_REACTORS
330
47
102
}
330
47
100
AcDbScale
 70
     0
300
1/32" = 1'-0"
140
0.03125
141
12.0
290
     0
  0
SCALE
  5
5C
102
{ACAD_REACTORS
330
47
102
}
330
47
100
AcDbScale
 70
     0
300
1/16" = 1'-0"
140
0.0625
141
12.0
290
     0
  0
SCALE
  5
5D
102
{ACAD_REACTORS
330
47
102
}
330
47
100
AcDbScale
 70
     0
300
3/32" = 1'-0"
140
0.09375
141
12.0
290
     0
  0
SCALE
  5
5E
102
{ACAD_REACTORS
330
47
102
}
330
47
100
AcDbScale
 70
     0
300
1/8" = 1'-0"
140
0.125
141
12.0
290
     0
  0
SCALE
  5
5F
102
{ACAD_REACTORS
330
47
102
}
330
47
100
AcDbScale
 70
     0
300
3/16" = 1'-0"
140
0.1875
141
12.0
290
     0
  0
SCALE
  5
60
102
{ACAD_REACTORS
330
47
102
}
330
47
100
AcDbScale
 70
     0
300
1/4" = 1'-0"
140
0.25
141
12.0
290
     0
  0
SCALE
  5
61
102
{ACAD_REACTORS
330
47
102
}
330
47
100
AcDbScale
 70
     0
300
3/8" = 1'-0"
140
0.375
141
12.0
290
     0
  0
SCALE
  5
62
102
{ACAD_REACTORS
330
47
102
}
330
47
100
AcDbScale
 70
     0
300
1/2" = 1'-0"
140
0.5
141
12.0
290
     0
  0
SCALE
  5
63
102
{ACAD_REACTORS
330
47
102
}
330
47
100
AcDbScale
 70
     0
300
3/4" = 1'-0"
140
0.75
141
12.0
290
     0
  0
SCALE
  5
64
102
{ACAD_REACTORS
330
47
102
}
330
47
100
AcDbScale
 70
     0
300
1" = 1'-0"
140
1.0
141
12.0
290
     0
  0
SCALE
  5
65
102
{ACAD_REACTORS
330
47
102
}
330
47
100
AcDbScale
 70
     0
300
1-1/2" = 1'-0"
140
1.5
141
12.0
290
     0
  0
SCALE
  5
66
102
{ACAD_REACTORS
330
47
102
}
330
47
100
AcDbScale
 70
     0
300
3" = 1'-0"
140
3.0
141
12.0
290
     0
  0
SCALE
  5
67
102
{ACAD_REACTORS
330
47
102
}
330
47
100
AcDbScale
 70
     0
300
6" = 1'-0"
140
6.0
141
12.0
290
     0
  0
SCALE
  5
68
102
{ACAD_REACTORS
330
47
102
}
330
47
100
AcDbScale
 70
     0
300
1'-0" = 1'-0"
140
12.0
141
12.0
290
     0
  0
ENDSEC
  0
EOF
