  0
SECTION
  2
HEADER
  9
$ACADVER
  1
AC1015
  9
$ACADMAINTVER
 70
     6
  9
$DWGCODEPAGE
  3
ANSI_949
  9
$INSBASE
 10
0.0
 20
0.0
 30
0.0
  9
$EXTMIN
 10
1.000000000000000E+20
 20
1.000000000000000E+20
 30
1.000000000000000E+20
  9
$EXTMAX
 10
-1.000000000000000E+20
 20
-1.000000000000000E+20
 30
-1.000000000000000E+20
  9
$LIMMIN
 10
0.0
 20
0.0
  9
$LIMMAX
 10
420.0
 20
297.0
  9
$ORTHOMODE
 70
     0
  9
$REGENMODE
 70
     1
  9
$FILLMODE
 70
     1
  9
$QTEXTMODE
 70
     0
  9
$MIRRTEXT
 70
     1
  9
$LTSCALE
 40
1.0
  9
$ATTMODE
 70
     1
  9
$TEXTSIZE
 40
3.5
  9
$TRACEWID
 40
1.0
  9
$TEXTSTYLE
  7
Standard
  9
$CLAYER
  8
0
  9
$CELTYPE
  6
ByLayer
  9
$CECOLOR
 62
   256
  9
$CELTSCALE
 40
1.0
  9
$DISPSILH
 70
     0
  9
$DIMSCALE
 40
1.0
  9
$DIMASZ
 40
3.302
  9
$DIMEXO
 40
1.0
  9
$DIMDLI
 40
3.75
  9
$DIMRND
 40
0.0
  9
$DIMDLE
 40
0.0
  9
$DIMEXE
 40
1.0
  9
$DIMTP
 40
0.0
  9
$DIMTM
 40
0.0
  9
$DIMTXT
 40
3.5
  9
$DIMCEN
 40
2.5
  9
$DIMTSZ
 40
0.0
  9
$DIMTOL
 70
     0
  9
$DIMLIM
 70
     0
  9
$DIMTIH
 70
     1
  9
$DIMTOH
 70
     1
  9
$DIMSE1
 70
     0
  9
$DIMSE2
 70
     0
  9
$DIMTAD
 70
     1
  9
$DIMZIN
 70
     0
  9
$DIMBLK
  1

  9
$DIMASO
 70
     1
  9
$DIMSHO
 70
     1
  9
$DIMPOST
  1

  9
$DIMAPOST
  1

  9
$DIMALT
 70
     0
  9
$DIMALTD
 70
     3
  9
$DIMALTF
 40
0.0393700787401575
  9
$DIMLFAC
 40
1.0
  9
$DIMTOFL
 70
     1
  9
$DIMTVP
 40
0.0
  9
$DIMTIX
 70
     0
  9
$DIMSOXD
 70
     0
  9
$DIMSAH
 70
     0
  9
$DIMBLK1
  1

  9
$DIMBLK2
  1

  9
$DIMSTYLE
  2
ISO-25
  9
$DIMCLRD
 70
     0
  9
$DIMCLRE
 70
     0
  9
$DIMCLRT
 70
     0
  9
$DIMTFAC
 40
1.0
  9
$DIMGAP
 40
1.524
  9
$DIMJUST
 70
     0
  9
$DIMSD1
 70
     0
  9
$DIMSD2
 70
     0
  9
$DIMTOLJ
 70
     0
  9
$DIMTZIN
 70
     0
  9
$DIMALTZ
 70
     0
  9
$DIMALTTZ
 70
     0
  9
$DIMUPT
 70
     0
  9
$DIMDEC
 70
     2
  9
$DIMTDEC
 70
     2
  9
$DIMALTU
 70
     2
  9
$DIMALTTD
 70
     3
  9
$DIMTXSTY
  7
Standard
  9
$DIMAUNIT
 70
     0
  9
$DIMADEC
 70
     2
  9
$DIMALTRND
 40
0.0
  9
$DIMAZIN
 70
     0
  9
$DIMDSEP
 70
    44
  9
$DIMATFIT
 70
     3
  9
$DIMFRAC
 70
     0
  9
$DIMLDRBLK
  1

  9
$DIMLUNIT
 70
     2
  9
$DIMLWD
 70
    -2
  9
$DIMLWE
 70
    -2
  9
$DIMTMOVE
 70
     0
  9
$LUNITS
 70
     2
  9
$LUPREC
 70
     2
  9
$SKETCHINC
 40
1.0
  9
$FILLETRAD
 40
10.0
  9
$AUNITS
 70
     0
  9
$AUPREC
 70
     2
  9
$MENU
  1
.
  9
$ELEVATION
 40
0.0
  9
$PELEVATION
 40
0.0
  9
$THICKNESS
 40
0.0
  9
$LIMCHECK
 70
     0
  9
$CHAMFERA
 40
0.0
  9
$CHAMFERB
 40
0.0
  9
$CHAMFERC
 40
0.0
  9
$CHAMFERD
 40
0.0
  9
$SKPOLY
 70
     0
  9
$TDCREATE
 40
2458312.667632465
  9
$TDUCREATE
 40
2458312.292632465
  9
$TDUPDATE
 40
2458320.602798935
  9
$TDUUPDATE
 40
2458320.227798935
  9
$TDINDWG
 40
0.0008429514
  9
$TDUSRTIMER
 40
2458320.2268061
  9
$USRTIMER
 70
     1
  9
$ANGBASE
 50
0.0
  9
$ANGDIR
 70
     0
  9
$PDMODE
 70
     0
  9
$PDSIZE
 40
-1.0
  9
$PLINEWID
 40
0.0
  9
$SPLFRAME
 70
     0
  9
$SPLINETYPE
 70
     6
  9
$SPLINESEGS
 70
     8
  9
$HANDSEED
  5
2A2
  9
$SURFTAB1
 70
     6
  9
$SURFTAB2
 70
     6
  9
$SURFTYPE
 70
     6
  9
$SURFU
 70
     6
  9
$SURFV
 70
     6
  9
$UCSBASE
  2

  9
$UCSNAME
  2

  9
$UCSORG
 10
0.0
 20
0.0
 30
0.0
  9
$UCSXDIR
 10
1.0
 20
0.0
 30
0.0
  9
$UCSYDIR
 10
0.0
 20
1.0
 30
0.0
  9
$UCSORTHOREF
  2

  9
$UCSORTHOVIEW
 70
     0
  9
$UCSORGTOP
 10
0.0
 20
0.0
 30
0.0
  9
$UCSORGBOTTOM
 10
0.0
 20
0.0
 30
0.0
  9
$UCSORGLEFT
 10
0.0
 20
0.0
 30
0.0
  9
$UCSORGRIGHT
 10
0.0
 20
0.0
 30
0.0
  9
$UCSORGFRONT
 10
0.0
 20
0.0
 30
0.0
  9
$UCSORGBACK
 10
0.0
 20
0.0
 30
0.0
  9
$PUCSBASE
  2

  9
$PUCSNAME
  2

  9
$PUCSORG
 10
0.0
 20
0.0
 30
0.0
  9
$PUCSXDIR
 10
1.0
 20
0.0
 30
0.0
  9
$PUCSYDIR
 10
0.0
 20
1.0
 30
0.0
  9
$PUCSORTHOREF
  2

  9
$PUCSORTHOVIEW
 70
     0
  9
$PUCSORGTOP
 10
0.0
 20
0.0
 30
0.0
  9
$PUCSORGBOTTOM
 10
0.0
 20
0.0
 30
0.0
  9
$PUCSORGLEFT
 10
0.0
 20
0.0
 30
0.0
  9
$PUCSORGRIGHT
 10
0.0
 20
0.0
 30
0.0
  9
$PUCSORGFRONT
 10
0.0
 20
0.0
 30
0.0
  9
$PUCSORGBACK
 10
0.0
 20
0.0
 30
0.0
  9
$USERI1
 70
     0
  9
$USERI2
 70
     0
  9
$USERI3
 70
     0
  9
$USERI4
 70
     0
  9
$USERI5
 70
     0
  9
$USERR1
 40
0.0
  9
$USERR2
 40
0.0
  9
$USERR3
 40
0.0
  9
$USERR4
 40
0.0
  9
$USERR5
 40
0.0
  9
$WORLDVIEW
 70
     1
  9
$SHADEDGE
 70
     3
  9
$SHADEDIF
 70
    70
  9
$TILEMODE
 70
     1
  9
$MAXACTVP
 70
    64
  9
$PINSBASE
 10
0.0
 20
0.0
 30
0.0
  9
$PLIMCHECK
 70
     0
  9
$PEXTMIN
 10
1.000000000000000E+20
 20
1.000000000000000E+20
 30
1.000000000000000E+20
  9
$PEXTMAX
 10
-1.000000000000000E+20
 20
-1.000000000000000E+20
 30
-1.000000000000000E+20
  9
$PLIMMIN
 10
0.0
 20
0.0
  9
$PLIMMAX
 10
0.0
 20
0.0
  9
$UNITMODE
 70
     0
  9
$VISRETAIN
 70
     1
  9
$PLINEGEN
 70
     0
  9
$PSLTSCALE
 70
     1
  9
$TREEDEPTH
 70
  3020
  9
$CMLSTYLE
  2
Standard
  9
$CMLJUST
 70
     0
  9
$CMLSCALE
 40
20.0
  9
$PROXYGRAPHICS
 70
     1
  9
$MEASUREMENT
 70
     1
  9
$CELWEIGHT
370
    -1
  9
$ENDCAPS
280
     0
  9
$JOINSTYLE
280
     0
  9
$LWDISPLAY
290
     1
  9
$INSUNITS
 70
     4
  9
$HYPERLINKBASE
  1

  9
$STYLESHEET
  1

  9
$XEDIT
290
     1
  9
$CEPSNTYPE
380
     0
  9
$PSTYLEMODE
290
     1
  9
$FINGERPRINTGUID
  2
{8AC8C7C9-DD5D-4A99-BFA5-938169129F85}
  9
$VERSIONGUID
  2
{FAEB1C32-E019-11D5-929B-00C0DF256EC4}
  9
$EXTNAMES
290
     1
  9
$PSVPSCALE
 40
0.0
  9
$OLESTARTUP
290
     0
  0
ENDSEC
  0
SECTION
  2
CLASSES
  0
CLASS
  1
ACDBDICTIONARYWDFLT
  2
AcDbDictionaryWithDefault
  3
ObjectDBX Classes
 90
        0
280
     0
281
     0
  0
CLASS
  1
VISUALSTYLE
  2
AcDbVisualStyle
  3
ObjectDBX Classes
 90
     4095
280
     0
281
     0
  0
CLASS
  1
MATERIAL
  2
AcDbMaterial
  3
ObjectDBX Classes
 90
     1153
280
     0
281
     0
  0
CLASS
  1
SCALE
  2
AcDbScale
  3
ObjectDBX Classes
 90
     1153
280
     0
281
     0
  0
CLASS
  1
SUN
  2
AcDbSun
  3
SCENEOE
 90
     1153
280
     0
281
     0
  0
CLASS
  1
ACDBPLACEHOLDER
  2
AcDbPlaceHolder
  3
ObjectDBX Classes
 90
        0
280
     0
281
     0
  0
CLASS
  1
LAYOUT
  2
AcDbLayout
  3
ObjectDBX Classes
 90
        0
280
     0
281
     0
  0
CLASS
  1
TABLESTYLE
  2
AcDbTableStyle
  3
ObjectDBX Classes
 90
     4095
280
     0
281
     0
  0
CLASS
  1
MLEADERSTYLE
  2
AcDbMLeaderStyle
  3
ACDB_MLEADERSTYLE_CLASS
 90
     4095
280
     0
281
     0
  0
CLASS
  1
RASTERVARIABLES
  2
AcDbRasterVariables
  3
ISM
 90
        0
280
     0
281
     0
  0
ENDSEC
  0
SECTION
  2
TABLES
  0
TABLE
  2
VPORT
  5
8
330
0
100
AcDbSymbolTable
 70
     1
  0
VPORT
  5
29
330
8
100
AcDbSymbolTableRecord
100
AcDbViewportTableRecord
  2
*Active
 70
     0
 10
0.0
 20
0.0
 11
1.0
 21
1.0
 12
7.991050095885871
 22
-2.110475421313721
 13
0.0
 23
0.0
 14
10.0
 24
10.0
 15
10.0
 25
10.0
 16
0.0
 26
0.0
 36
1.0
 17
0.0
 27
0.0
 37
0.0
 40
189.545545829266
 41
1.632093933463796
 42
50.0
 43
0.0
 44
0.0
 50
0.0
 51
0.0
 71
    16
 72
  2000
 73
     1
 74
     3
 75
     0
 76
     0
 77
     0
 78
     0
281
     0
 65
     1
110
0.0
120
0.0
130
0.0
111
1.0
121
0.0
131
0.0
112
0.0
122
1.0
132
0.0
 79
     0
146
0.0
  0
ENDTAB
  0
TABLE
  2
LTYPE
  5
5
330
0
100
AcDbSymbolTable
 70
     6
  0
LTYPE
  5
14
330
5
100
AcDbSymbolTableRecord
100
AcDbLinetypeTableRecord
  2
ByBlock
 70
     0
  3

 72
    65
 73
     0
 40
0.0
  0
LTYPE
  5
15
330
5
100
AcDbSymbolTableRecord
100
AcDbLinetypeTableRecord
  2
ByLayer
 70
     0
  3

 72
    65
 73
     0
 40
0.0
  0
LTYPE
  5
16
330
5
100
AcDbSymbolTableRecord
100
AcDbLinetypeTableRecord
  2
Continuous
 70
     0
  3
Solid line
 72
    65
 73
     0
 40
0.0
  0
LTYPE
  5
6A
330
5
100
AcDbSymbolTableRecord
100
AcDbLinetypeTableRecord
  2
HIDDEN
 70
     0
  3
Hidden __ __ __ __ __ __ __ __ __ __ __ __ __ __
 72
    65
 73
     2
 40
1.905
 49
1.27
 74
     0
 49
-0.635
 74
     0
  0
LTYPE
  5
6B
330
5
100
AcDbSymbolTableRecord
100
AcDbLinetypeTableRecord
  2
PHANTOM
 70
     0
  3
Phantom ______  __  __  ______  __  __  ______
 72
    65
 73
     6
 40
12.7
 49
6.35
 74
     0
 49
-1.27
 74
     0
 49
1.27
 74
     0
 49
-1.27
 74
     0
 49
1.27
 74
     0
 49
-1.27
 74
     0
  0
LTYPE
  5
6C
330
5
100
AcDbSymbolTableRecord
100
AcDbLinetypeTableRecord
  2
CENTER
 70
     0
  3
Center ____ _ ____ _ ____ _ ____ _ ____ _ ____
 72
    65
 73
     4
 40
10.16
 49
6.35
 74
     0
 49
-1.27
 74
     0
 49
1.27
 74
     0
 49
-1.27
 74
     0
  0
LTYPE
  5
6D
330
5
100
AcDbSymbolTableRecord
100
AcDbLinetypeTableRecord
  2
CENTERX2
 70
     0
  3
Center (2x) ________  __  ________  __  _____
 72
    65
 73
     4
 40
20.32
 49
12.7
 74
     0
 49
-2.54
 74
     0
 49
2.54
 74
     0
 49
-2.54
 74
     0
  0
LTYPE
  5
6E
330
5
100
AcDbSymbolTableRecord
100
AcDbLinetypeTableRecord
  2
DOT2
 70
     0
  3
Dot (.5x) ........................................
 72
    65
 73
     2
 40
0.635
 49
0.0
 74
     0
 49
-0.635
 74
     0
  0
ENDTAB
  0
TABLE
  2
LAYER
  5
2
102
{ACAD_XDICTIONARY
360
1F4
102
}
330
0
100
AcDbSymbolTable
 70
    18
  0
LAYER
  5
10
330
2
100
AcDbSymbolTableRecord
100
AcDbLayerTableRecord
  2
0
 70
     0
 62
     7
  6
Continuous
370
    -3
390
F
  0
LAYER
  5
6F
330
2
100
AcDbSymbolTableRecord
100
AcDbLayerTableRecord
  2
FORMAT
 70
     0
 62
     2
  6
Continuous
370
    -3
390
F
  0
LAYER
  5
70
330
2
100
AcDbSymbolTableRecord
100
AcDbLayerTableRecord
  2
외형선
 70
     0
 62
     4
  6
Continuous
370
    30
390
F
  0
LAYER
  5
71
330
2
100
AcDbSymbolTableRecord
100
AcDbLayerTableRecord
  2
숨은선
 70
     0
 62
     2
  6
HIDDEN
370
    15
390
F
  0
LAYER
  5
72
330
2
100
AcDbSymbolTableRecord
100
AcDbLayerTableRecord
  2
중심선
 70
     0
 62
     1
  6
CENTERX2
370
    -3
390
F
  0
LAYER
  5
73
330
2
100
AcDbSymbolTableRecord
100
AcDbLayerTableRecord
  2
파단선
 70
     0
 62
     4
  6
Continuous
370
    -3
390
F
  0
LAYER
  5
74
330
2
100
AcDbSymbolTableRecord
100
AcDbLayerTableRecord
  2
해칭선
 70
     0
 62
   100
  6
Continuous
370
    -3
390
F
  0
LAYER
  5
75
330
2
100
AcDbSymbolTableRecord
100
AcDbLayerTableRecord
  2
가는실선
 70
     0
 62
     4
  6
Continuous
370
    -3
390
F
  0
LAYER
  5
76
330
2
100
AcDbSymbolTableRecord
100
AcDbLayerTableRecord
  2
치수_보조선
 70
     0
 62
     4
  6
Continuous
370
    -3
390
F
  0
LAYER
  5
77
330
2
100
AcDbSymbolTableRecord
100
AcDbLayerTableRecord
  2
치수문자_일반주서
 70
     0
 62
     7
  6
Continuous
370
    15
390
F
  0
LAYER
  5
78
330
2
100
AcDbSymbolTableRecord
100
AcDbLayerTableRecord
  2
개별주서
 70
     0
 62
   100
  6
Continuous
370
    30
390
F
  0
LAYER
  5
79
330
2
100
AcDbSymbolTableRecord
100
AcDbLayerTableRecord
  2
중간선
 70
     0
 62
     2
  6
Continuous
370
    15
390
F
  0
LAYER
  5
7A
330
2
100
AcDbSymbolTableRecord
100
AcDbLayerTableRecord
  2
윤곽선
 70
     0
 62
     3
  6
Continuous
370
    40
390
F
  0
LAYER
  5
7B
330
2
100
AcDbSymbolTableRecord
100
AcDbLayerTableRecord
  2
중심마크
 70
     0
 62
   100
  6
Continuous
370
    30
390
F
  0
LAYER
  5
7C
330
2
100
AcDbSymbolTableRecord
100
AcDbLayerTableRecord
  2
가상선
 70
     0
 62
     4
  6
PHANTOM
370
    -3
390
F
  0
LAYER
  5
7D
330
2
100
AcDbSymbolTableRecord
100
AcDbLayerTableRecord
  2
특수지정선
 70
     0
 62
     5
  6
CENTERX2
370
    60
390
F
  0
LAYER
  5
7E
330
2
100
AcDbSymbolTableRecord
100
AcDbLayerTableRecord
  2
참조1
 70
     0
 62
    -4
  6
Continuous
370
    -3
390
F
  0
LAYER
  5
158
330
2
100
AcDbSymbolTableRecord
100
AcDbLayerTableRecord
  2
Defpoints
 70
     0
 62
     7
  6
Continuous
290
     0
370
    -3
390
F
  0
ENDTAB
  0
TABLE
  2
STYLE
  5
3
330
0
100
AcDbSymbolTable
 70
     2
  0
STYLE
  5
11
330
3
100
AcDbSymbolTableRecord
100
AcDbTextStyleTableRecord
  2
Standard
 70
     0
 40
0.0
 41
1.0
 50
0.0
 71
     0
 42
3.5
  3
txt
  4

  0
STYLE
  5
94
330
3
100
AcDbSymbolTableRecord
100
AcDbTextStyleTableRecord
  2
SLDTEXTSTYLE0
 70
     0
 40
0.0
 41
0.75
 50
0.0
 71
     0
 42
3.5
  3
TXT
  4

  0
ENDTAB
  0
TABLE
  2
VIEW
  5
6
330
0
100
AcDbSymbolTable
 70
     0
  0
ENDTAB
  0
TABLE
  2
UCS
  5
7
330
0
100
AcDbSymbolTable
 70
     0
  0
ENDTAB
  0
TABLE
  2
APPID
  5
9
330
0
100
AcDbSymbolTable
 70
     1
  0
APPID
  5
12
330
9
100
AcDbSymbolTableRecord
100
AcDbRegAppTableRecord
  2
ACAD
 70
     0
  0
ENDTAB
  0
TABLE
  2
DIMSTYLE
  5
A
330
0
100
AcDbSymbolTable
 70
     4
100
AcDbDimStyleTable
  0
DIMSTYLE
105
27
330
A
100
AcDbSymbolTableRecord
100
AcDbDimStyleTableRecord
  2
ISO-25
 70
     0
 41
2.5
 42
0.625
 43
3.75
 44
1.25
 73
     0
 74
     0
 77
     1
 78
     8
140
2.5
141
2.5
143
0.03937007874016
147
0.625
171
     3
172
     1
178
     0
271
     2
272
     2
274
     3
278
    44
283
     0
284
     8
340
11
  0
DIMSTYLE
105
D4
330
A
100
AcDbSymbolTableRecord
100
AcDbDimStyleTableRecord
  2
SLDDIMSTYLE0
 70
     0
 41
3.302
 44
0.0
 45
0.000000001
 73
     0
 74
     0
 77
     1
 78
    12
 79
     3
140
3.5
143
0.0393700787401575
147
0.875
148
0.000000001
170
     1
173
     1
178
     0
271
     2
272
     2
276
     2
284
    12
340
94
  0
DIMSTYLE
105
E9
330
A
100
AcDbSymbolTableRecord
100
AcDbDimStyleTableRecord
  2
SLDDIMSTYLE1
 70
     0
 41
3.302
 44
0.0
 45
0.000000001
 73
     0
 74
     0
 77
     1
 78
     4
 79
     1
140
3.5
143
0.0393700787401575
147
0.875
148
0.000000001
170
     1
173
     1
178
     0
271
     2
272
     2
276
     2
284
    12
340
94
  0
DIMSTYLE
105
FD
102
{ACAD_REACTORS
330
FC
330
111
330
1AE
330
1BE
330
1CB
330
1D8
330
D3
330
E8
102
}
330
A
100
AcDbSymbolTableRecord
100
AcDbDimStyleTableRecord
  2
SLDDIMSTYLE2
 70
     0
 41
3.302
 44
0.0
 45
0.000000001
 73
     0
 74
     0
 77
     1
 78
    12
 79
     3
140
3.5
143
0.0393700787401575
147
0.875
148
0.000000001
170
     1
172
     1
173
     1
178
     0
271
     2
272
     2
276
     2
284
    12
289
     0
340
94
  0
ENDTAB
  0
TABLE
  2
BLOCK_RECORD
  5
1
330
0
100
AcDbSymbolTable
 70
    16
  0
BLOCK_RECORD
  5
1F
330
1
100
AcDbSymbolTableRecord
100
AcDbBlockTableRecord
  2
*Model_Space
340
22
  0
BLOCK_RECORD
  5
1B
330
1
100
AcDbSymbolTableRecord
100
AcDbBlockTableRecord
  2
*Paper_Space
340
1E
  0
BLOCK_RECORD
  5
23
330
1
100
AcDbSymbolTableRecord
100
AcDbBlockTableRecord
  2
*Paper_Space0
340
26
  0
BLOCK_RECORD
  5
7F
330
1
100
AcDbSymbolTableRecord
100
AcDbBlockTableRecord
  2
블럭10
340
0
102
{BLKREFS
331
CC
102
}
  0
BLOCK_RECORD
  5
D5
330
1
100
AcDbSymbolTableRecord
100
AcDbBlockTableRecord
  2
_D
340
0
  0
BLOCK_RECORD
  5
EA
330
1
100
AcDbSymbolTableRecord
100
AcDbBlockTableRecord
  2
_D_1
340
0
  0
BLOCK_RECORD
  5
FE
330
1
100
AcDbSymbolTableRecord
100
AcDbBlockTableRecord
  2
_D_2
340
0
  0
BLOCK_RECORD
  5
112
330
1
100
AcDbSymbolTableRecord
100
AcDbBlockTableRecord
  2
_D_3
340
0
  0
BLOCK_RECORD
  5
12C
330
1
100
AcDbSymbolTableRecord
100
AcDbBlockTableRecord
  2
SW_DOWELSYMBOL_0
340
0
102
{BLKREFS
331
132
331
1E8
331
0
102
}
  0
BLOCK_RECORD
  5
1F8
330
1
100
AcDbSymbolTableRecord
100
AcDbBlockTableRecord
  2
*D8
340
0
  0
BLOCK_RECORD
  5
207
330
1
100
AcDbSymbolTableRecord
100
AcDbBlockTableRecord
  2
*D9
340
0
  0
BLOCK_RECORD
  5
213
330
1
100
AcDbSymbolTableRecord
100
AcDbBlockTableRecord
  2
*D10
340
0
  0
BLOCK_RECORD
  5
21F
330
1
100
AcDbSymbolTableRecord
100
AcDbBlockTableRecord
  2
*D11
340
0
  0
BLOCK_RECORD
  5
266
330
1
100
AcDbSymbolTableRecord
100
AcDbBlockTableRecord
  2
*D12
340
0
  0
BLOCK_RECORD
  5
275
330
1
100
AcDbSymbolTableRecord
100
AcDbBlockTableRecord
  2
*D13
340
0
  0
BLOCK_RECORD
  5
281
330
1
100
AcDbSymbolTableRecord
100
AcDbBlockTableRecord
  2
*D14
340
0
  0
BLOCK_RECORD
  5
28D
330
1
100
AcDbSymbolTableRecord
100
AcDbBlockTableRecord
  2
*D15
340
0
  0
ENDTAB
  0
ENDSEC
  0
SECTION
  2
BLOCKS
  0
BLOCK
  5
20
330
1F
100
AcDbEntity
  8
0
100
AcDbBlockBegin
  2
*Model_Space
 70
     0
 10
0.0
 20
0.0
 30
0.0
  3
*Model_Space
  1
*Model_Space
  0
ENDBLK
  5
21
330
1F
100
AcDbEntity
  8
0
100
AcDbBlockEnd
  0
BLOCK
  5
1C
330
1B
100
AcDbEntity
 67
     1
  8
0
100
AcDbBlockBegin
  2
*Paper_Space
 70
     0
 10
0.0
 20
0.0
 30
0.0
  3
*Paper_Space
  1
*Paper_Space
  0
ENDBLK
  5
1D
330
1B
100
AcDbEntity
 67
     1
  8
0
100
AcDbBlockEnd
  0
BLOCK
  5
24
330
23
100
AcDbEntity
  8
0
100
AcDbBlockBegin
  2
*Paper_Space0
 70
     0
 10
0.0
 20
0.0
 30
0.0
  3
*Paper_Space0
  1
*Paper_Space0
  0
ENDBLK
  5
25
330
23
100
AcDbEntity
  8
0
100
AcDbBlockEnd
  0
BLOCK
  5
80
330
7F
100
AcDbEntity
  8
0
100
AcDbBlockBegin
  2
블럭10
 70
     2
 10
0.0
 20
0.0
 30
0.0
  3
블럭10
  1
블럭10
  0
ELLIPSE
  5
82
330
7F
100
AcDbEntity
  8
중심선
100
AcDbEllipse
 10
20.54032771741204
 20
12.0471743016438
 30
0.0
 11
6.600054785286829
 21
-1.261213355974178E-13
 31
0.0
210
0.0
220
0.0
230
1.0
 40
0.636358354079598
 41
0.9219305317359503
 42
6.513795318482858
  0
ELLIPSE
  5
83
330
7F
100
AcDbEntity
  8
중심선
100
AcDbEllipse
 10
20.54032771746488
 20
12.04717430159265
 30
0.0
 11
3.960054785062283
 21
1.540847449632565E-10
 31
0.0
210
0.0
220
0.0
230
1.0
 40
0.3939339440162632
 41
1.131841032648279
 42
5.62031148352944
  0
LINE
  5
84
330
7F
100
AcDbEntity
  8
중심선
100
AcDbLine
 10
2.268634060543552
 20
16.24717430164393
 30
0.0
 11
5.714909304380834
 21
16.24717430164393
 31
0.0
  0
LINE
  5
85
330
7F
100
AcDbEntity
  8
중심선
100
AcDbLine
 10
5.245725140726316
 20
7.84717430164391
 30
0.0
 11
8.692000384563599
 21
7.84717430164391
 31
0.0
  0
LINE
  5
86
330
7F
100
AcDbEntity
  8
중심선
100
AcDbLine
 10
15.74043728645272
 20
16.24717430164393
 30
0.0
 11
8.692000384563599
 21
7.84717430164391
 31
0.0
  0
LINE
  5
87
330
7F
100
AcDbEntity
  8
중심선
100
AcDbLine
 10
0.1404042013395286
 20
13.71084872107135
 30
0.0
 11
3.58671253028996
 21
13.71088815037384
 31
0.0
  0
LINE
  5
88
330
7F
100
AcDbEntity
  8
중심선
100
AcDbLine
 10
2.750260043222114
 20
10.84717430164391
 30
0.0
 11
6.196535287059397
 21
10.84717430164391
 31
0.0
  0
LINE
  5
89
330
7F
100
AcDbEntity
  8
중심선
100
AcDbLine
 10
12.29416204261559
 20
16.24717430164393
 30
0.0
 11
5.245725140726316
 21
7.84717430164391
 31
0.0
  0
LINE
  5
8A
330
7F
100
AcDbEntity
  8
중심선
100
AcDbLine
 10
10.72767329541681
 20
16.24717430164393
 30
0.0
 11
6.196535287059397
 21
10.84717430164391
 31
0.0
  0
LINE
  5
8B
330
7F
100
AcDbEntity
  8
중심선
100
AcDbLine
 10
7.28139805157953
 20
16.24717430164393
 30
0.0
 11
2.750260043222114
 21
10.84717430164391
 31
0.0
  0
LINE
  5
8C
330
7F
100
AcDbEntity
  8
중심선
100
AcDbLine
 10
5.714909304380834
 20
16.24717430164393
 30
0.0
 11
3.58671253028996
 21
13.71088815037384
 31
0.0
  0
LINE
  5
8D
330
7F
100
AcDbEntity
  8
중심선
100
AcDbLine
 10
2.268634060543552
 20
16.24717430164393
 30
0.0
 11
0.1404042013395286
 21
13.71084872107135
 31
0.0
  0
LINE
  5
8E
330
7F
100
AcDbEntity
  8
중심선
100
AcDbLine
 10
7.28139805157953
 20
16.24717430164393
 30
0.0
 11
10.72767329541681
 21
16.24717430164393
 31
0.0
  0
LINE
  5
8F
330
7F
100
AcDbEntity
  8
중심선
100
AcDbLine
 10
12.29416204261559
 20
16.24717430164393
 30
0.0
 11
15.74043728645272
 21
16.24717430164393
 31
0.0
  0
LINE
  5
90
330
7F
100
AcDbEntity
  8
중심선
100
AcDbLine
 10
19.22036997980202
 20
11.08717430171403
 30
0.0
 11
23.66174974927406
 21
11.08717430171406
 31
0.0
  0
LINE
  5
91
330
7F
100
AcDbEntity
  8
중심선
100
AcDbLine
 10
19.22039502424796
 20
13.00717430171391
 30
0.0
 11
19.22036997980202
 21
11.08717430171403
 31
0.0
  0
LINE
  5
92
330
7F
100
AcDbEntity
  8
중심선
100
AcDbLine
 10
19.22039502424796
 20
13.00717430171391
 30
0.0
 11
26.96566020931264
 21
13.00717430171391
 31
0.0
  0
LINE
  5
93
330
7F
100
AcDbEntity
  8
중심선
100
AcDbLine
 10
22.22332737316547
 20
13.45928029700563
 30
0.0
 11
24.52862924686651
 21
15.39360700705356
 31
0.0
  0
ATTDEF
  5
95
330
7F
100
AcDbEntity
  8
FORMAT
 62
     2
100
AcDbText
 10
4.408487351596664
 20
2.075366912832191
 30
0.0
 40
4.233333333333333
  1
E2031017
 41
0.75
  7
SLDTEXTSTYLE0
 11
4.408487351596664
 21
-0.0412997538344756
 31
0.0
100
AcDbAttributeDefinition
  3

  2
AUTOATTR0
 70
     0
 74
     1
  0
ENDBLK
  5
81
330
7F
100
AcDbEntity
  8
0
100
AcDbBlockEnd
  0
BLOCK
  5
D6
330
D5
100
AcDbEntity
  8
0
100
AcDbBlockBegin
  2
_D
 70
     0
 10
0.0
 20
0.0
 30
0.0
  3
_D
  1
_D
  0
LINE
  5
D8
330
D5
100
AcDbEntity
  8
치수문자_일반주서
 62
     0
370
    -2
100
AcDbLine
 10
25.64655182488865
 20
3.437012428723897
 30
0.0
 11
25.64655182488865
 21
17.71477726081643
 31
0.0
  0
LINE
  5
D9
330
D5
100
AcDbEntity
  8
치수문자_일반주서
 62
     0
370
    -2
100
AcDbLine
 10
8.184051824888634
 20
3.429419106966458
 30
0.0
 11
8.184051824888634
 21
17.71477726081643
 31
0.0
  0
LINE
  5
DA
330
D5
100
AcDbEntity
  8
치수문자_일반주서
 62
     0
370
    -2
100
AcDbLine
 10
8.184051824888634
 20
17.71477726081643
 30
0.0
 11
-26.41994817511137
 21
17.71477726081643
 31
0.0
  0
LINE
  5
DB
330
D5
100
AcDbEntity
  8
치수문자_일반주서
 62
     0
370
    -2
100
AcDbLine
 10
25.64655182488865
 20
17.71477726081643
 30
0.0
 11
8.184051824888634
 21
17.71477726081643
 31
0.0
  0
LINE
  5
DC
330
D5
100
AcDbEntity
  8
치수문자_일반주서
 62
     0
370
    -2
100
AcDbLine
 10
28.94855182488865
 20
17.71477726081643
 30
0.0
 11
32.25055182488865
 21
17.71477726081643
 31
0.0
  0
LINE
  5
DD
330
D5
100
AcDbEntity
  8
치수문자_일반주서
 62
     0
370
    -2
100
AcDbLine
 10
4.882051824888634
 20
17.71477726081643
 30
0.0
 11
1.580051824888635
 21
17.71477726081643
 31
0.0
  0
SOLID
  5
DE
330
D5
100
AcDbEntity
  8
치수문자_일반주서
 62
     0
100
AcDbTrace
 10
28.94855182488865
 20
18.26511059414976
 30
0.0
 11
28.94855182488865
 21
17.1644439274831
 31
0.0
 12
25.64655182488865
 22
17.71477726081643
 32
0.0
 13
25.64655182488865
 23
17.71477726081643
 33
0.0
  0
SOLID
  5
DF
330
D5
100
AcDbEntity
  8
치수문자_일반주서
 62
     0
100
AcDbTrace
 10
4.882051824888634
 20
17.1644439274831
 30
0.0
 11
4.882051824888634
 21
18.26511059414976
 31
0.0
 12
8.184051824888634
 22
17.71477726081643
 32
0.0
 13
8.184051824888634
 23
17.71477726081643
 33
0.0
  0
MTEXT
  5
E0
330
D5
100
AcDbEntity
  8
치수문자_일반주서
 62
     0
100
AcDbMText
 10
-12.41994817511137
 20
22.08977726081643
 30
0.0
 40
3.5
 41
0.0
 71
     2
 72
     1
  1
\A1;17.46 [11/16]
  7
SLDTEXTSTYLE0
 73
     1
 44
1.0
  0
POINT
  5
E1
330
D5
100
AcDbEntity
  8
Defpoints
 62
     0
100
AcDbPoint
 10
25.64655182488865
 20
3.374512428723897
 30
0.0
  0
POINT
  5
29C
330
D5
100
AcDbEntity
  8
Defpoints
 62
     0
100
AcDbPoint
 10
8.184051824888634
 20
3.366919106966458
 30
0.0
  0
POINT
  5
29D
330
D5
100
AcDbEntity
  8
Defpoints
 62
     0
100
AcDbPoint
 10
8.184051824888634
 20
17.71477726081643
 30
0.0
  0
ENDBLK
  5
D7
330
D5
100
AcDbEntity
  8
0
100
AcDbBlockEnd
  0
BLOCK
  5
EB
330
EA
100
AcDbEntity
  8
0
100
AcDbBlockBegin
  2
_D_1
 70
     0
 10
0.0
 20
0.0
 30
0.0
  3
_D_1
  1
_D_1
  0
LINE
  5
ED
330
EA
100
AcDbEntity
  8
치수문자_일반주서
 62
     0
370
    -2
100
AcDbLine
 10
25.64655182488865
 20
3.437012428723897
 30
0.0
 11
25.64655182488865
 21
32.2641500048343
 31
0.0
  0
LINE
  5
EE
330
EA
100
AcDbEntity
  8
치수문자_일반주서
 62
     0
370
    -2
100
AcDbLine
 10
-37.85344817511135
 20
3.873574928723895
 30
0.0
 11
-37.85344817511135
 21
32.2641500048343
 31
0.0
  0
LINE
  5
EF
330
EA
100
AcDbEntity
  8
치수문자_일반주서
 62
     0
370
    -2
100
AcDbLine
 10
22.34455182488865
 20
32.2641500048343
 30
0.0
 11
-34.55144817511135
 21
32.2641500048343
 31
0.0
  0
SOLID
  5
F0
330
EA
100
AcDbEntity
  8
치수문자_일반주서
 62
     0
100
AcDbTrace
 10
22.34455182488865
 20
31.71381667150096
 30
0.0
 11
22.34455182488865
 21
32.81448333816763
 31
0.0
 12
25.64655182488865
 22
32.2641500048343
 32
0.0
 13
25.64655182488865
 23
32.2641500048343
 33
0.0
  0
SOLID
  5
F1
330
EA
100
AcDbEntity
  8
치수문자_일반주서
 62
     0
100
AcDbTrace
 10
-34.55144817511135
 20
32.81448333816763
 30
0.0
 11
-34.55144817511135
 21
31.71381667150096
 31
0.0
 12
-37.85344817511135
 22
32.2641500048343
 32
0.0
 13
-37.85344817511135
 23
32.2641500048343
 33
0.0
  0
MTEXT
  5
F2
330
EA
100
AcDbEntity
  8
치수문자_일반주서
 62
     0
100
AcDbMText
 10
-6.103448175111348
 20
36.6391500048343
 30
0.0
 40
3.5
 41
0.0
 71
     2
 72
     1
  1
\A1;63.5 [2 1/2]
  7
SLDTEXTSTYLE0
 73
     1
 44
1.0
  0
POINT
  5
F3
330
EA
100
AcDbEntity
  8
Defpoints
 62
     0
100
AcDbPoint
 10
25.64655182488865
 20
3.374512428723897
 30
0.0
  0
POINT
  5
F4
330
EA
100
AcDbEntity
  8
Defpoints
 62
     0
100
AcDbPoint
 10
-37.85344817511135
 20
3.811074928723895
 30
0.0
  0
POINT
  5
F5
330
EA
100
AcDbEntity
  8
Defpoints
 62
     0
100
AcDbPoint
 10
-37.85344817511135
 20
32.2641500048343
 30
0.0
  0
ENDBLK
  5
EC
330
EA
100
AcDbEntity
  8
0
100
AcDbBlockEnd
  0
BLOCK
  5
FF
330
FE
100
AcDbEntity
  8
0
100
AcDbBlockBegin
  2
_D_2
 70
     0
 10
0.0
 20
0.0
 30
0.0
  3
_D_2
  1
_D_2
  0
LINE
  5
101
330
FE
100
AcDbEntity
  8
치수문자_일반주서
 62
     0
370
    -2
100
AcDbLine
 10
-36.96344817511135
 20
4.763574928723896
 30
0.0
 11
-49.15422101293856
 21
4.76357492872385
 31
0.0
  0
LINE
  5
102
330
FE
100
AcDbEntity
  8
치수문자_일반주서
 62
     0
370
    -2
100
AcDbLine
 10
-36.96344817511135
 20
-4.761425071276109
 30
0.0
 11
-49.15422101293853
 21
-4.761425071276156
 31
0.0
  0
LINE
  5
103
330
FE
100
AcDbEntity
  8
치수문자_일반주서
 62
     0
370
    -2
100
AcDbLine
 10
-49.15422101293855
 20
1.46157492872385
 30
0.0
 11
-49.15422101293854
 21
-1.459425071276156
 31
0.0
  0
SOLID
  5
104
330
FE
100
AcDbEntity
  8
치수문자_일반주서
 62
     0
100
AcDbTrace
 10
-48.60388767960522
 20
1.461574928723852
 30
0.0
 11
-49.70455434627188
 21
1.461574928723848
 31
0.0
 12
-49.15422101293856
 22
4.76357492872385
 32
0.0
 13
-49.15422101293856
 23
4.76357492872385
 33
0.0
  0
SOLID
  5
105
330
FE
100
AcDbEntity
  8
치수문자_일반주서
 62
     0
100
AcDbTrace
 10
-49.70455434627188
 20
-1.459425071276158
 30
0.0
 11
-48.60388767960521
 21
-1.459425071276154
 31
0.0
 12
-49.15422101293853
 22
-4.761425071276156
 32
0.0
 13
-49.15422101293853
 23
-4.761425071276156
 33
0.0
  0
MTEXT
  5
106
330
FE
100
AcDbEntity
  8
치수문자_일반주서
 62
     0
100
AcDbMText
 10
-53.52922101293855
 20
0.0010749287238796
 30
0.0
 40
3.5
 41
0.0
 71
     2
 72
     1
  1
\A1;%%c9.53 [3/8]
  7
SLDTEXTSTYLE0
 11
-3.729883127349605E-15
 21
1.0
 31
0.0
 73
     1
 44
1.0
  0
POINT
  5
107
330
FE
100
AcDbEntity
  8
Defpoints
 62
     0
100
AcDbPoint
 10
-36.90094817511135
 20
4.763574928723896
 30
0.0
  0
POINT
  5
108
330
FE
100
AcDbEntity
  8
Defpoints
 62
     0
100
AcDbPoint
 10
-36.90094817511135
 20
-4.761425071276109
 30
0.0
  0
POINT
  5
109
330
FE
100
AcDbEntity
  8
Defpoints
 62
     0
100
AcDbPoint
 10
-49.15422101293853
 20
-4.761425071276156
 30
0.0
  0
ENDBLK
  5
100
330
FE
100
AcDbEntity
  8
0
100
AcDbBlockEnd
  0
BLOCK
  5
113
330
112
100
AcDbEntity
  8
0
100
AcDbBlockBegin
  2
_D_3
 70
     0
 10
0.0
 20
0.0
 30
0.0
  3
_D_3
  1
_D_3
  0
LINE
  5
115
330
112
100
AcDbEntity
  8
치수문자_일반주서
 62
     0
370
    -2
100
AcDbLine
 10
25.70905182488865
 20
3.374512428723898
 30
0.0
 11
44.53983962594366
 21
3.374512428723968
 31
0.0
  0
LINE
  5
116
330
112
100
AcDbEntity
  8
치수문자_일반주서
 62
     0
370
    -2
100
AcDbLine
 10
25.70905182488865
 20
-3.372362571276102
 30
0.0
 11
44.53983962594368
 21
-3.372362571276032
 31
0.0
  0
LINE
  5
117
330
112
100
AcDbEntity
  8
치수문자_일반주서
 62
     0
370
    -2
100
AcDbLine
 10
44.53983962594366
 20
3.374512428723968
 30
0.0
 11
44.53983962594354
 21
41.39566148501569
 31
0.0
  0
LINE
  5
118
330
112
100
AcDbEntity
  8
치수문자_일반주서
 62
     0
370
    -2
100
AcDbLine
 10
44.53983962594366
 20
3.374512428723968
 30
0.0
 11
44.53983962594368
 21
-3.372362571276032
 31
0.0
  0
LINE
  5
119
330
112
100
AcDbEntity
  8
치수문자_일반주서
 62
     0
370
    -2
100
AcDbLine
 10
44.53983962594365
 20
6.676512428723967
 30
0.0
 11
44.53983962594364
 21
9.978512428723967
 31
0.0
  0
LINE
  5
11A
330
112
100
AcDbEntity
  8
치수문자_일반주서
 62
     0
370
    -2
100
AcDbLine
 10
44.53983962594369
 20
-6.674362571276031
 30
0.0
 11
44.53983962594369
 21
-9.97636257127603
 31
0.0
  0
SOLID
  5
11B
330
112
100
AcDbEntity
  8
치수문자_일반주서
 62
     0
100
AcDbTrace
 10
43.98950629261032
 20
6.676512428723965
 30
0.0
 11
45.09017295927698
 21
6.676512428723969
 31
0.0
 12
44.53983962594366
 22
3.374512428723968
 32
0.0
 13
44.53983962594366
 23
3.374512428723968
 33
0.0
  0
SOLID
  5
11C
330
112
100
AcDbEntity
  8
치수문자_일반주서
 62
     0
100
AcDbTrace
 10
45.09017295927702
 20
-6.674362571276029
 30
0.0
 11
43.98950629261035
 21
-6.674362571276033
 31
0.0
 12
44.53983962594368
 22
-3.372362571276032
 32
0.0
 13
44.53983962594368
 23
-3.372362571276032
 33
0.0
  0
MTEXT
  5
11D
330
112
100
AcDbEntity
  8
치수문자_일반주서
 62
     0
100
AcDbMText
 10
40.16483962594359
 20
26.08316148501568
 30
0.0
 40
3.5
 41
0.0
 71
     2
 72
     1
  1
\A1;%%c6.75 [17/64]
  7
SLDTEXTSTYLE0
 11
-3.159430413754961E-15
 21
1.0
 31
0.0
 73
     1
 44
1.0
  0
POINT
  5
11E
330
112
100
AcDbEntity
  8
Defpoints
 62
     0
100
AcDbPoint
 10
25.64655182488865
 20
3.374512428723897
 30
0.0
  0
POINT
  5
11F
330
112
100
AcDbEntity
  8
Defpoints
 62
     0
100
AcDbPoint
 10
25.64655182488865
 20
-3.372362571276103
 30
0.0
  0
POINT
  5
120
330
112
100
AcDbEntity
  8
Defpoints
 62
     0
100
AcDbPoint
 10
44.53983962594368
 20
-3.372362571276032
 30
0.0
  0
ENDBLK
  5
114
330
112
100
AcDbEntity
  8
0
100
AcDbBlockEnd
  0
BLOCK
  5
12D
330
12C
100
AcDbEntity
  8
0
100
AcDbBlockBegin
  2
SW_DOWELSYMBOL_0
 70
     0
 10
0.0
 20
0.0
 30
0.0
  3
SW_DOWELSYMBOL_0
  1
SW_DOWELSYMBOL_0
  0
CIRCLE
  5
12F
330
12C
100
AcDbEntity
  8
해칭선
 62
     0
100
AcDbCircle
 10
0.0
 20
0.0
 30
0.0
 40
2.999999999999999
  0
HATCH
  5
130
330
12C
100
AcDbEntity
  8
0
  6
Continuous
 62
     0
370
     0
100
AcDbHatch
 10
0.0
 20
0.0
 30
0.0
210
0.0
220
0.0
230
1.0
  2
SOLID
 70
     1
 71
     0
 91
        1
 92
        0
 93
        3
 72
     2
 10
0.0
 20
0.0
 40
2.999999999999999
 50
0.0
 51
90.0
 73
     1
 72
     1
 10
0.0
 20
2.999999999999999
 11
0.0
 21
0.0
 72
     1
 10
0.0
 20
0.0
 11
2.999999999999999
 21
0.0
 97
        0
 75
     0
 76
     1
 98
        1
 10
0.0
 20
0.0
  0
HATCH
  5
131
330
12C
100
AcDbEntity
  8
0
  6
Continuous
 62
     0
370
     0
100
AcDbHatch
 10
0.0
 20
0.0
 30
0.0
210
0.0
220
0.0
230
1.0
  2
SOLID
 70
     1
 71
     0
 91
        1
 92
        0
 93
        3
 72
     2
 10
0.0
 20
0.0
 40
2.999999999999999
 50
180.0
 51
270.0000000000008
 73
     1
 72
     1
 10
0.0
 20
-2.999999999999999
 11
0.0
 21
0.0
 72
     1
 10
0.0
 20
0.0
 11
-2.999999999999999
 21
0.0
 97
        0
 75
     0
 76
     1
 98
        1
 10
0.0
 20
0.0
  0
ENDBLK
  5
12E
330
12C
100
AcDbEntity
  8
0
100
AcDbBlockEnd
  0
BLOCK
  5
1F9
330
1F8
100
AcDbEntity
  8
0
100
AcDbBlockBegin
  2
*D8
 70
     1
 10
0.0
 20
0.0
 30
0.0
  3
*D8
  1
*D8
  0
LINE
  5
1FB
330
1F8
100
AcDbEntity
  8
치수문자_일반주서
 62
     0
370
    -2
100
AcDbLine
 10
79.17577283782725
 20
15.88437500000002
 30
0.0
 11
79.17577283782725
 21
28.22443156222509
 31
0.0
  0
LINE
  5
1FC
330
1F8
100
AcDbEntity
  8
치수문자_일반주서
 62
     0
370
    -2
100
AcDbLine
 10
61.71327283782721
 20
15.78756821794465
 30
0.0
 11
61.71327283782721
 21
28.22443156222509
 31
0.0
  0
LINE
  5
1FD
330
1F8
100
AcDbEntity
  8
치수문자_일반주서
 62
     0
370
    -2
100
AcDbLine
 10
61.71327283782721
 20
28.22443156222509
 30
0.0
 11
27.10927283782721
 21
28.22443156222509
 31
0.0
  0
LINE
  5
1FE
330
1F8
100
AcDbEntity
  8
치수문자_일반주서
 62
     0
370
    -2
100
AcDbLine
 10
79.17577283782725
 20
28.22443156222509
 30
0.0
 11
61.71327283782721
 21
28.22443156222509
 31
0.0
  0
LINE
  5
1FF
330
1F8
100
AcDbEntity
  8
치수문자_일반주서
 62
     0
370
    -2
100
AcDbLine
 10
82.47777283782725
 20
28.22443156222509
 30
0.0
 11
85.77977283782724
 21
28.22443156222509
 31
0.0
  0
LINE
  5
200
330
1F8
100
AcDbEntity
  8
치수문자_일반주서
 62
     0
370
    -2
100
AcDbLine
 10
58.41127283782721
 20
28.22443156222509
 30
0.0
 11
55.10927283782721
 21
28.22443156222509
 31
0.0
  0
SOLID
  5
201
330
1F8
100
AcDbEntity
  8
치수문자_일반주서
 62
     0
100
AcDbTrace
 10
82.47777283782725
 20
28.77476489555843
 30
0.0
 11
82.47777283782725
 21
27.67409822889176
 31
0.0
 12
79.17577283782725
 22
28.22443156222509
 32
0.0
 13
79.17577283782725
 23
28.22443156222509
 33
0.0
  0
SOLID
  5
202
330
1F8
100
AcDbEntity
  8
치수문자_일반주서
 62
     0
100
AcDbTrace
 10
58.41127283782721
 20
27.67409822889176
 30
0.0
 11
58.41127283782721
 21
28.77476489555843
 31
0.0
 12
61.71327283782721
 22
28.22443156222509
 32
0.0
 13
61.71327283782721
 23
28.22443156222509
 33
0.0
  0
MTEXT
  5
203
330
1F8
100
AcDbEntity
  8
치수문자_일반주서
 62
     0
100
AcDbMText
 10
41.10927283782721
 20
32.59943156222509
 30
0.0
 40
3.5
 41
0.0
 71
     2
 72
     1
  1
\A1;17.46 [11/16]
  7
SLDTEXTSTYLE0
 73
     1
 44
1.0
  0
POINT
  5
204
330
1F8
100
AcDbEntity
  8
Defpoints
 62
     0
100
AcDbPoint
 10
79.17577283782725
 20
15.82187500000002
 30
0.0
  0
POINT
  5
205
330
1F8
100
AcDbEntity
  8
Defpoints
 62
     0
100
AcDbPoint
 10
61.71327283782721
 20
15.72506821794465
 30
0.0
  0
POINT
  5
206
330
1F8
100
AcDbEntity
  8
Defpoints
 62
     0
100
AcDbPoint
 10
61.71327283782721
 20
28.22443156222509
 30
0.0
  0
ENDBLK
  5
1FA
330
1F8
100
AcDbEntity
  8
0
100
AcDbBlockEnd
  0
BLOCK
  5
208
330
207
100
AcDbEntity
  8
0
100
AcDbBlockBegin
  2
*D9
 70
     1
 10
0.0
 20
0.0
 30
0.0
  3
*D9
  1
*D9
  0
LINE
  5
20A
330
207
100
AcDbEntity
  8
치수문자_일반주서
 62
     0
370
    -2
100
AcDbLine
 10
79.17577283782725
 20
15.88437500000002
 30
0.0
 11
79.17577283782725
 21
44.71078284036683
 31
0.0
  0
LINE
  5
20B
330
207
100
AcDbEntity
  8
치수문자_일반주서
 62
     0
370
    -2
100
AcDbLine
 10
15.67577283782725
 20
16.12250000000002
 30
0.0
 11
15.67577283782725
 21
44.71078284036683
 31
0.0
  0
LINE
  5
20C
330
207
100
AcDbEntity
  8
치수문자_일반주서
 62
     0
370
    -2
100
AcDbLine
 10
75.87377283782726
 20
44.71078284036683
 30
0.0
 11
18.97777283782725
 21
44.71078284036683
 31
0.0
  0
SOLID
  5
20D
330
207
100
AcDbEntity
  8
치수문자_일반주서
 62
     0
100
AcDbTrace
 10
75.87377283782726
 20
44.1604495070335
 30
0.0
 11
75.87377283782726
 21
45.26111617370017
 31
0.0
 12
79.17577283782725
 22
44.71078284036683
 32
0.0
 13
79.17577283782725
 23
44.71078284036683
 33
0.0
  0
SOLID
  5
20E
330
207
100
AcDbEntity
  8
치수문자_일반주서
 62
     0
100
AcDbTrace
 10
18.97777283782725
 20
45.26111617370017
 30
0.0
 11
18.97777283782725
 21
44.1604495070335
 31
0.0
 12
15.67577283782725
 22
44.71078284036683
 32
0.0
 13
15.67577283782725
 23
44.71078284036683
 33
0.0
  0
MTEXT
  5
20F
330
207
100
AcDbEntity
  8
치수문자_일반주서
 62
     0
100
AcDbMText
 10
47.42577283782725
 20
49.08578284036683
 30
0.0
 40
3.5
 41
0.0
 71
     2
 72
     1
  1
\A1;63.5 [2 1/2]
  7
SLDTEXTSTYLE0
 73
     1
 44
1.0
  0
POINT
  5
210
330
207
100
AcDbEntity
  8
Defpoints
 62
     0
100
AcDbPoint
 10
79.17577283782725
 20
15.82187500000002
 30
0.0
  0
POINT
  5
211
330
207
100
AcDbEntity
  8
Defpoints
 62
     0
100
AcDbPoint
 10
15.67577283782725
 20
16.06000000000002
 30
0.0
  0
POINT
  5
212
330
207
100
AcDbEntity
  8
Defpoints
 62
     0
100
AcDbPoint
 10
15.67577283782725
 20
44.71078284036683
 30
0.0
  0
ENDBLK
  5
209
330
207
100
AcDbEntity
  8
0
100
AcDbBlockEnd
  0
BLOCK
  5
214
330
213
100
AcDbEntity
  8
0
100
AcDbBlockBegin
  2
*D10
 70
     1
 10
0.0
 20
0.0
 30
0.0
  3
*D10
  1
*D10
  0
LINE
  5
216
330
213
100
AcDbEntity
  8
치수문자_일반주서
 62
     0
370
    -2
100
AcDbLine
 10
16.56577283782725
 20
17.01250000000002
 30
0.0
 11
4.375000000000034
 21
17.01249999999997
 31
0.0
  0
LINE
  5
217
330
213
100
AcDbEntity
  8
치수문자_일반주서
 62
     0
370
    -2
100
AcDbLine
 10
16.56577283782725
 20
7.487500000000015
 30
0.0
 11
4.375000000000067
 21
7.487499999999969
 31
0.0
  0
LINE
  5
218
330
213
100
AcDbEntity
  8
치수문자_일반주서
 62
     0
370
    -2
100
AcDbLine
 10
4.375000000000045
 20
13.71049999999997
 30
0.0
 11
4.375000000000055
 21
10.78949999999997
 31
0.0
  0
SOLID
  5
219
330
213
100
AcDbEntity
  8
치수문자_일반주서
 62
     0
100
AcDbTrace
 10
4.925333333333379
 20
13.71049999999998
 30
0.0
 11
3.824666666666712
 21
13.71049999999997
 31
0.0
 12
4.375000000000034
 22
17.01249999999997
 32
0.0
 13
4.375000000000034
 23
17.01249999999997
 33
0.0
  0
SOLID
  5
21A
330
213
100
AcDbEntity
  8
치수문자_일반주서
 62
     0
100
AcDbTrace
 10
3.824666666666722
 20
10.78949999999997
 30
0.0
 11
4.925333333333389
 21
10.78949999999997
 31
0.0
 12
4.375000000000067
 22
7.487499999999969
 32
0.0
 13
4.375000000000067
 23
7.487499999999969
 33
0.0
  0
MTEXT
  5
21B
330
213
100
AcDbEntity
  8
치수문자_일반주서
 62
     0
100
AcDbMText
 10
0.0000000000000497
 20
12.25000000000001
 30
0.0
 40
3.5
 41
0.0
 71
     2
 72
     1
  1
\A1;%%c9.53 [3/8]
  7
SLDTEXTSTYLE0
 11
-3.450141892798385E-15
 21
1.0
 31
0.0
 73
     1
 44
1.0
  0
POINT
  5
21C
330
213
100
AcDbEntity
  8
Defpoints
 62
     0
100
AcDbPoint
 10
16.62827283782725
 20
17.01250000000002
 30
0.0
  0
POINT
  5
21D
330
213
100
AcDbEntity
  8
Defpoints
 62
     0
100
AcDbPoint
 10
16.62827283782725
 20
7.487500000000015
 30
0.0
  0
POINT
  5
21E
330
213
100
AcDbEntity
  8
Defpoints
 62
     0
100
AcDbPoint
 10
4.375000000000071
 20
7.487499999999969
 30
0.0
  0
ENDBLK
  5
215
330
213
100
AcDbEntity
  8
0
100
AcDbBlockEnd
  0
BLOCK
  5
220
330
21F
100
AcDbEntity
  8
0
100
AcDbBlockBegin
  2
*D11
 70
     1
 10
0.0
 20
0.0
 30
0.0
  3
*D11
  1
*D11
  0
LINE
  5
222
330
21F
100
AcDbEntity
  8
치수문자_일반주서
 62
     0
370
    -2
100
AcDbLine
 10
79.23827283782725
 20
15.82187500000002
 30
0.0
 11
96.19527599307902
 21
15.82187500000008
 31
0.0
  0
LINE
  5
223
330
21F
100
AcDbEntity
  8
치수문자_일반주서
 62
     0
370
    -2
100
AcDbLine
 10
79.23827283782725
 20
8.678125000000023
 30
0.0
 11
96.19527599307905
 21
8.678125000000087
 31
0.0
  0
LINE
  5
224
330
21F
100
AcDbEntity
  8
치수문자_일반주서
 62
     0
370
    -2
100
AcDbLine
 10
96.19527599307902
 20
15.82187500000008
 30
0.0
 11
96.19527599307887
 21
53.90422269958417
 31
0.0
  0
LINE
  5
225
330
21F
100
AcDbEntity
  8
치수문자_일반주서
 62
     0
370
    -2
100
AcDbLine
 10
96.19527599307902
 20
15.82187500000008
 30
0.0
 11
96.19527599307905
 21
8.678125000000087
 31
0.0
  0
LINE
  5
226
330
21F
100
AcDbEntity
  8
치수문자_일반주서
 62
     0
370
    -2
100
AcDbLine
 10
96.19527599307901
 20
19.12387500000008
 30
0.0
 11
96.195275993079
 21
22.42587500000008
 31
0.0
  0
LINE
  5
227
330
21F
100
AcDbEntity
  8
치수문자_일반주서
 62
     0
370
    -2
100
AcDbLine
 10
96.19527599307906
 20
5.376125000000087
 30
0.0
 11
96.19527599307908
 21
2.074125000000087
 31
0.0
  0
SOLID
  5
228
330
21F
100
AcDbEntity
  8
치수문자_일반주서
 62
     0
100
AcDbTrace
 10
95.64494265974568
 20
19.12387500000008
 30
0.0
 11
96.74560932641234
 21
19.12387500000009
 31
0.0
 12
96.19527599307902
 22
15.82187500000008
 32
0.0
 13
96.19527599307902
 23
15.82187500000008
 33
0.0
  0
SOLID
  5
229
330
21F
100
AcDbEntity
  8
치수문자_일반주서
 62
     0
100
AcDbTrace
 10
96.74560932641239
 20
5.376125000000089
 30
0.0
 11
95.64494265974574
 21
5.376125000000085
 31
0.0
 12
96.19527599307905
 22
8.678125000000087
 32
0.0
 13
96.19527599307905
 23
8.678125000000087
 33
0.0
  0
MTEXT
  5
22A
330
21F
100
AcDbEntity
  8
치수문자_일반주서
 62
     0
100
AcDbMText
 10
91.82027599307892
 20
39.90422269958416
 30
0.0
 40
3.5
 41
0.0
 71
     2
 72
     1
  1
\A1;%%c7.14 [9/32]
  7
SLDTEXTSTYLE0
 11
-3.978542002506248E-15
 21
1.0
 31
0.0
 73
     1
 44
1.0
  0
POINT
  5
22B
330
21F
100
AcDbEntity
  8
Defpoints
 62
     0
100
AcDbPoint
 10
79.17577283782725
 20
15.82187500000002
 30
0.0
  0
POINT
  5
22C
330
21F
100
AcDbEntity
  8
Defpoints
 62
     0
100
AcDbPoint
 10
79.17577283782725
 20
8.678125000000023
 30
0.0
  0
POINT
  5
22D
330
21F
100
AcDbEntity
  8
Defpoints
 62
     0
100
AcDbPoint
 10
96.19527599307904
 20
8.678125000000087
 30
0.0
  0
ENDBLK
  5
221
330
21F
100
AcDbEntity
  8
0
100
AcDbBlockEnd
  0
BLOCK
  5
267
330
266
100
AcDbEntity
  8
0
100
AcDbBlockBegin
  2
*D12
 70
     1
 10
0.0
 20
0.0
 30
0.0
  3
*D12
  1
*D12
  0
LINE
  5
269
330
266
100
AcDbEntity
  8
치수문자_일반주서
 62
     0
370
    -2
100
AcDbLine
 10
155.0686590645361
 20
-26.78918324412906
 30
0.0
 11
155.0686590645361
 21
-14.44912668190398
 31
0.0
  0
LINE
  5
26A
330
266
100
AcDbEntity
  8
치수문자_일반주서
 62
     0
370
    -2
100
AcDbLine
 10
137.606159064536
 20
-26.88599002618443
 30
0.0
 11
137.606159064536
 21
-14.44912668190398
 31
0.0
  0
LINE
  5
26B
330
266
100
AcDbEntity
  8
치수문자_일반주서
 62
     0
370
    -2
100
AcDbLine
 10
137.606159064536
 20
-14.44912668190398
 30
0.0
 11
103.002159064536
 21
-14.44912668190398
 31
0.0
  0
LINE
  5
26C
330
266
100
AcDbEntity
  8
치수문자_일반주서
 62
     0
370
    -2
100
AcDbLine
 10
155.0686590645361
 20
-14.44912668190398
 30
0.0
 11
137.606159064536
 21
-14.44912668190398
 31
0.0
  0
LINE
  5
26D
330
266
100
AcDbEntity
  8
치수문자_일반주서
 62
     0
370
    -2
100
AcDbLine
 10
158.3706590645361
 20
-14.44912668190398
 30
0.0
 11
161.672659064536
 21
-14.44912668190398
 31
0.0
  0
LINE
  5
26E
330
266
100
AcDbEntity
  8
치수문자_일반주서
 62
     0
370
    -2
100
AcDbLine
 10
134.304159064536
 20
-14.44912668190398
 30
0.0
 11
131.002159064536
 21
-14.44912668190398
 31
0.0
  0
SOLID
  5
26F
330
266
100
AcDbEntity
  8
치수문자_일반주서
 62
     0
100
AcDbTrace
 10
158.3706590645361
 20
-13.89879334857065
 30
0.0
 11
158.3706590645361
 21
-14.99946001523732
 31
0.0
 12
155.0686590645361
 22
-14.44912668190398
 32
0.0
 13
155.0686590645361
 23
-14.44912668190398
 33
0.0
  0
SOLID
  5
270
330
266
100
AcDbEntity
  8
치수문자_일반주서
 62
     0
100
AcDbTrace
 10
134.304159064536
 20
-14.99946001523732
 30
0.0
 11
134.304159064536
 21
-13.89879334857065
 31
0.0
 12
137.606159064536
 22
-14.44912668190398
 32
0.0
 13
137.606159064536
 23
-14.44912668190398
 33
0.0
  0
MTEXT
  5
271
330
266
100
AcDbEntity
  8
치수문자_일반주서
 62
     0
100
AcDbMText
 10
117.002159064536
 20
-10.07412668190398
 30
0.0
 40
3.5
 41
0.0
 71
     2
 72
     1
  1
\A1;17.46 [11/16]
  7
SLDTEXTSTYLE0
 73
     1
 44
1.0
  0
POINT
  5
272
330
266
100
AcDbEntity
  8
Defpoints
 62
     0
100
AcDbPoint
 10
155.0686590645361
 20
-26.85168324412906
 30
0.0
  0
POINT
  5
273
330
266
100
AcDbEntity
  8
Defpoints
 62
     0
100
AcDbPoint
 10
137.606159064536
 20
-26.94849002618443
 30
0.0
  0
POINT
  5
274
330
266
100
AcDbEntity
  8
Defpoints
 62
     0
100
AcDbPoint
 10
137.606159064536
 20
-14.44912668190398
 30
0.0
  0
ENDBLK
  5
268
330
266
100
AcDbEntity
  8
0
100
AcDbBlockEnd
  0
BLOCK
  5
276
330
275
100
AcDbEntity
  8
0
100
AcDbBlockBegin
  2
*D13
 70
     1
 10
0.0
 20
0.0
 30
0.0
  3
*D13
  1
*D13
  0
LINE
  5
278
330
275
100
AcDbEntity
  8
치수문자_일반주서
 62
     0
370
    -2
100
AcDbLine
 10
155.0686590645361
 20
-26.78918324412906
 30
0.0
 11
155.0686590645361
 21
2.037224596237756
 31
0.0
  0
LINE
  5
279
330
275
100
AcDbEntity
  8
치수문자_일반주서
 62
     0
370
    -2
100
AcDbLine
 10
91.56865906453606
 20
-26.55105824412906
 30
0.0
 11
91.56865906453606
 21
2.037224596237756
 31
0.0
  0
LINE
  5
27A
330
275
100
AcDbEntity
  8
치수문자_일반주서
 62
     0
370
    -2
100
AcDbLine
 10
151.7666590645361
 20
2.037224596237756
 30
0.0
 11
94.87065906453606
 21
2.037224596237756
 31
0.0
  0
SOLID
  5
27B
330
275
100
AcDbEntity
  8
치수문자_일반주서
 62
     0
100
AcDbTrace
 10
151.7666590645361
 20
1.486891262904423
 30
0.0
 11
151.7666590645361
 21
2.587557929571089
 31
0.0
 12
155.0686590645361
 22
2.037224596237756
 32
0.0
 13
155.0686590645361
 23
2.037224596237756
 33
0.0
  0
SOLID
  5
27C
330
275
100
AcDbEntity
  8
치수문자_일반주서
 62
     0
100
AcDbTrace
 10
94.87065906453606
 20
2.587557929571089
 30
0.0
 11
94.87065906453606
 21
1.486891262904423
 31
0.0
 12
91.56865906453606
 22
2.037224596237756
 32
0.0
 13
91.56865906453606
 23
2.037224596237756
 33
0.0
  0
MTEXT
  5
27D
330
275
100
AcDbEntity
  8
치수문자_일반주서
 62
     0
100
AcDbMText
 10
123.3186590645361
 20
6.412224596237756
 30
0.0
 40
3.5
 41
0.0
 71
     2
 72
     1
  1
\A1;63.5 [2 1/2]
  7
SLDTEXTSTYLE0
 73
     1
 44
1.0
  0
POINT
  5
27E
330
275
100
AcDbEntity
  8
Defpoints
 62
     0
100
AcDbPoint
 10
155.0686590645361
 20
-26.85168324412906
 30
0.0
  0
POINT
  5
27F
330
275
100
AcDbEntity
  8
Defpoints
 62
     0
100
AcDbPoint
 10
91.56865906453606
 20
-26.61355824412906
 30
0.0
  0
POINT
  5
280
330
275
100
AcDbEntity
  8
Defpoints
 62
     0
100
AcDbPoint
 10
91.56865906453606
 20
2.037224596237756
 30
0.0
  0
ENDBLK
  5
277
330
275
100
AcDbEntity
  8
0
100
AcDbBlockEnd
  0
BLOCK
  5
282
330
281
100
AcDbEntity
  8
0
100
AcDbBlockBegin
  2
*D14
 70
     1
 10
0.0
 20
0.0
 30
0.0
  3
*D14
  1
*D14
  0
LINE
  5
284
330
281
100
AcDbEntity
  8
치수문자_일반주서
 62
     0
370
    -2
100
AcDbLine
 10
92.45865906453605
 20
-25.66105824412906
 30
0.0
 11
80.26788622670885
 21
-25.6610582441291
 31
0.0
  0
LINE
  5
285
330
281
100
AcDbEntity
  8
치수문자_일반주서
 62
     0
370
    -2
100
AcDbLine
 10
92.45865906453605
 20
-35.18605824412906
 30
0.0
 11
80.26788622670888
 21
-35.1860582441291
 31
0.0
  0
LINE
  5
286
330
281
100
AcDbEntity
  8
치수문자_일반주서
 62
     0
370
    -2
100
AcDbLine
 10
80.26788622670887
 20
-28.9630582441291
 30
0.0
 11
80.26788622670887
 21
-31.8840582441291
 31
0.0
  0
SOLID
  5
287
330
281
100
AcDbEntity
  8
치수문자_일반주서
 62
     0
100
AcDbTrace
 10
80.8182195600422
 20
-28.9630582441291
 30
0.0
 11
79.71755289337554
 21
-28.9630582441291
 31
0.0
 12
80.26788622670885
 22
-25.6610582441291
 32
0.0
 13
80.26788622670885
 23
-25.6610582441291
 33
0.0
  0
SOLID
  5
288
330
281
100
AcDbEntity
  8
치수문자_일반주서
 62
     0
100
AcDbTrace
 10
79.71755289337554
 20
-31.8840582441291
 30
0.0
 11
80.8182195600422
 21
-31.8840582441291
 31
0.0
 12
80.26788622670888
 22
-35.1860582441291
 32
0.0
 13
80.26788622670888
 23
-35.1860582441291
 33
0.0
  0
MTEXT
  5
289
330
281
100
AcDbEntity
  8
치수문자_일반주서
 62
     0
100
AcDbMText
 10
75.89288622670887
 20
-30.42355824412907
 30
0.0
 40
3.5
 41
0.0
 71
     2
 72
     1
  1
\A1;%%c9.53 [3/8]
  7
SLDTEXTSTYLE0
 11
-2.983906501879686E-15
 21
1.0
 31
0.0
 73
     1
 44
1.0
  0
POINT
  5
28A
330
281
100
AcDbEntity
  8
Defpoints
 62
     0
100
AcDbPoint
 10
92.52115906453605
 20
-25.66105824412906
 30
0.0
  0
POINT
  5
28B
330
281
100
AcDbEntity
  8
Defpoints
 62
     0
100
AcDbPoint
 10
92.52115906453605
 20
-35.18605824412906
 30
0.0
  0
POINT
  5
28C
330
281
100
AcDbEntity
  8
Defpoints
 62
     0
100
AcDbPoint
 10
80.26788622670888
 20
-35.1860582441291
 30
0.0
  0
ENDBLK
  5
283
330
281
100
AcDbEntity
  8
0
100
AcDbBlockEnd
  0
BLOCK
  5
28E
330
28D
100
AcDbEntity
  8
0
100
AcDbBlockBegin
  2
*D15
 70
     1
 10
0.0
 20
0.0
 30
0.0
  3
*D15
  1
*D15
  0
LINE
  5
290
330
28D
100
AcDbEntity
  8
치수문자_일반주서
 62
     0
370
    -2
100
AcDbLine
 10
155.1311590645361
 20
-26.85168324412906
 30
0.0
 11
172.0881622197878
 21
-26.85168324412899
 31
0.0
  0
LINE
  5
291
330
28D
100
AcDbEntity
  8
치수문자_일반주서
 62
     0
370
    -2
100
AcDbLine
 10
155.1311590645361
 20
-33.99543324412905
 30
0.0
 11
172.0881622197878
 21
-33.99543324412899
 31
0.0
  0
LINE
  5
292
330
28D
100
AcDbEntity
  8
치수문자_일반주서
 62
     0
370
    -2
100
AcDbLine
 10
172.0881622197878
 20
-26.85168324412899
 30
0.0
 11
172.0881622197877
 21
11.2306644554551
 31
0.0
  0
LINE
  5
293
330
28D
100
AcDbEntity
  8
치수문자_일반주서
 62
     0
370
    -2
100
AcDbLine
 10
172.0881622197878
 20
-26.85168324412899
 30
0.0
 11
172.0881622197878
 21
-33.99543324412899
 31
0.0
  0
LINE
  5
294
330
28D
100
AcDbEntity
  8
치수문자_일반주서
 62
     0
370
    -2
100
AcDbLine
 10
172.0881622197878
 20
-23.54968324412899
 30
0.0
 11
172.0881622197878
 21
-20.24768324412899
 31
0.0
  0
LINE
  5
295
330
28D
100
AcDbEntity
  8
치수문자_일반주서
 62
     0
370
    -2
100
AcDbLine
 10
172.0881622197878
 20
-37.29743324412899
 30
0.0
 11
172.0881622197878
 21
-40.59943324412899
 31
0.0
  0
SOLID
  5
296
330
28D
100
AcDbEntity
  8
치수문자_일반주서
 62
     0
100
AcDbTrace
 10
171.5378288864545
 20
-23.549683244129
 30
0.0
 11
172.6384955531211
 21
-23.54968324412899
 31
0.0
 12
172.0881622197878
 22
-26.85168324412899
 32
0.0
 13
172.0881622197878
 23
-26.85168324412899
 33
0.0
  0
SOLID
  5
297
330
28D
100
AcDbEntity
  8
치수문자_일반주서
 62
     0
100
AcDbTrace
 10
172.6384955531212
 20
-37.29743324412899
 30
0.0
 11
171.5378288864545
 21
-37.29743324412899
 31
0.0
 12
172.0881622197878
 22
-33.99543324412899
 32
0.0
 13
172.0881622197878
 23
-33.99543324412899
 33
0.0
  0
MTEXT
  5
298
330
28D
100
AcDbEntity
  8
치수문자_일반주서
 62
     0
100
AcDbMText
 10
167.7131622197877
 20
-2.769335544544919
 30
0.0
 40
3.5
 41
0.0
 71
     2
 72
     1
  1
\A1;%%c7.14 [9/32]
  7
SLDTEXTSTYLE0
 11
-3.978542002506250E-15
 21
1.0
 31
0.0
 73
     1
 44
1.0
  0
POINT
  5
299
330
28D
100
AcDbEntity
  8
Defpoints
 62
     0
100
AcDbPoint
 10
155.0686590645361
 20
-26.85168324412906
 30
0.0
  0
POINT
  5
29A
330
28D
100
AcDbEntity
  8
Defpoints
 62
     0
100
AcDbPoint
 10
155.0686590645361
 20
-33.99543324412905
 30
0.0
  0
POINT
  5
29B
330
28D
100
AcDbEntity
  8
Defpoints
 62
     0
100
AcDbPoint
 10
172.0881622197879
 20
-33.99543324412899
 30
0.0
  0
ENDBLK
  5
28F
330
28D
100
AcDbEntity
  8
0
100
AcDbBlockEnd
  0
ENDSEC
  0
SECTION
  2
ENTITIES
  0
LINE
  5
96
330
1F
100
AcDbEntity
  8
외형선
  6
Continuous
370
    15
100
AcDbLine
 10
1.999999999999996
 20
-4.761425071276111
 30
0.0
 11
7.184051824888649
 21
-3.372362571276107
 31
0.0
  0
LINE
  5
97
330
1F
100
AcDbEntity
  8
외형선
  6
Continuous
370
    15
100
AcDbLine
 10
7.184051824888649
 20
3.374512428723893
 30
0.0
 11
1.999999999999996
 21
4.763574928723898
 31
0.0
  0
LINE
  5
98
330
1F
100
AcDbEntity
  8
외형선
  6
Continuous
370
    15
100
AcDbLine
 10
-36.90094817511135
 20
-4.761425071276109
 30
0.0
 11
1.999999999999996
 21
-4.761425071276109
 31
0.0
  0
LINE
  5
99
330
1F
100
AcDbEntity
  8
외형선
  6
Continuous
370
    15
100
AcDbLine
 10
1.999999999999996
 20
4.763574928723895
 30
0.0
 11
-13.17099817511121
 21
4.763574928723895
 31
0.0
  0
LINE
  5
9A
330
1F
100
AcDbEntity
  8
외형선
  6
Continuous
370
    15
100
AcDbLine
 10
-36.90094817511135
 20
4.763574928723893
 30
0.0
 11
-37.85344817511135
 21
3.811074928723895
 31
0.0
  0
LINE
  5
9B
330
1F
100
AcDbEntity
  8
외형선
  6
Continuous
370
    15
100
AcDbLine
 10
-37.85344817511135
 20
-3.808925071276108
 30
0.0
 11
-36.90094817511135
 21
-4.761425071276106
 31
0.0
  0
LINE
  5
9C
330
1F
100
AcDbEntity
  8
외형선
  6
Continuous
370
    15
100
AcDbLine
 10
7.790964622646983
 20
-3.372362571276107
 30
0.0
 11
8.184051824888652
 21
-3.372362571276107
 31
0.0
  0
LINE
  5
9D
330
1F
100
AcDbEntity
  8
외형선
  6
Continuous
370
    15
100
AcDbLine
 10
7.184051824888649
 20
-3.372362571276107
 30
0.0
 11
7.683887964588037
 21
-3.372362571276107
 31
0.0
  0
LINE
  5
9E
330
1F
100
AcDbEntity
  8
외형선
  6
Continuous
370
    15
100
AcDbLine
 10
7.683887964588037
 20
3.374512428723893
 30
0.0
 11
7.184051824888649
 21
3.374512428723893
 31
0.0
  0
LINE
  5
9F
330
1F
100
AcDbEntity
  8
외형선
  6
Continuous
370
    15
100
AcDbLine
 10
8.184051824888652
 20
3.374512428723893
 30
0.0
 11
7.790964622646983
 21
3.374512428723893
 31
0.0
  0
LINE
  5
A0
330
1F
100
AcDbEntity
  8
0
  6
Continuous
 62
     1
370
    15
100
AcDbLine
 10
15.22596411829247
 20
0.9928094232233555
 30
0.0
 11
15.18847146763389
 21
1.013164239471293
 31
0.0
  0
LINE
  5
A1
330
1F
100
AcDbEntity
  8
0
  6
Continuous
 62
     1
370
    15
100
AcDbLine
 10
16.96892397865347
 20
-3.372362571276108
 30
0.0
 11
19.02776611613307
 21
-3.372362571276108
 31
0.0
  0
LINE
  5
A2
330
1F
100
AcDbEntity
  8
0
  6
Continuous
 62
     1
370
    15
100
AcDbLine
 10
9.848067717880092
 20
3.374512428723894
 30
0.0
 11
8.184051824888652
 21
3.374512428723894
 31
0.0
  0
LINE
  5
A3
330
1F
100
AcDbEntity
  8
0
  6
Continuous
 62
     1
370
    15
100
AcDbLine
 10
19.02776611613307
 20
3.374512428723894
 30
0.0
 11
16.9689239786535
 21
3.374512428723894
 31
0.0
  0
LINE
  5
A4
330
1F
100
AcDbEntity
  8
0
  6
Continuous
 62
     1
370
    15
100
AcDbLine
 10
8.184051824888652
 20
-3.372362571276108
 30
0.0
 11
9.848067717880046
 21
-3.372362571276108
 31
0.0
  0
LINE
  5
A5
330
1F
100
AcDbEntity
  8
외형선
  6
Continuous
370
    15
100
AcDbLine
 10
7.184051824888649
 20
0.0010749287238931
 30
0.0
 11
7.184051824888649
 21
3.374512428723893
 31
0.0
  0
LINE
  5
A6
330
1F
100
AcDbEntity
  8
외형선
  6
Continuous
370
    15
100
AcDbLine
 10
7.184051824888649
 20
-3.372362571276107
 30
0.0
 11
7.184051824888649
 21
0.0010749287238931
 31
0.0
  0
LINE
  5
A7
330
1F
100
AcDbEntity
  8
외형선
  6
Continuous
370
    15
100
AcDbLine
 10
1.999999999999996
 20
0.0010749287238931
 30
0.0
 11
1.999999999999996
 21
4.763574928723898
 31
0.0
  0
LINE
  5
A8
330
1F
100
AcDbEntity
  8
외형선
  6
Continuous
370
    15
100
AcDbLine
 10
1.999999999999996
 20
-4.761425071276111
 30
0.0
 11
1.999999999999996
 21
0.0010749287238931
 31
0.0
  0
LINE
  5
A9
330
1F
100
AcDbEntity
  8
외형선
  6
Continuous
370
    15
100
AcDbLine
 10
-36.90094817511135
 20
0.0010749287238931
 30
0.0
 11
-36.90094817511135
 21
4.763574928723895
 31
0.0
  0
LINE
  5
AA
330
1F
100
AcDbEntity
  8
외형선
  6
Continuous
370
    15
100
AcDbLine
 10
-36.90094817511135
 20
-4.761425071276109
 30
0.0
 11
-36.90094817511135
 21
0.0010749287238931
 31
0.0
  0
LINE
  5
AB
330
1F
100
AcDbEntity
  8
외형선
  6
Continuous
370
    15
100
AcDbLine
 10
-37.85344817511135
 20
0.0010749287238931
 30
0.0
 11
-37.85344817511135
 21
3.811074928723895
 31
0.0
  0
LINE
  5
AC
330
1F
100
AcDbEntity
  8
외형선
  6
Continuous
370
    15
100
AcDbLine
 10
-37.85344817511135
 20
-3.808925071276108
 30
0.0
 11
-37.85344817511135
 21
0.0010749287238931
 31
0.0
  0
SPLINE
  5
AD
330
1F
100
AcDbEntity
  8
외형선
  6
Continuous
370
    15
100
AcDbSpline
210
0.0
220
0.0
230
1.0
 70
     8
 71
     3
 72
     8
 73
     4
 74
     0
 42
0.000000001
 43
0.00000001
 40
0.0
 40
0.0
 40
0.0
 40
0.0
 40
1.0
 40
1.0
 40
1.0
 40
1.0
 10
8.184051824888645
 20
-3.236361974151827
 30
0.0
 10
8.017261399637274
 20
-3.209365827434254
 30
0.0
 10
7.850236333321841
 20
-3.178413572180738
 30
0.0
 10
7.68388796458803
 20
-3.143684440325646
 30
0.0
  0
SPLINE
  5
AE
330
1F
100
AcDbEntity
  8
외형선
  6
Continuous
370
    15
100
AcDbSpline
210
0.0
220
0.0
230
1.0
 70
     8
 71
     3
 72
     8
 73
     4
 74
     0
 42
0.000000001
 43
0.00000001
 40
0.0
 40
0.0
 40
0.0
 40
0.0
 40
1.0
 40
1.0
 40
1.0
 40
1.0
 10
8.184051824888652
 20
-0.2251407519875834
 30
0.0
 10
8.017261399637281
 20
-0.1293119794207618
 30
0.0
 10
7.850236333321848
 20
-0.0331630337147921
 30
0.0
 10
7.683887964588037
 20
0.0627809782562952
 30
0.0
  0
SPLINE
  5
AF
330
1F
100
AcDbEntity
  8
외형선
  6
Continuous
370
    15
100
AcDbSpline
210
0.0
220
0.0
230
1.0
 70
    24
 71
     3
 72
    20
 73
    16
 74
     0
 42
0.000000001
 43
0.00000001
 40
0.0
 40
0.0
 40
0.0
 40
0.0
 40
0.1217106436980117
 40
0.200511480639683
 40
0.2793123175813544
 40
0.3581131545230254
 40
0.4369139914646965
 40
0.5157148284063678
 40
0.5945156653480392
 40
0.6733165022897106
 40
0.752117339231382
 40
0.8309181761730506
 40
0.9097190131147196
 40
0.9885198500562922
 40
1.0
 40
1.0
 40
1.0
 40
1.0
 10
8.184051824888645
 20
-3.236361974151827
 30
0.0
 10
8.184051824888638
 20
-3.082753717052328
 30
0.0
 10
8.184051824888623
 20
-2.829692701732067
 30
0.0
 10
8.18405182488867
 20
-2.434360887369192
 30
0.0
 10
8.184051824888655
 20
-2.09329449962918
 30
0.0
 10
8.184051824888645
 20
-1.752061565166542
 30
0.0
 10
8.184051824888616
 20
-1.420988663068848
 30
0.0
 10
8.184051824888616
 20
-1.109847776098552
 30
0.0
 10
8.184051824888645
 20
-0.8265798713958376
 30
0.0
 10
8.184051824888602
 20
-0.580412360333441
 30
0.0
 10
8.18405182488861
 20
-0.3771899923998448
 30
0.0
 10
8.184051824888652
 20
-0.2227298954161511
 30
0.0
 10
8.184051824888655
 20
-0.1262385380549697
 30
0.0
 10
8.184051824888645
 20
-0.0837441130814203
 30
0.0
 10
8.184051824888655
 20
-0.0901631785808005
 30
0.0
 10
8.184051824888652
 20
-0.0909794283469335
 30
0.0
  0
SPLINE
  5
B0
330
1F
100
AcDbEntity
  8
외형선
  6
Continuous
370
    15
100
AcDbSpline
210
0.0
220
0.0
230
1.0
 70
     8
 71
     3
 72
     8
 73
     4
 74
     0
 42
0.000000001
 43
0.00000001
 40
0.0
 40
0.0
 40
0.0
 40
0.0
 40
1.0
 40
1.0
 40
1.0
 40
1.0
 10
8.184051824888652
 20
3.36691910696603
 30
0.0
 10
8.017261399637281
 20
3.373359681713394
 30
0.0
 10
7.850236333321848
 20
3.375703302747336
 30
0.0
 10
7.683887964588037
 20
3.373948025930095
 30
0.0
  0
LINE
  5
B1
330
1F
100
AcDbEntity
  8
외형선
  6
Continuous
370
    15
100
AcDbLine
 10
7.683887964588037
 20
1.221938065272806
 30
0.0
 11
7.683887964588037
 21
3.374512428723893
 31
0.0
  0
SPLINE
  5
B2
330
1F
100
AcDbEntity
  8
외형선
  6
Continuous
370
    15
100
AcDbSpline
210
0.0
220
0.0
230
1.0
 70
     8
 71
     3
 72
     8
 73
     4
 74
     0
 42
0.000000001
 43
0.00000001
 40
0.0
 40
0.0
 40
0.0
 40
0.0
 40
1.0
 40
1.0
 40
1.0
 40
1.0
 10
8.184051824888645
 20
0.9492747316687694
 30
0.0
 10
8.017261399637274
 20
1.041447627452418
 30
0.0
 10
7.850236333321841
 20
1.132508432493014
 30
0.0
 10
7.68388796458803
 20
1.2219635711403
 30
0.0
  0
LINE
  5
B3
330
1F
100
AcDbEntity
  8
외형선
  6
Continuous
370
    15
100
AcDbLine
 10
7.683887964588037
 20
-3.143694342339117
 30
0.0
 11
7.683887964588037
 21
0.0628029071391333
 31
0.0
  0
LINE
  5
B4
330
1F
100
AcDbEntity
  8
외형선
  6
Continuous
370
    15
100
AcDbLine
 10
7.790964622646983
 20
-3.371767906189951
 30
0.0
 11
7.683887964588037
 21
-3.371798168482309
 31
0.0
  0
LINE
  5
B5
330
1F
100
AcDbEntity
  8
외형선
  6
Continuous
370
    15
100
AcDbLine
 10
7.683887964588037
 20
-3.372362571276107
 30
0.0
 11
7.683887964588037
 21
-3.371797767226403
 31
0.0
  0
LINE
  5
B6
330
1F
100
AcDbEntity
  8
외형선
  6
Continuous
370
    15
100
AcDbLine
 10
8.184051824888652
 20
-3.372362571276107
 30
0.0
 11
8.184051824888645
 21
-3.236361974151827
 31
0.0
  0
LINE
  5
B7
330
1F
100
AcDbEntity
  8
외형선
  6
Continuous
370
    15
100
AcDbLine
 10
8.18405182488863
 20
-0.2251407519876092
 30
0.0
 11
8.184051824888645
 21
0.9492747316687683
 31
0.0
  0
LINE
  5
B8
330
1F
100
AcDbEntity
  8
외형선
  6
Continuous
370
    15
100
AcDbLine
 10
8.18405182488863
 20
3.366919106966077
 30
0.0
 11
8.184051824888652
 21
3.374512428723893
 31
0.0
  0
SPLINE
  5
B9
330
1F
100
AcDbEntity
  8
외형선
  6
Continuous
370
    15
100
AcDbSpline
210
0.0
220
0.0
230
1.0
 70
    24
 71
     3
 72
    15
 73
    11
 74
     0
 42
0.000000001
 43
0.00000001
 40
0.0
 40
0.0
 40
0.0
 40
0.0
 40
0.0456301825077614
 40
0.1735177184190976
 40
0.3014052543304341
 40
0.4292927902417661
 40
0.5571803261530982
 40
0.6850678620642741
 40
0.8129553979754532
 40
1.0
 40
1.0
 40
1.0
 40
1.0
 10
8.184051824888623
 20
0.9935878735199151
 30
0.0
 10
8.184051824888638
 20
1.015802953287819
 30
0.0
 10
8.18405182488863
 20
1.100280151141879
 30
0.0
 10
8.184051824888616
 20
1.294899187342458
 30
0.0
 10
8.184051824888616
 20
1.568028014888237
 30
0.0
 10
8.184051824888638
 20
1.875094292898749
 30
0.0
 10
8.184051824888662
 20
2.202460510676354
 30
0.0
 10
8.18405182488863
 20
2.542063835751576
 30
0.0
 10
8.18405182488867
 20
2.938651440933399
 30
0.0
 10
8.184051824888645
 20
3.207339690677976
 30
0.0
 10
8.18405182488863
 20
3.366919106966077
 30
0.0
  0
SPLINE
  5
BA
330
1F
100
AcDbEntity
  8
0
  6
Continuous
 62
     1
370
    15
100
AcDbSpline
210
0.0
220
0.0
230
1.0
 70
     8
 71
     3
 72
    20
 73
    16
 74
     0
 42
0.000000001
 43
0.00000001
 40
0.0
 40
0.0
 40
0.0
 40
0.0
 40
0.076017313190178
 40
0.1521819540363805
 40
0.2283749226047931
 40
0.3043983703488194
 40
0.3804602049105204
 40
0.4553484984307511
 40
0.5300646106089844
 40
0.6047239768180813
 40
0.6795627777549585
 40
0.7685985529585625
 40
0.8575584351717943
 40
0.9464816157223189
 40
1.0
 40
1.0
 40
1.0
 40
1.0
 10
8.184051824888645
 20
0.9492747316687694
 30
0.0
 10
8.548566417589221
 20
0.7438174629568963
 30
0.0
 10
9.278302061536134
 20
0.3325047328512176
 30
0.0
 10
10.37398729792114
 20
-0.3042539072686364
 30
0.0
 10
11.46987697022729
 20
-0.927659779456945
 30
0.0
 10
12.56446882167453
 20
-1.520234248960916
 30
0.0
 10
13.65292145029351
 20
-2.055961877277289
 30
0.0
 10
14.73608442269676
 20
-2.516679781024352
 30
0.0
 10
15.8115894137992
 20
-2.890621667314889
 30
0.0
 10
16.88663075159987
 20
-3.166811752302608
 30
0.0
 10
18.03123393753261
 20
-3.345865973708398
 30
0.0
 10
19.24436803970687
 20
-3.398147387187147
 30
0.0
 10
20.52480492642934
 20
-3.284734781161288
 30
0.0
 10
21.63477338694574
 20
-3.068930174550853
 30
0.0
 10
22.31804599834111
 20
-2.839296405415702
 30
0.0
 10
22.57476633293711
 20
-2.75301801950686
 30
0.0
  0
SPLINE
  5
BB
330
1F
100
AcDbEntity
  8
0
  6
Continuous
 62
     1
370
    15
100
AcDbSpline
210
0.0
220
0.0
230
1.0
 70
     8
 71
     3
 72
    46
 73
    42
 74
     0
 42
0.000000001
 43
0.00000001
 40
0.0
 40
0.0
 40
0.0
 40
0.0
 40
0.0624999999999998
 40
0.0624999999999998
 40
0.1249999999999988
 40
0.1249999999999988
 40
0.1562499999999987
 40
0.1562499999999987
 40
0.1874999999999986
 40
0.1874999999999986
 40
0.2499999999999984
 40
0.2499999999999984
 40
0.2812499999999979
 40
0.2812499999999979
 40
0.3124999999999974
 40
0.3124999999999974
 40
0.3749999999999972
 40
0.3749999999999972
 40
0.4374999999999971
 40
0.4374999999999971
 40
0.4999999999999969
 40
0.4999999999999969
 40
0.5624999999999968
 40
0.5624999999999968
 40
0.5937499999999967
 40
0.5937499999999967
 40
0.6249999999999966
 40
0.6249999999999966
 40
0.6874999999999973
 40
0.6874999999999973
 40
0.7187499999999972
 40
0.7187499999999972
 40
0.7499999999999971
 40
0.7499999999999971
 40
0.8124999999999978
 40
0.8124999999999978
 40
0.8749999999999986
 40
0.8749999999999986
 40
0.9374999999999992
 40
0.9374999999999992
 40
1.0
 40
1.0
 40
1.0
 40
1.0
 10
25.64655182488865
 20
-3.372362571276103
 30
0.0
 10
25.28585105291898
 20
-3.342011247540225
 30
0.0
 10
24.91848443979475
 20
-3.304351053491926
 30
0.0
 10
24.18944711025934
 20
-3.19115380779333
 30
0.0
 10
23.82941756697235
 20
-3.115926479459193
 30
0.0
 10
23.28150380444067
 20
-2.976047377614143
 30
0.0
 10
23.09862158455845
 20
-2.924982975083795
 30
0.0
 10
22.73475862983432
 20
-2.814679173761048
 30
0.0
 10
22.55484685169929
 20
-2.755572342940862
 30
0.0
 10
22.01042022739896
 20
-2.566022531881623
 30
0.0
 10
21.64265913121665
 20
-2.42332948845149
 30
0.0
 10
21.09812332547436
 20
-2.190352424085275
 30
0.0
 10
20.91823804923115
 20
-2.10964292214135
 30
0.0
 10
20.55443369850452
 20
-1.941732184049377
 30
0.0
 10
20.37156264176089
 20
-1.85467497140045
 30
0.0
 10
19.82362722581521
 20
-1.58587191498077
 30
0.0
 10
19.46354975418594
 20
-1.397255845836609
 30
0.0
 10
18.73460106762314
 20
-1.004492496542919
 30
0.0
 10
18.36720498435542
 20
-0.8005411309630089
 30
0.0
 10
17.6456019117178
 20
-0.3881831492011953
 30
0.0
 10
17.27846618887523
 20
-0.1773343109700857
 30
0.0
 10
16.54934244131282
 20
0.2430305910837083
 30
0.0
 10
16.18935724579673
 20
0.4521507716566808
 30
0.0
 10
15.64146681698742
 20
0.7615915986886921
 30
0.0
 10
15.45857399655787
 20
0.8638271340625244
 30
0.0
 10
15.09465354362843
 20
1.065146840657101
 30
0.0
 10
14.9147111486115
 20
1.164038572399709
 30
0.0
 10
14.37039535054213
 20
1.456046124269611
 30
0.0
 10
14.00263539985031
 20
1.644199444945723
 30
0.0
 10
13.45799205856302
 20
1.909317036735031
 30
0.0
 10
13.27812916895323
 20
1.994784446033473
 30
0.0
 10
12.91438452741983
 20
2.160314531633527
 30
0.0
 10
12.73152519629135
 20
2.240203924975048
 30
0.0
 10
12.18356980746137
 20
2.469637099316974
 30
0.0
 10
11.82344082740716
 20
2.608404409602382
 30
0.0
 10
11.09458300785842
 20
2.855201881957352
 30
0.0
 10
10.72715859612066
 20
2.962893778984685
 30
0.0
 10
10.00535614437625
 20
3.14160184539017
 30
0.0
 10
9.63844780343122
 20
3.213657136527936
 30
0.0
 10
8.909239863668887
 20
3.319216815402025
 30
0.0
 10
8.549295434900213
 20
3.352815307136205
 30
0.0
 10
8.184051824888698
 20
3.366919106966029
 30
0.0
  0
SPLINE
  5
BC
330
1F
100
AcDbEntity
  8
외형선
  6
Continuous
370
    15
100
AcDbSpline
210
0.0
220
0.0
230
1.0
 70
    24
 71
     3
 72
    15
 73
    11
 74
     0
 42
0.000000001
 43
0.00000001
 40
0.0
 40
0.0
 40
0.0
 40
0.0
 40
0.1306477638221264
 40
0.2612955276442531
 40
0.3892716653119123
 40
0.5172478029795714
 40
0.6452239406472321
 40
0.7732000783148926
 40
0.9011762159825526
 40
1.0
 40
1.0
 40
1.0
 40
1.0
 10
8.184051824888638
 20
3.366919106966458
 30
0.0
 10
8.184051824888638
 20
3.256541378468002
 30
0.0
 10
8.184051824888645
 20
3.035785921471089
 30
0.0
 10
8.184051824888645
 20
2.689370552700175
 30
0.0
 10
8.184051824888652
 20
2.345265896735175
 30
0.0
 10
8.184051824888677
 20
2.011185690764814
 30
0.0
 10
8.184051824888638
 20
1.694795723593048
 30
0.0
 10
8.18405182488863
 20
1.405900533929423
 30
0.0
 10
8.184051824888652
 20
1.166660170271376
 30
0.0
 10
8.184051824888655
 20
1.046113715385966
 30
0.0
 10
8.184051824888655
 20
0.9935878735199148
 30
0.0
  0
SPLINE
  5
BD
330
1F
100
AcDbEntity
  8
0
  6
Continuous
 62
     1
370
    15
100
AcDbSpline
210
0.0
220
0.0
230
1.0
 70
     8
 71
     3
 72
    15
 73
    11
 74
     0
 42
0.000000001
 43
0.00000001
 40
0.0
 40
0.0
 40
0.0
 40
0.0
 40
0.0030751611565429
 40
0.1253741564739107
 40
0.271087545396875
 40
0.416907880002761
 40
0.562831162897996
 40
0.7086285046406395
 40
0.8543299500682098
 40
1.0
 40
1.0
 40
1.0
 40
1.0
 10
16.96892397865348
 20
-3.370966838545256
 30
0.0
 10
16.95991858844651
 20
-3.371430576656834
 30
0.0
 10
16.59276930961411
 20
-3.390337154752786
 30
0.0
 10
15.79956615213407
 20
-3.317322242959512
 30
0.0
 10
14.58754640545246
 20
-3.123473552200744
 30
0.0
 10
13.3064851849681
 20
-2.75174974991243
 30
0.0
 10
12.02477108789191
 20
-2.253282554489593
 30
0.0
 10
10.74380251424299
 20
-1.645194105116957
 30
0.0
 10
9.463717067235763
 20
-0.9595660508931713
 30
0.0
 10
8.610576263485239
 20
-0.4699315987970883
 30
0.0
 10
8.184051824888698
 20
-0.2251407519876122
 30
0.0
  0
LINE
  5
BE
330
1F
100
AcDbEntity
  8
0
  6
Continuous
 62
     1
370
    15
100
AcDbLine
 10
25.64655182488865
 20
-3.372362571276103
 30
0.0
 11
25.64655182488865
 21
-3.054184497906036
 31
0.0
  0
SPLINE
  5
BF
330
1F
100
AcDbEntity
  8
0
  6
Continuous
 62
     1
370
    15
100
AcDbSpline
210
0.0
220
0.0
230
1.0
 70
     8
 71
     3
 72
    21
 73
    17
 74
     0
 42
0.000000001
 43
0.00000001
 40
0.0
 40
0.0
 40
0.0
 40
0.0
 40
0.033280183918884
 40
0.1026867304241865
 40
0.171938855134375
 40
0.241225947591538
 40
0.3094440249886361
 40
0.3775052570423221
 40
0.4455147974265557
 40
0.5136877904890658
 40
0.5947932492789533
 40
0.6758295747818112
 40
0.7568324675978034
 40
0.8378379144380976
 40
0.9188818801276329
 40
1.0
 40
1.0
 40
1.0
 40
1.0
 10
9.848067717880092
 20
3.359722414390227
 30
0.0
 10
10.02333274525939
 20
3.362765737965611
 30
0.0
 10
10.56411679450482
 20
3.372155978967308
 30
0.0
 10
11.46988981857539
 20
3.260716838972492
 30
0.0
 10
12.56446537859506
 20
3.035310719598021
 30
0.0
 10
13.65292235685709
 20
2.69897879246298
 30
0.0
 10
14.73608418360306
 20
2.274952259773593
 30
0.0
 10
15.81158947175247
 20
1.775210476532243
 30
0.0
 10
16.88663075839374
 20
1.215219289817821
 30
0.0
 10
18.03123384617334
 20
0.5774114322857901
 30
0.0
 10
19.24436847693868
 20
-0.1251308266623115
 30
0.0
 10
20.52480330032459
 20
-0.8608535371971874
 30
0.0
 10
21.80461987353867
 20
-1.555997074178246
 30
0.0
 10
23.08448704195419
 20
-2.173845504183108
 30
0.0
 10
24.36505964385305
 20
-2.698241079227632
 30
0.0
 10
25.21925756076557
 20
-2.935500526669683
 30
0.0
 10
25.64655182488865
 20
-3.054184497906037
 30
0.0
  0
LINE
  5
C0
330
1F
100
AcDbEntity
  8
0
  6
Continuous
 62
     1
370
    15
100
AcDbLine
 10
25.64655182488865
 20
-3.054184497906036
 30
0.0
 11
25.64655182488865
 21
0.2901156053538645
 31
0.0
  0
SPLINE
  5
C1
330
1F
100
AcDbEntity
  8
0
  6
Continuous
 62
     1
370
    15
100
AcDbSpline
210
0.0
220
0.0
230
1.0
 70
     8
 71
     3
 72
    18
 73
    14
 74
     0
 42
0.000000001
 43
0.00000001
 40
0.0
 40
0.0
 40
0.0
 40
0.0
 40
0.0895358073625918
 40
0.1788847309214842
 40
0.2682925831316137
 40
0.3579054765897514
 40
0.4473213166566838
 40
0.5350687317457001
 40
0.6230198587273708
 40
0.7109419353093639
 40
0.7986846390762847
 40
0.9032258635234994
 40
1.0
 40
1.0
 40
1.0
 40
1.0
 10
25.64655182488865
 20
0.290115605353864
 30
0.0
 10
25.28103287554443
 20
0.4991524501992511
 30
0.0
 10
24.55075790705776
 20
0.916789827292543
 30
0.0
 10
23.45621426208694
 20
1.509592219724667
 30
0.0
 10
22.36118959164736
 20
2.050055891438307
 30
0.0
 10
21.26496132950819
 20
2.517483423504859
 30
0.0
 10
20.17639026570831
 20
2.895577918473492
 30
0.0
 10
19.09488641710922
 20
3.17198654512074
 30
0.0
 10
18.01862759068543
 20
3.338953391921706
 30
0.0
 10
16.94250693460565
 20
3.393990733235168
 30
0.0
 10
15.79951162945673
 20
3.327995383141469
 30
0.0
 10
14.61959640223431
 20
3.135137036637024
 30
0.0
 10
13.79781373054233
 20
2.881958830786134
 30
0.0
 10
13.40277527913238
 20
2.760253750093489
 30
0.0
  0
SPLINE
  5
C2
330
1F
100
AcDbEntity
  8
0
  6
Continuous
 62
     1
370
    15
100
AcDbSpline
210
0.0
220
0.0
230
1.0
 70
     8
 71
     3
 72
    12
 73
     8
 74
     0
 42
0.000000001
 43
0.00000001
 40
0.0
 40
0.0
 40
0.0
 40
0.0
 40
0.2096033081918154
 40
0.4196128444229392
 40
0.6297004889696527
 40
0.8393207120289763
 40
1.0
 40
1.0
 40
1.0
 40
1.0
 10
8.184051824888652
 20
-3.236361974151827
 30
0.0
 10
8.54856673740128
 20
-3.284569040569145
 30
0.0
 10
9.278303021592105
 20
-3.381076602568807
 30
0.0
 10
10.37398344841593
 20
-3.377581861665438
 30
0.0
 10
11.46989139736877
 20
-3.260981119657935
 30
0.0
 10
12.47912755924242
 20
-3.056548419661761
 30
0.0
 10
13.1232706016441
 20
-2.848416074958777
 30
0.0
 10
13.40277527913233
 20
-2.758103892645702
 30
0.0
  0
SPLINE
  5
C3
330
1F
100
AcDbEntity
  8
외형선
  6
Continuous
370
    15
100
AcDbSpline
210
0.0
220
0.0
230
1.0
 70
    24
 71
     3
 72
    20
 73
    16
 74
     0
 42
0.000000001
 43
0.00000001
 40
0.0
 40
0.0
 40
0.0
 40
0.0
 40
0.0552997250423055
 40
0.1352565761794861
 40
0.2129600221203765
 40
0.2929168732575577
 40
0.3706203191985178
 40
0.4505771703356286
 40
0.5282806162764685
 40
0.6082374674135954
 40
0.6859409133545364
 40
0.765897764491773
 40
0.8436012104324844
 40
0.9235580615698448
 40
1.0
 40
1.0
 40
1.0
 40
1.0
 10
8.184051824888645
 20
-0.0930057426667661
 30
0.0
 10
8.184051824888645
 20
-0.0951126006945964
 30
0.0
 10
8.184051824888645
 20
-0.1002657258344156
 30
0.0
 10
8.184051824888684
 20
-0.1744339381459598
 30
0.0
 10
8.18405182488863
 20
-0.304691074772642
 30
0.0
 10
8.184051824888662
 20
-0.4868281000187077
 30
0.0
 10
8.18405182488856
 20
-0.7163836508733046
 30
0.0
 10
8.184051824888698
 20
-0.9834205570157176
 30
0.0
 10
8.184051824888652
 20
-1.284997105599698
 30
0.0
 10
8.184051824888655
 20
-1.607213722174834
 30
0.0
 10
8.184051824888662
 20
-1.946680885460546
 30
0.0
 10
8.184051824888652
 20
-2.287889444954567
 30
0.0
 10
8.18405182488867
 20
-2.626552518276105
 30
0.0
 10
8.184051824888602
 20
-2.948121595549631
 30
0.0
 10
8.18405182488863
 20
-3.141732252523342
 30
0.0
 10
8.184051824888645
 20
-3.236361974151828
 30
0.0
  0
SPLINE
  5
C4
330
1F
100
AcDbEntity
  8
0
  6
Continuous
 62
     1
370
    15
100
AcDbSpline
210
0.0
220
0.0
230
1.0
 70
     8
 71
     3
 72
    13
 73
     9
 74
     0
 42
0.000000001
 43
0.00000001
 40
0.0
 40
0.0
 40
0.0
 40
0.0
 40
0.0327683788403526
 40
0.2262027092148464
 40
0.419557235509425
 40
0.612917858279597
 40
0.8063704258382757
 40
1.0
 40
1.0
 40
1.0
 40
1.0
 10
19.02776611613307
 20
3.363140088066665
 30
0.0
 10
19.10007366848346
 20
3.366743814323313
 30
0.0
 10
19.59921841769549
 20
3.391620621518873
 30
0.0
 10
20.52479111043837
 20
3.28121134770277
 30
0.0
 10
21.8046231381731
 20
3.027137583658841
 30
0.0
 10
23.08448617093769
 20
2.612217375069986
 30
0.0
 10
24.36505986188283
 20
2.081082117187286
 30
0.0
 10
25.21925763346431
 20
1.647942965789743
 30
0.0
 10
25.64655182488864
 20
1.431274356214732
 30
0.0
  0
LINE
  5
C5
330
1F
100
AcDbEntity
  8
0
  6
Continuous
 62
     1
370
    15
100
AcDbLine
 10
25.64655182488865
 20
0.2901156053538644
 30
0.0
 11
25.64655182488865
 21
1.431274356214732
 31
0.0
  0
SPLINE
  5
C6
330
1F
100
AcDbEntity
  8
0
  6
Continuous
 62
     1
370
    15
100
AcDbSpline
210
0.0
220
0.0
230
1.0
 70
     8
 71
     3
 72
    10
 73
     6
 74
     0
 42
0.000000001
 43
0.00000001
 40
0.0
 40
0.0
 40
0.0
 40
0.0
 40
0.3568550669683764
 40
0.7129652874418259
 40
0.9999999999999999
 40
0.9999999999999999
 40
0.9999999999999999
 40
0.9999999999999999
 10
25.64655182488865
 20
3.374512428723897
 30
0.0
 10
25.28102876138994
 20
3.332106534142292
 30
0.0
 10
24.55074557318152
 20
3.272168378632661
 30
0.0
 10
23.52720544108242
 20
3.060439575516951
 30
0.0
 10
22.86866986751972
 20
2.849368577501493
 30
0.0
 10
22.5747663329371
 20
2.755167876954645
 30
0.0
  0
LINE
  5
C7
330
1F
100
AcDbEntity
  8
0
  6
Continuous
 62
     1
370
    15
100
AcDbLine
 10
25.64655182488865
 20
1.430551208208675
 30
0.0
 11
25.64655182488865
 21
3.374512428723897
 31
0.0
  0
LINE
  5
C8
330
1F
100
AcDbEntity
  8
중심선
 48
0.8
100
AcDbLine
 10
-40.85344817511135
 20
0.0010749287238892
 30
0.0
 11
28.64655182488865
 21
0.0010749287238978
 31
0.0
  0
LINE
  5
C9
330
1F
100
AcDbEntity
  8
참조1
100
AcDbLine
 10
-4.094396350222712
 20
0.0010749287238892
 30
0.0
 11
-4.094396350222707
 21
-39.99892507127611
 31
0.0
  0
LINE
  5
CA
330
1F
100
AcDbEntity
  8
참조1
100
AcDbLine
 10
-4.094396350222707
 20
-39.99892507127611
 30
0.0
 11
-21.63450316453139
 21
-39.9989250712761
 31
0.0
  0
CIRCLE
  5
CB
330
1F
100
AcDbEntity
  8
해칭선
100
AcDbCircle
 10
0.0
 20
0.0
 30
0.0
 40
3.0
  0
INSERT
  5
CC
330
1F
100
AcDbEntity
  8
0
  6
Continuous
 62
     7
100
AcDbBlockReference
 66
     1
  2
블럭10
 10
-18.03466928234792
 20
-52.04609937292004
 30
0.0
  0
ATTRIB
  5
CD
330
CC
100
AcDbEntity
  8
FORMAT
 62
     2
100
AcDbText
 10
-27.2159645710892
 20
-49.97073246008785
 30
0.0
 40
4.233333333333333
  1
E2031017 [ 4 FLUTE ]
 41
0.75
  7
SLDTEXTSTYLE0
 11
-27.2159645710892
 21
-52.08739912675452
 31
0.0
100
AcDbAttribute
  2
AUTOATTR0
 70
     0
 74
     1
  0
SEQEND
  5
CE
330
CC
100
AcDbEntity
  8
0
  6
Continuous
 62
     7
  0
HATCH
  5
CF
330
1F
100
AcDbEntity
  8
중심선
100
AcDbHatch
 10
0.0
 20
0.0
 30
0.0
210
0.0
220
0.0
230
1.0
  2
SOLID
 70
     1
 71
     0
 91
        1
 92
        0
 93
        4
 72
     1
 10
-12.31975997796708
 20
-35.7989250712761
 11
-15.76603522180436
 21
-35.7989250712761
 72
     1
 10
-15.76603522180436
 20
-35.7989250712761
 11
-17.89426508100839
 21
-38.3352506518487
 72
     1
 10
-17.89426508100839
 20
-38.3352506518487
 11
-14.44795675205796
 21
-38.33521122254621
 72
     1
 10
-14.44795675205796
 20
-38.33521122254621
 11
-12.31975997796708
 21
-35.7989250712761
 97
        0
 75
     0
 76
     1
 98
        1
 10
0.0
 20
0.0
  0
HATCH
  5
D0
330
1F
100
AcDbEntity
  8
중심선
100
AcDbHatch
 10
0.0
 20
0.0
 30
0.0
210
0.0
220
0.0
230
1.0
  2
SOLID
 70
     1
 71
     0
 91
        1
 92
        0
 93
        4
 72
     1
 10
-7.306995986931103
 20
-35.7989250712761
 11
-10.75327123076839
 21
-35.7989250712761
 72
     1
 10
-10.75327123076839
 20
-35.7989250712761
 11
-15.2844092391258
 21
-41.19892507127612
 72
     1
 10
-15.2844092391258
 20
-41.19892507127612
 11
-11.83813399528852
 21
-41.19892507127612
 72
     1
 10
-11.83813399528852
 20
-41.19892507127612
 11
-7.306995986931103
 21
-35.7989250712761
 97
        0
 75
     0
 76
     1
 98
        1
 10
0.0
 20
0.0
  0
HATCH
  5
D1
330
1F
100
AcDbEntity
  8
중심선
100
AcDbHatch
 10
0.0
 20
0.0
 30
0.0
210
0.0
220
0.0
230
1.0
  2
SOLID
 70
     1
 71
     0
 91
        1
 92
        0
 93
        4
 72
     1
 10
-2.294231995895235
 20
-35.7989250712761
 11
-5.74050723973235
 21
-35.7989250712761
 72
     1
 10
-5.74050723973235
 20
-35.7989250712761
 11
-12.7889441416216
 21
-44.19892507127612
 72
     1
 10
-12.7889441416216
 20
-44.19892507127612
 11
-9.342668897784318
 21
-44.19892507127612
 72
     1
 10
-9.342668897784318
 20
-44.19892507127612
 11
-2.294231995895235
 21
-35.7989250712761
 97
        0
 75
     0
 76
     1
 98
        1
 10
0.0
 20
0.0
  0
HATCH
  5
D2
330
1F
100
AcDbEntity
  8
중심선
100
AcDbHatch
 10
0.0
 20
0.0
 30
0.0
210
0.0
220
0.0
230
1.0
  2
SOLID
 70
     1
 71
     0
 91
        1
 92
        0
 93
        6
 72
     3
 10
2.505658435116964
 20
-39.99892507132738
 11
3.960054785062284
 21
1.540850780301639E-10
 40
0.3939339440162633
 50
17.09539180608433
 51
320.0019657685086
 73
     0
 72
     1
 10
4.18865809081756
 20
-38.58681907591443
 11
6.493959964518598
 21
-36.65249236586649
 72
     3
 10
2.505658435064118
 20
-39.99892507127625
 11
6.600054785286829
 21
-1.249000902703301E-13
 40
0.6363583540795982
 50
39.99873849337408
 51
368.4976242363725
 73
     1
 72
     1
 10
8.930990926964727
 20
-39.03892507120613
 11
1.18572574190004
 21
-39.03892507120613
 72
     1
 10
1.18572574190004
 20
-39.03892507120613
 11
1.185700697454106
 21
-40.95892507120602
 72
     1
 10
1.185700697454106
 20
-40.95892507120602
 11
5.627080466926143
 21
-40.95892507120599
 97
        0
 75
     0
 76
     1
 98
        1
 10
0.0
 20
0.0
  0
DIMENSION
  5
D3
330
1F
100
AcDbEntity
  8
치수문자_일반주서
100
AcDbDimension
  2
_D
 10
8.184051824888634
 20
17.71477726081643
 30
0.0
 11
-12.41994817511137
 21
17.71477726081643
 31
0.0
 70
   160
  1
<>
 71
     2
 42
17.46250000000002
  3
SLDDIMSTYLE2
100
AcDbAlignedDimension
 13
25.64655182488865
 23
3.374512428723897
 33
0.0
 14
8.184051824888634
 24
3.366919106966458
 34
0.0
 50
0.0000000000001865
100
AcDbRotatedDimension
1001
ACAD
1000
DSTYLE
1002
{
1070
   171
1070
     6
1070
   273
1070
     7
1002
}
  0
DIMENSION
  5
E8
330
1F
100
AcDbEntity
  8
치수문자_일반주서
100
AcDbDimension
  2
_D_1
 10
-37.85344817511135
 20
32.2641500048343
 30
0.0
 11
-6.103448175111348
 21
32.2641500048343
 31
0.0
 70
   160
  1
<>
 71
     2
 42
63.5
  3
SLDDIMSTYLE2
100
AcDbAlignedDimension
 13
25.64655182488865
 23
3.374512428723897
 33
0.0
 14
-37.85344817511135
 24
3.811074928723895
 34
0.0
100
AcDbRotatedDimension
1001
ACAD
1000
DSTYLE
1002
{
1070
   171
1070
     6
1070
   273
1070
     7
1002
}
  0
DIMENSION
  5
FC
330
1F
100
AcDbEntity
  8
치수문자_일반주서
100
AcDbDimension
  2
_D_2
 10
-49.15422101293853
 20
-4.761425071276156
 30
0.0
 11
-49.15422101293855
 21
0.0010749287238959
 31
0.0
 70
   160
  1
%%c<>
 71
     2
 42
9.525000000000006
 52
-270.0
  3
SLDDIMSTYLE2
100
AcDbAlignedDimension
 13
-36.90094817511135
 23
4.763574928723896
 33
0.0
 14
-36.90094817511135
 24
-4.761425071276109
 34
0.0
 50
90.0000000000002
100
AcDbRotatedDimension
1001
ACAD
1000
DSTYLE
1002
{
1070
   171
1070
     6
1070
   273
1070
     7
1002
}
  0
DIMENSION
  5
111
330
1F
100
AcDbEntity
  8
치수문자_일반주서
100
AcDbDimension
  2
_D_3
 10
44.53983962594368
 20
-3.372362571276032
 30
0.0
 11
44.53983962594359
 21
26.08316148501569
 31
0.0
 70
   160
  1
%%c<>
 71
     2
 42
6.746875
 52
-270.0
  3
SLDDIMSTYLE2
100
AcDbAlignedDimension
 13
25.64655182488865
 23
3.374512428723897
 33
0.0
 14
25.64655182488865
 24
-3.372362571276103
 34
0.0
 50
90.0000000000002
100
AcDbRotatedDimension
1001
ACAD
1000
DSTYLE
1002
{
1070
   171
1070
     6
1070
   273
1070
     7
1002
}
  0
LINE
  5
125
330
1F
100
AcDbEntity
  8
참조1
100
AcDbLine
 10
76.33783746512287
 20
7.441074928723896
 30
0.0
 11
76.33783746512287
 21
-7.438925071276109
 31
0.0
  0
LINE
  5
126
330
1F
100
AcDbEntity
  8
참조1
100
AcDbLine
 10
89.03783746512288
 20
5.441074928723896
 30
0.0
 11
76.33783746512287
 21
5.441074928723896
 31
0.0
  0
SOLID
  5
127
330
1F
100
AcDbEntity
  8
참조1
100
AcDbTrace
 10
76.33783746512287
 20
5.441074928723896
 30
0.0
 11
82.68783746512287
 21
4.425074928723896
 31
0.0
 12
82.68783746512287
 22
6.457074928723896
 32
0.0
 13
82.68783746512287
 23
6.457074928723896
 33
0.0
  0
LINE
  5
128
330
1F
100
AcDbEntity
  8
참조1
100
AcDbLine
 10
89.03783746512288
 20
-5.438925071276109
 30
0.0
 11
76.33783746512287
 21
-5.438925071276109
 31
0.0
  0
SOLID
  5
129
330
1F
100
AcDbEntity
  8
참조1
100
AcDbTrace
 10
76.33783746512287
 20
-5.438925071276109
 30
0.0
 11
82.68783746512287
 21
-6.454925071276109
 31
0.0
 12
82.68783746512287
 22
-4.422925071276109
 32
0.0
 13
82.68783746512287
 23
-4.422925071276109
 33
0.0
  0
MTEXT
  5
12A
330
1F
100
AcDbEntity
  8
참조1
100
AcDbMText
 10
85.72218759774887
 20
11.01136670591222
 30
0.0
 40
3.5
 41
0.0
 71
     1
 72
     1
  1
A
  7
SLDTEXTSTYLE0
 73
     1
 44
1.0
  0
MTEXT
  5
12B
330
1F
100
AcDbEntity
  8
참조1
100
AcDbMText
 10
85.72218759774887
 20
0.1313667059122201
 30
0.0
 40
3.5
 41
0.0
 71
     1
 72
     1
  1
A
  7
SLDTEXTSTYLE0
 73
     1
 44
1.0
  0
INSERT
  5
132
330
1F
100
AcDbEntity
  8
해칭선
100
AcDbBlockReference
  2
SW_DOWELSYMBOL_0
 10
0.0
 20
0.0
 30
0.0
  0
LINE
  5
261
330
1F
100
AcDbEntity
  8
외형선
  6
Continuous
370
    15
100
AcDbLine
 10
-21.57839817511144
 20
3.493574928723909
 30
0.0
 11
-14.44099817511131
 21
3.493574928723909
 31
0.0
  0
LINE
  5
262
330
1F
100
AcDbEntity
  8
외형선
  6
Continuous
370
    15
100
AcDbLine
 10
-21.57839817511144
 20
3.493574928723909
 30
0.0
 11
-22.84839817511142
 21
4.763574928723891
 31
0.0
  0
LINE
  5
263
330
1F
100
AcDbEntity
  8
외형선
  6
Continuous
370
    15
100
AcDbLine
 10
-14.44099817511131
 20
3.493574928723909
 30
0.0
 11
-13.17099817511122
 21
4.763574928723891
 31
0.0
  0
LINE
  5
29E
330
1F
100
AcDbEntity
  8
외형선
  6
Continuous
370
    15
100
AcDbLine
 10
-22.84839817511143
 20
4.763574928723895
 30
0.0
 11
-36.90094817511135
 21
4.763574928723895
 31
0.0
  0
ENDSEC
  0
SECTION
  2
OBJECTS
  0
DICTIONARY
  5
C
330
0
100
AcDbDictionary
281
     1
  3
ACAD_GROUP
350
D
  3
ACAD_IMAGE_VARS
350
156
  3
ACAD_LAYOUT
350
1A
  3
ACAD_MLINESTYLE
350
17
  3
ACAD_PLOTSETTINGS
350
19
  3
ACAD_PLOTSTYLENAME
350
E
  3
ACAD_SCALELIST
350
47
  3
APPDATA
350
154
  3
DWGPROPS
350
2A1
  0
DICTIONARY
  5
1F4
330
2
100
AcDbDictionary
280
     1
281
     1
  3
ACAD_LAYERSTATES
360
1F5
  0
DICTIONARY
  5
D
102
{ACAD_REACTORS
330
C
102
}
330
C
100
AcDbDictionary
281
     1
  0
RASTERVARIABLES
  5
156
102
{ACAD_REACTORS
330
C
102
}
330
C
100
AcDbRasterVariables
 90
        0
 70
     1
 71
     1
 72
     1
  0
DICTIONARY
  5
1A
102
{ACAD_REACTORS
330
C
102
}
330
C
100
AcDbDictionary
281
     1
  3
Layout1
350
1E
  3
Layout2
350
26
  3
Model
350
22
  0
DICTIONARY
  5
17
102
{ACAD_REACTORS
330
C
102
}
330
C
100
AcDbDictionary
281
     1
  3
Standard
350
18
  0
DICTIONARY
  5
19
102
{ACAD_REACTORS
330
C
102
}
330
C
100
AcDbDictionary
281
     1
  0
ACDBDICTIONARYWDFLT
  5
E
102
{ACAD_REACTORS
330
C
102
}
330
C
100
AcDbDictionary
281
     1
  3
Normal
350
F
100
AcDbDictionaryWithDefault
340
F
  0
DICTIONARY
  5
47
102
{ACAD_REACTORS
330
C
102
}
330
C
100
AcDbDictionary
281
     1
  3
A0
350
48
  3
A1
350
49
  3
A2
350
4A
  3
A3
350
4B
  3
A4
350
4C
  3
A5
350
4D
  3
A6
350
4E
  3
A7
350
4F
  3
A8
350
50
  3
A9
350
51
  3
B0
350
52
  3
B1
350
53
  3
B2
350
54
  3
B3
350
55
  3
B4
350
56
  3
B5
350
57
  3
B6
350
58
  3
B7
350
59
  3
B8
350
5A
  3
B9
350
5B
  3
C0
350
5C
  3
C1
350
5D
  3
C2
350
5E
  3
C3
350
5F
  3
C4
350
60
  3
C5
350
61
  3
C6
350
62
  3
C7
350
63
  3
C8
350
64
  3
C9
350
65
  3
D0
350
66
  3
D1
350
67
  3
D2
350
68
  0
DICTIONARY
  5
154
102
{ACAD_REACTORS
330
C
102
}
330
C
100
AcDbDictionary
281
     1
  0
XRECORD
  5
2A1
102
{ACAD_REACTORS
330
C
102
}
330
C
100
AcDbXrecord
280
     1
  1
DWGPROPS COOKIE
  2

  3

  4

  6

  7

  8
12017012
  9

300
=
301
=
302
=
303
=
304
=
305
=
306
=
307
=
308
=
309
=
 40
0.0
 41
2458312.292632465
 42
2458320.227798935
  1

 90
        0
  0
DICTIONARY
  5
1F5
102
{ACAD_REACTORS
330
1F4
102
}
330
1F4
100
AcDbDictionary
281
     1
  0
LAYOUT
  5
1E
102
{ACAD_REACTORS
330
1A
102
}
330
1A
100
AcDbPlotSettings
  1

  2
none_device
  4

  6

 40
0.0
 41
0.0
 42
0.0
 43
0.0
 44
0.0
 45
0.0
 46
0.0
 47
0.0
 48
0.0
 49
0.0
140
0.0
141
0.0
142
1.0
143
1.0
 70
   688
 72
     1
 73
     0
 74
     5
  7

 75
    16
147
1.0
148
0.0
149
0.0
100
AcDbLayout
  1
Layout1
 70
     1
 71
     1
 10
0.0
 20
0.0
 11
420.0
 21
297.0
 12
0.0
 22
0.0
 32
0.0
 14
1.000000000000000E+20
 24
1.000000000000000E+20
 34
1.000000000000000E+20
 15
-1.000000000000000E+20
 25
-1.000000000000000E+20
 35
-1.000000000000000E+20
146
0.0
 13
0.0
 23
0.0
 33
0.0
 16
1.0
 26
0.0
 36
0.0
 17
0.0
 27
1.0
 37
0.0
 76
     0
330
1B
  0
LAYOUT
  5
26
102
{ACAD_REACTORS
330
1A
102
}
330
1A
100
AcDbPlotSettings
  1

  2
none_device
  4

  6

 40
0.0
 41
0.0
 42
0.0
 43
0.0
 44
0.0
 45
0.0
 46
0.0
 47
0.0
 48
0.0
 49
0.0
140
0.0
141
0.0
142
1.0
143
1.0
 70
   688
 72
     1
 73
     0
 74
     5
  7

 75
    16
147
1.0
148
0.0
149
0.0
100
AcDbLayout
  1
Layout2
 70
     1
 71
     2
 10
0.0
 20
0.0
 11
0.0
 21
0.0
 12
0.0
 22
0.0
 32
0.0
 14
0.0
 24
0.0
 34
0.0
 15
0.0
 25
0.0
 35
0.0
146
0.0
 13
0.0
 23
0.0
 33
0.0
 16
1.0
 26
0.0
 36
0.0
 17
0.0
 27
1.0
 37
0.0
 76
     0
330
23
  0
LAYOUT
  5
22
102
{ACAD_REACTORS
330
1A
102
}
330
1A
100
AcDbPlotSettings
  1

  2
none_device
  4
ANSI_A_(11.00_x_8.50_Inches)
  6

 40
6.35
 41
19.05
 42
6.35000508
 43
19.05000254
 44
279.4
 45
215.9
 46
104.0853757014623
 47
96.10579458217255
 48
0.0
 49
0.0
140
0.0
141
0.0
142
0.0740937858640012
143
1.0
 70
  1696
 72
     0
 73
     0
 74
     0
  7

 75
     0
147
0.0235690232323232
148
0.0
149
0.0
100
AcDbLayout
  1
Model
 70
     1
 71
     0
 10
0.0
 20
0.0
 11
420.0
 21
297.0
 12
0.0
 22
0.0
 32
0.0
 14
1.000000000000000E+20
 24
1.000000000000000E+20
 34
1.000000000000000E+20
 15
-1.000000000000000E+20
 25
-1.000000000000000E+20
 35
-1.000000000000000E+20
146
0.0
 13
0.0
 23
0.0
 33
0.0
 16
1.0
 26
0.0
 36
0.0
 17
0.0
 27
1.0
 37
0.0
 76
     0
330
1F
331
29
  0
MLINESTYLE
  5
18
102
{ACAD_REACTORS
330
17
102
}
330
17
100
AcDbMlineStyle
  2
Standard
 70
     0
  3

 62
   256
 51
90.0
 52
90.0
 71
     2
 49
0.5
 62
   256
  6
BYLAYER
 49
-0.5
 62
   256
  6
BYLAYER
  0
ACDBPLACEHOLDER
  5
F
102
{ACAD_REACTORS
330
E
102
}
330
E
  0
SCALE
  5
48
102
{ACAD_REACTORS
330
47
102
}
330
47
100
AcDbScale
 70
     0
300
1:1
140
1.0
141
1.0
290
     1
  0
SCALE
  5
49
102
{ACAD_REACTORS
330
47
102
}
330
47
100
AcDbScale
 70
     0
300
1:2
140
1.0
141
2.0
290
     0
  0
SCALE
  5
4A
102
{ACAD_REACTORS
330
47
102
}
330
47
100
AcDbScale
 70
     0
300
1:4
140
1.0
141
4.0
290
     0
  0
SCALE
  5
4B
102
{ACAD_REACTORS
330
47
102
}
330
47
100
AcDbScale
 70
     0
300
1:5
140
1.0
141
5.0
290
     0
  0
SCALE
  5
4C
102
{ACAD_REACTORS
330
47
102
}
330
47
100
AcDbScale
 70
     0
300
1:8
140
1.0
141
8.0
290
     0
  0
SCALE
  5
4D
102
{ACAD_REACTORS
330
47
102
}
330
47
100
AcDbScale
 70
     0
300
1:10
140
1.0
141
10.0
290
     0
  0
SCALE
  5
4E
102
{ACAD_REACTORS
330
47
102
}
330
47
100
AcDbScale
 70
     0
300
1:16
140
1.0
141
16.0
290
     0
  0
SCALE
  5
4F
102
{ACAD_REACTORS
330
47
102
}
330
47
100
AcDbScale
 70
     0
300
1:20
140
1.0
141
20.0
290
     0
  0
SCALE
  5
50
102
{ACAD_REACTORS
330
47
102
}
330
47
100
AcDbScale
 70
     0
300
1:30
140
1.0
141
30.0
290
     0
  0
SCALE
  5
51
102
{ACAD_REACTORS
330
47
102
}
330
47
100
AcDbScale
 70
     0
300
1:40
140
1.0
141
40.0
290
     0
  0
SCALE
  5
52
102
{ACAD_REACTORS
330
47
102
}
330
47
100
AcDbScale
 70
     0
300
1:50
140
1.0
141
50.0
290
     0
  0
SCALE
  5
53
102
{ACAD_REACTORS
330
47
102
}
330
47
100
AcDbScale
 70
     0
300
1:100
140
1.0
141
100.0
290
     0
  0
SCALE
  5
54
102
{ACAD_REACTORS
330
47
102
}
330
47
100
AcDbScale
 70
     0
300
2:1
140
2.0
141
1.0
290
     0
  0
SCALE
  5
55
102
{ACAD_REACTORS
330
47
102
}
330
47
100
AcDbScale
 70
     0
300
4:1
140
4.0
141
1.0
290
     0
  0
SCALE
  5
56
102
{ACAD_REACTORS
330
47
102
}
330
47
100
AcDbScale
 70
     0
300
8:1
140
8.0
141
1.0
290
     0
  0
SCALE
  5
57
102
{ACAD_REACTORS
330
47
102
}
330
47
100
AcDbScale
 70
     0
300
10:1
140
10.0
141
1.0
290
     0
  0
SCALE
  5
58
102
{ACAD_REACTORS
330
47
102
}
330
47
100
AcDbScale
 70
     0
300
100:1
140
100.0
141
1.0
290
     0
  0
SCALE
  5
59
102
{ACAD_REACTORS
330
47
102
}
330
47
100
AcDbScale
 70
     0
300
1/128" = 1'-0"
140
0.0078125
141
12.0
290
     0
  0
SCALE
  5
5A
102
{ACAD_REACTORS
330
47
102
}
330
47
100
AcDbScale
 70
     0
300
1/64" = 1'-0"
140
0.015625
141
12.0
290
     0
  0
SCALE
  5
5B
102
{ACAD_REACTORS
330
47
102
}
330
47
100
AcDbScale
 70
     0
300
1/32" = 1'-0"
140
0.03125
141
12.0
290
     0
  0
SCALE
  5
5C
102
{ACAD_REACTORS
330
47
102
}
330
47
100
AcDbScale
 70
     0
300
1/16" = 1'-0"
140
0.0625
141
12.0
290
     0
  0
SCALE
  5
5D
102
{ACAD_REACTORS
330
47
102
}
330
47
100
AcDbScale
 70
     0
300
3/32" = 1'-0"
140
0.09375
141
12.0
290
     0
  0
SCALE
  5
5E
102
{ACAD_REACTORS
330
47
102
}
330
47
100
AcDbScale
 70
     0
300
1/8" = 1'-0"
140
0.125
141
12.0
290
     0
  0
SCALE
  5
5F
102
{ACAD_REACTORS
330
47
102
}
330
47
100
AcDbScale
 70
     0
300
3/16" = 1'-0"
140
0.1875
141
12.0
290
     0
  0
SCALE
  5
60
102
{ACAD_REACTORS
330
47
102
}
330
47
100
AcDbScale
 70
     0
300
1/4" = 1'-0"
140
0.25
141
12.0
290
     0
  0
SCALE
  5
61
102
{ACAD_REACTORS
330
47
102
}
330
47
100
AcDbScale
 70
     0
300
3/8" = 1'-0"
140
0.375
141
12.0
290
     0
  0
SCALE
  5
62
102
{ACAD_REACTORS
330
47
102
}
330
47
100
AcDbScale
 70
     0
300
1/2" = 1'-0"
140
0.5
141
12.0
290
     0
  0
SCALE
  5
63
102
{ACAD_REACTORS
330
47
102
}
330
47
100
AcDbScale
 70
     0
300
3/4" = 1'-0"
140
0.75
141
12.0
290
     0
  0
SCALE
  5
64
102
{ACAD_REACTORS
330
47
102
}
330
47
100
AcDbScale
 70
     0
300
1" = 1'-0"
140
1.0
141
12.0
290
     0
  0
SCALE
  5
65
102
{ACAD_REACTORS
330
47
102
}
330
47
100
AcDbScale
 70
     0
300
1-1/2" = 1'-0"
140
1.5
141
12.0
290
     0
  0
SCALE
  5
66
102
{ACAD_REACTORS
330
47
102
}
330
47
100
AcDbScale
 70
     0
300
3" = 1'-0"
140
3.0
141
12.0
290
     0
  0
SCALE
  5
67
102
{ACAD_REACTORS
330
47
102
}
330
47
100
AcDbScale
 70
     0
300
6" = 1'-0"
140
6.0
141
12.0
290
     0
  0
SCALE
  5
68
102
{ACAD_REACTORS
330
47
102
}
330
47
100
AcDbScale
 70
     0
300
1'-0" = 1'-0"
140
12.0
141
12.0
290
     0
  0
ENDSEC
  0
EOF
