  0
SECTION
  2
HEADER
  9
$ACADVER
  1
AC1015
  9
$ACADMAINTVER
 70
     6
  9
$DWGCODEPAGE
  3
ANSI_949
  9
$INSBASE
 10
0.0
 20
0.0
 30
0.0
  9
$EXTMIN
 10
1.000000000000000E+20
 20
1.000000000000000E+20
 30
1.000000000000000E+20
  9
$EXTMAX
 10
-1.000000000000000E+20
 20
-1.000000000000000E+20
 30
-1.000000000000000E+20
  9
$LIMMIN
 10
0.0
 20
0.0
  9
$LIMMAX
 10
420.0
 20
297.0
  9
$ORTHOMODE
 70
     0
  9
$REGENMODE
 70
     1
  9
$FILLMODE
 70
     1
  9
$QTEXTMODE
 70
     0
  9
$MIRRTEXT
 70
     1
  9
$LTSCALE
 40
1.0
  9
$ATTMODE
 70
     1
  9
$TEXTSIZE
 40
3.5
  9
$TRACEWID
 40
1.0
  9
$TEXTSTYLE
  7
Standard
  9
$CLAYER
  8
0
  9
$CELTYPE
  6
ByLayer
  9
$CECOLOR
 62
   256
  9
$CELTSCALE
 40
1.0
  9
$DISPSILH
 70
     0
  9
$DIMSCALE
 40
1.0
  9
$DIMASZ
 40
3.302
  9
$DIMEXO
 40
1.0
  9
$DIMDLI
 40
3.75
  9
$DIMRND
 40
0.0
  9
$DIMDLE
 40
0.0
  9
$DIMEXE
 40
1.0
  9
$DIMTP
 40
0.0
  9
$DIMTM
 40
0.0
  9
$DIMTXT
 40
3.5
  9
$DIMCEN
 40
2.5
  9
$DIMTSZ
 40
0.0
  9
$DIMTOL
 70
     0
  9
$DIMLIM
 70
     0
  9
$DIMTIH
 70
     1
  9
$DIMTOH
 70
     1
  9
$DIMSE1
 70
     0
  9
$DIMSE2
 70
     0
  9
$DIMTAD
 70
     1
  9
$DIMZIN
 70
     0
  9
$DIMBLK
  1

  9
$DIMASO
 70
     1
  9
$DIMSHO
 70
     1
  9
$DIMPOST
  1

  9
$DIMAPOST
  1

  9
$DIMALT
 70
     0
  9
$DIMALTD
 70
     3
  9
$DIMALTF
 40
0.0393700787401575
  9
$DIMLFAC
 40
1.0
  9
$DIMTOFL
 70
     1
  9
$DIMTVP
 40
0.0
  9
$DIMTIX
 70
     0
  9
$DIMSOXD
 70
     0
  9
$DIMSAH
 70
     0
  9
$DIMBLK1
  1

  9
$DIMBLK2
  1

  9
$DIMSTYLE
  2
ISO-25
  9
$DIMCLRD
 70
     0
  9
$DIMCLRE
 70
     0
  9
$DIMCLRT
 70
     0
  9
$DIMTFAC
 40
1.0
  9
$DIMGAP
 40
1.524
  9
$DIMJUST
 70
     0
  9
$DIMSD1
 70
     0
  9
$DIMSD2
 70
     0
  9
$DIMTOLJ
 70
     0
  9
$DIMTZIN
 70
     0
  9
$DIMALTZ
 70
     0
  9
$DIMALTTZ
 70
     0
  9
$DIMUPT
 70
     0
  9
$DIMDEC
 70
     2
  9
$DIMTDEC
 70
     2
  9
$DIMALTU
 70
     2
  9
$DIMALTTD
 70
     3
  9
$DIMTXSTY
  7
Standard
  9
$DIMAUNIT
 70
     0
  9
$DIMADEC
 70
     2
  9
$DIMALTRND
 40
0.0
  9
$DIMAZIN
 70
     0
  9
$DIMDSEP
 70
    44
  9
$DIMATFIT
 70
     3
  9
$DIMFRAC
 70
     0
  9
$DIMLDRBLK
  1

  9
$DIMLUNIT
 70
     2
  9
$DIMLWD
 70
    -2
  9
$DIMLWE
 70
    -2
  9
$DIMTMOVE
 70
     0
  9
$LUNITS
 70
     2
  9
$LUPREC
 70
     2
  9
$SKETCHINC
 40
1.0
  9
$FILLETRAD
 40
10.0
  9
$AUNITS
 70
     0
  9
$AUPREC
 70
     2
  9
$MENU
  1
.
  9
$ELEVATION
 40
0.0
  9
$PELEVATION
 40
0.0
  9
$THICKNESS
 40
0.0
  9
$LIMCHECK
 70
     0
  9
$CHAMFERA
 40
0.0
  9
$CHAMFERB
 40
0.0
  9
$CHAMFERC
 40
0.0
  9
$CHAMFERD
 40
0.0
  9
$SKPOLY
 70
     0
  9
$TDCREATE
 40
2458312.668479456
  9
$TDUCREATE
 40
2458312.293479456
  9
$TDUPDATE
 40
2458320.59832059
  9
$TDUUPDATE
 40
2458320.22332059
  9
$TDINDWG
 40
0.0009397454
  9
$TDUSRTIMER
 40
2458320.222381586
  9
$USRTIMER
 70
     1
  9
$ANGBASE
 50
0.0
  9
$ANGDIR
 70
     0
  9
$PDMODE
 70
     0
  9
$PDSIZE
 40
-1.0
  9
$PLINEWID
 40
0.0
  9
$SPLFRAME
 70
     0
  9
$SPLINETYPE
 70
     6
  9
$SPLINESEGS
 70
     8
  9
$HANDSEED
  5
29F
  9
$SURFTAB1
 70
     6
  9
$SURFTAB2
 70
     6
  9
$SURFTYPE
 70
     6
  9
$SURFU
 70
     6
  9
$SURFV
 70
     6
  9
$UCSBASE
  2

  9
$UCSNAME
  2

  9
$UCSORG
 10
0.0
 20
0.0
 30
0.0
  9
$UCSXDIR
 10
1.0
 20
0.0
 30
0.0
  9
$UCSYDIR
 10
0.0
 20
1.0
 30
0.0
  9
$UCSORTHOREF
  2

  9
$UCSORTHOVIEW
 70
     0
  9
$UCSORGTOP
 10
0.0
 20
0.0
 30
0.0
  9
$UCSORGBOTTOM
 10
0.0
 20
0.0
 30
0.0
  9
$UCSORGLEFT
 10
0.0
 20
0.0
 30
0.0
  9
$UCSORGRIGHT
 10
0.0
 20
0.0
 30
0.0
  9
$UCSORGFRONT
 10
0.0
 20
0.0
 30
0.0
  9
$UCSORGBACK
 10
0.0
 20
0.0
 30
0.0
  9
$PUCSBASE
  2

  9
$PUCSNAME
  2

  9
$PUCSORG
 10
0.0
 20
0.0
 30
0.0
  9
$PUCSXDIR
 10
1.0
 20
0.0
 30
0.0
  9
$PUCSYDIR
 10
0.0
 20
1.0
 30
0.0
  9
$PUCSORTHOREF
  2

  9
$PUCSORTHOVIEW
 70
     0
  9
$PUCSORGTOP
 10
0.0
 20
0.0
 30
0.0
  9
$PUCSORGBOTTOM
 10
0.0
 20
0.0
 30
0.0
  9
$PUCSORGLEFT
 10
0.0
 20
0.0
 30
0.0
  9
$PUCSORGRIGHT
 10
0.0
 20
0.0
 30
0.0
  9
$PUCSORGFRONT
 10
0.0
 20
0.0
 30
0.0
  9
$PUCSORGBACK
 10
0.0
 20
0.0
 30
0.0
  9
$USERI1
 70
     0
  9
$USERI2
 70
     0
  9
$USERI3
 70
     0
  9
$USERI4
 70
     0
  9
$USERI5
 70
     0
  9
$USERR1
 40
0.0
  9
$USERR2
 40
0.0
  9
$USERR3
 40
0.0
  9
$USERR4
 40
0.0
  9
$USERR5
 40
0.0
  9
$WORLDVIEW
 70
     1
  9
$SHADEDGE
 70
     3
  9
$SHADEDIF
 70
    70
  9
$TILEMODE
 70
     1
  9
$MAXACTVP
 70
    64
  9
$PINSBASE
 10
0.0
 20
0.0
 30
0.0
  9
$PLIMCHECK
 70
     0
  9
$PEXTMIN
 10
1.000000000000000E+20
 20
1.000000000000000E+20
 30
1.000000000000000E+20
  9
$PEXTMAX
 10
-1.000000000000000E+20
 20
-1.000000000000000E+20
 30
-1.000000000000000E+20
  9
$PLIMMIN
 10
0.0
 20
0.0
  9
$PLIMMAX
 10
0.0
 20
0.0
  9
$UNITMODE
 70
     0
  9
$VISRETAIN
 70
     1
  9
$PLINEGEN
 70
     0
  9
$PSLTSCALE
 70
     1
  9
$TREEDEPTH
 70
  3020
  9
$CMLSTYLE
  2
Standard
  9
$CMLJUST
 70
     0
  9
$CMLSCALE
 40
20.0
  9
$PROXYGRAPHICS
 70
     1
  9
$MEASUREMENT
 70
     1
  9
$CELWEIGHT
370
    -1
  9
$ENDCAPS
280
     0
  9
$JOINSTYLE
280
     0
  9
$LWDISPLAY
290
     1
  9
$INSUNITS
 70
     4
  9
$HYPERLINKBASE
  1

  9
$STYLESHEET
  1

  9
$XEDIT
290
     1
  9
$CEPSNTYPE
380
     0
  9
$PSTYLEMODE
290
     1
  9
$FINGERPRINTGUID
  2
{3D12FA67-06FE-40CC-AA4E-CF5B954846E4}
  9
$VERSIONGUID
  2
{FAEB1C32-E019-11D5-929B-00C0DF256EC4}
  9
$EXTNAMES
290
     1
  9
$PSVPSCALE
 40
0.0
  9
$OLESTARTUP
290
     0
  0
ENDSEC
  0
SECTION
  2
CLASSES
  0
CLASS
  1
ACDBDICTIONARYWDFLT
  2
AcDbDictionaryWithDefault
  3
ObjectDBX Classes
 90
        0
280
     0
281
     0
  0
CLASS
  1
VISUALSTYLE
  2
AcDbVisualStyle
  3
ObjectDBX Classes
 90
     4095
280
     0
281
     0
  0
CLASS
  1
MATERIAL
  2
AcDbMaterial
  3
ObjectDBX Classes
 90
     1153
280
     0
281
     0
  0
CLASS
  1
SCALE
  2
AcDbScale
  3
ObjectDBX Classes
 90
     1153
280
     0
281
     0
  0
CLASS
  1
SUN
  2
AcDbSun
  3
SCENEOE
 90
     1153
280
     0
281
     0
  0
CLASS
  1
ACDBPLACEHOLDER
  2
AcDbPlaceHolder
  3
ObjectDBX Classes
 90
        0
280
     0
281
     0
  0
CLASS
  1
LAYOUT
  2
AcDbLayout
  3
ObjectDBX Classes
 90
        0
280
     0
281
     0
  0
CLASS
  1
TABLESTYLE
  2
AcDbTableStyle
  3
ObjectDBX Classes
 90
     4095
280
     0
281
     0
  0
CLASS
  1
MLEADERSTYLE
  2
AcDbMLeaderStyle
  3
ACDB_MLEADERSTYLE_CLASS
 90
     4095
280
     0
281
     0
  0
CLASS
  1
RASTERVARIABLES
  2
AcDbRasterVariables
  3
ISM
 90
        0
280
     0
281
     0
  0
ENDSEC
  0
SECTION
  2
TABLES
  0
TABLE
  2
VPORT
  5
8
330
0
100
AcDbSymbolTable
 70
     1
  0
VPORT
  5
29
330
8
100
AcDbSymbolTableRecord
100
AcDbViewportTableRecord
  2
*Active
 70
     0
 10
0.0
 20
0.0
 11
1.0
 21
1.0
 12
17.99103532590597
 22
-9.62469080754861
 13
0.0
 23
0.0
 14
10.0
 24
10.0
 15
10.0
 25
10.0
 16
0.0
 26
0.0
 36
1.0
 17
0.0
 27
0.0
 37
0.0
 40
122.3174589284379
 41
1.632093933463796
 42
50.0
 43
0.0
 44
0.0
 50
0.0
 51
0.0
 71
    16
 72
  2000
 73
     1
 74
     3
 75
     0
 76
     0
 77
     0
 78
     0
281
     0
 65
     1
110
0.0
120
0.0
130
0.0
111
1.0
121
0.0
131
0.0
112
0.0
122
1.0
132
0.0
 79
     0
146
0.0
  0
ENDTAB
  0
TABLE
  2
LTYPE
  5
5
330
0
100
AcDbSymbolTable
 70
     6
  0
LTYPE
  5
14
330
5
100
AcDbSymbolTableRecord
100
AcDbLinetypeTableRecord
  2
ByBlock
 70
     0
  3

 72
    65
 73
     0
 40
0.0
  0
LTYPE
  5
15
330
5
100
AcDbSymbolTableRecord
100
AcDbLinetypeTableRecord
  2
ByLayer
 70
     0
  3

 72
    65
 73
     0
 40
0.0
  0
LTYPE
  5
16
330
5
100
AcDbSymbolTableRecord
100
AcDbLinetypeTableRecord
  2
Continuous
 70
     0
  3
Solid line
 72
    65
 73
     0
 40
0.0
  0
LTYPE
  5
6A
330
5
100
AcDbSymbolTableRecord
100
AcDbLinetypeTableRecord
  2
HIDDEN
 70
     0
  3
Hidden __ __ __ __ __ __ __ __ __ __ __ __ __ __
 72
    65
 73
     2
 40
1.905
 49
1.27
 74
     0
 49
-0.635
 74
     0
  0
LTYPE
  5
6B
330
5
100
AcDbSymbolTableRecord
100
AcDbLinetypeTableRecord
  2
PHANTOM
 70
     0
  3
Phantom ______  __  __  ______  __  __  ______
 72
    65
 73
     6
 40
12.7
 49
6.35
 74
     0
 49
-1.27
 74
     0
 49
1.27
 74
     0
 49
-1.27
 74
     0
 49
1.27
 74
     0
 49
-1.27
 74
     0
  0
LTYPE
  5
6C
330
5
100
AcDbSymbolTableRecord
100
AcDbLinetypeTableRecord
  2
CENTER
 70
     0
  3
Center ____ _ ____ _ ____ _ ____ _ ____ _ ____
 72
    65
 73
     4
 40
10.16
 49
6.35
 74
     0
 49
-1.27
 74
     0
 49
1.27
 74
     0
 49
-1.27
 74
     0
  0
LTYPE
  5
6D
330
5
100
AcDbSymbolTableRecord
100
AcDbLinetypeTableRecord
  2
CENTERX2
 70
     0
  3
Center (2x) ________  __  ________  __  _____
 72
    65
 73
     4
 40
20.32
 49
12.7
 74
     0
 49
-2.54
 74
     0
 49
2.54
 74
     0
 49
-2.54
 74
     0
  0
LTYPE
  5
6E
330
5
100
AcDbSymbolTableRecord
100
AcDbLinetypeTableRecord
  2
DOT2
 70
     0
  3
Dot (.5x) ........................................
 72
    65
 73
     2
 40
0.635
 49
0.0
 74
     0
 49
-0.635
 74
     0
  0
ENDTAB
  0
TABLE
  2
LAYER
  5
2
102
{ACAD_XDICTIONARY
360
1EE
102
}
330
0
100
AcDbSymbolTable
 70
    18
  0
LAYER
  5
10
330
2
100
AcDbSymbolTableRecord
100
AcDbLayerTableRecord
  2
0
 70
     0
 62
     7
  6
Continuous
370
    -3
390
F
  0
LAYER
  5
6F
330
2
100
AcDbSymbolTableRecord
100
AcDbLayerTableRecord
  2
FORMAT
 70
     0
 62
     2
  6
Continuous
370
    -3
390
F
  0
LAYER
  5
70
330
2
100
AcDbSymbolTableRecord
100
AcDbLayerTableRecord
  2
외형선
 70
     0
 62
     4
  6
Continuous
370
    30
390
F
  0
LAYER
  5
71
330
2
100
AcDbSymbolTableRecord
100
AcDbLayerTableRecord
  2
숨은선
 70
     0
 62
     2
  6
HIDDEN
370
    15
390
F
  0
LAYER
  5
72
330
2
100
AcDbSymbolTableRecord
100
AcDbLayerTableRecord
  2
중심선
 70
     0
 62
     1
  6
CENTERX2
370
    -3
390
F
  0
LAYER
  5
73
330
2
100
AcDbSymbolTableRecord
100
AcDbLayerTableRecord
  2
파단선
 70
     0
 62
     4
  6
Continuous
370
    -3
390
F
  0
LAYER
  5
74
330
2
100
AcDbSymbolTableRecord
100
AcDbLayerTableRecord
  2
해칭선
 70
     0
 62
   100
  6
Continuous
370
    -3
390
F
  0
LAYER
  5
75
330
2
100
AcDbSymbolTableRecord
100
AcDbLayerTableRecord
  2
가는실선
 70
     0
 62
     4
  6
Continuous
370
    -3
390
F
  0
LAYER
  5
76
330
2
100
AcDbSymbolTableRecord
100
AcDbLayerTableRecord
  2
치수_보조선
 70
     0
 62
     4
  6
Continuous
370
    -3
390
F
  0
LAYER
  5
77
330
2
100
AcDbSymbolTableRecord
100
AcDbLayerTableRecord
  2
치수문자_일반주서
 70
     0
 62
     7
  6
Continuous
370
    15
390
F
  0
LAYER
  5
78
330
2
100
AcDbSymbolTableRecord
100
AcDbLayerTableRecord
  2
개별주서
 70
     0
 62
   100
  6
Continuous
370
    30
390
F
  0
LAYER
  5
79
330
2
100
AcDbSymbolTableRecord
100
AcDbLayerTableRecord
  2
중간선
 70
     0
 62
     2
  6
Continuous
370
    15
390
F
  0
LAYER
  5
7A
330
2
100
AcDbSymbolTableRecord
100
AcDbLayerTableRecord
  2
윤곽선
 70
     0
 62
     3
  6
Continuous
370
    40
390
F
  0
LAYER
  5
7B
330
2
100
AcDbSymbolTableRecord
100
AcDbLayerTableRecord
  2
중심마크
 70
     0
 62
   100
  6
Continuous
370
    30
390
F
  0
LAYER
  5
7C
330
2
100
AcDbSymbolTableRecord
100
AcDbLayerTableRecord
  2
가상선
 70
     0
 62
     4
  6
PHANTOM
370
    -3
390
F
  0
LAYER
  5
7D
330
2
100
AcDbSymbolTableRecord
100
AcDbLayerTableRecord
  2
특수지정선
 70
     0
 62
     5
  6
CENTERX2
370
    60
390
F
  0
LAYER
  5
7E
330
2
100
AcDbSymbolTableRecord
100
AcDbLayerTableRecord
  2
참조1
 70
     0
 62
    -4
  6
Continuous
370
    -3
390
F
  0
LAYER
  5
150
330
2
100
AcDbSymbolTableRecord
100
AcDbLayerTableRecord
  2
Defpoints
 70
     0
 62
     7
  6
Continuous
290
     0
370
    -3
390
F
  0
ENDTAB
  0
TABLE
  2
STYLE
  5
3
330
0
100
AcDbSymbolTable
 70
     2
  0
STYLE
  5
11
330
3
100
AcDbSymbolTableRecord
100
AcDbTextStyleTableRecord
  2
Standard
 70
     0
 40
0.0
 41
1.0
 50
0.0
 71
     0
 42
3.5
  3
txt
  4

  0
STYLE
  5
94
330
3
100
AcDbSymbolTableRecord
100
AcDbTextStyleTableRecord
  2
SLDTEXTSTYLE0
 70
     0
 40
0.0
 41
0.75
 50
0.0
 71
     0
 42
3.5
  3
TXT
  4

  0
ENDTAB
  0
TABLE
  2
VIEW
  5
6
330
0
100
AcDbSymbolTable
 70
     0
  0
ENDTAB
  0
TABLE
  2
UCS
  5
7
330
0
100
AcDbSymbolTable
 70
     0
  0
ENDTAB
  0
TABLE
  2
APPID
  5
9
330
0
100
AcDbSymbolTable
 70
     1
  0
APPID
  5
12
330
9
100
AcDbSymbolTableRecord
100
AcDbRegAppTableRecord
  2
ACAD
 70
     0
  0
ENDTAB
  0
TABLE
  2
DIMSTYLE
  5
A
330
0
100
AcDbSymbolTable
 70
     4
100
AcDbDimStyleTable
  0
DIMSTYLE
105
27
330
A
100
AcDbSymbolTableRecord
100
AcDbDimStyleTableRecord
  2
ISO-25
 70
     0
 41
2.5
 42
0.625
 43
3.75
 44
1.25
 73
     0
 74
     0
 77
     1
 78
     8
140
2.5
141
2.5
143
0.03937007874016
147
0.625
171
     3
172
     1
178
     0
271
     2
272
     2
274
     3
278
    44
283
     0
284
     8
340
11
  0
DIMSTYLE
105
CD
330
A
100
AcDbSymbolTableRecord
100
AcDbDimStyleTableRecord
  2
SLDDIMSTYLE0
 70
     0
 41
3.302
 44
0.0
 45
0.000000001
 73
     0
 74
     0
 77
     1
 78
    12
 79
     3
140
3.5
143
0.0393700787401575
147
0.875
148
0.000000001
170
     1
173
     1
178
     0
271
     2
272
     2
276
     2
284
    12
340
94
  0
DIMSTYLE
105
E2
330
A
100
AcDbSymbolTableRecord
100
AcDbDimStyleTableRecord
  2
SLDDIMSTYLE1
 70
     0
 41
3.302
 44
0.0
 45
0.000000001
 73
     0
 74
     0
 77
     1
 78
     4
 79
     1
140
3.5
143
0.0393700787401575
147
0.875
148
0.000000001
170
     1
173
     1
178
     0
271
     2
272
     2
276
     2
284
    12
340
94
  0
DIMSTYLE
105
F6
102
{ACAD_REACTORS
330
F5
330
1A8
330
1B8
330
1C5
330
1D2
330
CC
330
E1
330
10A
102
}
330
A
100
AcDbSymbolTableRecord
100
AcDbDimStyleTableRecord
  2
SLDDIMSTYLE2
 70
     0
 41
3.302
 44
0.0
 45
0.000000001
 73
     0
 74
     0
 77
     1
 78
    12
 79
     3
140
3.5
143
0.0393700787401575
147
0.875
148
0.000000001
170
     1
172
     1
173
     1
178
     0
271
     2
272
     2
276
     2
284
    12
289
     0
340
94
  0
ENDTAB
  0
TABLE
  2
BLOCK_RECORD
  5
1
330
0
100
AcDbSymbolTable
 70
    16
  0
BLOCK_RECORD
  5
1F
330
1
100
AcDbSymbolTableRecord
100
AcDbBlockTableRecord
  2
*Model_Space
340
22
  0
BLOCK_RECORD
  5
1B
330
1
100
AcDbSymbolTableRecord
100
AcDbBlockTableRecord
  2
*Paper_Space
340
1E
  0
BLOCK_RECORD
  5
23
330
1
100
AcDbSymbolTableRecord
100
AcDbBlockTableRecord
  2
*Paper_Space0
340
26
  0
BLOCK_RECORD
  5
7F
330
1
100
AcDbSymbolTableRecord
100
AcDbBlockTableRecord
  2
블럭10
340
0
102
{BLKREFS
331
C5
102
}
  0
BLOCK_RECORD
  5
CE
330
1
100
AcDbSymbolTableRecord
100
AcDbBlockTableRecord
  2
_D
340
0
  0
BLOCK_RECORD
  5
E3
330
1
100
AcDbSymbolTableRecord
100
AcDbBlockTableRecord
  2
_D_1
340
0
  0
BLOCK_RECORD
  5
F7
330
1
100
AcDbSymbolTableRecord
100
AcDbBlockTableRecord
  2
_D_2
340
0
  0
BLOCK_RECORD
  5
10B
330
1
100
AcDbSymbolTableRecord
100
AcDbBlockTableRecord
  2
_D_3
340
0
  0
BLOCK_RECORD
  5
124
330
1
100
AcDbSymbolTableRecord
100
AcDbBlockTableRecord
  2
SW_DOWELSYMBOL_0
340
0
102
{BLKREFS
331
12A
331
1E2
331
0
102
}
  0
BLOCK_RECORD
  5
1F2
330
1
100
AcDbSymbolTableRecord
100
AcDbBlockTableRecord
  2
*D8
340
0
  0
BLOCK_RECORD
  5
201
330
1
100
AcDbSymbolTableRecord
100
AcDbBlockTableRecord
  2
*D9
340
0
  0
BLOCK_RECORD
  5
20D
330
1
100
AcDbSymbolTableRecord
100
AcDbBlockTableRecord
  2
*D10
340
0
  0
BLOCK_RECORD
  5
219
330
1
100
AcDbSymbolTableRecord
100
AcDbBlockTableRecord
  2
*D11
340
0
  0
BLOCK_RECORD
  5
262
330
1
100
AcDbSymbolTableRecord
100
AcDbBlockTableRecord
  2
*D12
340
0
  0
BLOCK_RECORD
  5
271
330
1
100
AcDbSymbolTableRecord
100
AcDbBlockTableRecord
  2
*D13
340
0
  0
BLOCK_RECORD
  5
27D
330
1
100
AcDbSymbolTableRecord
100
AcDbBlockTableRecord
  2
*D14
340
0
  0
BLOCK_RECORD
  5
289
330
1
100
AcDbSymbolTableRecord
100
AcDbBlockTableRecord
  2
*D15
340
0
  0
ENDTAB
  0
ENDSEC
  0
SECTION
  2
BLOCKS
  0
BLOCK
  5
20
330
1F
100
AcDbEntity
  8
0
100
AcDbBlockBegin
  2
*Model_Space
 70
     0
 10
0.0
 20
0.0
 30
0.0
  3
*Model_Space
  1
*Model_Space
  0
ENDBLK
  5
21
330
1F
100
AcDbEntity
  8
0
100
AcDbBlockEnd
  0
BLOCK
  5
1C
330
1B
100
AcDbEntity
 67
     1
  8
0
100
AcDbBlockBegin
  2
*Paper_Space
 70
     0
 10
0.0
 20
0.0
 30
0.0
  3
*Paper_Space
  1
*Paper_Space
  0
ENDBLK
  5
1D
330
1B
100
AcDbEntity
 67
     1
  8
0
100
AcDbBlockEnd
  0
BLOCK
  5
24
330
23
100
AcDbEntity
  8
0
100
AcDbBlockBegin
  2
*Paper_Space0
 70
     0
 10
0.0
 20
0.0
 30
0.0
  3
*Paper_Space0
  1
*Paper_Space0
  0
ENDBLK
  5
25
330
23
100
AcDbEntity
  8
0
100
AcDbBlockEnd
  0
BLOCK
  5
80
330
7F
100
AcDbEntity
  8
0
100
AcDbBlockBegin
  2
블럭10
 70
     2
 10
0.0
 20
0.0
 30
0.0
  3
블럭10
  1
블럭10
  0
ELLIPSE
  5
82
330
7F
100
AcDbEntity
  8
중심선
100
AcDbEllipse
 10
20.54032771741204
 20
12.0471743016438
 30
0.0
 11
6.600054785286829
 21
-1.261213355974178E-13
 31
0.0
210
0.0
220
0.0
230
1.0
 40
0.636358354079598
 41
0.9219305317359503
 42
6.513795318482858
  0
ELLIPSE
  5
83
330
7F
100
AcDbEntity
  8
중심선
100
AcDbEllipse
 10
20.54032771746488
 20
12.04717430159265
 30
0.0
 11
3.960054785062283
 21
1.540847449632565E-10
 31
0.0
210
0.0
220
0.0
230
1.0
 40
0.3939339440162632
 41
1.131841032648279
 42
5.62031148352944
  0
LINE
  5
84
330
7F
100
AcDbEntity
  8
중심선
100
AcDbLine
 10
2.268634060543552
 20
16.24717430164393
 30
0.0
 11
5.714909304380834
 21
16.24717430164393
 31
0.0
  0
LINE
  5
85
330
7F
100
AcDbEntity
  8
중심선
100
AcDbLine
 10
5.245725140726316
 20
7.84717430164391
 30
0.0
 11
8.692000384563599
 21
7.84717430164391
 31
0.0
  0
LINE
  5
86
330
7F
100
AcDbEntity
  8
중심선
100
AcDbLine
 10
15.74043728645272
 20
16.24717430164393
 30
0.0
 11
8.692000384563599
 21
7.84717430164391
 31
0.0
  0
LINE
  5
87
330
7F
100
AcDbEntity
  8
중심선
100
AcDbLine
 10
0.1404042013395286
 20
13.71084872107135
 30
0.0
 11
3.58671253028996
 21
13.71088815037384
 31
0.0
  0
LINE
  5
88
330
7F
100
AcDbEntity
  8
중심선
100
AcDbLine
 10
2.750260043222114
 20
10.84717430164391
 30
0.0
 11
6.196535287059397
 21
10.84717430164391
 31
0.0
  0
LINE
  5
89
330
7F
100
AcDbEntity
  8
중심선
100
AcDbLine
 10
12.29416204261559
 20
16.24717430164393
 30
0.0
 11
5.245725140726316
 21
7.84717430164391
 31
0.0
  0
LINE
  5
8A
330
7F
100
AcDbEntity
  8
중심선
100
AcDbLine
 10
10.72767329541681
 20
16.24717430164393
 30
0.0
 11
6.196535287059397
 21
10.84717430164391
 31
0.0
  0
LINE
  5
8B
330
7F
100
AcDbEntity
  8
중심선
100
AcDbLine
 10
7.28139805157953
 20
16.24717430164393
 30
0.0
 11
2.750260043222114
 21
10.84717430164391
 31
0.0
  0
LINE
  5
8C
330
7F
100
AcDbEntity
  8
중심선
100
AcDbLine
 10
5.714909304380834
 20
16.24717430164393
 30
0.0
 11
3.58671253028996
 21
13.71088815037384
 31
0.0
  0
LINE
  5
8D
330
7F
100
AcDbEntity
  8
중심선
100
AcDbLine
 10
2.268634060543552
 20
16.24717430164393
 30
0.0
 11
0.1404042013395286
 21
13.71084872107135
 31
0.0
  0
LINE
  5
8E
330
7F
100
AcDbEntity
  8
중심선
100
AcDbLine
 10
7.28139805157953
 20
16.24717430164393
 30
0.0
 11
10.72767329541681
 21
16.24717430164393
 31
0.0
  0
LINE
  5
8F
330
7F
100
AcDbEntity
  8
중심선
100
AcDbLine
 10
12.29416204261559
 20
16.24717430164393
 30
0.0
 11
15.74043728645272
 21
16.24717430164393
 31
0.0
  0
LINE
  5
90
330
7F
100
AcDbEntity
  8
중심선
100
AcDbLine
 10
19.22036997980202
 20
11.08717430171403
 30
0.0
 11
23.66174974927406
 21
11.08717430171406
 31
0.0
  0
LINE
  5
91
330
7F
100
AcDbEntity
  8
중심선
100
AcDbLine
 10
19.22039502424796
 20
13.00717430171391
 30
0.0
 11
19.22036997980202
 21
11.08717430171403
 31
0.0
  0
LINE
  5
92
330
7F
100
AcDbEntity
  8
중심선
100
AcDbLine
 10
19.22039502424796
 20
13.00717430171391
 30
0.0
 11
26.96566020931264
 21
13.00717430171391
 31
0.0
  0
LINE
  5
93
330
7F
100
AcDbEntity
  8
중심선
100
AcDbLine
 10
22.22332737316547
 20
13.45928029700563
 30
0.0
 11
24.52862924686651
 21
15.39360700705356
 31
0.0
  0
ATTDEF
  5
95
330
7F
100
AcDbEntity
  8
FORMAT
 62
     2
100
AcDbText
 10
4.408487351596664
 20
2.075366912832191
 30
0.0
 40
4.233333333333333
  1
E2031021
 41
0.75
  7
SLDTEXTSTYLE0
 11
4.408487351596664
 21
-0.0412997538344756
 31
0.0
100
AcDbAttributeDefinition
  3

  2
AUTOATTR0
 70
     0
 74
     1
  0
ENDBLK
  5
81
330
7F
100
AcDbEntity
  8
0
100
AcDbBlockEnd
  0
BLOCK
  5
CF
330
CE
100
AcDbEntity
  8
0
100
AcDbBlockBegin
  2
_D
 70
     0
 10
0.0
 20
0.0
 30
0.0
  3
_D
  1
_D
  0
LINE
  5
D1
330
CE
100
AcDbEntity
  8
치수문자_일반주서
 62
     0
370
    -2
100
AcDbLine
 10
24.27173649638086
 20
4.230762428723896
 30
0.0
 11
24.27173649638087
 21
16.81561893290933
 31
0.0
  0
LINE
  5
D2
330
CE
100
AcDbEntity
  8
치수문자_일반주서
 62
     0
370
    -2
100
AcDbLine
 10
5.221736496380862
 20
4.222087260864511
 30
0.0
 11
5.221736496380865
 21
16.81561893290933
 31
0.0
  0
LINE
  5
D3
330
CE
100
AcDbEntity
  8
치수문자_일반주서
 62
     0
370
    -2
100
AcDbLine
 10
5.221736496380865
 20
16.81561893290933
 30
0.0
 11
-26.31976350361914
 21
16.81561893290933
 31
0.0
  0
LINE
  5
D4
330
CE
100
AcDbEntity
  8
치수문자_일반주서
 62
     0
370
    -2
100
AcDbLine
 10
24.27173649638087
 20
16.81561893290933
 30
0.0
 11
5.221736496380865
 21
16.81561893290933
 31
0.0
  0
LINE
  5
D5
330
CE
100
AcDbEntity
  8
치수문자_일반주서
 62
     0
370
    -2
100
AcDbLine
 10
27.57373649638087
 20
16.81561893290933
 30
0.0
 11
30.87573649638087
 21
16.81561893290933
 31
0.0
  0
LINE
  5
D6
330
CE
100
AcDbEntity
  8
치수문자_일반주서
 62
     0
370
    -2
100
AcDbLine
 10
1.919736496380866
 20
16.81561893290933
 30
0.0
 11
-1.382263503619134
 21
16.81561893290933
 31
0.0
  0
SOLID
  5
D7
330
CE
100
AcDbEntity
  8
치수문자_일반주서
 62
     0
100
AcDbTrace
 10
27.57373649638087
 20
17.36595226624267
 30
0.0
 11
27.57373649638087
 21
16.265285599576
 31
0.0
 12
24.27173649638087
 22
16.81561893290933
 32
0.0
 13
24.27173649638087
 23
16.81561893290933
 33
0.0
  0
SOLID
  5
D8
330
CE
100
AcDbEntity
  8
치수문자_일반주서
 62
     0
100
AcDbTrace
 10
1.919736496380866
 20
16.265285599576
 30
0.0
 11
1.919736496380866
 21
17.36595226624267
 31
0.0
 12
5.221736496380865
 22
16.81561893290933
 32
0.0
 13
5.221736496380865
 23
16.81561893290933
 33
0.0
  0
MTEXT
  5
D9
330
CE
100
AcDbEntity
  8
치수문자_일반주서
 62
     0
100
AcDbMText
 10
-13.85101350361914
 20
21.19061893290933
 30
0.0
 40
3.5
 41
0.0
 71
     2
 72
     1
  1
\A1;19.05 [3/4]
  7
SLDTEXTSTYLE0
 73
     1
 44
1.0
  0
POINT
  5
DA
330
CE
100
AcDbEntity
  8
Defpoints
 62
     0
100
AcDbPoint
 10
24.27173649638086
 20
4.168262428723896
 30
0.0
  0
POINT
  5
298
330
CE
100
AcDbEntity
  8
Defpoints
 62
     0
100
AcDbPoint
 10
5.221736496380862
 20
4.159587260864511
 30
0.0
  0
POINT
  5
299
330
CE
100
AcDbEntity
  8
Defpoints
 62
     0
100
AcDbPoint
 10
5.221736496380862
 20
16.81561893290933
 30
0.0
  0
ENDBLK
  5
D0
330
CE
100
AcDbEntity
  8
0
100
AcDbBlockEnd
  0
BLOCK
  5
E4
330
E3
100
AcDbEntity
  8
0
100
AcDbBlockBegin
  2
_D_1
 70
     0
 10
0.0
 20
0.0
 30
0.0
  3
_D_1
  1
_D_1
  0
LINE
  5
E6
330
E3
100
AcDbEntity
  8
치수문자_일반주서
 62
     0
370
    -2
100
AcDbLine
 10
24.27173649638086
 20
4.230762428723896
 30
0.0
 11
24.27173649638086
 21
33.05498106185991
 31
0.0
  0
LINE
  5
E7
330
E3
100
AcDbEntity
  8
치수문자_일반주서
 62
     0
370
    -2
100
AcDbLine
 10
-39.22826350361914
 20
3.873574928723895
 30
0.0
 11
-39.22826350361915
 21
33.05498106185991
 31
0.0
  0
LINE
  5
E8
330
E3
100
AcDbEntity
  8
치수문자_일반주서
 62
     0
370
    -2
100
AcDbLine
 10
20.96973649638086
 20
33.05498106185991
 30
0.0
 11
-35.92626350361915
 21
33.05498106185991
 31
0.0
  0
SOLID
  5
E9
330
E3
100
AcDbEntity
  8
치수문자_일반주서
 62
     0
100
AcDbTrace
 10
20.96973649638086
 20
32.50464772852657
 30
0.0
 11
20.96973649638086
 21
33.60531439519324
 31
0.0
 12
24.27173649638086
 22
33.05498106185991
 32
0.0
 13
24.27173649638086
 23
33.05498106185991
 33
0.0
  0
SOLID
  5
EA
330
E3
100
AcDbEntity
  8
치수문자_일반주서
 62
     0
100
AcDbTrace
 10
-35.92626350361915
 20
33.60531439519324
 30
0.0
 11
-35.92626350361915
 21
32.50464772852657
 31
0.0
 12
-39.22826350361915
 22
33.05498106185991
 32
0.0
 13
-39.22826350361915
 23
33.05498106185991
 33
0.0
  0
MTEXT
  5
EB
330
E3
100
AcDbEntity
  8
치수문자_일반주서
 62
     0
100
AcDbMText
 10
-7.478263503619139
 20
37.42998106185991
 30
0.0
 40
3.5
 41
0.0
 71
     2
 72
     1
  1
\A1;63.5 [2 1/2]
  7
SLDTEXTSTYLE0
 73
     1
 44
1.0
  0
POINT
  5
EC
330
E3
100
AcDbEntity
  8
Defpoints
 62
     0
100
AcDbPoint
 10
24.27173649638086
 20
4.168262428723896
 30
0.0
  0
POINT
  5
ED
330
E3
100
AcDbEntity
  8
Defpoints
 62
     0
100
AcDbPoint
 10
-39.22826350361914
 20
3.811074928723895
 30
0.0
  0
POINT
  5
EE
330
E3
100
AcDbEntity
  8
Defpoints
 62
     0
100
AcDbPoint
 10
-39.22826350361914
 20
33.05498106185991
 30
0.0
  0
ENDBLK
  5
E5
330
E3
100
AcDbEntity
  8
0
100
AcDbBlockEnd
  0
BLOCK
  5
F8
330
F7
100
AcDbEntity
  8
0
100
AcDbBlockBegin
  2
_D_2
 70
     0
 10
0.0
 20
0.0
 30
0.0
  3
_D_2
  1
_D_2
  0
LINE
  5
FA
330
F7
100
AcDbEntity
  8
치수문자_일반주서
 62
     0
370
    -2
100
AcDbLine
 10
-38.33826350361915
 20
4.763574928723896
 30
0.0
 11
-50.52903634144636
 21
4.76357492872385
 31
0.0
  0
LINE
  5
FB
330
F7
100
AcDbEntity
  8
치수문자_일반주서
 62
     0
370
    -2
100
AcDbLine
 10
-38.33826350361915
 20
-4.761425071276109
 30
0.0
 11
-50.52903634144632
 21
-4.761425071276156
 31
0.0
  0
LINE
  5
FC
330
F7
100
AcDbEntity
  8
치수문자_일반주서
 62
     0
370
    -2
100
AcDbLine
 10
-50.52903634144634
 20
1.46157492872385
 30
0.0
 11
-50.52903634144634
 21
-1.459425071276156
 31
0.0
  0
SOLID
  5
FD
330
F7
100
AcDbEntity
  8
치수문자_일반주서
 62
     0
100
AcDbTrace
 10
-49.97870300811301
 20
1.461574928723852
 30
0.0
 11
-51.07936967477968
 21
1.461574928723848
 31
0.0
 12
-50.52903634144636
 22
4.76357492872385
 32
0.0
 13
-50.52903634144636
 23
4.76357492872385
 33
0.0
  0
SOLID
  5
FE
330
F7
100
AcDbEntity
  8
치수문자_일반주서
 62
     0
100
AcDbTrace
 10
-51.07936967477967
 20
-1.459425071276158
 30
0.0
 11
-49.978703008113
 21
-1.459425071276154
 31
0.0
 12
-50.52903634144632
 22
-4.761425071276156
 32
0.0
 13
-50.52903634144632
 23
-4.761425071276156
 33
0.0
  0
MTEXT
  5
FF
330
F7
100
AcDbEntity
  8
치수문자_일반주서
 62
     0
100
AcDbMText
 10
-54.90403634144634
 20
0.0010749287238796
 30
0.0
 40
3.5
 41
0.0
 71
     2
 72
     1
  1
\A1;%%c9.53 [3/8]
  7
SLDTEXTSTYLE0
 11
-3.729883127349605E-15
 21
1.0
 31
0.0
 73
     1
 44
1.0
  0
POINT
  5
100
330
F7
100
AcDbEntity
  8
Defpoints
 62
     0
100
AcDbPoint
 10
-38.27576350361915
 20
4.763574928723896
 30
0.0
  0
POINT
  5
101
330
F7
100
AcDbEntity
  8
Defpoints
 62
     0
100
AcDbPoint
 10
-38.27576350361915
 20
-4.761425071276109
 30
0.0
  0
POINT
  5
102
330
F7
100
AcDbEntity
  8
Defpoints
 62
     0
100
AcDbPoint
 10
-50.52903634144632
 20
-4.761425071276156
 30
0.0
  0
ENDBLK
  5
F9
330
F7
100
AcDbEntity
  8
0
100
AcDbBlockEnd
  0
BLOCK
  5
10C
330
10B
100
AcDbEntity
  8
0
100
AcDbBlockBegin
  2
_D_3
 70
     0
 10
0.0
 20
0.0
 30
0.0
  3
_D_3
  1
_D_3
  0
LINE
  5
10E
330
10B
100
AcDbEntity
  8
치수문자_일반주서
 62
     0
370
    -2
100
AcDbLine
 10
24.33423649638086
 20
4.168262428723896
 30
0.0
 11
42.87953313708238
 21
4.168262428723963
 31
0.0
  0
LINE
  5
10F
330
10B
100
AcDbEntity
  8
치수문자_일반주서
 62
     0
370
    -2
100
AcDbLine
 10
24.33423649638086
 20
-4.1661125712761
 30
0.0
 11
42.8795331370824
 21
-4.166112571276035
 31
0.0
  0
LINE
  5
110
330
10B
100
AcDbEntity
  8
치수문자_일반주서
 62
     0
370
    -2
100
AcDbLine
 10
42.87953313708238
 20
4.168262428723963
 30
0.0
 11
42.87953313708225
 21
41.44443797810839
 31
0.0
  0
LINE
  5
111
330
10B
100
AcDbEntity
  8
치수문자_일반주서
 62
     0
370
    -2
100
AcDbLine
 10
42.87953313708238
 20
4.168262428723963
 30
0.0
 11
42.8795331370824
 21
-4.166112571276035
 31
0.0
  0
LINE
  5
112
330
10B
100
AcDbEntity
  8
치수문자_일반주서
 62
     0
370
    -2
100
AcDbLine
 10
42.87953313708236
 20
7.470262428723963
 30
0.0
 11
42.87953313708235
 21
10.77226242872396
 31
0.0
  0
LINE
  5
113
330
10B
100
AcDbEntity
  8
치수문자_일반주서
 62
     0
370
    -2
100
AcDbLine
 10
42.87953313708242
 20
-7.468112571276034
 30
0.0
 11
42.87953313708243
 21
-10.77011257127603
 31
0.0
  0
SOLID
  5
114
330
10B
100
AcDbEntity
  8
치수문자_일반주서
 62
     0
100
AcDbTrace
 10
42.32919980374903
 20
7.470262428723961
 30
0.0
 11
43.4298664704157
 21
7.470262428723965
 31
0.0
 12
42.87953313708238
 22
4.168262428723963
 32
0.0
 13
42.87953313708238
 23
4.168262428723963
 33
0.0
  0
SOLID
  5
115
330
10B
100
AcDbEntity
  8
치수문자_일반주서
 62
     0
100
AcDbTrace
 10
43.42986647041575
 20
-7.468112571276032
 30
0.0
 11
42.32919980374908
 21
-7.468112571276036
 31
0.0
 12
42.8795331370824
 22
-4.166112571276035
 32
0.0
 13
42.8795331370824
 23
-4.166112571276035
 33
0.0
  0
MTEXT
  5
116
330
10B
100
AcDbEntity
  8
치수문자_일반주서
 62
     0
100
AcDbMText
 10
38.5045331370823
 20
26.13193797810837
 30
0.0
 40
3.5
 41
0.0
 71
     2
 72
     1
  1
\A1;%%c8.33 [21/64]
  7
SLDTEXTSTYLE0
 11
-3.410178859291071E-15
 21
1.0
 31
0.0
 73
     1
 44
1.0
  0
POINT
  5
117
330
10B
100
AcDbEntity
  8
Defpoints
 62
     0
100
AcDbPoint
 10
24.27173649638086
 20
4.168262428723896
 30
0.0
  0
POINT
  5
118
330
10B
100
AcDbEntity
  8
Defpoints
 62
     0
100
AcDbPoint
 10
24.27173649638086
 20
-4.1661125712761
 30
0.0
  0
POINT
  5
29A
330
10B
100
AcDbEntity
  8
Defpoints
 62
     0
100
AcDbPoint
 10
42.8795331370824
 20
-4.166112571276031
 30
0.0
  0
ENDBLK
  5
10D
330
10B
100
AcDbEntity
  8
0
100
AcDbBlockEnd
  0
BLOCK
  5
125
330
124
100
AcDbEntity
  8
0
100
AcDbBlockBegin
  2
SW_DOWELSYMBOL_0
 70
     0
 10
0.0
 20
0.0
 30
0.0
  3
SW_DOWELSYMBOL_0
  1
SW_DOWELSYMBOL_0
  0
CIRCLE
  5
127
330
124
100
AcDbEntity
  8
해칭선
 62
     0
100
AcDbCircle
 10
0.0
 20
0.0
 30
0.0
 40
2.999999999999999
  0
HATCH
  5
128
330
124
100
AcDbEntity
  8
0
  6
Continuous
 62
     0
370
     0
100
AcDbHatch
 10
0.0
 20
0.0
 30
0.0
210
0.0
220
0.0
230
1.0
  2
SOLID
 70
     1
 71
     0
 91
        1
 92
        0
 93
        3
 72
     2
 10
0.0
 20
0.0
 40
2.999999999999999
 50
0.0
 51
90.0
 73
     1
 72
     1
 10
0.0
 20
2.999999999999999
 11
0.0
 21
0.0
 72
     1
 10
0.0
 20
0.0
 11
2.999999999999999
 21
0.0
 97
        0
 75
     0
 76
     1
 98
        1
 10
0.0
 20
0.0
  0
HATCH
  5
129
330
124
100
AcDbEntity
  8
0
  6
Continuous
 62
     0
370
     0
100
AcDbHatch
 10
0.0
 20
0.0
 30
0.0
210
0.0
220
0.0
230
1.0
  2
SOLID
 70
     1
 71
     0
 91
        1
 92
        0
 93
        3
 72
     2
 10
0.0
 20
0.0
 40
2.999999999999999
 50
180.0
 51
270.0000000000008
 73
     1
 72
     1
 10
0.0
 20
-2.999999999999999
 11
0.0
 21
0.0
 72
     1
 10
0.0
 20
0.0
 11
-2.999999999999999
 21
0.0
 97
        0
 75
     0
 76
     1
 98
        1
 10
0.0
 20
0.0
  0
ENDBLK
  5
126
330
124
100
AcDbEntity
  8
0
100
AcDbBlockEnd
  0
BLOCK
  5
1F3
330
1F2
100
AcDbEntity
  8
0
100
AcDbBlockBegin
  2
*D8
 70
     1
 10
0.0
 20
0.0
 30
0.0
  3
*D8
  1
*D8
  0
LINE
  5
1F5
330
1F2
100
AcDbEntity
  8
치수문자_일반주서
 62
     0
370
    -2
100
AcDbLine
 10
79.17577283782725
 20
16.67812500000002
 30
0.0
 11
79.17577283782725
 21
25.28700378022641
 31
0.0
  0
LINE
  5
1F6
330
1F2
100
AcDbEntity
  8
치수문자_일반주서
 62
     0
370
    -2
100
AcDbLine
 10
60.12577283782725
 20
16.60411951315997
 30
0.0
 11
60.12577283782725
 21
25.28700378022641
 31
0.0
  0
LINE
  5
1F7
330
1F2
100
AcDbEntity
  8
치수문자_일반주서
 62
     0
370
    -2
100
AcDbLine
 10
60.12577283782725
 20
25.28700378022641
 30
0.0
 11
26.71734260924163
 21
25.28700378022641
 31
0.0
  0
LINE
  5
1F8
330
1F2
100
AcDbEntity
  8
치수문자_일반주서
 62
     0
370
    -2
100
AcDbLine
 10
79.17577283782725
 20
25.28700378022641
 30
0.0
 11
60.12577283782725
 21
25.28700378022641
 31
0.0
  0
LINE
  5
1F9
330
1F2
100
AcDbEntity
  8
치수문자_일반주서
 62
     0
370
    -2
100
AcDbLine
 10
82.47777283782725
 20
25.28700378022641
 30
0.0
 11
85.77977283782724
 21
25.28700378022641
 31
0.0
  0
LINE
  5
1FA
330
1F2
100
AcDbEntity
  8
치수문자_일반주서
 62
     0
370
    -2
100
AcDbLine
 10
56.82377283782725
 20
25.28700378022641
 30
0.0
 11
53.52177283782725
 21
25.28700378022641
 31
0.0
  0
SOLID
  5
1FB
330
1F2
100
AcDbEntity
  8
치수문자_일반주서
 62
     0
100
AcDbTrace
 10
82.47777283782725
 20
25.83733711355975
 30
0.0
 11
82.47777283782725
 21
24.73667044689308
 31
0.0
 12
79.17577283782725
 22
25.28700378022641
 32
0.0
 13
79.17577283782725
 23
25.28700378022641
 33
0.0
  0
SOLID
  5
1FC
330
1F2
100
AcDbEntity
  8
치수문자_일반주서
 62
     0
100
AcDbTrace
 10
56.82377283782725
 20
24.73667044689308
 30
0.0
 11
56.82377283782725
 21
25.83733711355975
 31
0.0
 12
60.12577283782725
 22
25.28700378022641
 32
0.0
 13
60.12577283782725
 23
25.28700378022641
 33
0.0
  0
MTEXT
  5
1FD
330
1F2
100
AcDbEntity
  8
치수문자_일반주서
 62
     0
100
AcDbMText
 10
39.18609260924163
 20
29.66200378022641
 30
0.0
 40
3.5
 41
0.0
 71
     2
 72
     1
  1
\A1;19.05 [3/4]
  7
SLDTEXTSTYLE0
 73
     1
 44
1.0
  0
POINT
  5
1FE
330
1F2
100
AcDbEntity
  8
Defpoints
 62
     0
100
AcDbPoint
 10
79.17577283782725
 20
16.61562500000002
 30
0.0
  0
POINT
  5
1FF
330
1F2
100
AcDbEntity
  8
Defpoints
 62
     0
100
AcDbPoint
 10
60.12577283782725
 20
16.54161951315997
 30
0.0
  0
POINT
  5
200
330
1F2
100
AcDbEntity
  8
Defpoints
 62
     0
100
AcDbPoint
 10
60.12577283782725
 20
25.28700378022641
 30
0.0
  0
ENDBLK
  5
1F4
330
1F2
100
AcDbEntity
  8
0
100
AcDbBlockEnd
  0
BLOCK
  5
202
330
201
100
AcDbEntity
  8
0
100
AcDbBlockBegin
  2
*D9
 70
     1
 10
0.0
 20
0.0
 30
0.0
  3
*D9
  1
*D9
  0
LINE
  5
204
330
201
100
AcDbEntity
  8
치수문자_일반주서
 62
     0
370
    -2
100
AcDbLine
 10
79.17577283782725
 20
16.67812500000002
 30
0.0
 11
79.17577283782725
 21
45.50161389739244
 31
0.0
  0
LINE
  5
205
330
201
100
AcDbEntity
  8
치수문자_일반주서
 62
     0
370
    -2
100
AcDbLine
 10
15.67577283782725
 20
16.12250000000002
 30
0.0
 11
15.67577283782725
 21
45.50161389739244
 31
0.0
  0
LINE
  5
206
330
201
100
AcDbEntity
  8
치수문자_일반주서
 62
     0
370
    -2
100
AcDbLine
 10
75.87377283782726
 20
45.50161389739244
 30
0.0
 11
18.97777283782725
 21
45.50161389739244
 31
0.0
  0
SOLID
  5
207
330
201
100
AcDbEntity
  8
치수문자_일반주서
 62
     0
100
AcDbTrace
 10
75.87377283782726
 20
44.9512805640591
 30
0.0
 11
75.87377283782726
 21
46.05194723072577
 31
0.0
 12
79.17577283782725
 22
45.50161389739244
 32
0.0
 13
79.17577283782725
 23
45.50161389739244
 33
0.0
  0
SOLID
  5
208
330
201
100
AcDbEntity
  8
치수문자_일반주서
 62
     0
100
AcDbTrace
 10
18.97777283782725
 20
46.05194723072577
 30
0.0
 11
18.97777283782725
 21
44.9512805640591
 31
0.0
 12
15.67577283782725
 22
45.50161389739244
 32
0.0
 13
15.67577283782725
 23
45.50161389739244
 33
0.0
  0
MTEXT
  5
209
330
201
100
AcDbEntity
  8
치수문자_일반주서
 62
     0
100
AcDbMText
 10
47.42577283782725
 20
49.87661389739244
 30
0.0
 40
3.5
 41
0.0
 71
     2
 72
     1
  1
\A1;63.5 [2 1/2]
  7
SLDTEXTSTYLE0
 73
     1
 44
1.0
  0
POINT
  5
20A
330
201
100
AcDbEntity
  8
Defpoints
 62
     0
100
AcDbPoint
 10
79.17577283782725
 20
16.61562500000002
 30
0.0
  0
POINT
  5
20B
330
201
100
AcDbEntity
  8
Defpoints
 62
     0
100
AcDbPoint
 10
15.67577283782725
 20
16.06000000000002
 30
0.0
  0
POINT
  5
20C
330
201
100
AcDbEntity
  8
Defpoints
 62
     0
100
AcDbPoint
 10
15.67577283782725
 20
45.50161389739244
 30
0.0
  0
ENDBLK
  5
203
330
201
100
AcDbEntity
  8
0
100
AcDbBlockEnd
  0
BLOCK
  5
20E
330
20D
100
AcDbEntity
  8
0
100
AcDbBlockBegin
  2
*D10
 70
     1
 10
0.0
 20
0.0
 30
0.0
  3
*D10
  1
*D10
  0
LINE
  5
210
330
20D
100
AcDbEntity
  8
치수문자_일반주서
 62
     0
370
    -2
100
AcDbLine
 10
16.56577283782724
 20
17.01250000000002
 30
0.0
 11
4.375000000000027
 21
17.01249999999997
 31
0.0
  0
LINE
  5
211
330
20D
100
AcDbEntity
  8
치수문자_일반주서
 62
     0
370
    -2
100
AcDbLine
 10
16.56577283782724
 20
7.487500000000015
 30
0.0
 11
4.37500000000006
 21
7.487499999999969
 31
0.0
  0
LINE
  5
212
330
20D
100
AcDbEntity
  8
치수문자_일반주서
 62
     0
370
    -2
100
AcDbLine
 10
4.375000000000038
 20
13.71049999999997
 30
0.0
 11
4.375000000000048
 21
10.78949999999997
 31
0.0
  0
SOLID
  5
213
330
20D
100
AcDbEntity
  8
치수문자_일반주서
 62
     0
100
AcDbTrace
 10
4.925333333333372
 20
13.71049999999998
 30
0.0
 11
3.824666666666705
 21
13.71049999999997
 31
0.0
 12
4.375000000000027
 22
17.01249999999997
 32
0.0
 13
4.375000000000027
 23
17.01249999999997
 33
0.0
  0
SOLID
  5
214
330
20D
100
AcDbEntity
  8
치수문자_일반주서
 62
     0
100
AcDbTrace
 10
3.824666666666715
 20
10.78949999999997
 30
0.0
 11
4.925333333333382
 21
10.78949999999997
 31
0.0
 12
4.37500000000006
 22
7.487499999999969
 32
0.0
 13
4.37500000000006
 23
7.487499999999969
 33
0.0
  0
MTEXT
  5
215
330
20D
100
AcDbEntity
  8
치수문자_일반주서
 62
     0
100
AcDbMText
 10
0.0000000000000426
 20
12.25000000000001
 30
0.0
 40
3.5
 41
0.0
 71
     2
 72
     1
  1
\A1;%%c9.53 [3/8]
  7
SLDTEXTSTYLE0
 11
-3.450141892798385E-15
 21
1.0
 31
0.0
 73
     1
 44
1.0
  0
POINT
  5
216
330
20D
100
AcDbEntity
  8
Defpoints
 62
     0
100
AcDbPoint
 10
16.62827283782724
 20
17.01250000000002
 30
0.0
  0
POINT
  5
217
330
20D
100
AcDbEntity
  8
Defpoints
 62
     0
100
AcDbPoint
 10
16.62827283782724
 20
7.487500000000015
 30
0.0
  0
POINT
  5
218
330
20D
100
AcDbEntity
  8
Defpoints
 62
     0
100
AcDbPoint
 10
4.375000000000064
 20
7.487499999999969
 30
0.0
  0
ENDBLK
  5
20F
330
20D
100
AcDbEntity
  8
0
100
AcDbBlockEnd
  0
BLOCK
  5
21A
330
219
100
AcDbEntity
  8
0
100
AcDbBlockBegin
  2
*D11
 70
     1
 10
0.0
 20
0.0
 30
0.0
  3
*D11
  1
*D11
  0
LINE
  5
21C
330
219
100
AcDbEntity
  8
치수문자_일반주서
 62
     0
370
    -2
100
AcDbLine
 10
79.23827283782725
 20
16.61562500000002
 30
0.0
 11
92.19561810524586
 21
16.61562500000007
 31
0.0
  0
LINE
  5
21D
330
219
100
AcDbEntity
  8
치수문자_일반주서
 62
     0
370
    -2
100
AcDbLine
 10
79.23827283782725
 20
7.884375000000023
 30
0.0
 11
92.19561810524588
 21
7.884375000000073
 31
0.0
  0
LINE
  5
21E
330
219
100
AcDbEntity
  8
치수문자_일반주서
 62
     0
370
    -2
100
AcDbLine
 10
92.19561810524586
 20
16.61562500000007
 30
0.0
 11
92.19561810524574
 21
54.55373015923207
 31
0.0
  0
LINE
  5
21F
330
219
100
AcDbEntity
  8
치수문자_일반주서
 62
     0
370
    -2
100
AcDbLine
 10
92.19561810524586
 20
16.61562500000007
 30
0.0
 11
92.19561810524588
 21
7.884375000000073
 31
0.0
  0
LINE
  5
220
330
219
100
AcDbEntity
  8
치수문자_일반주서
 62
     0
370
    -2
100
AcDbLine
 10
92.19561810524584
 20
19.91762500000007
 30
0.0
 11
92.19561810524583
 21
23.21962500000007
 31
0.0
  0
LINE
  5
221
330
219
100
AcDbEntity
  8
치수문자_일반주서
 62
     0
370
    -2
100
AcDbLine
 10
92.1956181052459
 20
4.582375000000074
 30
0.0
 11
92.19561810524591
 21
1.280375000000074
 31
0.0
  0
SOLID
  5
222
330
219
100
AcDbEntity
  8
치수문자_일반주서
 62
     0
100
AcDbTrace
 10
91.64528477191251
 20
19.91762500000007
 30
0.0
 11
92.74595143857917
 21
19.91762500000008
 31
0.0
 12
92.19561810524586
 22
16.61562500000007
 32
0.0
 13
92.19561810524586
 23
16.61562500000007
 33
0.0
  0
SOLID
  5
223
330
219
100
AcDbEntity
  8
치수문자_일반주서
 62
     0
100
AcDbTrace
 10
92.74595143857923
 20
4.582375000000075
 30
0.0
 11
91.64528477191257
 21
4.582375000000072
 31
0.0
 12
92.19561810524588
 22
7.884375000000073
 32
0.0
 13
92.19561810524588
 23
7.884375000000073
 33
0.0
  0
MTEXT
  5
224
330
219
100
AcDbEntity
  8
치수문자_일반주서
 62
     0
100
AcDbMText
 10
87.82061810524579
 20
39.67873015923205
 30
0.0
 40
3.5
 41
0.0
 71
     2
 72
     1
  1
\A1;%%c8.73 [11/32]
  7
SLDTEXTSTYLE0
 11
-3.255170729323293E-15
 21
1.0
 31
0.0
 73
     1
 44
1.0
  0
POINT
  5
225
330
219
100
AcDbEntity
  8
Defpoints
 62
     0
100
AcDbPoint
 10
79.17577283782725
 20
16.61562500000002
 30
0.0
  0
POINT
  5
226
330
219
100
AcDbEntity
  8
Defpoints
 62
     0
100
AcDbPoint
 10
79.17577283782725
 20
7.884375000000023
 30
0.0
  0
POINT
  5
227
330
219
100
AcDbEntity
  8
Defpoints
 62
     0
100
AcDbPoint
 10
92.19561810524588
 20
7.884375000000071
 30
0.0
  0
ENDBLK
  5
21B
330
219
100
AcDbEntity
  8
0
100
AcDbBlockEnd
  0
BLOCK
  5
263
330
262
100
AcDbEntity
  8
0
100
AcDbBlockBegin
  2
*D12
 70
     1
 10
0.0
 20
0.0
 30
0.0
  3
*D12
  1
*D12
  0
LINE
  5
265
330
262
100
AcDbEntity
  8
치수문자_일반주서
 62
     0
370
    -2
100
AcDbLine
 10
147.3868030346953
 20
-22.96397371254759
 30
0.0
 11
147.3868030346953
 21
-14.3550949323212
 31
0.0
  0
LINE
  5
266
330
262
100
AcDbEntity
  8
치수문자_일반주서
 62
     0
370
    -2
100
AcDbLine
 10
128.3368030346953
 20
-23.03797919938764
 30
0.0
 11
128.3368030346953
 21
-14.3550949323212
 31
0.0
  0
LINE
  5
267
330
262
100
AcDbEntity
  8
치수문자_일반주서
 62
     0
370
    -2
100
AcDbLine
 10
128.3368030346953
 20
-14.3550949323212
 30
0.0
 11
94.92837280610964
 21
-14.3550949323212
 31
0.0
  0
LINE
  5
268
330
262
100
AcDbEntity
  8
치수문자_일반주서
 62
     0
370
    -2
100
AcDbLine
 10
147.3868030346953
 20
-14.3550949323212
 30
0.0
 11
128.3368030346953
 21
-14.3550949323212
 31
0.0
  0
LINE
  5
269
330
262
100
AcDbEntity
  8
치수문자_일반주서
 62
     0
370
    -2
100
AcDbLine
 10
150.6888030346953
 20
-14.3550949323212
 30
0.0
 11
153.9908030346953
 21
-14.3550949323212
 31
0.0
  0
LINE
  5
26A
330
262
100
AcDbEntity
  8
치수문자_일반주서
 62
     0
370
    -2
100
AcDbLine
 10
125.0348030346953
 20
-14.3550949323212
 30
0.0
 11
121.7328030346953
 21
-14.3550949323212
 31
0.0
  0
SOLID
  5
26B
330
262
100
AcDbEntity
  8
치수문자_일반주서
 62
     0
100
AcDbTrace
 10
150.6888030346953
 20
-13.80476159898787
 30
0.0
 11
150.6888030346953
 21
-14.90542826565453
 31
0.0
 12
147.3868030346953
 22
-14.3550949323212
 32
0.0
 13
147.3868030346953
 23
-14.3550949323212
 33
0.0
  0
SOLID
  5
26C
330
262
100
AcDbEntity
  8
치수문자_일반주서
 62
     0
100
AcDbTrace
 10
125.0348030346953
 20
-14.90542826565453
 30
0.0
 11
125.0348030346953
 21
-13.80476159898787
 31
0.0
 12
128.3368030346953
 22
-14.3550949323212
 32
0.0
 13
128.3368030346953
 23
-14.3550949323212
 33
0.0
  0
MTEXT
  5
26D
330
262
100
AcDbEntity
  8
치수문자_일반주서
 62
     0
100
AcDbMText
 10
107.3971228061096
 20
-9.980094932321201
 30
0.0
 40
3.5
 41
0.0
 71
     2
 72
     1
  1
\A1;19.05 [3/4]
  7
SLDTEXTSTYLE0
 73
     1
 44
1.0
  0
POINT
  5
26E
330
262
100
AcDbEntity
  8
Defpoints
 62
     0
100
AcDbPoint
 10
147.3868030346953
 20
-23.02647371254759
 30
0.0
  0
POINT
  5
26F
330
262
100
AcDbEntity
  8
Defpoints
 62
     0
100
AcDbPoint
 10
128.3368030346953
 20
-23.10047919938764
 30
0.0
  0
POINT
  5
270
330
262
100
AcDbEntity
  8
Defpoints
 62
     0
100
AcDbPoint
 10
128.3368030346953
 20
-14.3550949323212
 30
0.0
  0
ENDBLK
  5
264
330
262
100
AcDbEntity
  8
0
100
AcDbBlockEnd
  0
BLOCK
  5
272
330
271
100
AcDbEntity
  8
0
100
AcDbBlockBegin
  2
*D13
 70
     1
 10
0.0
 20
0.0
 30
0.0
  3
*D13
  1
*D13
  0
LINE
  5
274
330
271
100
AcDbEntity
  8
치수문자_일반주서
 62
     0
370
    -2
100
AcDbLine
 10
147.3868030346953
 20
-22.96397371254759
 30
0.0
 11
147.3868030346953
 21
5.859515184844824
 31
0.0
  0
LINE
  5
275
330
271
100
AcDbEntity
  8
치수문자_일반주서
 62
     0
370
    -2
100
AcDbLine
 10
83.88680303469525
 20
-23.51959871254759
 30
0.0
 11
83.88680303469525
 21
5.859515184844824
 31
0.0
  0
LINE
  5
276
330
271
100
AcDbEntity
  8
치수문자_일반주서
 62
     0
370
    -2
100
AcDbLine
 10
144.0848030346953
 20
5.859515184844824
 30
0.0
 11
87.18880303469524
 21
5.859515184844824
 31
0.0
  0
SOLID
  5
277
330
271
100
AcDbEntity
  8
치수문자_일반주서
 62
     0
100
AcDbTrace
 10
144.0848030346953
 20
5.30918185151149
 30
0.0
 11
144.0848030346953
 21
6.409848518178157
 31
0.0
 12
147.3868030346953
 22
5.859515184844824
 32
0.0
 13
147.3868030346953
 23
5.859515184844824
 33
0.0
  0
SOLID
  5
278
330
271
100
AcDbEntity
  8
치수문자_일반주서
 62
     0
100
AcDbTrace
 10
87.18880303469524
 20
6.409848518178157
 30
0.0
 11
87.18880303469524
 21
5.30918185151149
 31
0.0
 12
83.88680303469525
 22
5.859515184844824
 32
0.0
 13
83.88680303469525
 23
5.859515184844824
 33
0.0
  0
MTEXT
  5
279
330
271
100
AcDbEntity
  8
치수문자_일반주서
 62
     0
100
AcDbMText
 10
115.6368030346952
 20
10.23451518484482
 30
0.0
 40
3.5
 41
0.0
 71
     2
 72
     1
  1
\A1;63.5 [2 1/2]
  7
SLDTEXTSTYLE0
 73
     1
 44
1.0
  0
POINT
  5
27A
330
271
100
AcDbEntity
  8
Defpoints
 62
     0
100
AcDbPoint
 10
147.3868030346953
 20
-23.02647371254759
 30
0.0
  0
POINT
  5
27B
330
271
100
AcDbEntity
  8
Defpoints
 62
     0
100
AcDbPoint
 10
83.88680303469525
 20
-23.58209871254759
 30
0.0
  0
POINT
  5
27C
330
271
100
AcDbEntity
  8
Defpoints
 62
     0
100
AcDbPoint
 10
83.88680303469525
 20
5.859515184844824
 30
0.0
  0
ENDBLK
  5
273
330
271
100
AcDbEntity
  8
0
100
AcDbBlockEnd
  0
BLOCK
  5
27E
330
27D
100
AcDbEntity
  8
0
100
AcDbBlockBegin
  2
*D14
 70
     1
 10
0.0
 20
0.0
 30
0.0
  3
*D14
  1
*D14
  0
LINE
  5
280
330
27D
100
AcDbEntity
  8
치수문자_일반주서
 62
     0
370
    -2
100
AcDbLine
 10
84.77680303469525
 20
-22.62959871254759
 30
0.0
 11
72.58603019686804
 21
-22.62959871254764
 31
0.0
  0
LINE
  5
281
330
27D
100
AcDbEntity
  8
치수문자_일반주서
 62
     0
370
    -2
100
AcDbLine
 10
84.77680303469525
 20
-32.1545987125476
 30
0.0
 11
72.58603019686807
 21
-32.15459871254764
 31
0.0
  0
LINE
  5
282
330
27D
100
AcDbEntity
  8
치수문자_일반주서
 62
     0
370
    -2
100
AcDbLine
 10
72.58603019686805
 20
-25.93159871254764
 30
0.0
 11
72.58603019686805
 21
-28.85259871254764
 31
0.0
  0
SOLID
  5
283
330
27D
100
AcDbEntity
  8
치수문자_일반주서
 62
     0
100
AcDbTrace
 10
73.13636353020138
 20
-25.93159871254764
 30
0.0
 11
72.03569686353472
 21
-25.93159871254764
 31
0.0
 12
72.58603019686804
 22
-22.62959871254764
 32
0.0
 13
72.58603019686804
 23
-22.62959871254764
 33
0.0
  0
SOLID
  5
284
330
27D
100
AcDbEntity
  8
치수문자_일반주서
 62
     0
100
AcDbTrace
 10
72.03569686353472
 20
-28.85259871254764
 30
0.0
 11
73.13636353020138
 21
-28.85259871254764
 31
0.0
 12
72.58603019686807
 22
-32.15459871254764
 32
0.0
 13
72.58603019686807
 23
-32.15459871254764
 33
0.0
  0
MTEXT
  5
285
330
27D
100
AcDbEntity
  8
치수문자_일반주서
 62
     0
100
AcDbMText
 10
68.21103019686805
 20
-27.39209871254761
 30
0.0
 40
3.5
 41
0.0
 71
     2
 72
     1
  1
\A1;%%c9.53 [3/8]
  7
SLDTEXTSTYLE0
 11
-2.983906501879686E-15
 21
1.0
 31
0.0
 73
     1
 44
1.0
  0
POINT
  5
286
330
27D
100
AcDbEntity
  8
Defpoints
 62
     0
100
AcDbPoint
 10
84.83930303469525
 20
-22.62959871254759
 30
0.0
  0
POINT
  5
287
330
27D
100
AcDbEntity
  8
Defpoints
 62
     0
100
AcDbPoint
 10
84.83930303469525
 20
-32.1545987125476
 30
0.0
  0
POINT
  5
288
330
27D
100
AcDbEntity
  8
Defpoints
 62
     0
100
AcDbPoint
 10
72.58603019686807
 20
-32.15459871254764
 30
0.0
  0
ENDBLK
  5
27F
330
27D
100
AcDbEntity
  8
0
100
AcDbBlockEnd
  0
BLOCK
  5
28A
330
289
100
AcDbEntity
  8
0
100
AcDbBlockBegin
  2
*D15
 70
     1
 10
0.0
 20
0.0
 30
0.0
  3
*D15
  1
*D15
  0
LINE
  5
28C
330
289
100
AcDbEntity
  8
치수문자_일반주서
 62
     0
370
    -2
100
AcDbLine
 10
147.4493030346953
 20
-23.02647371254759
 30
0.0
 11
160.4066483021139
 21
-23.02647371254754
 31
0.0
  0
LINE
  5
28D
330
289
100
AcDbEntity
  8
치수문자_일반주서
 62
     0
370
    -2
100
AcDbLine
 10
147.4493030346953
 20
-31.75772371254759
 30
0.0
 11
160.4066483021139
 21
-31.75772371254754
 31
0.0
  0
LINE
  5
28E
330
289
100
AcDbEntity
  8
치수문자_일반주서
 62
     0
370
    -2
100
AcDbLine
 10
160.4066483021139
 20
-23.02647371254754
 30
0.0
 11
160.4066483021138
 21
14.91163144668445
 31
0.0
  0
LINE
  5
28F
330
289
100
AcDbEntity
  8
치수문자_일반주서
 62
     0
370
    -2
100
AcDbLine
 10
160.4066483021139
 20
-23.02647371254754
 30
0.0
 11
160.4066483021139
 21
-31.75772371254754
 31
0.0
  0
LINE
  5
290
330
289
100
AcDbEntity
  8
치수문자_일반주서
 62
     0
370
    -2
100
AcDbLine
 10
160.4066483021139
 20
-19.72447371254754
 30
0.0
 11
160.4066483021139
 21
-16.42247371254754
 31
0.0
  0
LINE
  5
291
330
289
100
AcDbEntity
  8
치수문자_일반주서
 62
     0
370
    -2
100
AcDbLine
 10
160.4066483021139
 20
-35.05972371254754
 30
0.0
 11
160.4066483021139
 21
-38.36172371254754
 31
0.0
  0
SOLID
  5
292
330
289
100
AcDbEntity
  8
치수문자_일반주서
 62
     0
100
AcDbTrace
 10
159.8563149687806
 20
-19.72447371254755
 30
0.0
 11
160.9569816354472
 21
-19.72447371254754
 31
0.0
 12
160.4066483021139
 22
-23.02647371254754
 32
0.0
 13
160.4066483021139
 23
-23.02647371254754
 33
0.0
  0
SOLID
  5
293
330
289
100
AcDbEntity
  8
치수문자_일반주서
 62
     0
100
AcDbTrace
 10
160.9569816354472
 20
-35.05972371254754
 30
0.0
 11
159.8563149687806
 21
-35.05972371254754
 31
0.0
 12
160.4066483021139
 22
-31.75772371254754
 32
0.0
 13
160.4066483021139
 23
-31.75772371254754
 33
0.0
  0
MTEXT
  5
294
330
289
100
AcDbEntity
  8
치수문자_일반주서
 62
     0
100
AcDbMText
 10
156.0316483021138
 20
0.0366314466844386
 30
0.0
 40
3.5
 41
0.0
 71
     2
 72
     1
  1
\A1;%%c8.73 [11/32]
  7
SLDTEXTSTYLE0
 11
-3.255170729323294E-15
 21
1.0
 31
0.0
 73
     1
 44
1.0
  0
POINT
  5
295
330
289
100
AcDbEntity
  8
Defpoints
 62
     0
100
AcDbPoint
 10
147.3868030346953
 20
-23.02647371254759
 30
0.0
  0
POINT
  5
296
330
289
100
AcDbEntity
  8
Defpoints
 62
     0
100
AcDbPoint
 10
147.3868030346953
 20
-31.75772371254759
 30
0.0
  0
POINT
  5
297
330
289
100
AcDbEntity
  8
Defpoints
 62
     0
100
AcDbPoint
 10
160.4066483021139
 20
-31.75772371254754
 30
0.0
  0
ENDBLK
  5
28B
330
289
100
AcDbEntity
  8
0
100
AcDbBlockEnd
  0
ENDSEC
  0
SECTION
  2
ENTITIES
  0
LINE
  5
96
330
1F
100
AcDbEntity
  8
외형선
  6
Continuous
370
    15
100
AcDbLine
 10
1.999999999999997
 20
-4.761425071276111
 30
0.0
 11
4.221736496380858
 21
-4.166112571276106
 31
0.0
  0
LINE
  5
97
330
1F
100
AcDbEntity
  8
외형선
  6
Continuous
370
    15
100
AcDbLine
 10
4.221736496380858
 20
4.168262428723892
 30
0.0
 11
1.999999999999997
 21
4.763574928723898
 31
0.0
  0
LINE
  5
98
330
1F
100
AcDbEntity
  8
외형선
  6
Continuous
370
    15
100
AcDbLine
 10
-38.27576350361915
 20
-4.761425071276109
 30
0.0
 11
1.999999999999997
 21
-4.761425071276109
 31
0.0
  0
LINE
  5
99
330
1F
100
AcDbEntity
  8
외형선
  6
Continuous
370
    15
100
AcDbLine
 10
1.999999999999997
 20
4.763574928723895
 30
0.0
 11
-14.54581350361903
 21
4.763574928723895
 31
0.0
  0
LINE
  5
9A
330
1F
100
AcDbEntity
  8
외형선
  6
Continuous
370
    15
100
AcDbLine
 10
-38.27576350361915
 20
4.763574928723893
 30
0.0
 11
-39.22826350361914
 21
3.811074928723895
 31
0.0
  0
LINE
  5
9B
330
1F
100
AcDbEntity
  8
외형선
  6
Continuous
370
    15
100
AcDbLine
 10
-39.22826350361914
 20
-3.808925071276108
 30
0.0
 11
-38.27576350361915
 21
-4.761425071276106
 31
0.0
  0
LINE
  5
9C
330
1F
100
AcDbEntity
  8
외형선
  6
Continuous
370
    15
100
AcDbLine
 10
4.221736496380858
 20
-4.166112571276106
 30
0.0
 11
4.757198944923269
 21
-4.166112571276106
 31
0.0
  0
LINE
  5
9D
330
1F
100
AcDbEntity
  8
외형선
  6
Continuous
370
    15
100
AcDbLine
 10
4.757198944923326
 20
4.168262428723892
 30
0.0
 11
4.221736496380858
 21
4.168262428723892
 31
0.0
  0
LINE
  5
9E
330
1F
100
AcDbEntity
  8
0
  6
Continuous
 62
     1
370
    15
100
AcDbLine
 10
13.55402880486595
 20
-4.166112571276106
 30
0.0
 11
16.09303062403786
 21
-4.166112571276106
 31
0.0
  0
LINE
  5
9F
330
1F
100
AcDbEntity
  8
0
  6
Continuous
 62
     1
370
    15
100
AcDbLine
 10
16.09303062403785
 20
4.168262428723893
 30
0.0
 11
13.55402880486602
 21
4.168262428723893
 31
0.0
  0
LINE
  5
A0
330
1F
100
AcDbEntity
  8
외형선
  6
Continuous
370
    15
100
AcDbLine
 10
4.221736496380858
 20
0.0010749287238931
 30
0.0
 11
4.221736496380858
 21
4.168262428723891
 31
0.0
  0
LINE
  5
A1
330
1F
100
AcDbEntity
  8
외형선
  6
Continuous
370
    15
100
AcDbLine
 10
4.221736496380858
 20
-4.166112571276102
 30
0.0
 11
4.221736496380858
 21
0.0010749287238931
 31
0.0
  0
LINE
  5
A2
330
1F
100
AcDbEntity
  8
외형선
  6
Continuous
370
    15
100
AcDbLine
 10
1.999999999999997
 20
0.0010749287238931
 30
0.0
 11
1.999999999999997
 21
4.763574928723898
 31
0.0
  0
LINE
  5
A3
330
1F
100
AcDbEntity
  8
외형선
  6
Continuous
370
    15
100
AcDbLine
 10
1.999999999999997
 20
-4.761425071276111
 30
0.0
 11
1.999999999999997
 21
0.0010749287238931
 31
0.0
  0
LINE
  5
A4
330
1F
100
AcDbEntity
  8
외형선
  6
Continuous
370
    15
100
AcDbLine
 10
-38.27576350361915
 20
0.0010749287238931
 30
0.0
 11
-38.27576350361915
 21
4.763574928723895
 31
0.0
  0
LINE
  5
A5
330
1F
100
AcDbEntity
  8
외형선
  6
Continuous
370
    15
100
AcDbLine
 10
-38.27576350361915
 20
-4.761425071276109
 30
0.0
 11
-38.27576350361915
 21
0.0010749287238931
 31
0.0
  0
LINE
  5
A6
330
1F
100
AcDbEntity
  8
외형선
  6
Continuous
370
    15
100
AcDbLine
 10
-39.22826350361914
 20
0.0010749287238931
 30
0.0
 11
-39.22826350361914
 21
3.811074928723895
 31
0.0
  0
LINE
  5
A7
330
1F
100
AcDbEntity
  8
외형선
  6
Continuous
370
    15
100
AcDbLine
 10
-39.22826350361914
 20
-3.808925071276108
 30
0.0
 11
-39.22826350361914
 21
0.0010749287238931
 31
0.0
  0
SPLINE
  5
A8
330
1F
100
AcDbEntity
  8
외형선
  6
Continuous
370
    15
100
AcDbSpline
210
0.0
220
0.0
230
1.0
 70
     8
 71
     3
 72
     9
 73
     5
 74
     0
 42
0.000000001
 43
0.00000001
 40
0.0
 40
0.0
 40
0.0
 40
0.0
 40
0.5273268323827517
 40
1.0
 40
1.0
 40
1.0
 40
1.0
 10
4.757198944923326
 20
4.167915388165371
 30
0.0
 10
4.838888004465284
 20
4.167661222520059
 30
0.0
 10
4.99379963521398
 20
4.167179233685612
 30
0.0
 10
5.148577264207978
 20
4.162024001018893
 30
0.0
 10
5.221736496380865
 20
4.159587260864511
 30
0.0
  0
SPLINE
  5
A9
330
1F
100
AcDbEntity
  8
외형선
  6
Continuous
370
    15
100
AcDbSpline
210
0.0
220
0.0
230
1.0
 70
     8
 71
     3
 72
     8
 73
     4
 74
     0
 42
0.000000001
 43
0.00000001
 40
0.0
 40
0.0
 40
0.0
 40
0.0
 40
1.0
 40
1.0
 40
1.0
 40
1.0
 10
5.221736496380853
 20
3.811906194681125
 30
0.0
 10
5.05514595664941
 20
3.850930346215271
 30
0.0
 10
4.88917031295197
 20
3.886851270794128
 30
0.0
 10
4.721901824283213
 20
3.919706536560824
 30
0.0
  0
LINE
  5
AA
330
1F
100
AcDbEntity
  8
외형선
  6
Continuous
370
    15
100
AcDbLine
 10
4.721901824283227
 20
0.0214646961532873
 30
0.0
 11
4.72190182428322
 21
3.919711324552743
 31
0.0
  0
SPLINE
  5
AB
330
1F
100
AcDbEntity
  8
외형선
  6
Continuous
370
    15
100
AcDbSpline
210
0.0
220
0.0
230
1.0
 70
     8
 71
     3
 72
     8
 73
     4
 74
     0
 42
0.000000001
 43
0.00000001
 40
0.0
 40
0.0
 40
0.0
 40
0.0
 40
1.0
 40
1.0
 40
1.0
 40
1.0
 10
5.221736496380865
 20
-0.2676755942350106
 30
0.0
 10
5.055145956649424
 20
-0.1714298010461354
 30
0.0
 10
4.88917031295197
 20
-0.0750864544163215
 30
0.0
 10
4.721901824283234
 20
0.0214894475378425
 30
0.0
  0
SPLINE
  5
AC
330
1F
100
AcDbEntity
  8
외형선
  6
Continuous
370
    15
100
AcDbSpline
210
0.0
220
0.0
230
1.0
 70
     8
 71
     3
 72
     8
 73
     4
 74
     0
 42
0.000000001
 43
0.00000001
 40
0.0
 40
0.0
 40
0.0
 40
0.0
 40
1.0
 40
1.0
 40
1.0
 40
1.0
 10
5.221736496380853
 20
-1.68504983610195
 30
0.0
 10
5.05514595664941
 20
-1.596850872480694
 30
0.0
 10
4.88917031295197
 20
-1.507408086839426
 30
0.0
 10
4.721901824283213
 20
-1.416591457354843
 30
0.0
  0
LINE
  5
AD
330
1F
100
AcDbEntity
  8
외형선
  6
Continuous
370
    15
100
AcDbLine
 10
4.721901824283227
 20
-4.166062688099005
 30
0.0
 11
4.72190182428322
 21
-1.416578222594043
 31
0.0
  0
SPLINE
  5
AE
330
1F
100
AcDbEntity
  8
외형선
  6
Continuous
370
    15
100
AcDbSpline
210
0.0
220
0.0
230
1.0
 70
     8
 71
     3
 72
     8
 73
     4
 74
     0
 42
0.000000001
 43
0.00000001
 40
0.0
 40
0.0
 40
0.0
 40
0.0
 40
1.0
 40
1.0
 40
1.0
 40
1.0
 10
5.221736496380865
 20
-4.157437403416723
 30
0.0
 10
5.055145956649424
 20
-4.163657442023363
 30
0.0
 10
4.88917031295197
 20
-4.166535685591459
 30
0.0
 10
4.721901824283234
 20
-4.166062566917192
 30
0.0
  0
LINE
  5
AF
330
1F
100
AcDbEntity
  8
외형선
  6
Continuous
370
    15
100
AcDbLine
 10
5.221736496380839
 20
-1.685049836101972
 30
0.0
 11
5.221736496380858
 21
-0.2676755942350048
 31
0.0
  0
LINE
  5
B0
330
1F
100
AcDbEntity
  8
외형선
  6
Continuous
370
    15
100
AcDbLine
 10
5.221736496380839
 20
3.811906194681155
 30
0.0
 11
5.221736496380858
 21
4.159587260864511
 31
0.0
  0
SPLINE
  5
B1
330
1F
100
AcDbEntity
  8
외형선
  6
Continuous
370
    15
100
AcDbSpline
210
0.0
220
0.0
230
1.0
 70
    24
 71
     3
 72
    21
 73
    17
 74
     0
 42
0.000000001
 43
0.00000001
 40
0.0
 40
0.0
 40
0.0
 40
0.0
 40
0.0254744058926978
 40
0.1006680470325428
 40
0.1758616881723875
 40
0.2510553293122489
 40
0.3262489704521104
 40
0.4014426115919639
 40
0.4766362527318173
 40
0.5518298938716709
 40
0.6270235350115244
 40
0.7022171761513719
 40
0.7774108172912195
 40
0.8526044584310799
 40
0.9277980995709401
 40
1.0
 40
1.0
 40
1.0
 40
1.0
 10
5.221736496380879
 20
-0.3281017709865222
 30
0.0
 10
5.221736496380879
 20
-0.328124715089874
 30
0.0
 10
5.221736496380887
 20
-0.3282153840571921
 30
0.0
 10
5.221736496380915
 20
-0.2535645950465787
 30
0.0
 10
5.221736496380887
 20
-0.1096100260209517
 30
0.0
 10
5.221736496380894
 20
0.105195281319395
 30
0.0
 10
5.221736496380853
 20
0.3757943857731905
 30
0.0
 10
5.221736496380853
 20
0.6984741753805974
 30
0.0
 10
5.221736496380853
 20
1.061715779248855
 30
0.0
 10
5.221736496380865
 20
1.456823769241519
 30
0.0
 10
5.221736496380831
 20
1.871515510336992
 30
0.0
 10
5.221736496380846
 20
2.294531362670373
 30
0.0
 10
5.221736496380824
 20
2.714059157219039
 30
0.0
 10
5.221736496380831
 20
3.116708895675438
 30
0.0
 10
5.221736496380831
 20
3.490933674133025
 30
0.0
 10
5.221736496380831
 20
3.706372970986802
 30
0.0
 10
5.221736496380839
 20
3.811906194681155
 30
0.0
  0
SPLINE
  5
B2
330
1F
100
AcDbEntity
  8
외형선
  6
Continuous
370
    15
100
AcDbSpline
210
0.0
220
0.0
230
1.0
 70
    24
 71
     3
 72
    14
 73
    10
 74
     0
 42
0.000000001
 43
0.00000001
 40
0.0
 40
0.0
 40
0.0
 40
0.0
 40
0.1598159969722494
 40
0.3245128909694952
 40
0.480450779979555
 40
0.6409108783348882
 40
0.7968487673449814
 40
0.9573088657003512
 40
1.0
 40
1.0
 40
1.0
 40
1.0
 10
5.221736496380865
 20
-4.157437403416725
 30
0.0
 10
5.221736496380879
 20
-4.017825207980001
 30
0.0
 10
5.221736496380908
 20
-3.734336958905431
 30
0.0
 10
5.221736496380858
 20
-3.304646650768072
 30
0.0
 10
5.221736496380853
 20
-2.883808723651434
 30
0.0
 10
5.221736496380949
 20
-2.488208097389208
 30
0.0
 10
5.221736496380789
 20
-2.123773296564573
 30
0.0
 10
5.221736496380887
 20
-1.868621566403506
 30
0.0
 10
5.221736496380858
 20
-1.753537312357733
 30
0.0
 10
5.221736496380858
 20
-1.729352977953097
 30
0.0
  0
LINE
  5
B3
330
1F
100
AcDbEntity
  8
0
  6
Continuous
 62
     1
370
    15
100
AcDbLine
 10
24.27173649638086
 20
-3.773069068877783
 30
0.0
 11
24.27173649638086
 21
0.3581251763256216
 31
0.0
  0
SPLINE
  5
B4
330
1F
100
AcDbEntity
  8
0
  6
Continuous
 62
     1
370
    15
100
AcDbSpline
210
0.0
220
0.0
230
1.0
 70
     8
 71
     3
 72
    48
 73
    44
 74
     0
 42
0.000000001
 43
0.00000001
 40
0.0
 40
0.0
 40
0.0
 40
0.0
 40
0.0625000000000002
 40
0.0625000000000002
 40
0.1249999999999997
 40
0.1249999999999997
 40
0.1874999999999991
 40
0.1874999999999991
 40
0.2499999999999986
 40
0.2499999999999986
 40
0.312499999999998
 40
0.312499999999998
 40
0.3749999999999975
 40
0.3749999999999975
 40
0.4374999999999969
 40
0.4374999999999969
 40
0.4687499999999967
 40
0.4687499999999967
 40
0.4999999999999964
 40
0.4999999999999964
 40
0.5312499999999961
 40
0.5312499999999961
 40
0.5624999999999958
 40
0.5624999999999958
 40
0.624999999999996
 40
0.624999999999996
 40
0.6562499999999958
 40
0.6562499999999958
 40
0.6874999999999954
 40
0.6874999999999954
 40
0.7187499999999951
 40
0.7187499999999951
 40
0.7499999999999948
 40
0.7499999999999948
 40
0.812499999999995
 40
0.812499999999995
 40
0.8437499999999956
 40
0.8437499999999956
 40
0.8749999999999961
 40
0.8749999999999961
 40
0.9374999999999981
 40
0.9374999999999981
 40
1.0
 40
1.0
 40
1.0
 40
1.0
 10
24.27173649638085
 20
-3.773069068877783
 30
0.0
 10
23.87777127510705
 20
-3.676165005989398
 30
0.0
 10
23.47787924606878
 20
-3.561629751669925
 30
0.0
 10
22.68242247500194
 20
-3.301629408447311
 30
0.0
 10
22.28937465235056
 20
-3.156597900225274
 30
0.0
 10
21.49338883986675
 20
-2.838054144661825
 30
0.0
 10
21.09528162537271
 20
-2.665092961604806
 30
0.0
 10
20.30577956070429
 20
-2.297677912684488
 30
0.0
 10
19.90565889406578
 20
-2.101848799955395
 30
0.0
 10
19.11088960842985
 20
-1.693755967235547
 30
0.0
 10
18.71757224353827
 20
-1.481809018174617
 30
0.0
 10
17.92121618560503
 20
-1.044672771881731
 30
0.0
 10
17.52462759622682
 20
-0.8206443536134921
 30
0.0
 10
16.73370841171398
 20
-0.367622470385833
 30
0.0
 10
16.33343991435489
 20
-0.1374893998426471
 30
0.0
 10
15.73799705451132
 20
0.2061492786146531
 30
0.0
 10
15.54132540375531
 20
0.3202449491426015
 30
0.0
 10
15.14554064873592
 20
0.5479257960958288
 30
0.0
 10
14.94651801563456
 20
0.6614918437690546
 30
0.0
 10
14.54823438516805
 20
0.886909731945107
 30
0.0
 10
14.34897569378116
 20
0.9987602623919747
 30
0.0
 10
13.95225469225239
 20
1.219612149571939
 30
0.0
 10
13.75571019465041
 20
1.328449173647242
 30
0.0
 10
13.16157454417558
 20
1.650914718479568
 30
0.0
 10
12.76123912319338
 20
1.86010977994397
 30
0.0
 10
12.16654843708581
 20
2.158853683440941
 30
0.0
 10
11.97005419300078
 20
2.25582039086107
 30
0.0
 10
11.57367761539639
 20
2.444987064450661
 30
0.0
 10
11.3744992068855
 20
2.537061924392907
 30
0.0
 10
10.97618956647695
 20
2.715228604055319
 30
0.0
 10
10.77706064160941
 20
2.801319395159546
 30
0.0
 10
10.38088032425072
 20
2.966671880039536
 30
0.0
 10
10.18435942574897
 20
3.045876016568941
 30
0.0
 10
9.589394716459527
 20
3.273601409300436
 30
0.0
 10
9.189073324335837
 20
3.411639240115489
 30
0.0
 10
8.595252382688075
 20
3.593871019420649
 30
0.0
 10
8.398627926236484
 20
3.650494784701316
 30
0.0
 10
8.001737850974425
 20
3.75569445561143
 30
0.0
 10
7.802443486419731
 20
3.804164896512457
 30
0.0
 10
7.205059424220709
 20
3.936402296634991
 30
0.0
 10
6.811420405812946
 20
4.006771587523005
 30
0.0
 10
6.017185718059739
 20
4.111077930252051
 30
0.0
 10
5.616959297761849
 20
4.144830714143569
 30
0.0
 10
5.221736496380865
 20
4.159587260864511
 30
0.0
  0
SPLINE
  5
B5
330
1F
100
AcDbEntity
  8
0
  6
Continuous
 62
     1
370
    15
100
AcDbSpline
210
0.0
220
0.0
230
1.0
 70
     8
 71
     3
 72
    19
 73
    15
 74
     0
 42
0.000000001
 43
0.00000001
 40
0.0
 40
0.0
 40
0.0
 40
0.0
 40
0.0883338744177762
 40
0.1765439184648552
 40
0.2647403623913481
 40
0.353033641502115
 40
0.4414006163109475
 40
0.5296309330939538
 40
0.6178204619433019
 40
0.7060797424763428
 40
0.7986465970200513
 40
0.8911308156703879
 40
0.9835421171704734
 40
1.0
 40
1.0
 40
1.0
 40
1.0
 10
24.27173649638086
 20
0.3581251763256229
 30
0.0
 10
23.8268187467793
 20
0.6126516409412824
 30
0.0
 10
22.93760695315036
 20
1.121347763605774
 30
0.0
 10
21.60472897649836
 20
1.843730988085772
 30
0.0
 10
20.27206071730829
 20
2.504144118422838
 30
0.0
 10
18.93826877315226
 20
3.078993944706508
 30
0.0
 10
17.60387841864046
 20
3.548830120369376
 30
0.0
 10
16.27072265577072
 20
3.898382662559916
 30
0.0
 10
14.9381620160035
 20
4.115331664604745
 30
0.0
 10
13.58358327245466
 20
4.192669620808742
 30
0.0
 10
12.20675593878885
 20
4.123581544504927
 30
0.0
 10
10.80949229633631
 20
3.888177322323655
 30
0.0
 10
9.795664681072722
 20
3.642272174392246
 30
0.0
 10
9.247490436935522
 20
3.442491703469244
 30
0.0
 10
9.164622290767928
 20
3.412290654363156
 30
0.0
  0
LINE
  5
B6
330
1F
100
AcDbEntity
  8
0
  6
Continuous
 62
     1
370
    15
100
AcDbLine
 10
24.27173649638086
 20
-4.1661125712761
 30
0.0
 11
24.27173649638086
 21
-3.773069068877783
 31
0.0
  0
SPLINE
  5
B7
330
1F
100
AcDbEntity
  8
0
  6
Continuous
 62
     1
370
    15
100
AcDbSpline
210
0.0
220
0.0
230
1.0
 70
     8
 71
     3
 72
    48
 73
    44
 74
     0
 42
0.000000001
 43
0.00000001
 40
0.0
 40
0.0
 40
0.0
 40
0.0
 40
0.0625000000000005
 40
0.0625000000000005
 40
0.1250000000000002
 40
0.1250000000000002
 40
0.1874999999999999
 40
0.1874999999999999
 40
0.2499999999999996
 40
0.2499999999999996
 40
0.3124999999999992
 40
0.3124999999999992
 40
0.3749999999999989
 40
0.3749999999999989
 40
0.4374999999999986
 40
0.4374999999999986
 40
0.4687499999999984
 40
0.4687499999999984
 40
0.4999999999999983
 40
0.4999999999999983
 40
0.5312499999999981
 40
0.5312499999999981
 40
0.562499999999998
 40
0.562499999999998
 40
0.6249999999999977
 40
0.6249999999999977
 40
0.6562499999999976
 40
0.6562499999999976
 40
0.6874999999999973
 40
0.6874999999999973
 40
0.7187499999999971
 40
0.7187499999999971
 40
0.7499999999999969
 40
0.7499999999999969
 40
0.8124999999999967
 40
0.8124999999999967
 40
0.8437499999999969
 40
0.8437499999999969
 40
0.8749999999999972
 40
0.8749999999999972
 40
0.9374999999999986
 40
0.9374999999999986
 40
1.0
 40
1.0
 40
1.0
 40
1.0
 10
24.27173649638086
 20
-4.1661125712761
 30
0.0
 10
23.87777127510708
 20
-4.131203987589963
 30
0.0
 10
23.47787924606876
 20
-4.092657978447383
 30
0.0
 10
22.68242247500195
 20
-3.978853435961085
 30
0.0
 10
22.28937465235056
 20
-3.903898323374883
 30
0.0
 10
21.49338883986674
 20
-3.718686338724368
 30
0.0
 10
21.09528162537274
 20
-3.608681323810842
 30
0.0
 10
20.3057795607043
 20
-3.357757442371951
 30
0.0
 10
19.90565889406576
 20
-3.215878351486807
 30
0.0
 10
19.11088960842983
 20
-2.904842156957912
 30
0.0
 10
18.71757224353825
 20
-2.735996086022254
 30
0.0
 10
17.92121618560505
 20
-2.373658359381934
 30
0.0
 10
17.52462759622683
 20
-2.181096651637602
 30
0.0
 10
16.73370841171402
 20
-1.778397585356561
 30
0.0
 10
16.33343991435488
 20
-1.567215676960669
 30
0.0
 10
15.73799705451134
 20
-1.24207562206118
 30
0.0
 10
15.54132540375531
 20
-1.132496899933726
 30
0.0
 10
15.14554064873592
 20
-0.9105765657193846
 30
0.0
 10
14.94651801563458
 20
-0.7982461873555323
 30
0.0
 10
14.54823438516803
 20
-0.5719771036901852
 30
0.0
 10
14.34897569378114
 20
-0.4580397045088838
 30
0.0
 10
13.95225469225239
 20
-0.2297257979177462
 30
0.0
 10
13.75571019465041
 20
-0.1155273757058115
 30
0.0
 10
13.16157454417559
 20
0.2279409125140286
 30
0.0
 10
12.76123912319335
 20
0.457739637176018
 30
0.0
 10
12.16654843708579
 20
0.7966738090518422
 30
0.0
 10
11.97005419300078
 20
0.9085515391926062
 30
0.0
 10
11.57367761539639
 20
1.130639093263077
 30
0.0
 10
11.37449920688548
 20
1.240711854436677
 30
0.0
 10
10.97618956647691
 20
1.457780151345181
 30
0.0
 10
10.77706064160941
 20
1.564774431516046
 30
0.0
 10
10.38088032425072
 20
1.77461107865924
 30
0.0
 10
10.18435942574897
 20
1.877369331353013
 30
0.0
 10
9.58939471645954
 20
2.179858798189332
 30
0.0
 10
9.189073324335856
 20
2.37311087536613
 30
0.0
 10
8.595252382688075
 20
2.644527683199313
 30
0.0
 10
8.39862792623647
 20
2.731918968552134
 30
0.0
 10
8.001737850974425
 20
2.900853321191799
 30
0.0
 10
7.80244348641971
 20
2.982243534590768
 30
0.0
 10
7.20505942422068
 20
3.215903634517341
 30
0.0
 10
6.81142040581296
 20
3.357200289749259
 30
0.0
 10
6.017185718059711
 20
3.609003605891736
 30
0.0
 10
5.616959297761849
 20
3.719324499972024
 30
0.0
 10
5.221736496380872
 20
3.811906194681125
 30
0.0
  0
SPLINE
  5
B8
330
1F
100
AcDbEntity
  8
0
  6
Continuous
 62
     1
370
    15
100
AcDbSpline
210
0.0
220
0.0
230
1.0
 70
     8
 71
     3
 72
    19
 73
    15
 74
     0
 42
0.000000001
 43
0.00000001
 40
0.0
 40
0.0
 40
0.0
 40
0.0
 40
0.0874675350965962
 40
0.1748021081735525
 40
0.262086575037844
 40
0.3494303546843853
 40
0.4369015511478782
 40
0.5242651541741822
 40
0.6115517982176092
 40
0.6988708694257594
 40
0.7904593144115649
 40
0.8820419854416341
 40
0.9735265048251498
 40
1.0
 40
1.0
 40
1.0
 40
1.0
 10
5.221736496380865
 20
-0.2676755942350106
 30
0.0
 10
5.666895531607819
 20
-0.5229462830921141
 30
0.0
 10
6.556536902480351
 20
-1.033099616187162
 30
0.0
 10
7.889827186603167
 20
-1.761312435343355
 30
0.0
 10
9.222371305068958
 20
-2.430036052561576
 30
0.0
 10
10.55573563349512
 20
-3.015924809455971
 30
0.0
 10
11.8902070911901
 20
-3.498579774940894
 30
0.0
 10
13.2237739439687
 20
-3.86264310244061
 30
0.0
 10
14.55635171947079
 20
-4.09527621203222
 30
0.0
 10
15.91048436512033
 20
-4.189296989171656
 30
0.0
 10
17.28706088807138
 20
-4.136648534579099
 30
0.0
 10
18.6847596314216
 20
-3.91932798603225
 30
0.0
 10
19.75077944156686
 20
-3.668389002864761
 30
0.0
 10
20.35086097360906
 20
-3.453666704727162
 30
0.0
 10
20.48553817720996
 20
-3.405476255396856
 30
0.0
  0
SPLINE
  5
B9
330
1F
100
AcDbEntity
  8
외형선
  6
Continuous
370
    15
100
AcDbSpline
210
0.0
220
0.0
230
1.0
 70
    24
 71
     3
 72
    21
 73
    17
 74
     0
 42
0.000000001
 43
0.00000001
 40
0.0
 40
0.0
 40
0.0
 40
0.0
 40
0.0556398019938872
 40
0.1306067302542502
 40
0.2055736585146131
 40
0.2805405867749756
 40
0.3555075150353381
 40
0.4304744432957013
 40
0.5054413715560645
 40
0.5804082998164279
 40
0.6553752280767914
 40
0.7303421563371543
 40
0.805309084597517
 40
0.8802760128578794
 40
0.9552429411182415
 40
1.0
 40
1.0
 40
1.0
 40
1.0
 10
5.221736496380846
 20
3.811906194681123
 30
0.0
 10
5.221736496380858
 20
3.731071395510137
 30
0.0
 10
5.221736496380879
 20
3.541322898352627
 30
0.0
 10
5.221736496380853
 20
3.201627204838129
 30
0.0
 10
5.221736496380824
 20
2.803904589478363
 30
0.0
 10
5.221736496380839
 20
2.386790421101238
 30
0.0
 10
5.221736496380853
 20
1.963599383361945
 30
0.0
 10
5.221736496380858
 20
1.546070339442837
 30
0.0
 10
5.221736496380858
 20
1.145644758320875
 30
0.0
 10
5.221736496380858
 20
0.7746444183243324
 30
0.0
 10
5.221736496380853
 20
0.442125552691621
 30
0.0
 10
5.221736496380858
 20
0.1596257950651222
 30
0.0
 10
5.221736496380846
 20
-0.0680713052477544
 30
0.0
 10
5.221736496380853
 20
-0.2280694607937392
 30
0.0
 10
5.221736496380839
 20
-0.3191692072360117
 30
0.0
 10
5.221736496380839
 20
-0.3259866473780268
 30
0.0
 10
5.221736496380858
 20
-0.3285352475135772
 30
0.0
  0
SPLINE
  5
BA
330
1F
100
AcDbEntity
  8
0
  6
Continuous
 62
     1
370
    15
100
AcDbSpline
210
0.0
220
0.0
230
1.0
 70
     8
 71
     3
 72
    13
 73
     9
 74
     0
 42
0.000000001
 43
0.00000001
 40
0.0
 40
0.0
 40
0.0
 40
0.0
 40
0.1617039410321222
 40
0.3293952435099541
 40
0.4969543334646466
 40
0.6645021760545601
 40
0.832159858488745
 40
1.0
 40
1.0
 40
1.0
 40
1.0
 10
13.55402880486596
 20
-4.163368349456277
 30
0.0
 10
13.10480941435688
 20
-4.15051020744651
 30
0.0
 10
12.18973752692073
 20
-4.124317829008739
 30
0.0
 10
10.80948785400771
 20
-3.890961985039118
 30
0.0
 10
9.413256128874144
 20
-3.521894520713887
 30
0.0
 10
8.01712729247338
 20
-3.016816253054326
 30
0.0
 10
6.620043580153085
 20
-2.404295862219298
 30
0.0
 10
5.688007818878017
 20
-1.92488541992367
 30
0.0
 10
5.221736496380865
 20
-1.685049836101949
 30
0.0
  0
SPLINE
  5
BB
330
1F
100
AcDbEntity
  8
0
  6
Continuous
 62
     1
370
    15
100
AcDbSpline
210
0.0
220
0.0
230
1.0
 70
     8
 71
     3
 72
    13
 73
     9
 74
     0
 42
0.000000001
 43
0.00000001
 40
0.0
 40
0.0
 40
0.0
 40
0.0
 40
0.1459754881487661
 40
0.3169007424909973
 40
0.4876428115759892
 40
0.6583245111932812
 40
0.8290693119380675
 40
1.0
 40
1.0
 40
1.0
 40
1.0
 10
16.09303062403785
 20
4.158542877473271
 30
0.0
 10
16.49104236023928
 20
4.151491871283223
 30
0.0
 10
17.35509300546697
 20
4.136184718518935
 30
0.0
 10
18.68476777697661
 20
3.924694516584753
 30
0.0
 10
20.0813489104211
 20
3.571683736231901
 30
0.0
 10
21.47739086989543
 20
3.079968611809033
 30
0.0
 10
22.87400357542254
 20
2.478973329696826
 30
0.0
 10
23.80565656857803
 20
2.00493832128806
 30
0.0
 10
24.27173649638086
 20
1.767791868565517
 30
0.0
  0
LINE
  5
BC
330
1F
100
AcDbEntity
  8
0
  6
Continuous
 62
     1
370
    15
100
AcDbLine
 10
24.27173649638086
 20
0.3581251763256226
 30
0.0
 11
24.27173649638086
 21
1.767791868565517
 31
0.0
  0
SPLINE
  5
BD
330
1F
100
AcDbEntity
  8
0
  6
Continuous
 62
     1
370
    15
100
AcDbSpline
210
0.0
220
0.0
230
1.0
 70
     8
 71
     3
 72
    10
 73
     6
 74
     0
 42
0.000000001
 43
0.00000001
 40
0.0
 40
0.0
 40
0.0
 40
0.0
 40
0.3386003948932084
 40
0.6766860731854916
 40
1.0
 40
1.0
 40
1.0
 40
1.0
 10
5.221736496380853
 20
-4.157437403416724
 30
0.0
 10
5.666895969014632
 20
-4.126699168548689
 30
0.0
 10
6.556538214035902
 20
-4.065269424924018
 30
0.0
 10
7.870664897886051
 20
-3.809169515475122
 30
0.0
 10
8.739773406029773
 20
-3.541155084550472
 30
0.0
 10
9.16462229076788
 20
-3.41014079691537
 30
0.0
  0
SPLINE
  5
BE
330
1F
100
AcDbEntity
  8
외형선
  6
Continuous
370
    15
100
AcDbSpline
210
0.0
220
0.0
230
1.0
 70
    24
 71
     3
 72
    15
 73
    11
 74
     0
 42
0.000000001
 43
0.00000001
 40
0.0
 40
0.0
 40
0.0
 40
0.0
 40
0.0058493954998607
 40
0.1621389759355522
 40
0.3229609647916868
 40
0.4792505452273708
 40
0.6400725340835107
 40
0.7963621145192028
 40
0.957184103375338
 40
1.0
 40
1.0
 40
1.0
 40
1.0
 10
5.221736496380858
 20
-1.729362977953096
 30
0.0
 10
5.221736496380858
 20
-1.732560160675416
 30
0.0
 10
5.221736496380929
 20
-1.821182640124463
 30
0.0
 10
5.221736496380846
 20
-2.047269650879156
 30
0.0
 10
5.221736496380858
 20
-2.397845072507815
 30
0.0
 10
5.221736496380831
 20
-2.791330325841971
 30
0.0
 10
5.221736496380872
 20
-3.201415067269892
 30
0.0
 10
5.221736496380817
 20
-3.625779947042859
 30
0.0
 10
5.221736496380922
 20
-3.944704846231498
 30
0.0
 10
5.221736496380865
 20
-4.120479824193025
 30
0.0
 10
5.221736496380846
 20
-4.157437403416724
 30
0.0
  0
SPLINE
  5
BF
330
1F
100
AcDbEntity
  8
0
  6
Continuous
 62
     1
370
    15
100
AcDbSpline
210
0.0
220
0.0
230
1.0
 70
     8
 71
     3
 72
    10
 73
     6
 74
     0
 42
0.000000001
 43
0.00000001
 40
0.0
 40
0.0
 40
0.0
 40
0.0
 40
0.3524393795964555
 40
0.704384693928467
 40
1.0
 40
1.0
 40
1.0
 40
1.0
 10
24.27173649638088
 20
4.168262428723897
 30
0.0
 10
23.82681740197592
 20
4.11665489668369
 30
0.0
 10
22.93760292062539
 20
4.044139597078582
 30
0.0
 10
21.67575643138677
 20
3.785511556892457
 30
0.0
 10
20.85858282733727
 20
3.52606501492695
 30
0.0
 10
20.48553817720997
 20
3.407626112844643
 30
0.0
  0
LINE
  5
C0
330
1F
100
AcDbEntity
  8
0
  6
Continuous
 62
     1
370
    15
100
AcDbLine
 10
24.27173649638086
 20
1.767791868565518
 30
0.0
 11
24.27173649638086
 21
4.168262428723896
 31
0.0
  0
LINE
  5
C1
330
1F
100
AcDbEntity
  8
중심선
 48
0.8
100
AcDbLine
 10
-42.22826350361915
 20
0.0010749287238892
 30
0.0
 11
27.27173649638086
 21
0.0010749287238978
 31
0.0
  0
LINE
  5
C2
330
1F
100
AcDbEntity
  8
참조1
100
AcDbLine
 10
-4.094396350222712
 20
0.0010749287238892
 30
0.0
 11
-4.094396350222707
 21
-39.99892507127611
 31
0.0
  0
LINE
  5
C3
330
1F
100
AcDbEntity
  8
참조1
100
AcDbLine
 10
-4.094396350222707
 20
-39.99892507127611
 30
0.0
 11
-21.63450316453139
 21
-39.9989250712761
 31
0.0
  0
CIRCLE
  5
C4
330
1F
100
AcDbEntity
  8
해칭선
100
AcDbCircle
 10
0.0
 20
0.0
 30
0.0
 40
3.0
  0
INSERT
  5
C5
330
1F
100
AcDbEntity
  8
0
  6
Continuous
 62
     7
100
AcDbBlockReference
 66
     1
  2
블럭10
 10
-18.03466928234792
 20
-52.04609937292004
 30
0.0
  0
ATTRIB
  5
C6
330
C5
100
AcDbEntity
  8
FORMAT
 62
     2
100
AcDbText
 10
-27.2159645710892
 20
-49.97073246008785
 30
0.0
 40
4.233333333333333
  1
E2031021 [ 4 FLUTE ]
 41
0.75
  7
SLDTEXTSTYLE0
 11
-27.2159645710892
 21
-52.08739912675452
 31
0.0
100
AcDbAttribute
  2
AUTOATTR0
 70
     0
 74
     1
  0
SEQEND
  5
C7
330
C5
100
AcDbEntity
  8
0
  6
Continuous
 62
     7
  0
HATCH
  5
C8
330
1F
100
AcDbEntity
  8
중심선
100
AcDbHatch
 10
0.0
 20
0.0
 30
0.0
210
0.0
220
0.0
230
1.0
  2
SOLID
 70
     1
 71
     0
 91
        1
 92
        0
 93
        4
 72
     1
 10
-12.31975997796708
 20
-35.7989250712761
 11
-15.76603522180436
 21
-35.7989250712761
 72
     1
 10
-15.76603522180436
 20
-35.7989250712761
 11
-17.89426508100839
 21
-38.3352506518487
 72
     1
 10
-17.89426508100839
 20
-38.3352506518487
 11
-14.44795675205796
 21
-38.33521122254621
 72
     1
 10
-14.44795675205796
 20
-38.33521122254621
 11
-12.31975997796708
 21
-35.7989250712761
 97
        0
 75
     0
 76
     1
 98
        1
 10
0.0
 20
0.0
  0
HATCH
  5
C9
330
1F
100
AcDbEntity
  8
중심선
100
AcDbHatch
 10
0.0
 20
0.0
 30
0.0
210
0.0
220
0.0
230
1.0
  2
SOLID
 70
     1
 71
     0
 91
        1
 92
        0
 93
        4
 72
     1
 10
-7.306995986931103
 20
-35.7989250712761
 11
-10.75327123076839
 21
-35.7989250712761
 72
     1
 10
-10.75327123076839
 20
-35.7989250712761
 11
-15.2844092391258
 21
-41.19892507127612
 72
     1
 10
-15.2844092391258
 20
-41.19892507127612
 11
-11.83813399528852
 21
-41.19892507127612
 72
     1
 10
-11.83813399528852
 20
-41.19892507127612
 11
-7.306995986931103
 21
-35.7989250712761
 97
        0
 75
     0
 76
     1
 98
        1
 10
0.0
 20
0.0
  0
HATCH
  5
CA
330
1F
100
AcDbEntity
  8
중심선
100
AcDbHatch
 10
0.0
 20
0.0
 30
0.0
210
0.0
220
0.0
230
1.0
  2
SOLID
 70
     1
 71
     0
 91
        1
 92
        0
 93
        4
 72
     1
 10
-2.294231995895235
 20
-35.7989250712761
 11
-5.74050723973235
 21
-35.7989250712761
 72
     1
 10
-5.74050723973235
 20
-35.7989250712761
 11
-12.7889441416216
 21
-44.19892507127612
 72
     1
 10
-12.7889441416216
 20
-44.19892507127612
 11
-9.342668897784318
 21
-44.19892507127612
 72
     1
 10
-9.342668897784318
 20
-44.19892507127612
 11
-2.294231995895235
 21
-35.7989250712761
 97
        0
 75
     0
 76
     1
 98
        1
 10
0.0
 20
0.0
  0
HATCH
  5
CB
330
1F
100
AcDbEntity
  8
중심선
100
AcDbHatch
 10
0.0
 20
0.0
 30
0.0
210
0.0
220
0.0
230
1.0
  2
SOLID
 70
     1
 71
     0
 91
        1
 92
        0
 93
        6
 72
     3
 10
2.505658435116964
 20
-39.99892507132738
 11
3.960054785062284
 21
1.540850780301639E-10
 40
0.3939339440162633
 50
17.09539180608433
 51
320.0019657685086
 73
     0
 72
     1
 10
4.18865809081756
 20
-38.58681907591443
 11
6.493959964518598
 21
-36.65249236586649
 72
     3
 10
2.505658435064118
 20
-39.99892507127625
 11
6.600054785286829
 21
-1.249000902703301E-13
 40
0.6363583540795982
 50
39.99873849337408
 51
368.4976242363725
 73
     1
 72
     1
 10
8.930990926964727
 20
-39.03892507120613
 11
1.18572574190004
 21
-39.03892507120613
 72
     1
 10
1.18572574190004
 20
-39.03892507120613
 11
1.185700697454106
 21
-40.95892507120602
 72
     1
 10
1.185700697454106
 20
-40.95892507120602
 11
5.627080466926143
 21
-40.95892507120599
 97
        0
 75
     0
 76
     1
 98
        1
 10
0.0
 20
0.0
  0
DIMENSION
  5
CC
330
1F
100
AcDbEntity
  8
치수문자_일반주서
100
AcDbDimension
  2
_D
 10
5.221736496380865
 20
16.81561893290933
 30
0.0
 11
-13.85101350361914
 21
16.81561893290933
 31
0.0
 70
   160
  1
<>
 71
     2
 42
19.05
  3
SLDDIMSTYLE2
100
AcDbAlignedDimension
 13
24.27173649638086
 23
4.168262428723896
 33
0.0
 14
5.221736496380862
 24
4.159587260864511
 34
0.0
 50
0.0000000000000107
100
AcDbRotatedDimension
1001
ACAD
1000
DSTYLE
1002
{
1070
   171
1070
     6
1070
   273
1070
     7
1002
}
  0
DIMENSION
  5
E1
330
1F
100
AcDbEntity
  8
치수문자_일반주서
100
AcDbDimension
  2
_D_1
 10
-39.22826350361915
 20
33.05498106185991
 30
0.0
 11
-7.478263503619139
 21
33.05498106185991
 31
0.0
 70
   160
  1
<>
 71
     2
 42
63.5
  3
SLDDIMSTYLE2
100
AcDbAlignedDimension
 13
24.27173649638086
 23
4.168262428723896
 33
0.0
 14
-39.22826350361914
 24
3.811074928723895
 34
0.0
 50
0.0000000000000064
100
AcDbRotatedDimension
1001
ACAD
1000
DSTYLE
1002
{
1070
   171
1070
     6
1070
   273
1070
     7
1002
}
  0
DIMENSION
  5
F5
330
1F
100
AcDbEntity
  8
치수문자_일반주서
100
AcDbDimension
  2
_D_2
 10
-50.52903634144632
 20
-4.761425071276156
 30
0.0
 11
-50.52903634144634
 21
0.0010749287238959
 31
0.0
 70
   160
  1
%%c<>
 71
     2
 42
9.525000000000006
 52
-270.0
  3
SLDDIMSTYLE2
100
AcDbAlignedDimension
 13
-38.27576350361915
 23
4.763574928723896
 33
0.0
 14
-38.27576350361915
 24
-4.761425071276109
 34
0.0
 50
90.0000000000002
100
AcDbRotatedDimension
1001
ACAD
1000
DSTYLE
1002
{
1070
   171
1070
     6
1070
   273
1070
     7
1002
}
  0
DIMENSION
  5
10A
330
1F
100
AcDbEntity
  8
치수문자_일반주서
100
AcDbDimension
  2
_D_3
 10
42.8795331370824
 20
-4.166112571276035
 30
0.0
 11
42.8795331370823
 21
26.13193797810839
 31
0.0
 70
   160
  1
%%c<>
 71
     2
 42
8.334374999999996
 52
-270.0
  3
SLDDIMSTYLE2
100
AcDbAlignedDimension
 13
24.27173649638086
 23
4.168262428723896
 33
0.0
 14
24.27173649638086
 24
-4.1661125712761
 34
0.0
 50
90.0000000000002
100
AcDbRotatedDimension
1001
ACAD
1000
DSTYLE
1002
{
1070
   171
1070
     6
1070
   273
1070
     7
1002
}
  0
LINE
  5
11D
330
1F
100
AcDbEntity
  8
참조1
100
AcDbLine
 10
76.33783746512287
 20
7.441074928723896
 30
0.0
 11
76.33783746512287
 21
-7.438925071276109
 31
0.0
  0
LINE
  5
11E
330
1F
100
AcDbEntity
  8
참조1
100
AcDbLine
 10
89.03783746512288
 20
5.441074928723896
 30
0.0
 11
76.33783746512287
 21
5.441074928723896
 31
0.0
  0
SOLID
  5
11F
330
1F
100
AcDbEntity
  8
참조1
100
AcDbTrace
 10
76.33783746512287
 20
5.441074928723896
 30
0.0
 11
82.68783746512287
 21
4.425074928723896
 31
0.0
 12
82.68783746512287
 22
6.457074928723896
 32
0.0
 13
82.68783746512287
 23
6.457074928723896
 33
0.0
  0
LINE
  5
120
330
1F
100
AcDbEntity
  8
참조1
100
AcDbLine
 10
89.03783746512288
 20
-5.438925071276109
 30
0.0
 11
76.33783746512287
 21
-5.438925071276109
 31
0.0
  0
SOLID
  5
121
330
1F
100
AcDbEntity
  8
참조1
100
AcDbTrace
 10
76.33783746512287
 20
-5.438925071276109
 30
0.0
 11
82.68783746512287
 21
-6.454925071276109
 31
0.0
 12
82.68783746512287
 22
-4.422925071276109
 32
0.0
 13
82.68783746512287
 23
-4.422925071276109
 33
0.0
  0
MTEXT
  5
122
330
1F
100
AcDbEntity
  8
참조1
100
AcDbMText
 10
85.72218759774887
 20
11.01136670591222
 30
0.0
 40
3.5
 41
0.0
 71
     1
 72
     1
  1
A
  7
SLDTEXTSTYLE0
 73
     1
 44
1.0
  0
MTEXT
  5
123
330
1F
100
AcDbEntity
  8
참조1
100
AcDbMText
 10
85.72218759774887
 20
0.1313667059122201
 30
0.0
 40
3.5
 41
0.0
 71
     1
 72
     1
  1
A
  7
SLDTEXTSTYLE0
 73
     1
 44
1.0
  0
INSERT
  5
12A
330
1F
100
AcDbEntity
  8
해칭선
100
AcDbBlockReference
  2
SW_DOWELSYMBOL_0
 10
0.0
 20
0.0
 30
0.0
  0
LINE
  5
25D
330
1F
100
AcDbEntity
  8
외형선
  6
Continuous
370
    15
100
AcDbLine
 10
-22.95321350361926
 20
3.493574928723909
 30
0.0
 11
-15.81581350361913
 21
3.493574928723909
 31
0.0
  0
LINE
  5
25E
330
1F
100
AcDbEntity
  8
외형선
  6
Continuous
370
    15
100
AcDbLine
 10
-22.95321350361926
 20
3.493574928723909
 30
0.0
 11
-24.22321350361924
 21
4.763574928723891
 31
0.0
  0
LINE
  5
25F
330
1F
100
AcDbEntity
  8
외형선
  6
Continuous
370
    15
100
AcDbLine
 10
-15.81581350361913
 20
3.493574928723909
 30
0.0
 11
-14.54581350361904
 21
4.763574928723891
 31
0.0
  0
LINE
  5
29B
330
1F
100
AcDbEntity
  8
외형선
  6
Continuous
370
    15
100
AcDbLine
 10
-24.22321350361924
 20
4.763574928723895
 30
0.0
 11
-38.27576350361915
 21
4.763574928723895
 31
0.0
  0
ENDSEC
  0
SECTION
  2
OBJECTS
  0
DICTIONARY
  5
C
330
0
100
AcDbDictionary
281
     1
  3
ACAD_GROUP
350
D
  3
ACAD_IMAGE_VARS
350
14E
  3
ACAD_LAYOUT
350
1A
  3
ACAD_MLINESTYLE
350
17
  3
ACAD_PLOTSETTINGS
350
19
  3
ACAD_PLOTSTYLENAME
350
E
  3
ACAD_SCALELIST
350
47
  3
APPDATA
350
14C
  3
DWGPROPS
350
29E
  0
DICTIONARY
  5
1EE
330
2
100
AcDbDictionary
280
     1
281
     1
  3
ACAD_LAYERSTATES
360
1EF
  0
DICTIONARY
  5
D
102
{ACAD_REACTORS
330
C
102
}
330
C
100
AcDbDictionary
281
     1
  0
RASTERVARIABLES
  5
14E
102
{ACAD_REACTORS
330
C
102
}
330
C
100
AcDbRasterVariables
 90
        0
 70
     1
 71
     1
 72
     1
  0
DICTIONARY
  5
1A
102
{ACAD_REACTORS
330
C
102
}
330
C
100
AcDbDictionary
281
     1
  3
Layout1
350
1E
  3
Layout2
350
26
  3
Model
350
22
  0
DICTIONARY
  5
17
102
{ACAD_REACTORS
330
C
102
}
330
C
100
AcDbDictionary
281
     1
  3
Standard
350
18
  0
DICTIONARY
  5
19
102
{ACAD_REACTORS
330
C
102
}
330
C
100
AcDbDictionary
281
     1
  0
ACDBDICTIONARYWDFLT
  5
E
102
{ACAD_REACTORS
330
C
102
}
330
C
100
AcDbDictionary
281
     1
  3
Normal
350
F
100
AcDbDictionaryWithDefault
340
F
  0
DICTIONARY
  5
47
102
{ACAD_REACTORS
330
C
102
}
330
C
100
AcDbDictionary
281
     1
  3
A0
350
48
  3
A1
350
49
  3
A2
350
4A
  3
A3
350
4B
  3
A4
350
4C
  3
A5
350
4D
  3
A6
350
4E
  3
A7
350
4F
  3
A8
350
50
  3
A9
350
51
  3
B0
350
52
  3
B1
350
53
  3
B2
350
54
  3
B3
350
55
  3
B4
350
56
  3
B5
350
57
  3
B6
350
58
  3
B7
350
59
  3
B8
350
5A
  3
B9
350
5B
  3
C0
350
5C
  3
C1
350
5D
  3
C2
350
5E
  3
C3
350
5F
  3
C4
350
60
  3
C5
350
61
  3
C6
350
62
  3
C7
350
63
  3
C8
350
64
  3
C9
350
65
  3
D0
350
66
  3
D1
350
67
  3
D2
350
68
  0
DICTIONARY
  5
14C
102
{ACAD_REACTORS
330
C
102
}
330
C
100
AcDbDictionary
281
     1
  0
XRECORD
  5
29E
102
{ACAD_REACTORS
330
C
102
}
330
C
100
AcDbXrecord
280
     1
  1
DWGPROPS COOKIE
  2

  3

  4

  6

  7

  8
12017012
  9

300
=
301
=
302
=
303
=
304
=
305
=
306
=
307
=
308
=
309
=
 40
0.0
 41
2458312.293479456
 42
2458320.22332059
  1

 90
        0
  0
DICTIONARY
  5
1EF
102
{ACAD_REACTORS
330
1EE
102
}
330
1EE
100
AcDbDictionary
281
     1
  0
LAYOUT
  5
1E
102
{ACAD_REACTORS
330
1A
102
}
330
1A
100
AcDbPlotSettings
  1

  2
none_device
  4

  6

 40
0.0
 41
0.0
 42
0.0
 43
0.0
 44
0.0
 45
0.0
 46
0.0
 47
0.0
 48
0.0
 49
0.0
140
0.0
141
0.0
142
1.0
143
1.0
 70
   688
 72
     1
 73
     0
 74
     5
  7

 75
    16
147
1.0
148
0.0
149
0.0
100
AcDbLayout
  1
Layout1
 70
     1
 71
     1
 10
0.0
 20
0.0
 11
420.0
 21
297.0
 12
0.0
 22
0.0
 32
0.0
 14
1.000000000000000E+20
 24
1.000000000000000E+20
 34
1.000000000000000E+20
 15
-1.000000000000000E+20
 25
-1.000000000000000E+20
 35
-1.000000000000000E+20
146
0.0
 13
0.0
 23
0.0
 33
0.0
 16
1.0
 26
0.0
 36
0.0
 17
0.0
 27
1.0
 37
0.0
 76
     0
330
1B
  0
LAYOUT
  5
26
102
{ACAD_REACTORS
330
1A
102
}
330
1A
100
AcDbPlotSettings
  1

  2
none_device
  4

  6

 40
0.0
 41
0.0
 42
0.0
 43
0.0
 44
0.0
 45
0.0
 46
0.0
 47
0.0
 48
0.0
 49
0.0
140
0.0
141
0.0
142
1.0
143
1.0
 70
   688
 72
     1
 73
     0
 74
     5
  7

 75
    16
147
1.0
148
0.0
149
0.0
100
AcDbLayout
  1
Layout2
 70
     1
 71
     2
 10
0.0
 20
0.0
 11
0.0
 21
0.0
 12
0.0
 22
0.0
 32
0.0
 14
0.0
 24
0.0
 34
0.0
 15
0.0
 25
0.0
 35
0.0
146
0.0
 13
0.0
 23
0.0
 33
0.0
 16
1.0
 26
0.0
 36
0.0
 17
0.0
 27
1.0
 37
0.0
 76
     0
330
23
  0
LAYOUT
  5
22
102
{ACAD_REACTORS
330
1A
102
}
330
1A
100
AcDbPlotSettings
  1

  2
none_device
  4
ANSI_A_(11.00_x_8.50_Inches)
  6

 40
6.35
 41
19.05
 42
6.35000508
 43
19.05000254
 44
279.4
 45
215.9
 46
104.0853757014623
 47
95.36162961135057
 48
0.0
 49
0.0
140
0.0
141
0.0
142
0.0740937858640012
143
1.0
 70
  1696
 72
     0
 73
     0
 74
     0
  7

 75
     0
147
0.0235690232323232
148
0.0
149
0.0
100
AcDbLayout
  1
Model
 70
     1
 71
     0
 10
0.0
 20
0.0
 11
420.0
 21
297.0
 12
0.0
 22
0.0
 32
0.0
 14
1.000000000000000E+20
 24
1.000000000000000E+20
 34
1.000000000000000E+20
 15
-1.000000000000000E+20
 25
-1.000000000000000E+20
 35
-1.000000000000000E+20
146
0.0
 13
0.0
 23
0.0
 33
0.0
 16
1.0
 26
0.0
 36
0.0
 17
0.0
 27
1.0
 37
0.0
 76
     0
330
1F
331
29
  0
MLINESTYLE
  5
18
102
{ACAD_REACTORS
330
17
102
}
330
17
100
AcDbMlineStyle
  2
Standard
 70
     0
  3

 62
   256
 51
90.0
 52
90.0
 71
     2
 49
0.5
 62
   256
  6
BYLAYER
 49
-0.5
 62
   256
  6
BYLAYER
  0
ACDBPLACEHOLDER
  5
F
102
{ACAD_REACTORS
330
E
102
}
330
E
  0
SCALE
  5
48
102
{ACAD_REACTORS
330
47
102
}
330
47
100
AcDbScale
 70
     0
300
1:1
140
1.0
141
1.0
290
     1
  0
SCALE
  5
49
102
{ACAD_REACTORS
330
47
102
}
330
47
100
AcDbScale
 70
     0
300
1:2
140
1.0
141
2.0
290
     0
  0
SCALE
  5
4A
102
{ACAD_REACTORS
330
47
102
}
330
47
100
AcDbScale
 70
     0
300
1:4
140
1.0
141
4.0
290
     0
  0
SCALE
  5
4B
102
{ACAD_REACTORS
330
47
102
}
330
47
100
AcDbScale
 70
     0
300
1:5
140
1.0
141
5.0
290
     0
  0
SCALE
  5
4C
102
{ACAD_REACTORS
330
47
102
}
330
47
100
AcDbScale
 70
     0
300
1:8
140
1.0
141
8.0
290
     0
  0
SCALE
  5
4D
102
{ACAD_REACTORS
330
47
102
}
330
47
100
AcDbScale
 70
     0
300
1:10
140
1.0
141
10.0
290
     0
  0
SCALE
  5
4E
102
{ACAD_REACTORS
330
47
102
}
330
47
100
AcDbScale
 70
     0
300
1:16
140
1.0
141
16.0
290
     0
  0
SCALE
  5
4F
102
{ACAD_REACTORS
330
47
102
}
330
47
100
AcDbScale
 70
     0
300
1:20
140
1.0
141
20.0
290
     0
  0
SCALE
  5
50
102
{ACAD_REACTORS
330
47
102
}
330
47
100
AcDbScale
 70
     0
300
1:30
140
1.0
141
30.0
290
     0
  0
SCALE
  5
51
102
{ACAD_REACTORS
330
47
102
}
330
47
100
AcDbScale
 70
     0
300
1:40
140
1.0
141
40.0
290
     0
  0
SCALE
  5
52
102
{ACAD_REACTORS
330
47
102
}
330
47
100
AcDbScale
 70
     0
300
1:50
140
1.0
141
50.0
290
     0
  0
SCALE
  5
53
102
{ACAD_REACTORS
330
47
102
}
330
47
100
AcDbScale
 70
     0
300
1:100
140
1.0
141
100.0
290
     0
  0
SCALE
  5
54
102
{ACAD_REACTORS
330
47
102
}
330
47
100
AcDbScale
 70
     0
300
2:1
140
2.0
141
1.0
290
     0
  0
SCALE
  5
55
102
{ACAD_REACTORS
330
47
102
}
330
47
100
AcDbScale
 70
     0
300
4:1
140
4.0
141
1.0
290
     0
  0
SCALE
  5
56
102
{ACAD_REACTORS
330
47
102
}
330
47
100
AcDbScale
 70
     0
300
8:1
140
8.0
141
1.0
290
     0
  0
SCALE
  5
57
102
{ACAD_REACTORS
330
47
102
}
330
47
100
AcDbScale
 70
     0
300
10:1
140
10.0
141
1.0
290
     0
  0
SCALE
  5
58
102
{ACAD_REACTORS
330
47
102
}
330
47
100
AcDbScale
 70
     0
300
100:1
140
100.0
141
1.0
290
     0
  0
SCALE
  5
59
102
{ACAD_REACTORS
330
47
102
}
330
47
100
AcDbScale
 70
     0
300
1/128" = 1'-0"
140
0.0078125
141
12.0
290
     0
  0
SCALE
  5
5A
102
{ACAD_REACTORS
330
47
102
}
330
47
100
AcDbScale
 70
     0
300
1/64" = 1'-0"
140
0.015625
141
12.0
290
     0
  0
SCALE
  5
5B
102
{ACAD_REACTORS
330
47
102
}
330
47
100
AcDbScale
 70
     0
300
1/32" = 1'-0"
140
0.03125
141
12.0
290
     0
  0
SCALE
  5
5C
102
{ACAD_REACTORS
330
47
102
}
330
47
100
AcDbScale
 70
     0
300
1/16" = 1'-0"
140
0.0625
141
12.0
290
     0
  0
SCALE
  5
5D
102
{ACAD_REACTORS
330
47
102
}
330
47
100
AcDbScale
 70
     0
300
3/32" = 1'-0"
140
0.09375
141
12.0
290
     0
  0
SCALE
  5
5E
102
{ACAD_REACTORS
330
47
102
}
330
47
100
AcDbScale
 70
     0
300
1/8" = 1'-0"
140
0.125
141
12.0
290
     0
  0
SCALE
  5
5F
102
{ACAD_REACTORS
330
47
102
}
330
47
100
AcDbScale
 70
     0
300
3/16" = 1'-0"
140
0.1875
141
12.0
290
     0
  0
SCALE
  5
60
102
{ACAD_REACTORS
330
47
102
}
330
47
100
AcDbScale
 70
     0
300
1/4" = 1'-0"
140
0.25
141
12.0
290
     0
  0
SCALE
  5
61
102
{ACAD_REACTORS
330
47
102
}
330
47
100
AcDbScale
 70
     0
300
3/8" = 1'-0"
140
0.375
141
12.0
290
     0
  0
SCALE
  5
62
102
{ACAD_REACTORS
330
47
102
}
330
47
100
AcDbScale
 70
     0
300
1/2" = 1'-0"
140
0.5
141
12.0
290
     0
  0
SCALE
  5
63
102
{ACAD_REACTORS
330
47
102
}
330
47
100
AcDbScale
 70
     0
300
3/4" = 1'-0"
140
0.75
141
12.0
290
     0
  0
SCALE
  5
64
102
{ACAD_REACTORS
330
47
102
}
330
47
100
AcDbScale
 70
     0
300
1" = 1'-0"
140
1.0
141
12.0
290
     0
  0
SCALE
  5
65
102
{ACAD_REACTORS
330
47
102
}
330
47
100
AcDbScale
 70
     0
300
1-1/2" = 1'-0"
140
1.5
141
12.0
290
     0
  0
SCALE
  5
66
102
{ACAD_REACTORS
330
47
102
}
330
47
100
AcDbScale
 70
     0
300
3" = 1'-0"
140
3.0
141
12.0
290
     0
  0
SCALE
  5
67
102
{ACAD_REACTORS
330
47
102
}
330
47
100
AcDbScale
 70
     0
300
6" = 1'-0"
140
6.0
141
12.0
290
     0
  0
SCALE
  5
68
102
{ACAD_REACTORS
330
47
102
}
330
47
100
AcDbScale
 70
     0
300
1'-0" = 1'-0"
140
12.0
141
12.0
290
     0
  0
ENDSEC
  0
EOF
