  0
SECTION
  2
HEADER
  9
$ACADVER
  1
AC1015
  9
$ACADMAINTVER
 70
     6
  9
$DWGCODEPAGE
  3
ANSI_949
  9
$INSBASE
 10
0.0
 20
0.0
 30
0.0
  9
$EXTMIN
 10
1.000000000000000E+20
 20
1.000000000000000E+20
 30
1.000000000000000E+20
  9
$EXTMAX
 10
-1.000000000000000E+20
 20
-1.000000000000000E+20
 30
-1.000000000000000E+20
  9
$LIMMIN
 10
0.0
 20
0.0
  9
$LIMMAX
 10
420.0
 20
297.0
  9
$ORTHOMODE
 70
     0
  9
$REGENMODE
 70
     1
  9
$FILLMODE
 70
     1
  9
$QTEXTMODE
 70
     0
  9
$MIRRTEXT
 70
     1
  9
$LTSCALE
 40
1.0
  9
$ATTMODE
 70
     1
  9
$TEXTSIZE
 40
3.5
  9
$TRACEWID
 40
1.0
  9
$TEXTSTYLE
  7
Standard
  9
$CLAYER
  8
0
  9
$CELTYPE
  6
ByLayer
  9
$CECOLOR
 62
   256
  9
$CELTSCALE
 40
1.0
  9
$DISPSILH
 70
     0
  9
$DIMSCALE
 40
1.0
  9
$DIMASZ
 40
3.302
  9
$DIMEXO
 40
1.0
  9
$DIMDLI
 40
3.75
  9
$DIMRND
 40
0.0
  9
$DIMDLE
 40
0.0
  9
$DIMEXE
 40
1.0
  9
$DIMTP
 40
0.0
  9
$DIMTM
 40
0.0
  9
$DIMTXT
 40
3.5
  9
$DIMCEN
 40
2.5
  9
$DIMTSZ
 40
0.0
  9
$DIMTOL
 70
     0
  9
$DIMLIM
 70
     0
  9
$DIMTIH
 70
     1
  9
$DIMTOH
 70
     1
  9
$DIMSE1
 70
     0
  9
$DIMSE2
 70
     0
  9
$DIMTAD
 70
     1
  9
$DIMZIN
 70
     0
  9
$DIMBLK
  1

  9
$DIMASO
 70
     1
  9
$DIMSHO
 70
     1
  9
$DIMPOST
  1

  9
$DIMAPOST
  1

  9
$DIMALT
 70
     0
  9
$DIMALTD
 70
     3
  9
$DIMALTF
 40
0.0393700787401575
  9
$DIMLFAC
 40
1.0
  9
$DIMTOFL
 70
     1
  9
$DIMTVP
 40
0.0
  9
$DIMTIX
 70
     0
  9
$DIMSOXD
 70
     0
  9
$DIMSAH
 70
     0
  9
$DIMBLK1
  1

  9
$DIMBLK2
  1

  9
$DIMSTYLE
  2
ISO-25
  9
$DIMCLRD
 70
     0
  9
$DIMCLRE
 70
     0
  9
$DIMCLRT
 70
     0
  9
$DIMTFAC
 40
1.0
  9
$DIMGAP
 40
1.524
  9
$DIMJUST
 70
     0
  9
$DIMSD1
 70
     0
  9
$DIMSD2
 70
     0
  9
$DIMTOLJ
 70
     0
  9
$DIMTZIN
 70
     0
  9
$DIMALTZ
 70
     0
  9
$DIMALTTZ
 70
     0
  9
$DIMUPT
 70
     0
  9
$DIMDEC
 70
     2
  9
$DIMTDEC
 70
     2
  9
$DIMALTU
 70
     2
  9
$DIMALTTD
 70
     3
  9
$DIMTXSTY
  7
Standard
  9
$DIMAUNIT
 70
     0
  9
$DIMADEC
 70
     2
  9
$DIMALTRND
 40
0.0
  9
$DIMAZIN
 70
     0
  9
$DIMDSEP
 70
    44
  9
$DIMATFIT
 70
     3
  9
$DIMFRAC
 70
     0
  9
$DIMLDRBLK
  1

  9
$DIMLUNIT
 70
     2
  9
$DIMLWD
 70
    -2
  9
$DIMLWE
 70
    -2
  9
$DIMTMOVE
 70
     0
  9
$LUNITS
 70
     2
  9
$LUPREC
 70
     2
  9
$SKETCHINC
 40
1.0
  9
$FILLETRAD
 40
10.0
  9
$AUNITS
 70
     0
  9
$AUPREC
 70
     2
  9
$MENU
  1
.
  9
$ELEVATION
 40
0.0
  9
$PELEVATION
 40
0.0
  9
$THICKNESS
 40
0.0
  9
$LIMCHECK
 70
     0
  9
$CHAMFERA
 40
0.0
  9
$CHAMFERB
 40
0.0
  9
$CHAMFERC
 40
0.0
  9
$CHAMFERD
 40
0.0
  9
$SKPOLY
 70
     0
  9
$TDCREATE
 40
2458312.669538958
  9
$TDUCREATE
 40
2458312.294538958
  9
$TDUPDATE
 40
2458320.64379309
  9
$TDUUPDATE
 40
2458320.26879309
  9
$TDINDWG
 40
0.0001872801
  9
$TDUSRTIMER
 40
2458320.267137002
  9
$USRTIMER
 70
     1
  9
$ANGBASE
 50
0.0
  9
$ANGDIR
 70
     0
  9
$PDMODE
 70
     0
  9
$PDSIZE
 40
-1.0
  9
$PLINEWID
 40
0.0
  9
$SPLFRAME
 70
     0
  9
$SPLINETYPE
 70
     6
  9
$SPLINESEGS
 70
     8
  9
$HANDSEED
  5
2A8
  9
$SURFTAB1
 70
     6
  9
$SURFTAB2
 70
     6
  9
$SURFTYPE
 70
     6
  9
$SURFU
 70
     6
  9
$SURFV
 70
     6
  9
$UCSBASE
  2

  9
$UCSNAME
  2

  9
$UCSORG
 10
0.0
 20
0.0
 30
0.0
  9
$UCSXDIR
 10
1.0
 20
0.0
 30
0.0
  9
$UCSYDIR
 10
0.0
 20
1.0
 30
0.0
  9
$UCSORTHOREF
  2

  9
$UCSORTHOVIEW
 70
     0
  9
$UCSORGTOP
 10
0.0
 20
0.0
 30
0.0
  9
$UCSORGBOTTOM
 10
0.0
 20
0.0
 30
0.0
  9
$UCSORGLEFT
 10
0.0
 20
0.0
 30
0.0
  9
$UCSORGRIGHT
 10
0.0
 20
0.0
 30
0.0
  9
$UCSORGFRONT
 10
0.0
 20
0.0
 30
0.0
  9
$UCSORGBACK
 10
0.0
 20
0.0
 30
0.0
  9
$PUCSBASE
  2

  9
$PUCSNAME
  2

  9
$PUCSORG
 10
0.0
 20
0.0
 30
0.0
  9
$PUCSXDIR
 10
1.0
 20
0.0
 30
0.0
  9
$PUCSYDIR
 10
0.0
 20
1.0
 30
0.0
  9
$PUCSORTHOREF
  2

  9
$PUCSORTHOVIEW
 70
     0
  9
$PUCSORGTOP
 10
0.0
 20
0.0
 30
0.0
  9
$PUCSORGBOTTOM
 10
0.0
 20
0.0
 30
0.0
  9
$PUCSORGLEFT
 10
0.0
 20
0.0
 30
0.0
  9
$PUCSORGRIGHT
 10
0.0
 20
0.0
 30
0.0
  9
$PUCSORGFRONT
 10
0.0
 20
0.0
 30
0.0
  9
$PUCSORGBACK
 10
0.0
 20
0.0
 30
0.0
  9
$USERI1
 70
     0
  9
$USERI2
 70
     0
  9
$USERI3
 70
     0
  9
$USERI4
 70
     0
  9
$USERI5
 70
     0
  9
$USERR1
 40
0.0
  9
$USERR2
 40
0.0
  9
$USERR3
 40
0.0
  9
$USERR4
 40
0.0
  9
$USERR5
 40
0.0
  9
$WORLDVIEW
 70
     1
  9
$SHADEDGE
 70
     3
  9
$SHADEDIF
 70
    70
  9
$TILEMODE
 70
     1
  9
$MAXACTVP
 70
    64
  9
$PINSBASE
 10
0.0
 20
0.0
 30
0.0
  9
$PLIMCHECK
 70
     0
  9
$PEXTMIN
 10
1.000000000000000E+20
 20
1.000000000000000E+20
 30
1.000000000000000E+20
  9
$PEXTMAX
 10
-1.000000000000000E+20
 20
-1.000000000000000E+20
 30
-1.000000000000000E+20
  9
$PLIMMIN
 10
0.0
 20
0.0
  9
$PLIMMAX
 10
0.0
 20
0.0
  9
$UNITMODE
 70
     0
  9
$VISRETAIN
 70
     1
  9
$PLINEGEN
 70
     0
  9
$PSLTSCALE
 70
     1
  9
$TREEDEPTH
 70
  3020
  9
$CMLSTYLE
  2
Standard
  9
$CMLJUST
 70
     0
  9
$CMLSCALE
 40
20.0
  9
$PROXYGRAPHICS
 70
     1
  9
$MEASUREMENT
 70
     1
  9
$CELWEIGHT
370
    -1
  9
$ENDCAPS
280
     0
  9
$JOINSTYLE
280
     0
  9
$LWDISPLAY
290
     1
  9
$INSUNITS
 70
     4
  9
$HYPERLINKBASE
  1

  9
$STYLESHEET
  1

  9
$XEDIT
290
     1
  9
$CEPSNTYPE
380
     0
  9
$PSTYLEMODE
290
     1
  9
$FINGERPRINTGUID
  2
{B62926E3-E629-4E61-9346-60DFE87A77C2}
  9
$VERSIONGUID
  2
{FAEB1C32-E019-11D5-929B-00C0DF256EC4}
  9
$EXTNAMES
290
     1
  9
$PSVPSCALE
 40
0.0
  9
$OLESTARTUP
290
     0
  0
ENDSEC
  0
SECTION
  2
CLASSES
  0
CLASS
  1
ACDBDICTIONARYWDFLT
  2
AcDbDictionaryWithDefault
  3
ObjectDBX Classes
 90
        0
280
     0
281
     0
  0
CLASS
  1
VISUALSTYLE
  2
AcDbVisualStyle
  3
ObjectDBX Classes
 90
     4095
280
     0
281
     0
  0
CLASS
  1
MATERIAL
  2
AcDbMaterial
  3
ObjectDBX Classes
 90
     1153
280
     0
281
     0
  0
CLASS
  1
SCALE
  2
AcDbScale
  3
ObjectDBX Classes
 90
     1153
280
     0
281
     0
  0
CLASS
  1
SUN
  2
AcDbSun
  3
SCENEOE
 90
     1153
280
     0
281
     0
  0
CLASS
  1
ACDBPLACEHOLDER
  2
AcDbPlaceHolder
  3
ObjectDBX Classes
 90
        0
280
     0
281
     0
  0
CLASS
  1
LAYOUT
  2
AcDbLayout
  3
ObjectDBX Classes
 90
        0
280
     0
281
     0
  0
CLASS
  1
TABLESTYLE
  2
AcDbTableStyle
  3
ObjectDBX Classes
 90
     4095
280
     0
281
     0
  0
CLASS
  1
MLEADERSTYLE
  2
AcDbMLeaderStyle
  3
ACDB_MLEADERSTYLE_CLASS
 90
     4095
280
     0
281
     0
  0
CLASS
  1
RASTERVARIABLES
  2
AcDbRasterVariables
  3
ISM
 90
        0
280
     0
281
     0
  0
ENDSEC
  0
SECTION
  2
TABLES
  0
TABLE
  2
VPORT
  5
8
330
0
100
AcDbSymbolTable
 70
     1
  0
VPORT
  5
29
330
8
100
AcDbSymbolTableRecord
100
AcDbViewportTableRecord
  2
*Active
 70
     0
 10
0.0
 20
0.0
 11
1.0
 21
1.0
 12
20.16201407152469
 22
-2.886181686231447
 13
0.0
 23
0.0
 14
10.0
 24
10.0
 15
10.0
 25
10.0
 16
0.0
 26
0.0
 36
1.0
 17
0.0
 27
0.0
 37
0.0
 40
139.9373398228318
 41
1.632093933463796
 42
50.0
 43
0.0
 44
0.0
 50
0.0
 51
0.0
 71
    16
 72
  2000
 73
     1
 74
     3
 75
     0
 76
     0
 77
     0
 78
     0
281
     0
 65
     1
110
0.0
120
0.0
130
0.0
111
1.0
121
0.0
131
0.0
112
0.0
122
1.0
132
0.0
 79
     0
146
0.0
  0
ENDTAB
  0
TABLE
  2
LTYPE
  5
5
330
0
100
AcDbSymbolTable
 70
     6
  0
LTYPE
  5
14
330
5
100
AcDbSymbolTableRecord
100
AcDbLinetypeTableRecord
  2
ByBlock
 70
     0
  3

 72
    65
 73
     0
 40
0.0
  0
LTYPE
  5
15
330
5
100
AcDbSymbolTableRecord
100
AcDbLinetypeTableRecord
  2
ByLayer
 70
     0
  3

 72
    65
 73
     0
 40
0.0
  0
LTYPE
  5
16
330
5
100
AcDbSymbolTableRecord
100
AcDbLinetypeTableRecord
  2
Continuous
 70
     0
  3
Solid line
 72
    65
 73
     0
 40
0.0
  0
LTYPE
  5
6A
330
5
100
AcDbSymbolTableRecord
100
AcDbLinetypeTableRecord
  2
HIDDEN
 70
     0
  3
Hidden __ __ __ __ __ __ __ __ __ __ __ __ __ __
 72
    65
 73
     2
 40
1.905
 49
1.27
 74
     0
 49
-0.635
 74
     0
  0
LTYPE
  5
6B
330
5
100
AcDbSymbolTableRecord
100
AcDbLinetypeTableRecord
  2
PHANTOM
 70
     0
  3
Phantom ______  __  __  ______  __  __  ______
 72
    65
 73
     6
 40
12.7
 49
6.35
 74
     0
 49
-1.27
 74
     0
 49
1.27
 74
     0
 49
-1.27
 74
     0
 49
1.27
 74
     0
 49
-1.27
 74
     0
  0
LTYPE
  5
6C
330
5
100
AcDbSymbolTableRecord
100
AcDbLinetypeTableRecord
  2
CENTER
 70
     0
  3
Center ____ _ ____ _ ____ _ ____ _ ____ _ ____
 72
    65
 73
     4
 40
10.16
 49
6.35
 74
     0
 49
-1.27
 74
     0
 49
1.27
 74
     0
 49
-1.27
 74
     0
  0
LTYPE
  5
6D
330
5
100
AcDbSymbolTableRecord
100
AcDbLinetypeTableRecord
  2
CENTERX2
 70
     0
  3
Center (2x) ________  __  ________  __  _____
 72
    65
 73
     4
 40
20.32
 49
12.7
 74
     0
 49
-2.54
 74
     0
 49
2.54
 74
     0
 49
-2.54
 74
     0
  0
LTYPE
  5
6E
330
5
100
AcDbSymbolTableRecord
100
AcDbLinetypeTableRecord
  2
DOT2
 70
     0
  3
Dot (.5x) ........................................
 72
    65
 73
     2
 40
0.635
 49
0.0
 74
     0
 49
-0.635
 74
     0
  0
ENDTAB
  0
TABLE
  2
LAYER
  5
2
102
{ACAD_XDICTIONARY
360
1F4
102
}
330
0
100
AcDbSymbolTable
 70
    18
  0
LAYER
  5
10
330
2
100
AcDbSymbolTableRecord
100
AcDbLayerTableRecord
  2
0
 70
     0
 62
     7
  6
Continuous
370
    -3
390
F
  0
LAYER
  5
6F
330
2
100
AcDbSymbolTableRecord
100
AcDbLayerTableRecord
  2
FORMAT
 70
     0
 62
     2
  6
Continuous
370
    -3
390
F
  0
LAYER
  5
70
330
2
100
AcDbSymbolTableRecord
100
AcDbLayerTableRecord
  2
외형선
 70
     0
 62
     4
  6
Continuous
370
    30
390
F
  0
LAYER
  5
71
330
2
100
AcDbSymbolTableRecord
100
AcDbLayerTableRecord
  2
숨은선
 70
     0
 62
     2
  6
HIDDEN
370
    15
390
F
  0
LAYER
  5
72
330
2
100
AcDbSymbolTableRecord
100
AcDbLayerTableRecord
  2
중심선
 70
     0
 62
     1
  6
CENTERX2
370
    -3
390
F
  0
LAYER
  5
73
330
2
100
AcDbSymbolTableRecord
100
AcDbLayerTableRecord
  2
파단선
 70
     0
 62
     4
  6
Continuous
370
    -3
390
F
  0
LAYER
  5
74
330
2
100
AcDbSymbolTableRecord
100
AcDbLayerTableRecord
  2
해칭선
 70
     0
 62
   100
  6
Continuous
370
    -3
390
F
  0
LAYER
  5
75
330
2
100
AcDbSymbolTableRecord
100
AcDbLayerTableRecord
  2
가는실선
 70
     0
 62
     4
  6
Continuous
370
    -3
390
F
  0
LAYER
  5
76
330
2
100
AcDbSymbolTableRecord
100
AcDbLayerTableRecord
  2
치수_보조선
 70
     0
 62
     4
  6
Continuous
370
    -3
390
F
  0
LAYER
  5
77
330
2
100
AcDbSymbolTableRecord
100
AcDbLayerTableRecord
  2
치수문자_일반주서
 70
     0
 62
     7
  6
Continuous
370
    15
390
F
  0
LAYER
  5
78
330
2
100
AcDbSymbolTableRecord
100
AcDbLayerTableRecord
  2
개별주서
 70
     0
 62
   100
  6
Continuous
370
    30
390
F
  0
LAYER
  5
79
330
2
100
AcDbSymbolTableRecord
100
AcDbLayerTableRecord
  2
중간선
 70
     0
 62
     2
  6
Continuous
370
    15
390
F
  0
LAYER
  5
7A
330
2
100
AcDbSymbolTableRecord
100
AcDbLayerTableRecord
  2
윤곽선
 70
     0
 62
     3
  6
Continuous
370
    40
390
F
  0
LAYER
  5
7B
330
2
100
AcDbSymbolTableRecord
100
AcDbLayerTableRecord
  2
중심마크
 70
     0
 62
   100
  6
Continuous
370
    30
390
F
  0
LAYER
  5
7C
330
2
100
AcDbSymbolTableRecord
100
AcDbLayerTableRecord
  2
가상선
 70
     0
 62
     4
  6
PHANTOM
370
    -3
390
F
  0
LAYER
  5
7D
330
2
100
AcDbSymbolTableRecord
100
AcDbLayerTableRecord
  2
특수지정선
 70
     0
 62
     5
  6
CENTERX2
370
    60
390
F
  0
LAYER
  5
7E
330
2
100
AcDbSymbolTableRecord
100
AcDbLayerTableRecord
  2
참조1
 70
     0
 62
    -4
  6
Continuous
370
    -3
390
F
  0
LAYER
  5
154
330
2
100
AcDbSymbolTableRecord
100
AcDbLayerTableRecord
  2
Defpoints
 70
     0
 62
     7
  6
Continuous
290
     0
370
    -3
390
F
  0
ENDTAB
  0
TABLE
  2
STYLE
  5
3
330
0
100
AcDbSymbolTable
 70
     2
  0
STYLE
  5
11
330
3
100
AcDbSymbolTableRecord
100
AcDbTextStyleTableRecord
  2
Standard
 70
     0
 40
0.0
 41
1.0
 50
0.0
 71
     0
 42
3.5
  3
txt
  4

  0
STYLE
  5
94
330
3
100
AcDbSymbolTableRecord
100
AcDbTextStyleTableRecord
  2
SLDTEXTSTYLE0
 70
     0
 40
0.0
 41
0.75
 50
0.0
 71
     0
 42
3.5
  3
TXT
  4

  0
ENDTAB
  0
TABLE
  2
VIEW
  5
6
330
0
100
AcDbSymbolTable
 70
     0
  0
ENDTAB
  0
TABLE
  2
UCS
  5
7
330
0
100
AcDbSymbolTable
 70
     0
  0
ENDTAB
  0
TABLE
  2
APPID
  5
9
330
0
100
AcDbSymbolTable
 70
     1
  0
APPID
  5
12
330
9
100
AcDbSymbolTableRecord
100
AcDbRegAppTableRecord
  2
ACAD
 70
     0
  0
ENDTAB
  0
TABLE
  2
DIMSTYLE
  5
A
330
0
100
AcDbSymbolTable
 70
     3
100
AcDbDimStyleTable
  0
DIMSTYLE
105
27
330
A
100
AcDbSymbolTableRecord
100
AcDbDimStyleTableRecord
  2
ISO-25
 70
     0
 41
2.5
 42
0.625
 43
3.75
 44
1.25
 73
     0
 74
     0
 77
     1
 78
     8
140
2.5
141
2.5
143
0.03937007874016
147
0.625
171
     3
172
     1
178
     0
271
     2
272
     2
274
     3
278
    44
283
     0
284
     8
340
11
  0
DIMSTYLE
105
D2
330
A
100
AcDbSymbolTableRecord
100
AcDbDimStyleTableRecord
  2
SLDDIMSTYLE0
 70
     0
 41
3.302
 44
0.0
 45
0.000000001
 73
     0
 74
     0
 77
     1
 78
    12
 79
     3
140
3.5
143
0.0393700787401575
147
0.875
148
0.000000001
170
     1
173
     1
178
     0
271
     2
272
     2
276
     2
284
    12
340
94
  0
DIMSTYLE
105
FA
102
{ACAD_REACTORS
330
F9
330
1AE
330
1BE
330
1CB
330
1D8
330
D1
330
E6
330
10E
102
}
330
A
100
AcDbSymbolTableRecord
100
AcDbDimStyleTableRecord
  2
SLDDIMSTYLE1
 70
     0
 41
3.302
 44
0.0
 45
0.000000001
 73
     0
 74
     0
 77
     1
 78
     4
 79
     1
140
3.5
143
0.0393700787401575
147
0.875
148
0.000000001
170
     1
172
     1
173
     1
178
     0
271
     2
272
     2
276
     2
284
    12
289
     0
340
94
  0
ENDTAB
  0
TABLE
  2
BLOCK_RECORD
  5
1
330
0
100
AcDbSymbolTable
 70
    16
  0
BLOCK_RECORD
  5
1F
330
1
100
AcDbSymbolTableRecord
100
AcDbBlockTableRecord
  2
*Model_Space
340
22
  0
BLOCK_RECORD
  5
1B
330
1
100
AcDbSymbolTableRecord
100
AcDbBlockTableRecord
  2
*Paper_Space
340
1E
  0
BLOCK_RECORD
  5
23
330
1
100
AcDbSymbolTableRecord
100
AcDbBlockTableRecord
  2
*Paper_Space0
340
26
  0
BLOCK_RECORD
  5
7F
330
1
100
AcDbSymbolTableRecord
100
AcDbBlockTableRecord
  2
블럭10
340
0
102
{BLKREFS
331
CA
102
}
  0
BLOCK_RECORD
  5
D3
330
1
100
AcDbSymbolTableRecord
100
AcDbBlockTableRecord
  2
_D
340
0
  0
BLOCK_RECORD
  5
E7
330
1
100
AcDbSymbolTableRecord
100
AcDbBlockTableRecord
  2
_D_1
340
0
  0
BLOCK_RECORD
  5
FB
330
1
100
AcDbSymbolTableRecord
100
AcDbBlockTableRecord
  2
_D_2
340
0
  0
BLOCK_RECORD
  5
10F
330
1
100
AcDbSymbolTableRecord
100
AcDbBlockTableRecord
  2
_D_3
340
0
  0
BLOCK_RECORD
  5
128
330
1
100
AcDbSymbolTableRecord
100
AcDbBlockTableRecord
  2
SW_DOWELSYMBOL_0
340
0
102
{BLKREFS
331
12E
331
1E8
331
0
102
}
  0
BLOCK_RECORD
  5
1F8
330
1
100
AcDbSymbolTableRecord
100
AcDbBlockTableRecord
  2
*D8
340
0
  0
BLOCK_RECORD
  5
207
330
1
100
AcDbSymbolTableRecord
100
AcDbBlockTableRecord
  2
*D9
340
0
  0
BLOCK_RECORD
  5
213
330
1
100
AcDbSymbolTableRecord
100
AcDbBlockTableRecord
  2
*D10
340
0
  0
BLOCK_RECORD
  5
21F
330
1
100
AcDbSymbolTableRecord
100
AcDbBlockTableRecord
  2
*D11
340
0
  0
BLOCK_RECORD
  5
26A
330
1
100
AcDbSymbolTableRecord
100
AcDbBlockTableRecord
  2
*D12
340
0
  0
BLOCK_RECORD
  5
279
330
1
100
AcDbSymbolTableRecord
100
AcDbBlockTableRecord
  2
*D13
340
0
  0
BLOCK_RECORD
  5
285
330
1
100
AcDbSymbolTableRecord
100
AcDbBlockTableRecord
  2
*D14
340
0
  0
BLOCK_RECORD
  5
291
330
1
100
AcDbSymbolTableRecord
100
AcDbBlockTableRecord
  2
*D15
340
0
  0
ENDTAB
  0
ENDSEC
  0
SECTION
  2
BLOCKS
  0
BLOCK
  5
20
330
1F
100
AcDbEntity
  8
0
100
AcDbBlockBegin
  2
*Model_Space
 70
     0
 10
0.0
 20
0.0
 30
0.0
  3
*Model_Space
  1
*Model_Space
  0
ENDBLK
  5
21
330
1F
100
AcDbEntity
  8
0
100
AcDbBlockEnd
  0
BLOCK
  5
1C
330
1B
100
AcDbEntity
 67
     1
  8
0
100
AcDbBlockBegin
  2
*Paper_Space
 70
     0
 10
0.0
 20
0.0
 30
0.0
  3
*Paper_Space
  1
*Paper_Space
  0
ENDBLK
  5
1D
330
1B
100
AcDbEntity
 67
     1
  8
0
100
AcDbBlockEnd
  0
BLOCK
  5
24
330
23
100
AcDbEntity
  8
0
100
AcDbBlockBegin
  2
*Paper_Space0
 70
     0
 10
0.0
 20
0.0
 30
0.0
  3
*Paper_Space0
  1
*Paper_Space0
  0
ENDBLK
  5
25
330
23
100
AcDbEntity
  8
0
100
AcDbBlockEnd
  0
BLOCK
  5
80
330
7F
100
AcDbEntity
  8
0
100
AcDbBlockBegin
  2
블럭10
 70
     2
 10
0.0
 20
0.0
 30
0.0
  3
블럭10
  1
블럭10
  0
ELLIPSE
  5
82
330
7F
100
AcDbEntity
  8
중심선
100
AcDbEllipse
 10
20.54032771741204
 20
12.0471743016438
 30
0.0
 11
6.600054785286829
 21
-1.261213355974178E-13
 31
0.0
210
0.0
220
0.0
230
1.0
 40
0.636358354079598
 41
0.9219305317359503
 42
6.513795318482858
  0
ELLIPSE
  5
83
330
7F
100
AcDbEntity
  8
중심선
100
AcDbEllipse
 10
20.54032771746488
 20
12.04717430159265
 30
0.0
 11
3.960054785062283
 21
1.540847449632565E-10
 31
0.0
210
0.0
220
0.0
230
1.0
 40
0.3939339440162632
 41
1.131841032648279
 42
5.62031148352944
  0
LINE
  5
84
330
7F
100
AcDbEntity
  8
중심선
100
AcDbLine
 10
2.268634060543552
 20
16.24717430164393
 30
0.0
 11
5.714909304380834
 21
16.24717430164393
 31
0.0
  0
LINE
  5
85
330
7F
100
AcDbEntity
  8
중심선
100
AcDbLine
 10
5.245725140726316
 20
7.84717430164391
 30
0.0
 11
8.692000384563599
 21
7.84717430164391
 31
0.0
  0
LINE
  5
86
330
7F
100
AcDbEntity
  8
중심선
100
AcDbLine
 10
15.74043728645272
 20
16.24717430164393
 30
0.0
 11
8.692000384563599
 21
7.84717430164391
 31
0.0
  0
LINE
  5
87
330
7F
100
AcDbEntity
  8
중심선
100
AcDbLine
 10
0.1404042013395286
 20
13.71084872107135
 30
0.0
 11
3.58671253028996
 21
13.71088815037384
 31
0.0
  0
LINE
  5
88
330
7F
100
AcDbEntity
  8
중심선
100
AcDbLine
 10
2.750260043222114
 20
10.84717430164391
 30
0.0
 11
6.196535287059397
 21
10.84717430164391
 31
0.0
  0
LINE
  5
89
330
7F
100
AcDbEntity
  8
중심선
100
AcDbLine
 10
12.29416204261559
 20
16.24717430164393
 30
0.0
 11
5.245725140726316
 21
7.84717430164391
 31
0.0
  0
LINE
  5
8A
330
7F
100
AcDbEntity
  8
중심선
100
AcDbLine
 10
10.72767329541681
 20
16.24717430164393
 30
0.0
 11
6.196535287059397
 21
10.84717430164391
 31
0.0
  0
LINE
  5
8B
330
7F
100
AcDbEntity
  8
중심선
100
AcDbLine
 10
7.28139805157953
 20
16.24717430164393
 30
0.0
 11
2.750260043222114
 21
10.84717430164391
 31
0.0
  0
LINE
  5
8C
330
7F
100
AcDbEntity
  8
중심선
100
AcDbLine
 10
5.714909304380834
 20
16.24717430164393
 30
0.0
 11
3.58671253028996
 21
13.71088815037384
 31
0.0
  0
LINE
  5
8D
330
7F
100
AcDbEntity
  8
중심선
100
AcDbLine
 10
2.268634060543552
 20
16.24717430164393
 30
0.0
 11
0.1404042013395286
 21
13.71084872107135
 31
0.0
  0
LINE
  5
8E
330
7F
100
AcDbEntity
  8
중심선
100
AcDbLine
 10
7.28139805157953
 20
16.24717430164393
 30
0.0
 11
10.72767329541681
 21
16.24717430164393
 31
0.0
  0
LINE
  5
8F
330
7F
100
AcDbEntity
  8
중심선
100
AcDbLine
 10
12.29416204261559
 20
16.24717430164393
 30
0.0
 11
15.74043728645272
 21
16.24717430164393
 31
0.0
  0
LINE
  5
90
330
7F
100
AcDbEntity
  8
중심선
100
AcDbLine
 10
19.22036997980202
 20
11.08717430171403
 30
0.0
 11
23.66174974927406
 21
11.08717430171406
 31
0.0
  0
LINE
  5
91
330
7F
100
AcDbEntity
  8
중심선
100
AcDbLine
 10
19.22039502424796
 20
13.00717430171391
 30
0.0
 11
19.22036997980202
 21
11.08717430171403
 31
0.0
  0
LINE
  5
92
330
7F
100
AcDbEntity
  8
중심선
100
AcDbLine
 10
19.22039502424796
 20
13.00717430171391
 30
0.0
 11
26.96566020931264
 21
13.00717430171391
 31
0.0
  0
LINE
  5
93
330
7F
100
AcDbEntity
  8
중심선
100
AcDbLine
 10
22.22332737316547
 20
13.45928029700563
 30
0.0
 11
24.52862924686651
 21
15.39360700705356
 31
0.0
  0
ATTDEF
  5
95
330
7F
100
AcDbEntity
  8
FORMAT
 62
     2
100
AcDbText
 10
4.408487351596664
 20
2.075366912832191
 30
0.0
 40
4.233333333333333
  1
E2031030
 41
0.75
  7
SLDTEXTSTYLE0
 11
4.408487351596664
 21
-0.0412997538344756
 31
0.0
100
AcDbAttributeDefinition
  3

  2
AUTOATTR0
 70
     0
 74
     1
  0
ENDBLK
  5
81
330
7F
100
AcDbEntity
  8
0
100
AcDbBlockEnd
  0
BLOCK
  5
D4
330
D3
100
AcDbEntity
  8
0
100
AcDbBlockBegin
  2
_D
 70
     0
 10
0.0
 20
0.0
 30
0.0
  3
_D
  1
_D
  0
LINE
  5
D6
330
D3
100
AcDbEntity
  8
치수문자_일반주서
 62
     0
370
    -2
100
AcDbLine
 10
36.23115766425391
 20
6.0166999287239
 30
0.0
 11
36.23115766425391
 21
16.01307494614169
 31
0.0
  0
LINE
  5
D7
330
D3
100
AcDbEntity
  8
치수문자_일반주서
 62
     0
370
    -2
100
AcDbLine
 10
4.481157664253915
 20
6.015079812580181
 30
0.0
 11
4.481157664253914
 21
16.01307494614169
 31
0.0
  0
LINE
  5
D8
330
D3
100
AcDbEntity
  8
치수문자_일반주서
 62
     0
370
    -2
100
AcDbLine
 10
4.481157664253914
 20
16.01307494614169
 30
0.0
 11
-30.99784233574609
 21
16.01307494614169
 31
0.0
  0
LINE
  5
D9
330
D3
100
AcDbEntity
  8
치수문자_일반주서
 62
     0
370
    -2
100
AcDbLine
 10
36.23115766425391
 20
16.01307494614169
 30
0.0
 11
4.481157664253914
 21
16.01307494614169
 31
0.0
  0
LINE
  5
DA
330
D3
100
AcDbEntity
  8
치수문자_일반주서
 62
     0
370
    -2
100
AcDbLine
 10
39.53315766425391
 20
16.01307494614169
 30
0.0
 11
42.83515766425391
 21
16.01307494614169
 31
0.0
  0
LINE
  5
DB
330
D3
100
AcDbEntity
  8
치수문자_일반주서
 62
     0
370
    -2
100
AcDbLine
 10
1.179157664253914
 20
16.01307494614169
 30
0.0
 11
-2.122842335746085
 21
16.01307494614169
 31
0.0
  0
SOLID
  5
DC
330
D3
100
AcDbEntity
  8
치수문자_일반주서
 62
     0
100
AcDbTrace
 10
39.53315766425391
 20
16.56340827947502
 30
0.0
 11
39.53315766425391
 21
15.46274161280835
 31
0.0
 12
36.23115766425391
 22
16.01307494614169
 32
0.0
 13
36.23115766425391
 23
16.01307494614169
 33
0.0
  0
SOLID
  5
DD
330
D3
100
AcDbEntity
  8
치수문자_일반주서
 62
     0
100
AcDbTrace
 10
1.179157664253914
 20
15.46274161280835
 30
0.0
 11
1.179157664253914
 21
16.56340827947502
 31
0.0
 12
4.481157664253914
 22
16.01307494614169
 32
0.0
 13
4.481157664253914
 23
16.01307494614169
 33
0.0
  0
MTEXT
  5
DE
330
D3
100
AcDbEntity
  8
치수문자_일반주서
 62
     0
100
AcDbMText
 10
-16.56034233574609
 20
20.38807494614169
 30
0.0
 40
3.5
 41
0.0
 71
     2
 72
     1
  1
\A1;31.75 [1 1/4]
  7
SLDTEXTSTYLE0
 73
     1
 44
1.0
  0
POINT
  5
DF
330
D3
100
AcDbEntity
  8
Defpoints
 62
     0
100
AcDbPoint
 10
36.23115766425391
 20
5.9541999287239
 30
0.0
  0
POINT
  5
2A0
330
D3
100
AcDbEntity
  8
Defpoints
 62
     0
100
AcDbPoint
 10
4.481157664253915
 20
5.952579812580181
 30
0.0
  0
POINT
  5
2A1
330
D3
100
AcDbEntity
  8
Defpoints
 62
     0
100
AcDbPoint
 10
4.481157664253915
 20
16.01307494614169
 30
0.0
  0
ENDBLK
  5
D5
330
D3
100
AcDbEntity
  8
0
100
AcDbBlockEnd
  0
BLOCK
  5
E8
330
E7
100
AcDbEntity
  8
0
100
AcDbBlockBegin
  2
_D_1
 70
     0
 10
0.0
 20
0.0
 30
0.0
  3
_D_1
  1
_D_1
  0
LINE
  5
EA
330
E7
100
AcDbEntity
  8
치수문자_일반주서
 62
     0
370
    -2
100
AcDbLine
 10
36.23115766425391
 20
6.0166999287239
 30
0.0
 11
36.23115766425391
 21
34.83435094016752
 31
0.0
  0
LINE
  5
EB
330
E7
100
AcDbEntity
  8
치수문자_일반주서
 62
     0
370
    -2
100
AcDbLine
 10
-46.31884233574608
 20
5.143574928723896
 30
0.0
 11
-46.31884233574608
 21
34.83435094016752
 31
0.0
  0
LINE
  5
EC
330
E7
100
AcDbEntity
  8
치수문자_일반주서
 62
     0
370
    -2
100
AcDbLine
 10
32.92915766425391
 20
34.83435094016752
 30
0.0
 11
-43.01684233574608
 21
34.83435094016752
 31
0.0
  0
SOLID
  5
ED
330
E7
100
AcDbEntity
  8
치수문자_일반주서
 62
     0
100
AcDbTrace
 10
32.92915766425391
 20
34.28401760683419
 30
0.0
 11
32.92915766425391
 21
35.38468427350086
 31
0.0
 12
36.23115766425391
 22
34.83435094016752
 32
0.0
 13
36.23115766425391
 23
34.83435094016752
 33
0.0
  0
SOLID
  5
EE
330
E7
100
AcDbEntity
  8
치수문자_일반주서
 62
     0
100
AcDbTrace
 10
-43.01684233574608
 20
35.38468427350086
 30
0.0
 11
-43.01684233574608
 21
34.28401760683419
 31
0.0
 12
-46.31884233574608
 22
34.83435094016752
 32
0.0
 13
-46.31884233574608
 23
34.83435094016752
 33
0.0
  0
MTEXT
  5
EF
330
E7
100
AcDbEntity
  8
치수문자_일반주서
 62
     0
100
AcDbMText
 10
-5.043842335746084
 20
39.20935094016752
 30
0.0
 40
3.5
 41
0.0
 71
     2
 72
     1
  1
\A1;82.55 [3 1/4]
  7
SLDTEXTSTYLE0
 73
     1
 44
1.0
  0
POINT
  5
F0
330
E7
100
AcDbEntity
  8
Defpoints
 62
     0
100
AcDbPoint
 10
36.23115766425391
 20
5.9541999287239
 30
0.0
  0
POINT
  5
F1
330
E7
100
AcDbEntity
  8
Defpoints
 62
     0
100
AcDbPoint
 10
-46.31884233574608
 20
5.081074928723896
 30
0.0
  0
POINT
  5
F2
330
E7
100
AcDbEntity
  8
Defpoints
 62
     0
100
AcDbPoint
 10
-46.31884233574608
 20
34.83435094016752
 30
0.0
  0
ENDBLK
  5
E9
330
E7
100
AcDbEntity
  8
0
100
AcDbBlockEnd
  0
BLOCK
  5
FC
330
FB
100
AcDbEntity
  8
0
100
AcDbBlockBegin
  2
_D_2
 70
     0
 10
0.0
 20
0.0
 30
0.0
  3
_D_2
  1
_D_2
  0
LINE
  5
FE
330
FB
100
AcDbEntity
  8
치수문자_일반주서
 62
     0
370
    -2
100
AcDbLine
 10
-45.11134233574609
 20
6.351074928723888
 30
0.0
 11
-57.30211517357331
 21
6.351074928723841
 31
0.0
  0
LINE
  5
FF
330
FB
100
AcDbEntity
  8
치수문자_일반주서
 62
     0
370
    -2
100
AcDbLine
 10
-45.11134233574609
 20
-6.348925071276101
 30
0.0
 11
-57.30211517357326
 21
-6.348925071276147
 31
0.0
  0
LINE
  5
100
330
FB
100
AcDbEntity
  8
치수문자_일반주서
 62
     0
370
    -2
100
AcDbLine
 10
-57.30211517357329
 20
3.049074928723842
 30
0.0
 11
-57.30211517357328
 21
-3.046925071276148
 31
0.0
  0
SOLID
  5
101
330
FB
100
AcDbEntity
  8
치수문자_일반주서
 62
     0
100
AcDbTrace
 10
-56.75178184023996
 20
3.049074928723844
 30
0.0
 11
-57.85244850690663
 21
3.04907492872384
 31
0.0
 12
-57.30211517357331
 22
6.351074928723841
 32
0.0
 13
-57.30211517357331
 23
6.351074928723841
 33
0.0
  0
SOLID
  5
102
330
FB
100
AcDbEntity
  8
치수문자_일반주서
 62
     0
100
AcDbTrace
 10
-57.85244850690661
 20
-3.046925071276149
 30
0.0
 11
-56.75178184023994
 21
-3.046925071276146
 31
0.0
 12
-57.30211517357326
 22
-6.348925071276147
 32
0.0
 13
-57.30211517357326
 23
-6.348925071276147
 33
0.0
  0
MTEXT
  5
103
330
FB
100
AcDbEntity
  8
치수문자_일반주서
 62
     0
100
AcDbMText
 10
-61.67711517357328
 20
0.0010749287238727
 30
0.0
 40
3.5
 41
0.0
 71
     2
 72
     1
  1
\A1;%%c12.70 [1/2]
  7
SLDTEXTSTYLE0
 11
-3.356894814614650E-15
 21
1.0
 31
0.0
 73
     1
 44
1.0
  0
POINT
  5
104
330
FB
100
AcDbEntity
  8
Defpoints
 62
     0
100
AcDbPoint
 10
-45.04884233574609
 20
6.351074928723888
 30
0.0
  0
POINT
  5
105
330
FB
100
AcDbEntity
  8
Defpoints
 62
     0
100
AcDbPoint
 10
-45.04884233574609
 20
-6.348925071276101
 30
0.0
  0
POINT
  5
106
330
FB
100
AcDbEntity
  8
Defpoints
 62
     0
100
AcDbPoint
 10
-57.30211517357326
 20
-6.348925071276147
 30
0.0
  0
ENDBLK
  5
FD
330
FB
100
AcDbEntity
  8
0
100
AcDbBlockEnd
  0
BLOCK
  5
110
330
10F
100
AcDbEntity
  8
0
100
AcDbBlockBegin
  2
_D_3
 70
     0
 10
0.0
 20
0.0
 30
0.0
  3
_D_3
  1
_D_3
  0
LINE
  5
112
330
10F
100
AcDbEntity
  8
치수문자_일반주서
 62
     0
370
    -2
100
AcDbLine
 10
36.29365766425391
 20
5.9541999287239
 30
0.0
 11
53.76399058309865
 21
5.954199928723966
 31
0.0
  0
LINE
  5
113
330
10F
100
AcDbEntity
  8
치수문자_일반주서
 62
     0
370
    -2
100
AcDbLine
 10
36.29365766425391
 20
-5.9520500712761
 30
0.0
 11
53.7639905830987
 21
-5.952050071276037
 31
0.0
  0
LINE
  5
114
330
10F
100
AcDbEntity
  8
치수문자_일반주서
 62
     0
370
    -2
100
AcDbLine
 10
53.76399058309865
 20
5.954199928723966
 30
0.0
 11
53.76399058309852
 21
43.661307856416
 31
0.0
  0
LINE
  5
115
330
10F
100
AcDbEntity
  8
치수문자_일반주서
 62
     0
370
    -2
100
AcDbLine
 10
53.76399058309865
 20
5.954199928723966
 30
0.0
 11
53.7639905830987
 21
-5.952050071276037
 31
0.0
  0
LINE
  5
116
330
10F
100
AcDbEntity
  8
치수문자_일반주서
 62
     0
370
    -2
100
AcDbLine
 10
53.76399058309864
 20
9.256199928723966
 30
0.0
 11
53.76399058309863
 21
12.55819992872397
 31
0.0
  0
LINE
  5
117
330
10F
100
AcDbEntity
  8
치수문자_일반주서
 62
     0
370
    -2
100
AcDbLine
 10
53.76399058309871
 20
-9.254050071276037
 30
0.0
 11
53.76399058309872
 21
-12.55605007127604
 31
0.0
  0
SOLID
  5
118
330
10F
100
AcDbEntity
  8
치수문자_일반주서
 62
     0
100
AcDbTrace
 10
53.2136572497653
 20
9.256199928723964
 30
0.0
 11
54.31432391643197
 21
9.256199928723968
 31
0.0
 12
53.76399058309865
 22
5.954199928723966
 32
0.0
 13
53.76399058309865
 23
5.954199928723966
 33
0.0
  0
SOLID
  5
119
330
10F
100
AcDbEntity
  8
치수문자_일반주서
 62
     0
100
AcDbTrace
 10
54.31432391643204
 20
-9.254050071276035
 30
0.0
 11
53.21365724976538
 21
-9.254050071276039
 31
0.0
 12
53.7639905830987
 22
-5.952050071276037
 32
0.0
 13
53.7639905830987
 23
-5.952050071276037
 33
0.0
  0
MTEXT
  5
11A
330
10F
100
AcDbEntity
  8
치수문자_일반주서
 62
     0
100
AcDbMText
 10
49.38899058309858
 20
28.34880785641599
 30
0.0
 40
3.5
 41
0.0
 71
     2
 72
     1
  1
\A1;%%c11.91 [15/32]
  7
SLDTEXTSTYLE0
 11
-3.580687802255622E-15
 21
1.0
 31
0.0
 73
     1
 44
1.0
  0
POINT
  5
11B
330
10F
100
AcDbEntity
  8
Defpoints
 62
     0
100
AcDbPoint
 10
36.23115766425391
 20
5.9541999287239
 30
0.0
  0
POINT
  5
2A2
330
10F
100
AcDbEntity
  8
Defpoints
 62
     0
100
AcDbPoint
 10
36.23115766425391
 20
-5.9520500712761
 30
0.0
  0
POINT
  5
2A3
330
10F
100
AcDbEntity
  8
Defpoints
 62
     0
100
AcDbPoint
 10
53.7639905830987
 20
-5.952050071276035
 30
0.0
  0
ENDBLK
  5
111
330
10F
100
AcDbEntity
  8
0
100
AcDbBlockEnd
  0
BLOCK
  5
129
330
128
100
AcDbEntity
  8
0
100
AcDbBlockBegin
  2
SW_DOWELSYMBOL_0
 70
     0
 10
0.0
 20
0.0
 30
0.0
  3
SW_DOWELSYMBOL_0
  1
SW_DOWELSYMBOL_0
  0
CIRCLE
  5
12B
330
128
100
AcDbEntity
  8
해칭선
 62
     0
100
AcDbCircle
 10
0.0
 20
0.0
 30
0.0
 40
3.000000000000001
  0
HATCH
  5
12C
330
128
100
AcDbEntity
  8
0
  6
Continuous
 62
     0
370
     0
100
AcDbHatch
 10
0.0
 20
0.0
 30
0.0
210
0.0
220
0.0
230
1.0
  2
SOLID
 70
     1
 71
     0
 91
        1
 92
        0
 93
        3
 72
     2
 10
0.0
 20
0.0
 40
3.000000000000001
 50
0.0
 51
90.0
 73
     1
 72
     1
 10
0.0
 20
3.000000000000001
 11
0.0
 21
0.0
 72
     1
 10
0.0
 20
0.0
 11
3.000000000000001
 21
0.0
 97
        0
 75
     0
 76
     1
 98
        1
 10
0.0
 20
0.0
  0
HATCH
  5
12D
330
128
100
AcDbEntity
  8
0
  6
Continuous
 62
     0
370
     0
100
AcDbHatch
 10
0.0
 20
0.0
 30
0.0
210
0.0
220
0.0
230
1.0
  2
SOLID
 70
     1
 71
     0
 91
        1
 92
        0
 93
        3
 72
     2
 10
0.0
 20
0.0
 40
3.000000000000001
 50
180.0
 51
270.0000000000008
 73
     1
 72
     1
 10
0.0
 20
-3.000000000000001
 11
0.0
 21
0.0
 72
     1
 10
0.0
 20
0.0
 11
-3.000000000000001
 21
0.0
 97
        0
 75
     0
 76
     1
 98
        1
 10
0.0
 20
0.0
  0
ENDBLK
  5
12A
330
128
100
AcDbEntity
  8
0
100
AcDbBlockEnd
  0
BLOCK
  5
1F9
330
1F8
100
AcDbEntity
  8
0
100
AcDbBlockBegin
  2
*D8
 70
     1
 10
0.0
 20
0.0
 30
0.0
  3
*D8
  1
*D8
  0
LINE
  5
1FB
330
1F8
100
AcDbEntity
  8
치수문자_일반주서
 62
     0
370
    -2
100
AcDbLine
 10
97.90827283782724
 20
18.28593750000002
 30
0.0
 11
97.90827283782724
 21
31.19207598445559
 31
0.0
  0
LINE
  5
1FC
330
1F8
100
AcDbEntity
  8
치수문자_일반주서
 62
     0
370
    -2
100
AcDbLine
 10
66.15827283782727
 20
18.23762844035628
 30
0.0
 11
66.15827283782727
 21
31.19207598445559
 31
0.0
  0
LINE
  5
1FD
330
1F8
100
AcDbEntity
  8
치수문자_일반주서
 62
     0
370
    -2
100
AcDbLine
 10
66.15827283782727
 20
31.19207598445559
 30
0.0
 11
30.67927283782726
 21
31.19207598445559
 31
0.0
  0
LINE
  5
1FE
330
1F8
100
AcDbEntity
  8
치수문자_일반주서
 62
     0
370
    -2
100
AcDbLine
 10
97.90827283782724
 20
31.19207598445559
 30
0.0
 11
66.15827283782727
 21
31.19207598445559
 31
0.0
  0
LINE
  5
1FF
330
1F8
100
AcDbEntity
  8
치수문자_일반주서
 62
     0
370
    -2
100
AcDbLine
 10
101.2102728378272
 20
31.19207598445559
 30
0.0
 11
104.5122728378272
 21
31.19207598445559
 31
0.0
  0
LINE
  5
200
330
1F8
100
AcDbEntity
  8
치수문자_일반주서
 62
     0
370
    -2
100
AcDbLine
 10
62.85627283782727
 20
31.19207598445559
 30
0.0
 11
59.55427283782727
 21
31.19207598445559
 31
0.0
  0
SOLID
  5
201
330
1F8
100
AcDbEntity
  8
치수문자_일반주서
 62
     0
100
AcDbTrace
 10
101.2102728378272
 20
31.74240931778893
 30
0.0
 11
101.2102728378272
 21
30.64174265112226
 31
0.0
 12
97.90827283782724
 22
31.19207598445559
 32
0.0
 13
97.90827283782724
 23
31.19207598445559
 33
0.0
  0
SOLID
  5
202
330
1F8
100
AcDbEntity
  8
치수문자_일반주서
 62
     0
100
AcDbTrace
 10
62.85627283782727
 20
30.64174265112226
 30
0.0
 11
62.85627283782727
 21
31.74240931778893
 31
0.0
 12
66.15827283782727
 22
31.19207598445559
 32
0.0
 13
66.15827283782727
 23
31.19207598445559
 33
0.0
  0
MTEXT
  5
203
330
1F8
100
AcDbEntity
  8
치수문자_일반주서
 62
     0
100
AcDbMText
 10
45.11677283782726
 20
35.56707598445559
 30
0.0
 40
3.5
 41
0.0
 71
     2
 72
     1
  1
\A1;31.75 [1 1/4]
  7
SLDTEXTSTYLE0
 73
     1
 44
1.0
  0
POINT
  5
204
330
1F8
100
AcDbEntity
  8
Defpoints
 62
     0
100
AcDbPoint
 10
97.90827283782724
 20
18.22343750000002
 30
0.0
  0
POINT
  5
205
330
1F8
100
AcDbEntity
  8
Defpoints
 62
     0
100
AcDbPoint
 10
66.15827283782727
 20
18.17512844035628
 30
0.0
  0
POINT
  5
206
330
1F8
100
AcDbEntity
  8
Defpoints
 62
     0
100
AcDbPoint
 10
66.15827283782727
 20
31.19207598445559
 30
0.0
  0
ENDBLK
  5
1FA
330
1F8
100
AcDbEntity
  8
0
100
AcDbBlockEnd
  0
BLOCK
  5
208
330
207
100
AcDbEntity
  8
0
100
AcDbBlockBegin
  2
*D9
 70
     1
 10
0.0
 20
0.0
 30
0.0
  3
*D9
  1
*D9
  0
LINE
  5
20A
330
207
100
AcDbEntity
  8
치수문자_일반주서
 62
     0
370
    -2
100
AcDbLine
 10
97.90827283782724
 20
18.28593750000002
 30
0.0
 11
97.90827283782724
 21
47.10431824718725
 31
0.0
  0
LINE
  5
20B
330
207
100
AcDbEntity
  8
치수문자_일반주서
 62
     0
370
    -2
100
AcDbLine
 10
15.35827283782724
 20
17.61125000000002
 30
0.0
 11
15.35827283782724
 21
47.10431824718725
 31
0.0
  0
LINE
  5
20C
330
207
100
AcDbEntity
  8
치수문자_일반주서
 62
     0
370
    -2
100
AcDbLine
 10
94.60627283782725
 20
47.10431824718725
 30
0.0
 11
18.66027283782724
 21
47.10431824718725
 31
0.0
  0
SOLID
  5
20D
330
207
100
AcDbEntity
  8
치수문자_일반주서
 62
     0
100
AcDbTrace
 10
94.60627283782725
 20
46.55398491385392
 30
0.0
 11
94.60627283782725
 21
47.65465158052059
 31
0.0
 12
97.90827283782724
 22
47.10431824718725
 32
0.0
 13
97.90827283782724
 23
47.10431824718725
 33
0.0
  0
SOLID
  5
20E
330
207
100
AcDbEntity
  8
치수문자_일반주서
 62
     0
100
AcDbTrace
 10
18.66027283782724
 20
47.65465158052059
 30
0.0
 11
18.66027283782724
 21
46.55398491385392
 31
0.0
 12
15.35827283782724
 22
47.10431824718725
 32
0.0
 13
15.35827283782724
 23
47.10431824718725
 33
0.0
  0
MTEXT
  5
20F
330
207
100
AcDbEntity
  8
치수문자_일반주서
 62
     0
100
AcDbMText
 10
56.63327283782724
 20
51.47931824718725
 30
0.0
 40
3.5
 41
0.0
 71
     2
 72
     1
  1
\A1;82.55 [3 1/4]
  7
SLDTEXTSTYLE0
 73
     1
 44
1.0
  0
POINT
  5
210
330
207
100
AcDbEntity
  8
Defpoints
 62
     0
100
AcDbPoint
 10
97.90827283782724
 20
18.22343750000002
 30
0.0
  0
POINT
  5
211
330
207
100
AcDbEntity
  8
Defpoints
 62
     0
100
AcDbPoint
 10
15.35827283782724
 20
17.54875000000002
 30
0.0
  0
POINT
  5
212
330
207
100
AcDbEntity
  8
Defpoints
 62
     0
100
AcDbPoint
 10
15.35827283782724
 20
47.10431824718725
 30
0.0
  0
ENDBLK
  5
209
330
207
100
AcDbEntity
  8
0
100
AcDbBlockEnd
  0
BLOCK
  5
214
330
213
100
AcDbEntity
  8
0
100
AcDbBlockBegin
  2
*D10
 70
     1
 10
0.0
 20
0.0
 30
0.0
  3
*D10
  1
*D10
  0
LINE
  5
216
330
213
100
AcDbEntity
  8
치수문자_일반주서
 62
     0
370
    -2
100
AcDbLine
 10
16.56577283782724
 20
18.81875000000001
 30
0.0
 11
4.37500000000002
 21
18.81874999999997
 31
0.0
  0
LINE
  5
217
330
213
100
AcDbEntity
  8
치수문자_일반주서
 62
     0
370
    -2
100
AcDbLine
 10
16.56577283782724
 20
6.118750000000023
 30
0.0
 11
4.375000000000065
 21
6.118749999999977
 31
0.0
  0
LINE
  5
218
330
213
100
AcDbEntity
  8
치수문자_일반주서
 62
     0
370
    -2
100
AcDbLine
 10
4.375000000000032
 20
15.51674999999997
 30
0.0
 11
4.375000000000053
 21
9.420749999999977
 31
0.0
  0
SOLID
  5
219
330
213
100
AcDbEntity
  8
치수문자_일반주서
 62
     0
100
AcDbTrace
 10
4.925333333333366
 20
15.51674999999997
 30
0.0
 11
3.824666666666699
 21
15.51674999999996
 31
0.0
 12
4.37500000000002
 22
18.81874999999997
 32
0.0
 13
4.37500000000002
 23
18.81874999999997
 33
0.0
  0
SOLID
  5
21A
330
213
100
AcDbEntity
  8
치수문자_일반주서
 62
     0
100
AcDbTrace
 10
3.82466666666672
 20
9.420749999999975
 30
0.0
 11
4.925333333333387
 21
9.420749999999979
 31
0.0
 12
4.375000000000065
 22
6.118749999999977
 32
0.0
 13
4.375000000000065
 23
6.118749999999977
 33
0.0
  0
MTEXT
  5
21B
330
213
100
AcDbEntity
  8
치수문자_일반주서
 62
     0
100
AcDbMText
 10
0.0000000000000426
 20
12.46875
 30
0.0
 40
3.5
 41
0.0
 71
     2
 72
     1
  1
\A1;%%c12.70 [1/2]
  7
SLDTEXTSTYLE0
 11
-3.496765431890260E-15
 21
1.0
 31
0.0
 73
     1
 44
1.0
  0
POINT
  5
21C
330
213
100
AcDbEntity
  8
Defpoints
 62
     0
100
AcDbPoint
 10
16.62827283782724
 20
18.81875000000001
 30
0.0
  0
POINT
  5
21D
330
213
100
AcDbEntity
  8
Defpoints
 62
     0
100
AcDbPoint
 10
16.62827283782724
 20
6.118750000000023
 30
0.0
  0
POINT
  5
21E
330
213
100
AcDbEntity
  8
Defpoints
 62
     0
100
AcDbPoint
 10
4.375000000000064
 20
6.118749999999977
 30
0.0
  0
ENDBLK
  5
215
330
213
100
AcDbEntity
  8
0
100
AcDbBlockEnd
  0
BLOCK
  5
220
330
21F
100
AcDbEntity
  8
0
100
AcDbBlockBegin
  2
*D11
 70
     1
 10
0.0
 20
0.0
 30
0.0
  3
*D11
  1
*D11
  0
LINE
  5
222
330
21F
100
AcDbEntity
  8
치수문자_일반주서
 62
     0
370
    -2
100
AcDbLine
 10
97.97077283782723
 20
18.22343750000002
 30
0.0
 11
120.4452724503465
 21
18.22343750000011
 31
0.0
  0
LINE
  5
223
330
21F
100
AcDbEntity
  8
치수문자_일반주서
 62
     0
370
    -2
100
AcDbLine
 10
97.97077283782723
 20
6.714062500000025
 30
0.0
 11
120.4452724503465
 21
6.714062500000111
 31
0.0
  0
LINE
  5
224
330
21F
100
AcDbEntity
  8
치수문자_일반주서
 62
     0
370
    -2
100
AcDbLine
 10
120.4452724503465
 20
18.22343750000011
 30
0.0
 11
120.4452724503464
 21
56.7649375000001
 31
0.0
  0
LINE
  5
225
330
21F
100
AcDbEntity
  8
치수문자_일반주서
 62
     0
370
    -2
100
AcDbLine
 10
120.4452724503465
 20
18.22343750000011
 30
0.0
 11
120.4452724503465
 21
6.714062500000111
 31
0.0
  0
LINE
  5
226
330
21F
100
AcDbEntity
  8
치수문자_일반주서
 62
     0
370
    -2
100
AcDbLine
 10
120.4452724503465
 20
21.52543750000011
 30
0.0
 11
120.4452724503465
 21
24.82743750000011
 31
0.0
  0
LINE
  5
227
330
21F
100
AcDbEntity
  8
치수문자_일반주서
 62
     0
370
    -2
100
AcDbLine
 10
120.4452724503466
 20
3.412062500000111
 30
0.0
 11
120.4452724503466
 21
0.1100625000001116
 31
0.0
  0
SOLID
  5
228
330
21F
100
AcDbEntity
  8
치수문자_일반주서
 62
     0
100
AcDbTrace
 10
119.8949391170132
 20
21.52543750000011
 30
0.0
 11
120.9956057836798
 21
21.52543750000011
 31
0.0
 12
120.4452724503465
 22
18.22343750000011
 32
0.0
 13
120.4452724503465
 23
18.22343750000011
 33
0.0
  0
SOLID
  5
229
330
21F
100
AcDbEntity
  8
치수문자_일반주서
 62
     0
100
AcDbTrace
 10
120.9956057836799
 20
3.412062500000113
 30
0.0
 11
119.8949391170132
 21
3.412062500000109
 31
0.0
 12
120.4452724503465
 22
6.714062500000111
 32
0.0
 13
120.4452724503465
 23
6.714062500000111
 33
0.0
  0
MTEXT
  5
22A
330
21F
100
AcDbEntity
  8
치수문자_일반주서
 62
     0
100
AcDbMText
 10
116.0702724503464
 20
41.01493750000009
 30
0.0
 40
3.5
 41
0.0
 71
     2
 72
     1
  1
\A1;%%c11.51 [29/64]
  7
SLDTEXTSTYLE0
 11
-3.704159795436851E-15
 21
1.0
 31
0.0
 73
     1
 44
1.0
  0
POINT
  5
22B
330
21F
100
AcDbEntity
  8
Defpoints
 62
     0
100
AcDbPoint
 10
97.90827283782723
 20
18.22343750000002
 30
0.0
  0
POINT
  5
22C
330
21F
100
AcDbEntity
  8
Defpoints
 62
     0
100
AcDbPoint
 10
97.90827283782723
 20
6.714062500000025
 30
0.0
  0
POINT
  5
22D
330
21F
100
AcDbEntity
  8
Defpoints
 62
     0
100
AcDbPoint
 10
120.4452724503465
 20
6.714062500000109
 30
0.0
  0
ENDBLK
  5
221
330
21F
100
AcDbEntity
  8
0
100
AcDbBlockEnd
  0
BLOCK
  5
26B
330
26A
100
AcDbEntity
  8
0
100
AcDbBlockBegin
  2
*D12
 70
     1
 10
0.0
 20
0.0
 30
0.0
  3
*D12
  1
*D12
  0
LINE
  5
26D
330
26A
100
AcDbEntity
  8
치수문자_일반주서
 62
     0
370
    -2
100
AcDbLine
 10
229.8164172928734
 20
-23.62024122596238
 30
0.0
 11
229.8164172928734
 21
-10.71410274150681
 31
0.0
  0
LINE
  5
26E
330
26A
100
AcDbEntity
  8
치수문자_일반주서
 62
     0
370
    -2
100
AcDbLine
 10
198.0664172928734
 20
-23.66855028560612
 30
0.0
 11
198.0664172928734
 21
-10.71410274150681
 31
0.0
  0
LINE
  5
26F
330
26A
100
AcDbEntity
  8
치수문자_일반주서
 62
     0
370
    -2
100
AcDbLine
 10
198.0664172928734
 20
-10.71410274150681
 30
0.0
 11
162.5874172928734
 21
-10.71410274150681
 31
0.0
  0
LINE
  5
270
330
26A
100
AcDbEntity
  8
치수문자_일반주서
 62
     0
370
    -2
100
AcDbLine
 10
229.8164172928734
 20
-10.71410274150681
 30
0.0
 11
198.0664172928734
 21
-10.71410274150681
 31
0.0
  0
LINE
  5
271
330
26A
100
AcDbEntity
  8
치수문자_일반주서
 62
     0
370
    -2
100
AcDbLine
 10
233.1184172928734
 20
-10.71410274150681
 30
0.0
 11
236.4204172928734
 21
-10.71410274150681
 31
0.0
  0
LINE
  5
272
330
26A
100
AcDbEntity
  8
치수문자_일반주서
 62
     0
370
    -2
100
AcDbLine
 10
194.7644172928734
 20
-10.71410274150681
 30
0.0
 11
191.4624172928734
 21
-10.71410274150681
 31
0.0
  0
SOLID
  5
273
330
26A
100
AcDbEntity
  8
치수문자_일반주서
 62
     0
100
AcDbTrace
 10
233.1184172928734
 20
-10.16376940817348
 30
0.0
 11
233.1184172928734
 21
-11.26443607484015
 31
0.0
 12
229.8164172928734
 22
-10.71410274150681
 32
0.0
 13
229.8164172928734
 23
-10.71410274150681
 33
0.0
  0
SOLID
  5
274
330
26A
100
AcDbEntity
  8
치수문자_일반주서
 62
     0
100
AcDbTrace
 10
194.7644172928734
 20
-11.26443607484015
 30
0.0
 11
194.7644172928734
 21
-10.16376940817348
 31
0.0
 12
198.0664172928734
 22
-10.71410274150681
 32
0.0
 13
198.0664172928734
 23
-10.71410274150681
 33
0.0
  0
MTEXT
  5
275
330
26A
100
AcDbEntity
  8
치수문자_일반주서
 62
     0
100
AcDbMText
 10
177.0249172928734
 20
-6.339102741506814
 30
0.0
 40
3.5
 41
0.0
 71
     2
 72
     1
  1
\A1;31.75 [1 1/4]
  7
SLDTEXTSTYLE0
 73
     1
 44
1.0
  0
POINT
  5
276
330
26A
100
AcDbEntity
  8
Defpoints
 62
     0
100
AcDbPoint
 10
229.8164172928734
 20
-23.68274122596238
 30
0.0
  0
POINT
  5
277
330
26A
100
AcDbEntity
  8
Defpoints
 62
     0
100
AcDbPoint
 10
198.0664172928734
 20
-23.73105028560612
 30
0.0
  0
POINT
  5
278
330
26A
100
AcDbEntity
  8
Defpoints
 62
     0
100
AcDbPoint
 10
198.0664172928734
 20
-10.71410274150681
 30
0.0
  0
ENDBLK
  5
26C
330
26A
100
AcDbEntity
  8
0
100
AcDbBlockEnd
  0
BLOCK
  5
27A
330
279
100
AcDbEntity
  8
0
100
AcDbBlockBegin
  2
*D13
 70
     1
 10
0.0
 20
0.0
 30
0.0
  3
*D13
  1
*D13
  0
LINE
  5
27C
330
279
100
AcDbEntity
  8
치수문자_일반주서
 62
     0
370
    -2
100
AcDbLine
 10
229.8164172928734
 20
-23.62024122596238
 30
0.0
 11
229.8164172928734
 21
5.198139521224846
 31
0.0
  0
LINE
  5
27D
330
279
100
AcDbEntity
  8
치수문자_일반주서
 62
     0
370
    -2
100
AcDbLine
 10
147.2664172928734
 20
-24.29492872596239
 30
0.0
 11
147.2664172928734
 21
5.198139521224846
 31
0.0
  0
LINE
  5
27E
330
279
100
AcDbEntity
  8
치수문자_일반주서
 62
     0
370
    -2
100
AcDbLine
 10
226.5144172928734
 20
5.198139521224846
 30
0.0
 11
150.5684172928734
 21
5.198139521224846
 31
0.0
  0
SOLID
  5
27F
330
279
100
AcDbEntity
  8
치수문자_일반주서
 62
     0
100
AcDbTrace
 10
226.5144172928734
 20
4.647806187891512
 30
0.0
 11
226.5144172928734
 21
5.748472854558179
 31
0.0
 12
229.8164172928734
 22
5.198139521224846
 32
0.0
 13
229.8164172928734
 23
5.198139521224846
 33
0.0
  0
SOLID
  5
280
330
279
100
AcDbEntity
  8
치수문자_일반주서
 62
     0
100
AcDbTrace
 10
150.5684172928734
 20
5.748472854558179
 30
0.0
 11
150.5684172928734
 21
4.647806187891512
 31
0.0
 12
147.2664172928734
 22
5.198139521224846
 32
0.0
 13
147.2664172928734
 23
5.198139521224846
 33
0.0
  0
MTEXT
  5
281
330
279
100
AcDbEntity
  8
치수문자_일반주서
 62
     0
100
AcDbMText
 10
188.5414172928734
 20
9.573139521224846
 30
0.0
 40
3.5
 41
0.0
 71
     2
 72
     1
  1
\A1;82.55 [3 1/4]
  7
SLDTEXTSTYLE0
 73
     1
 44
1.0
  0
POINT
  5
282
330
279
100
AcDbEntity
  8
Defpoints
 62
     0
100
AcDbPoint
 10
229.8164172928734
 20
-23.68274122596238
 30
0.0
  0
POINT
  5
283
330
279
100
AcDbEntity
  8
Defpoints
 62
     0
100
AcDbPoint
 10
147.2664172928734
 20
-24.35742872596239
 30
0.0
  0
POINT
  5
284
330
279
100
AcDbEntity
  8
Defpoints
 62
     0
100
AcDbPoint
 10
147.2664172928734
 20
5.198139521224846
 30
0.0
  0
ENDBLK
  5
27B
330
279
100
AcDbEntity
  8
0
100
AcDbBlockEnd
  0
BLOCK
  5
286
330
285
100
AcDbEntity
  8
0
100
AcDbBlockBegin
  2
*D14
 70
     1
 10
0.0
 20
0.0
 30
0.0
  3
*D14
  1
*D14
  0
LINE
  5
288
330
285
100
AcDbEntity
  8
치수문자_일반주서
 62
     0
370
    -2
100
AcDbLine
 10
148.4739172928734
 20
-23.08742872596239
 30
0.0
 11
136.2831444550461
 21
-23.08742872596244
 31
0.0
  0
LINE
  5
289
330
285
100
AcDbEntity
  8
치수문자_일반주서
 62
     0
370
    -2
100
AcDbLine
 10
148.4739172928734
 20
-35.78742872596239
 30
0.0
 11
136.2831444550462
 21
-35.78742872596243
 31
0.0
  0
LINE
  5
28A
330
285
100
AcDbEntity
  8
치수문자_일반주서
 62
     0
370
    -2
100
AcDbLine
 10
136.2831444550462
 20
-26.38942872596244
 30
0.0
 11
136.2831444550462
 21
-32.48542872596243
 31
0.0
  0
SOLID
  5
28B
330
285
100
AcDbEntity
  8
치수문자_일반주서
 62
     0
100
AcDbTrace
 10
136.8334777883795
 20
-26.38942872596244
 30
0.0
 11
135.7328111217128
 21
-26.38942872596244
 31
0.0
 12
136.2831444550461
 22
-23.08742872596244
 32
0.0
 13
136.2831444550461
 23
-23.08742872596244
 33
0.0
  0
SOLID
  5
28C
330
285
100
AcDbEntity
  8
치수문자_일반주서
 62
     0
100
AcDbTrace
 10
135.7328111217128
 20
-32.48542872596243
 30
0.0
 11
136.8334777883795
 21
-32.48542872596243
 31
0.0
 12
136.2831444550462
 22
-35.78742872596243
 32
0.0
 13
136.2831444550462
 23
-35.78742872596243
 33
0.0
  0
MTEXT
  5
28D
330
285
100
AcDbEntity
  8
치수문자_일반주서
 62
     0
100
AcDbMText
 10
131.9081444550462
 20
-29.43742872596241
 30
0.0
 40
3.5
 41
0.0
 71
     2
 72
     1
  1
\A1;%%c12.70 [1/2]
  7
SLDTEXTSTYLE0
 11
-4.475859752819533E-15
 21
1.0
 31
0.0
 73
     1
 44
1.0
  0
POINT
  5
28E
330
285
100
AcDbEntity
  8
Defpoints
 62
     0
100
AcDbPoint
 10
148.5364172928734
 20
-23.08742872596239
 30
0.0
  0
POINT
  5
28F
330
285
100
AcDbEntity
  8
Defpoints
 62
     0
100
AcDbPoint
 10
148.5364172928734
 20
-35.78742872596239
 30
0.0
  0
POINT
  5
290
330
285
100
AcDbEntity
  8
Defpoints
 62
     0
100
AcDbPoint
 10
136.2831444550462
 20
-35.78742872596243
 30
0.0
  0
ENDBLK
  5
287
330
285
100
AcDbEntity
  8
0
100
AcDbBlockEnd
  0
BLOCK
  5
292
330
291
100
AcDbEntity
  8
0
100
AcDbBlockBegin
  2
*D15
 70
     1
 10
0.0
 20
0.0
 30
0.0
  3
*D15
  1
*D15
  0
LINE
  5
294
330
291
100
AcDbEntity
  8
치수문자_일반주서
 62
     0
370
    -2
100
AcDbLine
 10
229.8789172928734
 20
-23.68274122596238
 30
0.0
 11
252.3534169053926
 21
-23.6827412259623
 31
0.0
  0
LINE
  5
295
330
291
100
AcDbEntity
  8
치수문자_일반주서
 62
     0
370
    -2
100
AcDbLine
 10
229.8789172928734
 20
-35.19211622596238
 30
0.0
 11
252.3534169053926
 21
-35.19211622596229
 31
0.0
  0
LINE
  5
296
330
291
100
AcDbEntity
  8
치수문자_일반주서
 62
     0
370
    -2
100
AcDbLine
 10
252.3534169053926
 20
-23.6827412259623
 30
0.0
 11
252.3534169053925
 21
14.85875877403771
 31
0.0
  0
LINE
  5
297
330
291
100
AcDbEntity
  8
치수문자_일반주서
 62
     0
370
    -2
100
AcDbLine
 10
252.3534169053926
 20
-23.6827412259623
 30
0.0
 11
252.3534169053926
 21
-35.19211622596229
 31
0.0
  0
LINE
  5
298
330
291
100
AcDbEntity
  8
치수문자_일반주서
 62
     0
370
    -2
100
AcDbLine
 10
252.3534169053926
 20
-20.3807412259623
 30
0.0
 11
252.3534169053926
 21
-17.0787412259623
 31
0.0
  0
LINE
  5
299
330
291
100
AcDbEntity
  8
치수문자_일반주서
 62
     0
370
    -2
100
AcDbLine
 10
252.3534169053926
 20
-38.49411622596229
 30
0.0
 11
252.3534169053926
 21
-41.79611622596229
 31
0.0
  0
SOLID
  5
29A
330
291
100
AcDbEntity
  8
치수문자_일반주서
 62
     0
100
AcDbTrace
 10
251.8030835720593
 20
-20.3807412259623
 30
0.0
 11
252.9037502387259
 21
-20.3807412259623
 31
0.0
 12
252.3534169053926
 22
-23.6827412259623
 32
0.0
 13
252.3534169053926
 23
-23.6827412259623
 33
0.0
  0
SOLID
  5
29B
330
291
100
AcDbEntity
  8
치수문자_일반주서
 62
     0
100
AcDbTrace
 10
252.903750238726
 20
-38.49411622596229
 30
0.0
 11
251.8030835720593
 21
-38.49411622596229
 31
0.0
 12
252.3534169053926
 22
-35.19211622596229
 32
0.0
 13
252.3534169053926
 23
-35.19211622596229
 33
0.0
  0
MTEXT
  5
29C
330
291
100
AcDbEntity
  8
치수문자_일반주서
 62
     0
100
AcDbMText
 10
247.9784169053925
 20
-0.8912412259623146
 30
0.0
 40
3.5
 41
0.0
 71
     2
 72
     1
  1
\A1;%%c11.51 [29/64]
  7
SLDTEXTSTYLE0
 11
-2.469439863624568E-15
 21
1.0
 31
0.0
 73
     1
 44
1.0
  0
POINT
  5
29D
330
291
100
AcDbEntity
  8
Defpoints
 62
     0
100
AcDbPoint
 10
229.8164172928734
 20
-23.68274122596238
 30
0.0
  0
POINT
  5
29E
330
291
100
AcDbEntity
  8
Defpoints
 62
     0
100
AcDbPoint
 10
229.8164172928734
 20
-35.19211622596238
 30
0.0
  0
POINT
  5
29F
330
291
100
AcDbEntity
  8
Defpoints
 62
     0
100
AcDbPoint
 10
252.3534169053927
 20
-35.19211622596229
 30
0.0
  0
ENDBLK
  5
293
330
291
100
AcDbEntity
  8
0
100
AcDbBlockEnd
  0
ENDSEC
  0
SECTION
  2
ENTITIES
  0
LINE
  5
96
330
1F
100
AcDbEntity
  8
외형선
  6
Continuous
370
    15
100
AcDbLine
 10
1.999999999999998
 20
-6.348925071276112
 30
0.0
 11
3.48115766425391
 21
-5.952050071276107
 31
0.0
  0
LINE
  5
97
330
1F
100
AcDbEntity
  8
외형선
  6
Continuous
370
    15
100
AcDbLine
 10
3.48115766425391
 20
5.954199928723893
 30
0.0
 11
1.999999999999998
 21
6.351074928723899
 31
0.0
  0
LINE
  5
98
330
1F
100
AcDbEntity
  8
외형선
  6
Continuous
370
    15
100
AcDbLine
 10
-45.04884233574609
 20
-6.34892507127611
 30
0.0
 11
1.999999999999998
 21
-6.34892507127611
 31
0.0
  0
LINE
  5
99
330
1F
100
AcDbEntity
  8
외형선
  6
Continuous
370
    15
100
AcDbLine
 10
1.999999999999998
 20
6.351074928723897
 30
0.0
 11
-16.58496733574606
 21
6.351074928723897
 31
0.0
  0
LINE
  5
9A
330
1F
100
AcDbEntity
  8
외형선
  6
Continuous
370
    15
100
AcDbLine
 10
-45.04884233574609
 20
6.351074928723893
 30
0.0
 11
-46.31884233574608
 21
5.081074928723896
 31
0.0
  0
LINE
  5
9B
330
1F
100
AcDbEntity
  8
외형선
  6
Continuous
370
    15
100
AcDbLine
 10
-46.31884233574608
 20
-5.078925071276109
 30
0.0
 11
-45.04884233574609
 21
-6.348925071276106
 31
0.0
  0
LINE
  5
9C
330
1F
100
AcDbEntity
  8
외형선
  6
Continuous
370
    15
100
AcDbLine
 10
3.48115766425391
 20
-5.952050071276107
 30
0.0
 11
3.981071529994686
 21
-5.952050071276107
 31
0.0
  0
LINE
  5
9D
330
1F
100
AcDbEntity
  8
외형선
  6
Continuous
370
    15
100
AcDbLine
 10
3.981071529994686
 20
5.954199928723893
 30
0.0
 11
3.48115766425391
 21
5.954199928723893
 31
0.0
  0
LINE
  5
9E
330
1F
100
AcDbEntity
  8
0
  6
Continuous
 62
     1
370
    15
100
AcDbLine
 10
8.351765301373032
 20
5.954199928723895
 30
0.0
 11
4.721372778757459
 21
5.954199928723895
 31
0.0
  0
LINE
  5
9F
330
1F
100
AcDbEntity
  8
0
  6
Continuous
 62
     1
370
    15
100
AcDbLine
 10
11.42145895223194
 20
-1.745549809836892
 30
0.0
 11
11.49413654783461
 21
-1.784901811805225
 31
0.0
  0
LINE
  5
A0
330
1F
100
AcDbEntity
  8
0
  6
Continuous
 62
     1
370
    15
100
AcDbLine
 10
20.91903368169713
 20
-5.952050071276108
 30
0.0
 11
24.54787937773341
 21
-5.952050071276108
 31
0.0
  0
LINE
  5
A1
330
1F
100
AcDbEntity
  8
0
  6
Continuous
 62
     1
370
    15
100
AcDbLine
 10
24.54787937773338
 20
5.954199928723895
 30
0.0
 11
20.9190336816972
 21
5.954199928723895
 31
0.0
  0
LINE
  5
A2
330
1F
100
AcDbEntity
  8
0
  6
Continuous
 62
     1
370
    15
100
AcDbLine
 10
4.721372778757466
 20
-5.952050071276108
 30
0.0
 11
8.351765301372932
 21
-5.952050071276108
 31
0.0
  0
LINE
  5
A3
330
1F
100
AcDbEntity
  8
외형선
  6
Continuous
370
    15
100
AcDbLine
 10
3.48115766425391
 20
0.0010749287238931
 30
0.0
 11
3.48115766425391
 21
5.954199928723893
 31
0.0
  0
LINE
  5
A4
330
1F
100
AcDbEntity
  8
외형선
  6
Continuous
370
    15
100
AcDbLine
 10
3.48115766425391
 20
-5.952050071276107
 30
0.0
 11
3.48115766425391
 21
0.0010749287238931
 31
0.0
  0
LINE
  5
A5
330
1F
100
AcDbEntity
  8
외형선
  6
Continuous
370
    15
100
AcDbLine
 10
1.999999999999998
 20
0.0010749287238931
 30
0.0
 11
1.999999999999998
 21
6.351074928723899
 31
0.0
  0
LINE
  5
A6
330
1F
100
AcDbEntity
  8
외형선
  6
Continuous
370
    15
100
AcDbLine
 10
1.999999999999998
 20
-6.348925071276112
 30
0.0
 11
1.999999999999998
 21
0.0010749287238931
 31
0.0
  0
LINE
  5
A7
330
1F
100
AcDbEntity
  8
외형선
  6
Continuous
370
    15
100
AcDbLine
 10
-45.04884233574609
 20
0.0010749287238931
 30
0.0
 11
-45.04884233574609
 21
6.351074928723897
 31
0.0
  0
LINE
  5
A8
330
1F
100
AcDbEntity
  8
외형선
  6
Continuous
370
    15
100
AcDbLine
 10
-45.04884233574609
 20
-6.34892507127611
 30
0.0
 11
-45.04884233574609
 21
0.0010749287238931
 31
0.0
  0
LINE
  5
A9
330
1F
100
AcDbEntity
  8
외형선
  6
Continuous
370
    15
100
AcDbLine
 10
-46.31884233574608
 20
0.0010749287238931
 30
0.0
 11
-46.31884233574608
 21
5.081074928723896
 31
0.0
  0
LINE
  5
AA
330
1F
100
AcDbEntity
  8
외형선
  6
Continuous
370
    15
100
AcDbLine
 10
-46.31884233574608
 20
-5.078925071276109
 30
0.0
 11
-46.31884233574608
 21
0.0010749287238931
 31
0.0
  0
SPLINE
  5
AB
330
1F
100
AcDbEntity
  8
외형선
  6
Continuous
370
    15
100
AcDbSpline
210
0.0
220
0.0
230
1.0
 70
     8
 71
     3
 72
     8
 73
     4
 74
     0
 42
0.000000001
 43
0.00000001
 40
0.0
 40
0.0
 40
0.0
 40
0.0
 40
1.0
 40
1.0
 40
1.0
 40
1.0
 10
4.481157664253898
 20
5.952579812579787
 30
0.0
 10
4.31410711189648
 20
5.950331962987685
 30
0.0
 10
4.14731416115387
 20
5.945745115635667
 30
0.0
 10
3.981071529994699
 20
5.938838650785843
 30
0.0
  0
LINE
  5
AC
330
1F
100
AcDbEntity
  8
외형선
  6
Continuous
370
    15
100
AcDbLine
 10
3.981071529994679
 20
2.449575581701968
 30
0.0
 11
3.981071529994686
 21
5.954199928723893
 31
0.0
  0
SPLINE
  5
AD
330
1F
100
AcDbEntity
  8
외형선
  6
Continuous
370
    15
100
AcDbSpline
210
0.0
220
0.0
230
1.0
 70
     8
 71
     3
 72
     8
 73
     4
 74
     0
 42
0.000000001
 43
0.00000001
 40
0.0
 40
0.0
 40
0.0
 40
0.0
 40
1.0
 40
1.0
 40
1.0
 40
1.0
 10
4.481157664253919
 20
2.183514553033107
 30
0.0
 10
4.314107111896499
 20
2.273162474073044
 30
0.0
 10
4.147314161153878
 20
2.361906106853554
 30
0.0
 10
3.981071529994706
 20
2.44959341359344
 30
0.0
  0
SPLINE
  5
AE
330
1F
100
AcDbEntity
  8
외형선
  6
Continuous
370
    15
100
AcDbSpline
210
0.0
220
0.0
230
1.0
 70
     8
 71
     3
 72
     8
 73
     4
 74
     0
 42
0.000000001
 43
0.00000001
 40
0.0
 40
0.0
 40
0.0
 40
0.0
 40
1.0
 40
1.0
 40
1.0
 40
1.0
 10
4.481157664253898
 20
0.1399521517104276
 30
0.0
 10
4.31410711189648
 20
0.2362824752715929
 30
0.0
 10
4.14731416115387
 20
0.332508607595679
 30
0.0
 10
3.981071529994699
 20
0.4284614593844382
 30
0.0
  0
LINE
  5
AF
330
1F
100
AcDbEntity
  8
외형선
  6
Continuous
370
    15
100
AcDbLine
 10
3.981071529994679
 20
-5.425207575716033
 30
0.0
 11
3.981071529994686
 21
0.428466536958506
 31
0.0
  0
SPLINE
  5
B0
330
1F
100
AcDbEntity
  8
외형선
  6
Continuous
370
    15
100
AcDbSpline
210
0.0
220
0.0
230
1.0
 70
     8
 71
     3
 72
     8
 73
     4
 74
     0
 42
0.000000001
 43
0.00000001
 40
0.0
 40
0.0
 40
0.0
 40
0.0
 40
1.0
 40
1.0
 40
1.0
 40
1.0
 10
4.481157664253919
 20
-5.537576039866745
 30
0.0
 10
4.314107111896499
 20
-5.502251341447576
 30
0.0
 10
4.147314161153878
 20
-5.464767006698223
 30
0.0
 10
3.981071529994706
 20
-5.425199529399019
 30
0.0
  0
SPLINE
  5
B1
330
1F
100
AcDbEntity
  8
외형선
  6
Continuous
370
    15
100
AcDbSpline
210
0.0
220
0.0
230
1.0
 70
     8
 71
     3
 72
     8
 73
     4
 74
     0
 42
0.000000001
 43
0.00000001
 40
0.0
 40
0.0
 40
0.0
 40
0.0
 40
1.0
 40
1.0
 40
1.0
 40
1.0
 10
4.481157664253898
 20
-5.950429955132001
 30
0.0
 10
4.31410711189648
 20
-5.948182105539899
 30
0.0
 10
4.14731416115387
 20
-5.94359525818788
 30
0.0
 10
3.981071529994699
 20
-5.936688793338057
 30
0.0
  0
LINE
  5
B2
330
1F
100
AcDbEntity
  8
외형선
  6
Continuous
370
    15
100
AcDbLine
 10
3.981071529994686
 20
-5.952050071276107
 30
0.0
 11
3.981071529994686
 21
-5.936688427863809
 31
0.0
  0
LINE
  5
B3
330
1F
100
AcDbEntity
  8
외형선
  6
Continuous
370
    15
100
AcDbLine
 10
4.481157664253939
 20
-5.950429955132153
 30
0.0
 11
4.481157664253919
 21
-5.537576039866743
 31
0.0
  0
LINE
  5
B4
330
1F
100
AcDbEntity
  8
외형선
  6
Continuous
370
    15
100
AcDbLine
 10
4.481157664253939
 20
0.1399521517103676
 30
0.0
 11
4.481157664253919
 21
2.183514553033109
 31
0.0
  0
SPLINE
  5
B5
330
1F
100
AcDbEntity
  8
외형선
  6
Continuous
370
    15
100
AcDbSpline
210
0.0
220
0.0
230
1.0
 70
    24
 71
     3
 72
    20
 73
    16
 74
     0
 42
0.000000001
 43
0.00000001
 40
0.0
 40
0.0
 40
0.0
 40
0.0
 40
0.0819643195426688
 40
0.1588625695415165
 40
0.2357608195403642
 40
0.3126590695392119
 40
0.3895573195380597
 40
0.466455569536908
 40
0.5433538195357562
 40
0.620252069534604
 40
0.6971503195334517
 40
0.7740485695322986
 40
0.8509468195311454
 40
0.9278450695299929
 40
1.0
 40
1.0
 40
1.0
 40
1.0
 10
4.481157664253919
 20
-5.537576039866743
 30
0.0
 10
4.481157664253931
 20
-5.364145501341347
 30
0.0
 10
4.481157664253939
 20
-5.028003858967669
 30
0.0
 10
4.481157664253919
 20
-4.458677755536868
 30
0.0
 10
4.481157664253946
 20
-3.873637982424791
 30
0.0
 10
4.481157664253898
 20
-3.270525123687427
 30
0.0
 10
4.481157664253862
 20
-2.668318768378819
 30
0.0
 10
4.481157664253898
 20
-2.084076359209153
 30
0.0
 10
4.481157664253876
 20
-1.533437280721607
 30
0.0
 10
4.481157664253891
 20
-1.03368099466553
 30
0.0
 10
4.481157664253891
 20
-0.5968628160962118
 30
0.0
 10
4.481157664253912
 20
-0.2374966334880021
 30
0.0
 10
4.481157664253946
 20
0.0346669535900361
 30
0.0
 10
4.481157664253905
 20
0.2152397914176986
 30
0.0
 10
4.481157664253891
 20
0.2532264770648167
 30
0.0
 10
4.481157664253898
 20
0.2716153947184494
 30
0.0
  0
SPLINE
  5
B6
330
1F
100
AcDbEntity
  8
외형선
  6
Continuous
370
    15
100
AcDbSpline
210
0.0
220
0.0
230
1.0
 70
    24
 71
     3
 72
    14
 73
    10
 74
     0
 42
0.000000001
 43
0.00000001
 40
0.0
 40
0.0
 40
0.0
 40
0.0
 40
0.1270669960992311
 40
0.271787964639116
 40
0.4207058510707528
 40
0.5654268196106401
 40
0.7143447060422783
 40
0.85524115338731
 40
1.0
 40
1.0
 40
1.0
 40
1.0
 10
4.481157664253912
 20
2.241183009787219
 30
0.0
 10
4.481157664253905
 20
2.357240451523127
 30
0.0
 10
4.481157664253891
 20
2.605479701989015
 30
0.0
 10
4.481157664253884
 20
3.074988692146932
 30
0.0
 10
4.481157664253939
 20
3.610019058091386
 30
0.0
 10
4.481157664253924
 20
4.190675468727826
 30
0.0
 10
4.481157664253884
 20
4.781581346434384
 30
0.0
 10
4.481157664253939
 20
5.379109550153524
 30
0.0
 10
4.481157664253939
 20
5.759707678673029
 30
0.0
 10
4.481157664253939
 20
5.952579812579939
 30
0.0
  0
LINE
  5
B7
330
1F
100
AcDbEntity
  8
0
  6
Continuous
 62
     1
370
    15
100
AcDbLine
 10
36.23115766425391
 20
-5.390559353564218
 30
0.0
 11
36.23115766425391
 21
0.5111467110120774
 31
0.0
  0
SPLINE
  5
B8
330
1F
100
AcDbEntity
  8
0
  6
Continuous
 62
     1
370
    15
100
AcDbSpline
210
0.0
220
0.0
230
1.0
 70
     8
 71
     3
 72
    23
 73
    19
 74
     0
 42
0.000000001
 43
0.00000001
 40
0.0
 40
0.0
 40
0.0
 40
0.0
 40
0.0040154037718047
 40
0.0754500977695447
 40
0.1468956183708459
 40
0.2183374686355579
 40
0.2884950891090108
 40
0.3586408040955343
 40
0.428778172667734
 40
0.498910769393706
 40
0.5615166159996221
 40
0.6241474548813843
 40
0.68682907446279
 40
0.7494864037022462
 40
0.8121023376439631
 40
0.8747066783430902
 40
0.9373293152782548
 40
1.0
 40
1.0
 40
1.0
 40
1.0
 10
8.351765301373025
 20
5.948324976201093
 30
0.0
 10
8.389082865611446
 20
5.950265691708686
 30
0.0
 10
9.09028603976816
 20
5.98673205551971
 30
0.0
 10
10.45551668507956
 20
5.85158282400193
 30
0.0
 10
12.44746813578702
 20
5.529213838724652
 30
0.0
 10
14.42752864018132
 20
4.979785446130871
 30
0.0
 10
16.39540774361635
 20
4.25906701288087
 30
0.0
 10
18.35110939845812
 20
3.388249617534574
 30
0.0
 10
20.30649627072376
 20
2.396440413425808
 30
0.0
 10
22.1919154373654
 20
1.357232156635364
 30
0.0
 10
24.00714005029882
 20
0.3147873408294345
 30
0.0
 10
25.75333443466549
 20
-0.6966579182582582
 30
0.0
 10
27.50044243914578
 20
-1.687695089123915
 30
0.0
 10
29.24716887803092
 20
-2.630550446261659
 30
0.0
 10
30.99290329557815
 20
-3.498940064233318
 30
0.0
 10
32.73826958735464
 20
-4.264142542406245
 30
0.0
 10
34.48421320145404
 20
-4.918477707478828
 30
0.0
 10
35.6486939906824
 20
-5.233158580007927
 30
0.0
 10
36.2311576642539
 20
-5.390559353564218
 30
0.0
  0
SPLINE
  5
B9
330
1F
100
AcDbEntity
  8
0
  6
Continuous
 62
     1
370
    15
100
AcDbSpline
210
0.0
220
0.0
230
1.0
 70
     8
 71
     3
 72
    19
 73
    15
 74
     0
 42
0.000000001
 43
0.00000001
 40
0.0
 40
0.0
 40
0.0
 40
0.0
 40
0.0922506539453109
 40
0.1844872817331678
 40
0.276712448646294
 40
0.368928734457707
 40
0.4611387301900968
 40
0.5516956982168238
 40
0.6422518785431081
 40
0.7328119007312431
 40
0.8233803871991254
 40
0.9042861512315824
 40
0.9852223901659548
 40
0.9999999999999999
 40
0.9999999999999999
 40
0.9999999999999999
 40
0.9999999999999999
 10
36.2311576642539
 20
0.5111467110120783
 30
0.0
 10
35.56714813378511
 20
0.891161786955555
 30
0.0
 10
34.23923003150558
 20
1.651134159834316
 30
0.0
 10
32.24756583420967
 20
2.724711322825697
 30
0.0
 10
30.25619181037509
 20
3.69831644191085
 30
0.0
 10
28.26505490416399
 20
4.534056073770935
 30
0.0
 10
26.28592991745954
 20
5.197382161569018
 30
0.0
 10
24.31884683498743
 20
5.667328947326478
 30
0.0
 10
22.36362021799354
 20
5.93151694121867
 30
0.0
 10
20.40831183969365
 20
5.98198962884091
 30
0.0
 10
18.52237444166481
 20
5.827505278933844
 30
0.0
 10
16.7058104918682
 20
5.482509017195953
 30
0.0
 10
15.4343768864561
 20
5.160386080237012
 30
0.0
 10
14.74557211192838
 20
4.912194154870183
 30
0.0
 10
14.639225033206
 20
4.873874899253312
 30
0.0
  0
LINE
  5
BA
330
1F
100
AcDbEntity
  8
0
  6
Continuous
 62
     1
370
    15
100
AcDbLine
 10
36.23115766425391
 20
-5.9520500712761
 30
0.0
 11
36.23115766425391
 21
-5.390559353564218
 31
0.0
  0
SPLINE
  5
BB
330
1F
100
AcDbEntity
  8
0
  6
Continuous
 62
     1
370
    15
100
AcDbSpline
210
0.0
220
0.0
230
1.0
 70
     8
 71
     3
 72
    58
 73
    54
 74
     0
 42
0.000000001
 43
0.00000001
 40
0.0
 40
0.0
 40
0.0
 40
0.0
 40
0.0624999999999993
 40
0.0624999999999993
 40
0.093749999999999
 40
0.093749999999999
 40
0.1249999999999986
 40
0.1249999999999986
 40
0.1562499999999983
 40
0.1562499999999983
 40
0.1874999999999979
 40
0.1874999999999979
 40
0.2187499999999976
 40
0.2187499999999976
 40
0.2499999999999972
 40
0.2499999999999972
 40
0.2812499999999969
 40
0.2812499999999969
 40
0.3124999999999966
 40
0.3124999999999966
 40
0.3749999999999958
 40
0.3749999999999958
 40
0.4374999999999951
 40
0.4374999999999951
 40
0.4687499999999952
 40
0.4687499999999952
 40
0.4999999999999953
 40
0.4999999999999953
 40
0.5312499999999954
 40
0.5312499999999954
 40
0.5624999999999956
 40
0.5624999999999956
 40
0.5937499999999957
 40
0.5937499999999957
 40
0.6249999999999958
 40
0.6249999999999958
 40
0.6562499999999959
 40
0.6562499999999959
 40
0.687499999999996
 40
0.687499999999996
 40
0.7499999999999967
 40
0.7499999999999967
 40
0.8124999999999974
 40
0.8124999999999974
 40
0.8749999999999982
 40
0.8749999999999982
 40
0.9062499999999987
 40
0.9062499999999987
 40
0.9374999999999991
 40
0.9374999999999991
 40
0.9687499999999996
 40
0.9687499999999996
 40
1.0
 40
1.0
 40
1.0
 40
1.0
 10
36.2311576642539
 20
-5.9520500712761
 30
0.0
 10
35.57334360975048
 20
-5.897497680413759
 30
0.0
 10
34.9055370573036
 20
-5.827859438214944
 30
0.0
 10
33.91639000626618
 20
-5.670677129250706
 30
0.0
 10
33.58683327579932
 20
-5.609481478023631
 30
0.0
 10
32.92390290277258
 20
-5.469706238634823
 30
0.0
 10
32.59182801870573
 20
-5.391193602165544
 30
0.0
 10
31.93106168766506
 20
-5.218061761046028
 30
0.0
 10
31.60255891269641
 20
-5.123496602042456
 30
0.0
 10
30.94020373822706
 20
-4.9183356905791
 30
0.0
 10
30.60800859753273
 20
-4.807875980166119
 30
0.0
 10
29.94619157179643
 20
-4.572742618003865
 30
0.0
 10
29.61795089161895
 20
-4.448269223825163
 30
0.0
 10
28.95645747580282
 20
-4.185368398297412
 30
0.0
 10
28.62428682858206
 20
-4.047050985026238
 30
0.0
 10
27.96170489148308
 20
-3.758580039705634
 30
0.0
 10
27.6329340682227
 20
-3.608690962808594
 30
0.0
 10
26.97258772766648
 20
-3.297845088424919
 30
0.0
 10
26.64058628836988
 20
-3.136798847078015
 30
0.0
 10
25.64599634713095
 20
-2.640078619288309
 30
0.0
 10
24.98845572523371
 20
-2.291489212491983
 30
0.0
 10
23.66195491322802
 20
-1.568363203150402
 30
0.0
 10
23.00451965380153
 20
-1.195928612386872
 30
0.0
 10
22.00979015800336
 20
-0.628055772658509
 30
0.0
 10
21.67787432801834
 20
-0.4374333874337573
 30
0.0
 10
21.01795952659518
 20
-0.056176058559753
 30
0.0
 10
20.68884800264502
 20
0.1346721554128086
 30
0.0
 10
20.02608012734195
 20
0.5162414754569985
 30
0.0
 10
19.69394835419297
 20
0.7066663163494317
 30
0.0
 10
19.03279458501886
 20
1.084159697072952
 30
0.0
 10
18.70446918031709
 20
1.27110248755953
 30
0.0
 10
18.04237358321992
 20
1.641520995945916
 30
0.0
 10
17.71017052478264
 20
1.824692654305594
 30
0.0
 10
17.04806261490911
 20
2.184419499069178
 30
0.0
 10
16.71973121351142
 20
2.360703999672146
 30
0.0
 10
16.05859407994613
 20
2.706257954618892
 30
0.0
 10
15.72646449784676
 20
2.875390632646591
 30
0.0
 10
15.06368865037255
 20
3.204000230568334
 30
0.0
 10
14.73455914496452
 20
3.363241811895063
 30
0.0
 10
13.7447183445366
 20
3.825114491639969
 30
0.0
 10
13.07806243449044
 20
4.112217624415333
 30
0.0
 10
11.76132726132623
 20
4.630058725847236
 30
0.0
 10
11.09348849867709
 20
4.863064949617547
 30
0.0
 10
9.775609772011698
 20
5.264379697248063
 30
0.0
 10
9.110135876046286
 20
5.434303278409295
 30
0.0
 10
8.119587140876117
 20
5.636818771118131
 30
0.0
 10
7.790830245715838
 20
5.695660152726095
 30
0.0
 10
7.128257751161044
 20
5.795882095933321
 30
0.0
 10
6.796085654098398
 20
5.837142098505803
 30
0.0
 10
6.134577063054728
 20
5.901416579451596
 30
0.0
 10
5.806338321363739
 20
5.924440978492685
 30
0.0
 10
5.144535073460336
 20
5.952283462432096
 30
0.0
 10
4.812340674330814
 20
5.957036245579299
 30
0.0
 10
4.481157664253974
 20
5.95257981257979
 30
0.0
  0
SPLINE
  5
BC
330
1F
100
AcDbEntity
  8
0
  6
Continuous
 62
     1
370
    15
100
AcDbSpline
210
0.0
220
0.0
230
1.0
 70
     8
 71
     3
 72
    21
 73
    17
 74
     0
 42
0.000000001
 43
0.00000001
 40
0.0
 40
0.0
 40
0.0
 40
0.0
 40
0.0755008852425339
 40
0.1510094027428987
 40
0.2265276627890757
 40
0.3020573683418737
 40
0.3775831937432016
 40
0.4517513763255026
 40
0.5259069728434203
 40
0.6000537458240326
 40
0.6741954741757097
 40
0.7403801855506366
 40
0.8065913178854761
 40
0.8728561337999097
 40
0.9390952708143957
 40
1.0
 40
1.0
 40
1.0
 40
1.0
 10
4.481157664253919
 20
2.183514553033107
 30
0.0
 10
5.14487472047027
 20
1.819120288013765
 30
0.0
 10
6.472375926946739
 20
1.090294921970129
 30
0.0
 10
8.463796533643269
 20
-0.0651697234768268
 30
0.0
 10
10.45551351745234
 20
-1.212417030133413
 30
0.0
 10
12.44746898503583
 20
-2.316037206886762
 30
0.0
 10
14.42752841730274
 20
-3.327084337627788
 30
0.0
 10
16.39540780241368
 20
-4.210724588642178
 30
0.0
 10
18.35110938440085
 20
-4.937930767847528
 30
0.0
 10
20.30649626816787
 20
-5.48794856271797
 30
0.0
 10
22.19191546068276
 20
-5.828511247919927
 30
0.0
 10
24.00713997053126
 20
-5.972198923651168
 30
0.0
 10
25.75333473462298
 20
-5.940287656149688
 30
0.0
 10
27.50044131833355
 20
-5.735194136218501
 30
0.0
 10
29.20066389432201
 20
-5.387657907586882
 30
0.0
 10
30.31818012986476
 20
-5.036488747316574
 30
0.0
 10
30.85349516880764
 20
-4.868270938280153
 30
0.0
  0
SPLINE
  5
BD
330
1F
100
AcDbEntity
  8
외형선
  6
Continuous
370
    15
100
AcDbSpline
210
0.0
220
0.0
230
1.0
 70
    24
 71
     3
 72
    14
 73
    10
 74
     0
 42
0.000000001
 43
0.00000001
 40
0.0
 40
0.0
 40
0.0
 40
0.0
 40
0.1495424901269791
 40
0.3037388544877798
 40
0.4483579704294955
 40
0.597171050530715
 40
0.7417901664724328
 40
0.8906032465736549
 40
1.0
 40
1.0
 40
1.0
 40
1.0
 10
4.481157664253919
 20
5.952579812580182
 30
0.0
 10
4.481157664253939
 20
5.753088048956941
 30
0.0
 10
4.481157664253967
 20
5.34789618869556
 30
0.0
 10
4.481157664253876
 20
4.729978388285038
 30
0.0
 10
4.481157664253919
 20
4.12275118550901
 30
0.0
 10
4.481157664253924
 20
3.550691295915252
 30
0.0
 10
4.481157664253884
 20
3.016270456178641
 30
0.0
 10
4.481157664253967
 20
2.571198003701523
 30
0.0
 10
4.481157664253939
 20
2.339385784435625
 30
0.0
 10
4.481157664253924
 20
2.24117300978722
 30
0.0
  0
SPLINE
  5
BE
330
1F
100
AcDbEntity
  8
0
  6
Continuous
 62
     1
370
    15
100
AcDbSpline
210
0.0
220
0.0
230
1.0
 70
     8
 71
     3
 72
    17
 73
    13
 74
     0
 42
0.000000001
 43
0.00000001
 40
0.0
 40
0.0
 40
0.0
 40
0.0
 40
0.0310667302838658
 40
0.1500271340089867
 40
0.2562956908585434
 40
0.3626042760532424
 40
0.4688266767433076
 40
0.5750070712460145
 40
0.6811961342883046
 40
0.7874444752177895
 40
0.8937612368034018
 40
1.0
 40
1.0
 40
1.0
 40
1.0
 10
20.91903368169713
 20
-5.931415946776069
 30
0.0
 10
20.74880908420901
 20
-5.93756379508099
 30
0.0
 10
19.92676221073295
 20
-5.967252920813938
 30
0.0
 10
18.52237813070592
 20
-5.813719376359392
 30
0.0
 10
16.70579225044723
 20
-5.490383810994
 30
0.0
 10
14.95866248055489
 20
-5.008404991287782
 30
0.0
 10
13.21250226356184
 20
-4.386628633000309
 30
0.0
 10
11.46708745643458
 20
-3.638409202355852
 30
0.0
 10
9.721511191994669
 20
-2.786287552566277
 30
0.0
 10
7.975003321081452
 20
-1.85429589405037
 30
0.0
 10
6.227810700859727
 20
-0.869493301414679
 30
0.0
 10
5.063232893766578
 20
-0.1964473400570618
 30
0.0
 10
4.481157664253967
 20
0.1399521517103855
 30
0.0
  0
SPLINE
  5
BF
330
1F
100
AcDbEntity
  8
0
  6
Continuous
 62
     1
370
    15
100
AcDbSpline
210
0.0
220
0.0
230
1.0
 70
     8
 71
     3
 72
    13
 73
     9
 74
     0
 42
0.000000001
 43
0.00000001
 40
0.0
 40
0.0
 40
0.0
 40
0.0
 40
0.1960256534282025
 40
0.3920711227608656
 40
0.5881418870142783
 40
0.7842423676466049
 40
0.9803327741026502
 40
1.0
 40
1.0
 40
1.0
 40
1.0
 10
4.481157664253905
 20
-5.537576039866742
 30
0.0
 10
5.144874752739437
 20
-5.658192274810637
 30
0.0
 10
6.472376023757548
 20
-5.899436937591277
 30
0.0
 10
8.463796146333486
 20
-5.985542183487326
 30
0.0
 10
10.45551497016143
 20
-5.868570913301037
 30
0.0
 10
12.44746356081559
 20
-5.511583994417462
 30
0.0
 10
13.84208541284198
 20
-5.165395488492837
 30
0.0
 10
14.57263255396686
 20
-4.896258062903169
 30
0.0
 10
14.63922503320593
 20
-4.871725041805528
 30
0.0
  0
SPLINE
  5
C0
330
1F
100
AcDbEntity
  8
외형선
  6
Continuous
370
    15
100
AcDbSpline
210
0.0
220
0.0
230
1.0
 70
    24
 71
     3
 72
    21
 73
    17
 74
     0
 42
0.000000001
 43
0.00000001
 40
0.0
 40
0.0
 40
0.0
 40
0.0
 40
0.0044775534591151
 40
0.08030464615603
 40
0.1583307296780473
 40
0.2341578223749635
 40
0.3121839058969821
 40
0.3880109985938979
 40
0.466037082115917
 40
0.5418641748128322
 40
0.6198902583348503
 40
0.695717351031766
 40
0.7737434345537842
 40
0.8495705272506994
 40
0.9275966107727177
 40
1.0
 40
1.0
 40
1.0
 40
1.0
 10
4.481157664253898
 20
0.2714500877201131
 30
0.0
 10
4.481157664253898
 20
0.2717434378205644
 30
0.0
 10
4.481157664253855
 20
0.2770046538466108
 30
0.0
 10
4.481157664253974
 20
0.1905510082264259
 30
0.0
 10
4.481157664253905
 20
0.0109312665903345
 30
0.0
 10
4.481157664253869
 20
-0.2766047512138555
 30
0.0
 10
4.481157664253994
 20
-0.6435656671380735
 30
0.0
 10
4.481157664253862
 20
-1.090243323692508
 30
0.0
 10
4.481157664254008
 20
-1.594867724742077
 30
0.0
 10
4.481157664253891
 20
-2.152522525238481
 30
0.0
 10
4.481157664253981
 20
-2.737337485625507
 30
0.0
 10
4.481157664253905
 20
-3.343197156982789
 30
0.0
 10
4.481157664253848
 20
-3.94244849738442
 30
0.0
 10
4.48115766425396
 20
-4.527399234063246
 30
0.0
 10
4.481157664253876
 20
-5.068429654139822
 30
0.0
 10
4.481157664253884
 20
-5.385139868338648
 30
0.0
 10
4.481157664253905
 20
-5.537576039866745
 30
0.0
  0
SPLINE
  5
C1
330
1F
100
AcDbEntity
  8
0
  6
Continuous
 62
     1
370
    15
100
AcDbSpline
210
0.0
220
0.0
230
1.0
 70
     8
 71
     3
 72
    14
 73
    10
 74
     0
 42
0.000000001
 43
0.00000001
 40
0.0
 40
0.0
 40
0.0
 40
0.0
 40
0.1031469424831586
 40
0.2527167748597089
 40
0.4022286460285241
 40
0.5516417404301559
 40
0.7010271712302021
 40
0.8504562602026993
 40
1.0
 40
1.0
 40
1.0
 40
1.0
 10
24.54787937773337
 20
5.935962922203007
 30
0.0
 10
24.94954911257151
 20
5.935349828963102
 30
0.0
 10
25.93366630987595
 20
5.933847710310364
 30
0.0
 10
27.50044916125028
 20
5.735441010103667
 30
0.0
 10
29.24716707850279
 20
5.373669680909854
 30
0.0
 10
30.99290377735504
 20
4.852149673460422
 30
0.0
 10
32.73826945885222
 20
4.192209153395151
 30
0.0
 10
34.48421323361232
 20
3.416939613380094
 30
0.0
 10
35.64869400140456
 20
2.822360055633055
 30
0.0
 10
36.2311576642539
 20
2.524956271354784
 30
0.0
  0
LINE
  5
C2
330
1F
100
AcDbEntity
  8
0
  6
Continuous
 62
     1
370
    15
100
AcDbLine
 10
36.23115766425391
 20
0.5111467110120784
 30
0.0
 11
36.23115766425391
 21
2.524956271354785
 31
0.0
  0
SPLINE
  5
C3
330
1F
100
AcDbEntity
  8
0
  6
Continuous
 62
     1
370
    15
100
AcDbSpline
210
0.0
220
0.0
230
1.0
 70
     8
 71
     3
 72
    10
 73
     6
 74
     0
 42
0.000000001
 43
0.00000001
 40
0.0
 40
0.0
 40
0.0
 40
0.0
 40
0.3704145382808553
 40
0.7407727572575649
 40
1.0
 40
1.0
 40
1.0
 40
1.0
 10
36.23115766425391
 20
5.9541999287239
 30
0.0
 10
35.56714844748932
 20
5.876839581879866
 30
0.0
 10
34.23923097257043
 20
5.765911466425446
 30
0.0
 10
32.44668676735006
 20
5.390544120966334
 30
0.0
 10
31.31815849233738
 20
5.022117699710936
 30
0.0
 10
30.85349516880764
 20
4.87042079572794
 30
0.0
  0
LINE
  5
C4
330
1F
100
AcDbEntity
  8
외형선
  6
Continuous
370
    15
100
AcDbLine
 10
4.721372778757466
 20
-5.941937758915009
 30
0.0
 11
4.481157664253967
 21
-5.950429955132004
 31
0.0
  0
LINE
  5
C5
330
1F
100
AcDbEntity
  8
0
  6
Continuous
 62
     1
370
    15
100
AcDbLine
 10
36.23115766425391
 20
2.511666852773917
 30
0.0
 11
36.23115766425391
 21
5.9541999287239
 31
0.0
  0
LINE
  5
C6
330
1F
100
AcDbEntity
  8
중심선
 48
0.8
100
AcDbLine
 10
-49.31884233574608
 20
0.0010749287238892
 30
0.0
 11
39.23115766425391
 21
0.0010749287238997
 31
0.0
  0
LINE
  5
C7
330
1F
100
AcDbEntity
  8
참조1
100
AcDbLine
 10
5.430603649777287
 20
0.0010749287238892
 30
0.0
 11
5.430603649777292
 21
-39.99892507127611
 31
0.0
  0
LINE
  5
C8
330
1F
100
AcDbEntity
  8
참조1
100
AcDbLine
 10
5.430603649777292
 20
-39.99892507127611
 30
0.0
 11
-21.63450316453139
 21
-39.9989250712761
 31
0.0
  0
CIRCLE
  5
C9
330
1F
100
AcDbEntity
  8
해칭선
100
AcDbCircle
 10
0.0
 20
0.0
 30
0.0
 40
3.000000000000001
  0
INSERT
  5
CA
330
1F
100
AcDbEntity
  8
0
  6
Continuous
 62
     7
100
AcDbBlockReference
 66
     1
  2
블럭10
 10
-8.509669282347918
 20
-52.04609937292004
 30
0.0
  0
ATTRIB
  5
CB
330
CA
100
AcDbEntity
  8
FORMAT
 62
     2
100
AcDbText
 10
-17.6909645710892
 20
-49.97073246008785
 30
0.0
 40
4.233333333333333
  1
E2031030 [ 4 FLUTE ]
 41
0.75
  7
SLDTEXTSTYLE0
 11
-17.6909645710892
 21
-52.08739912675452
 31
0.0
100
AcDbAttribute
  2
AUTOATTR0
 70
     0
 74
     1
  0
SEQEND
  5
CC
330
CA
100
AcDbEntity
  8
0
  6
Continuous
 62
     7
  0
HATCH
  5
CD
330
1F
100
AcDbEntity
  8
중심선
100
AcDbHatch
 10
0.0
 20
0.0
 30
0.0
210
0.0
220
0.0
230
1.0
  2
SOLID
 70
     1
 71
     0
 91
        1
 92
        0
 93
        4
 72
     1
 10
-2.794759977967076
 20
-35.7989250712761
 11
-6.241035221804358
 21
-35.7989250712761
 72
     1
 10
-6.241035221804358
 20
-35.7989250712761
 11
-8.36926508100838
 21
-38.3352506518487
 72
     1
 10
-8.36926508100838
 20
-38.3352506518487
 11
-4.922956752057922
 21
-38.33521122254621
 72
     1
 10
-4.922956752057922
 20
-38.33521122254621
 11
-2.794759977967076
 21
-35.7989250712761
 97
        0
 75
     0
 76
     1
 98
        1
 10
0.0
 20
0.0
  0
HATCH
  5
CE
330
1F
100
AcDbEntity
  8
중심선
100
AcDbHatch
 10
0.0
 20
0.0
 30
0.0
210
0.0
220
0.0
230
1.0
  2
SOLID
 70
     1
 71
     0
 91
        1
 92
        0
 93
        4
 72
     1
 10
2.218004013068903
 20
-35.7989250712761
 11
-1.22827123076838
 21
-35.7989250712761
 72
     1
 10
-1.22827123076838
 20
-35.7989250712761
 11
-5.759409239125795
 21
-41.19892507127612
 72
     1
 10
-5.759409239125795
 20
-41.19892507127612
 11
-2.313133995288513
 21
-41.19892507127612
 72
     1
 10
-2.313133995288513
 20
-41.19892507127612
 11
2.218004013068903
 21
-35.7989250712761
 97
        0
 75
     0
 76
     1
 98
        1
 10
0.0
 20
0.0
  0
HATCH
  5
CF
330
1F
100
AcDbEntity
  8
중심선
100
AcDbHatch
 10
0.0
 20
0.0
 30
0.0
210
0.0
220
0.0
230
1.0
  2
SOLID
 70
     1
 71
     0
 91
        1
 92
        0
 93
        4
 72
     1
 10
7.230768004104826
 20
-35.79892507127608
 11
3.784492760267683
 21
-35.7989250712761
 72
     1
 10
3.784492760267683
 20
-35.7989250712761
 11
-3.263944141621594
 21
-44.19892507127612
 72
     1
 10
-3.263944141621594
 20
-44.19892507127612
 11
0.1823311022156879
 21
-44.19892507127612
 72
     1
 10
0.1823311022156882
 20
-44.19892507127612
 11
7.230768004104826
 21
-35.79892507127608
 97
        0
 75
     0
 76
     1
 98
        1
 10
0.0
 20
0.0
  0
HATCH
  5
D0
330
1F
100
AcDbEntity
  8
중심선
100
AcDbHatch
 10
0.0
 20
0.0
 30
0.0
210
0.0
220
0.0
230
1.0
  2
SOLID
 70
     1
 71
     0
 91
        1
 92
        0
 93
        6
 72
     3
 10
12.03065843511697
 20
-39.99892507132738
 11
3.960054785062284
 21
1.540850780301639E-10
 40
0.3939339440162633
 50
17.09539180608433
 51
320.0019657685081
 73
     0
 72
     1
 10
13.71365809081754
 20
-38.58681907591443
 11
16.0189599645186
 21
-36.65249236586649
 72
     3
 10
12.03065843506412
 20
-39.99892507127625
 11
6.600054785286829
 21
-1.249000902703301E-13
 40
0.6363583540795982
 50
39.99873849337406
 51
368.4976242363725
 73
     1
 72
     1
 10
18.45599092696473
 20
-39.03892507120613
 11
10.71072574190005
 21
-39.03892507120613
 72
     1
 10
10.71072574190005
 20
-39.03892507120613
 11
10.71070069745411
 21
-40.95892507120602
 72
     1
 10
10.71070069745411
 20
-40.95892507120602
 11
15.15208046692615
 21
-40.95892507120599
 97
        0
 75
     0
 76
     1
 98
        1
 10
0.0
 20
0.0
  0
DIMENSION
  5
D1
330
1F
100
AcDbEntity
  8
치수문자_일반주서
100
AcDbDimension
  2
_D
 10
4.481157664253914
 20
16.01307494614169
 30
0.0
 11
-16.56034233574609
 21
16.01307494614169
 31
0.0
 70
   160
  1
<>
 71
     2
 42
31.75
  3
SLDDIMSTYLE1
100
AcDbAlignedDimension
 13
36.23115766425391
 23
5.9541999287239
 33
0.0
 14
4.481157664253915
 24
5.952579812580181
 34
0.0
100
AcDbRotatedDimension
1001
ACAD
1000
DSTYLE
1002
{
1070
   171
1070
     6
1070
   273
1070
     7
1002
}
  0
DIMENSION
  5
E6
330
1F
100
AcDbEntity
  8
치수문자_일반주서
100
AcDbDimension
  2
_D_1
 10
-46.31884233574608
 20
34.83435094016752
 30
0.0
 11
-5.043842335746084
 21
34.83435094016752
 31
0.0
 70
   160
  1
<>
 71
     2
 42
82.55
  3
SLDDIMSTYLE1
100
AcDbAlignedDimension
 13
36.23115766425391
 23
5.9541999287239
 33
0.0
 14
-46.31884233574608
 24
5.081074928723896
 34
0.0
 50
0.0000000000000049
100
AcDbRotatedDimension
1001
ACAD
1000
DSTYLE
1002
{
1070
   171
1070
     6
1070
   273
1070
     7
1002
}
  0
DIMENSION
  5
F9
330
1F
100
AcDbEntity
  8
치수문자_일반주서
100
AcDbDimension
  2
_D_2
 10
-57.30211517357326
 20
-6.348925071276147
 30
0.0
 11
-57.30211517357328
 21
0.0010749287238872
 31
0.0
 70
   160
  1
%%c<>
 71
     2
 42
12.69999999999999
 52
-270.0
  3
SLDDIMSTYLE1
100
AcDbAlignedDimension
 13
-45.04884233574609
 23
6.351074928723888
 33
0.0
 14
-45.04884233574609
 24
-6.348925071276101
 34
0.0
 50
90.0000000000002
100
AcDbRotatedDimension
1001
ACAD
1000
DSTYLE
1002
{
1070
   171
1070
     6
1070
   273
1070
     7
1002
}
  0
DIMENSION
  5
10E
330
1F
100
AcDbEntity
  8
치수문자_일반주서
100
AcDbDimension
  2
_D_3
 10
53.7639905830987
 20
-5.952050071276037
 30
0.0
 11
53.76399058309858
 21
28.34880785641601
 31
0.0
 70
   160
  1
%%c<>
 71
     2
 42
11.90625
 52
-270.0
  3
SLDDIMSTYLE1
100
AcDbAlignedDimension
 13
36.23115766425391
 23
5.9541999287239
 33
0.0
 14
36.23115766425391
 24
-5.9520500712761
 34
0.0
 50
90.0000000000002
100
AcDbRotatedDimension
1001
ACAD
1000
DSTYLE
1002
{
1070
   171
1070
     6
1070
   273
1070
     7
1002
}
  0
LINE
  5
121
330
1F
100
AcDbEntity
  8
참조1
100
AcDbLine
 10
76.33783746512287
 20
7.441074928723896
 30
0.0
 11
76.33783746512287
 21
-7.438925071276109
 31
0.0
  0
LINE
  5
122
330
1F
100
AcDbEntity
  8
참조1
100
AcDbLine
 10
89.03783746512288
 20
5.441074928723896
 30
0.0
 11
76.33783746512287
 21
5.441074928723896
 31
0.0
  0
SOLID
  5
123
330
1F
100
AcDbEntity
  8
참조1
100
AcDbTrace
 10
76.33783746512287
 20
5.441074928723896
 30
0.0
 11
82.68783746512287
 21
4.425074928723896
 31
0.0
 12
82.68783746512287
 22
6.457074928723896
 32
0.0
 13
82.68783746512287
 23
6.457074928723896
 33
0.0
  0
LINE
  5
124
330
1F
100
AcDbEntity
  8
참조1
100
AcDbLine
 10
89.03783746512288
 20
-5.438925071276109
 30
0.0
 11
76.33783746512287
 21
-5.438925071276109
 31
0.0
  0
SOLID
  5
125
330
1F
100
AcDbEntity
  8
참조1
100
AcDbTrace
 10
76.33783746512287
 20
-5.438925071276109
 30
0.0
 11
82.68783746512287
 21
-6.454925071276109
 31
0.0
 12
82.68783746512287
 22
-4.422925071276109
 32
0.0
 13
82.68783746512287
 23
-4.422925071276109
 33
0.0
  0
MTEXT
  5
126
330
1F
100
AcDbEntity
  8
참조1
100
AcDbMText
 10
85.72218759774887
 20
11.01136670591222
 30
0.0
 40
3.5
 41
0.0
 71
     1
 72
     1
  1
A
  7
SLDTEXTSTYLE0
 73
     1
 44
1.0
  0
MTEXT
  5
127
330
1F
100
AcDbEntity
  8
참조1
100
AcDbMText
 10
85.72218759774887
 20
0.1313667059122201
 30
0.0
 40
3.5
 41
0.0
 71
     1
 72
     1
  1
A
  7
SLDTEXTSTYLE0
 73
     1
 44
1.0
  0
INSERT
  5
12E
330
1F
100
AcDbEntity
  8
해칭선
100
AcDbBlockReference
  2
SW_DOWELSYMBOL_0
 10
0.0
 20
0.0
 30
0.0
  0
LINE
  5
265
330
1F
100
AcDbEntity
  8
외형선
  6
Continuous
370
    15
100
AcDbLine
 10
-29.28496733574607
 20
4.827074928723881
 30
0.0
 11
-18.1089673357462
 21
4.827074928723881
 31
0.0
  0
LINE
  5
266
330
1F
100
AcDbEntity
  8
외형선
  6
Continuous
370
    15
100
AcDbLine
 10
-29.28496733574607
 20
4.827074928723881
 30
0.0
 11
-30.80896733574604
 21
6.351074928723882
 31
0.0
  0
LINE
  5
267
330
1F
100
AcDbEntity
  8
외형선
  6
Continuous
370
    15
100
AcDbLine
 10
-18.10896733574608
 20
4.827074928723881
 30
0.0
 11
-16.58496733574608
 21
6.351074928723882
 31
0.0
  0
LINE
  5
2A4
330
1F
100
AcDbEntity
  8
외형선
  6
Continuous
370
    15
100
AcDbLine
 10
-30.80896733574607
 20
6.351074928723897
 30
0.0
 11
-45.04884233574609
 21
6.351074928723897
 31
0.0
  0
ENDSEC
  0
SECTION
  2
OBJECTS
  0
DICTIONARY
  5
C
330
0
100
AcDbDictionary
281
     1
  3
ACAD_GROUP
350
D
  3
ACAD_IMAGE_VARS
350
152
  3
ACAD_LAYOUT
350
1A
  3
ACAD_MLINESTYLE
350
17
  3
ACAD_PLOTSETTINGS
350
19
  3
ACAD_PLOTSTYLENAME
350
E
  3
ACAD_SCALELIST
350
47
  3
APPDATA
350
150
  3
DWGPROPS
350
2A7
  0
DICTIONARY
  5
1F4
330
2
100
AcDbDictionary
280
     1
281
     1
  3
ACAD_LAYERSTATES
360
1F5
  0
DICTIONARY
  5
D
102
{ACAD_REACTORS
330
C
102
}
330
C
100
AcDbDictionary
281
     1
  0
RASTERVARIABLES
  5
152
102
{ACAD_REACTORS
330
C
102
}
330
C
100
AcDbRasterVariables
 90
        0
 70
     1
 71
     1
 72
     1
  0
DICTIONARY
  5
1A
102
{ACAD_REACTORS
330
C
102
}
330
C
100
AcDbDictionary
281
     1
  3
Layout1
350
1E
  3
Layout2
350
26
  3
Model
350
22
  0
DICTIONARY
  5
17
102
{ACAD_REACTORS
330
C
102
}
330
C
100
AcDbDictionary
281
     1
  3
Standard
350
18
  0
DICTIONARY
  5
19
102
{ACAD_REACTORS
330
C
102
}
330
C
100
AcDbDictionary
281
     1
  0
ACDBDICTIONARYWDFLT
  5
E
102
{ACAD_REACTORS
330
C
102
}
330
C
100
AcDbDictionary
281
     1
  3
Normal
350
F
100
AcDbDictionaryWithDefault
340
F
  0
DICTIONARY
  5
47
102
{ACAD_REACTORS
330
C
102
}
330
C
100
AcDbDictionary
281
     1
  3
A0
350
48
  3
A1
350
49
  3
A2
350
4A
  3
A3
350
4B
  3
A4
350
4C
  3
A5
350
4D
  3
A6
350
4E
  3
A7
350
4F
  3
A8
350
50
  3
A9
350
51
  3
B0
350
52
  3
B1
350
53
  3
B2
350
54
  3
B3
350
55
  3
B4
350
56
  3
B5
350
57
  3
B6
350
58
  3
B7
350
59
  3
B8
350
5A
  3
B9
350
5B
  3
C0
350
5C
  3
C1
350
5D
  3
C2
350
5E
  3
C3
350
5F
  3
C4
350
60
  3
C5
350
61
  3
C6
350
62
  3
C7
350
63
  3
C8
350
64
  3
C9
350
65
  3
D0
350
66
  3
D1
350
67
  3
D2
350
68
  0
DICTIONARY
  5
150
102
{ACAD_REACTORS
330
C
102
}
330
C
100
AcDbDictionary
281
     1
  0
XRECORD
  5
2A7
102
{ACAD_REACTORS
330
C
102
}
330
C
100
AcDbXrecord
280
     1
  1
DWGPROPS COOKIE
  2

  3

  4

  6

  7

  8
12017012
  9

300
=
301
=
302
=
303
=
304
=
305
=
306
=
307
=
308
=
309
=
 40
0.0
 41
2458312.294538958
 42
2458320.26879309
  1

 90
        0
  0
DICTIONARY
  5
1F5
102
{ACAD_REACTORS
330
1F4
102
}
330
1F4
100
AcDbDictionary
281
     1
  0
LAYOUT
  5
1E
102
{ACAD_REACTORS
330
1A
102
}
330
1A
100
AcDbPlotSettings
  1

  2
none_device
  4

  6

 40
0.0
 41
0.0
 42
0.0
 43
0.0
 44
0.0
 45
0.0
 46
0.0
 47
0.0
 48
0.0
 49
0.0
140
0.0
141
0.0
142
1.0
143
1.0
 70
   688
 72
     1
 73
     0
 74
     5
  7

 75
    16
147
1.0
148
0.0
149
0.0
100
AcDbLayout
  1
Layout1
 70
     1
 71
     1
 10
0.0
 20
0.0
 11
420.0
 21
297.0
 12
0.0
 22
0.0
 32
0.0
 14
1.000000000000000E+20
 24
1.000000000000000E+20
 34
1.000000000000000E+20
 15
-1.000000000000000E+20
 25
-1.000000000000000E+20
 35
-1.000000000000000E+20
146
0.0
 13
0.0
 23
0.0
 33
0.0
 16
1.0
 26
0.0
 36
0.0
 17
0.0
 27
1.0
 37
0.0
 76
     0
330
1B
  0
LAYOUT
  5
26
102
{ACAD_REACTORS
330
1A
102
}
330
1A
100
AcDbPlotSettings
  1

  2
none_device
  4

  6

 40
0.0
 41
0.0
 42
0.0
 43
0.0
 44
0.0
 45
0.0
 46
0.0
 47
0.0
 48
0.0
 49
0.0
140
0.0
141
0.0
142
1.0
143
1.0
 70
   688
 72
     1
 73
     0
 74
     5
  7

 75
    16
147
1.0
148
0.0
149
0.0
100
AcDbLayout
  1
Layout2
 70
     1
 71
     2
 10
0.0
 20
0.0
 11
0.0
 21
0.0
 12
0.0
 22
0.0
 32
0.0
 14
0.0
 24
0.0
 34
0.0
 15
0.0
 25
0.0
 35
0.0
146
0.0
 13
0.0
 23
0.0
 33
0.0
 16
1.0
 26
0.0
 36
0.0
 17
0.0
 27
1.0
 37
0.0
 76
     0
330
23
  0
LAYOUT
  5
22
102
{ACAD_REACTORS
330
1A
102
}
330
1A
100
AcDbPlotSettings
  1

  2
none_device
  4
ANSI_A_(11.00_x_8.50_Inches)
  6

 40
6.35
 41
19.05
 42
6.35000508
 43
19.05000254
 44
279.4
 45
215.9
 46
91.1146885332722
 47
83.10408209532734
 48
0.0
 49
0.0
140
0.0
141
0.0
142
0.0656396459699799
143
1.0
 70
  1696
 72
     0
 73
     0
 74
     0
  7

 75
     0
147
0.0235690232323232
148
0.0
149
0.0
100
AcDbLayout
  1
Model
 70
     1
 71
     0
 10
0.0
 20
0.0
 11
420.0
 21
297.0
 12
0.0
 22
0.0
 32
0.0
 14
1.000000000000000E+20
 24
1.000000000000000E+20
 34
1.000000000000000E+20
 15
-1.000000000000000E+20
 25
-1.000000000000000E+20
 35
-1.000000000000000E+20
146
0.0
 13
0.0
 23
0.0
 33
0.0
 16
1.0
 26
0.0
 36
0.0
 17
0.0
 27
1.0
 37
0.0
 76
     0
330
1F
331
29
  0
MLINESTYLE
  5
18
102
{ACAD_REACTORS
330
17
102
}
330
17
100
AcDbMlineStyle
  2
Standard
 70
     0
  3

 62
   256
 51
90.0
 52
90.0
 71
     2
 49
0.5
 62
   256
  6
BYLAYER
 49
-0.5
 62
   256
  6
BYLAYER
  0
ACDBPLACEHOLDER
  5
F
102
{ACAD_REACTORS
330
E
102
}
330
E
  0
SCALE
  5
48
102
{ACAD_REACTORS
330
47
102
}
330
47
100
AcDbScale
 70
     0
300
1:1
140
1.0
141
1.0
290
     1
  0
SCALE
  5
49
102
{ACAD_REACTORS
330
47
102
}
330
47
100
AcDbScale
 70
     0
300
1:2
140
1.0
141
2.0
290
     0
  0
SCALE
  5
4A
102
{ACAD_REACTORS
330
47
102
}
330
47
100
AcDbScale
 70
     0
300
1:4
140
1.0
141
4.0
290
     0
  0
SCALE
  5
4B
102
{ACAD_REACTORS
330
47
102
}
330
47
100
AcDbScale
 70
     0
300
1:5
140
1.0
141
5.0
290
     0
  0
SCALE
  5
4C
102
{ACAD_REACTORS
330
47
102
}
330
47
100
AcDbScale
 70
     0
300
1:8
140
1.0
141
8.0
290
     0
  0
SCALE
  5
4D
102
{ACAD_REACTORS
330
47
102
}
330
47
100
AcDbScale
 70
     0
300
1:10
140
1.0
141
10.0
290
     0
  0
SCALE
  5
4E
102
{ACAD_REACTORS
330
47
102
}
330
47
100
AcDbScale
 70
     0
300
1:16
140
1.0
141
16.0
290
     0
  0
SCALE
  5
4F
102
{ACAD_REACTORS
330
47
102
}
330
47
100
AcDbScale
 70
     0
300
1:20
140
1.0
141
20.0
290
     0
  0
SCALE
  5
50
102
{ACAD_REACTORS
330
47
102
}
330
47
100
AcDbScale
 70
     0
300
1:30
140
1.0
141
30.0
290
     0
  0
SCALE
  5
51
102
{ACAD_REACTORS
330
47
102
}
330
47
100
AcDbScale
 70
     0
300
1:40
140
1.0
141
40.0
290
     0
  0
SCALE
  5
52
102
{ACAD_REACTORS
330
47
102
}
330
47
100
AcDbScale
 70
     0
300
1:50
140
1.0
141
50.0
290
     0
  0
SCALE
  5
53
102
{ACAD_REACTORS
330
47
102
}
330
47
100
AcDbScale
 70
     0
300
1:100
140
1.0
141
100.0
290
     0
  0
SCALE
  5
54
102
{ACAD_REACTORS
330
47
102
}
330
47
100
AcDbScale
 70
     0
300
2:1
140
2.0
141
1.0
290
     0
  0
SCALE
  5
55
102
{ACAD_REACTORS
330
47
102
}
330
47
100
AcDbScale
 70
     0
300
4:1
140
4.0
141
1.0
290
     0
  0
SCALE
  5
56
102
{ACAD_REACTORS
330
47
102
}
330
47
100
AcDbScale
 70
     0
300
8:1
140
8.0
141
1.0
290
     0
  0
SCALE
  5
57
102
{ACAD_REACTORS
330
47
102
}
330
47
100
AcDbScale
 70
     0
300
10:1
140
10.0
141
1.0
290
     0
  0
SCALE
  5
58
102
{ACAD_REACTORS
330
47
102
}
330
47
100
AcDbScale
 70
     0
300
100:1
140
100.0
141
1.0
290
     0
  0
SCALE
  5
59
102
{ACAD_REACTORS
330
47
102
}
330
47
100
AcDbScale
 70
     0
300
1/128" = 1'-0"
140
0.0078125
141
12.0
290
     0
  0
SCALE
  5
5A
102
{ACAD_REACTORS
330
47
102
}
330
47
100
AcDbScale
 70
     0
300
1/64" = 1'-0"
140
0.015625
141
12.0
290
     0
  0
SCALE
  5
5B
102
{ACAD_REACTORS
330
47
102
}
330
47
100
AcDbScale
 70
     0
300
1/32" = 1'-0"
140
0.03125
141
12.0
290
     0
  0
SCALE
  5
5C
102
{ACAD_REACTORS
330
47
102
}
330
47
100
AcDbScale
 70
     0
300
1/16" = 1'-0"
140
0.0625
141
12.0
290
     0
  0
SCALE
  5
5D
102
{ACAD_REACTORS
330
47
102
}
330
47
100
AcDbScale
 70
     0
300
3/32" = 1'-0"
140
0.09375
141
12.0
290
     0
  0
SCALE
  5
5E
102
{ACAD_REACTORS
330
47
102
}
330
47
100
AcDbScale
 70
     0
300
1/8" = 1'-0"
140
0.125
141
12.0
290
     0
  0
SCALE
  5
5F
102
{ACAD_REACTORS
330
47
102
}
330
47
100
AcDbScale
 70
     0
300
3/16" = 1'-0"
140
0.1875
141
12.0
290
     0
  0
SCALE
  5
60
102
{ACAD_REACTORS
330
47
102
}
330
47
100
AcDbScale
 70
     0
300
1/4" = 1'-0"
140
0.25
141
12.0
290
     0
  0
SCALE
  5
61
102
{ACAD_REACTORS
330
47
102
}
330
47
100
AcDbScale
 70
     0
300
3/8" = 1'-0"
140
0.375
141
12.0
290
     0
  0
SCALE
  5
62
102
{ACAD_REACTORS
330
47
102
}
330
47
100
AcDbScale
 70
     0
300
1/2" = 1'-0"
140
0.5
141
12.0
290
     0
  0
SCALE
  5
63
102
{ACAD_REACTORS
330
47
102
}
330
47
100
AcDbScale
 70
     0
300
3/4" = 1'-0"
140
0.75
141
12.0
290
     0
  0
SCALE
  5
64
102
{ACAD_REACTORS
330
47
102
}
330
47
100
AcDbScale
 70
     0
300
1" = 1'-0"
140
1.0
141
12.0
290
     0
  0
SCALE
  5
65
102
{ACAD_REACTORS
330
47
102
}
330
47
100
AcDbScale
 70
     0
300
1-1/2" = 1'-0"
140
1.5
141
12.0
290
     0
  0
SCALE
  5
66
102
{ACAD_REACTORS
330
47
102
}
330
47
100
AcDbScale
 70
     0
300
3" = 1'-0"
140
3.0
141
12.0
290
     0
  0
SCALE
  5
67
102
{ACAD_REACTORS
330
47
102
}
330
47
100
AcDbScale
 70
     0
300
6" = 1'-0"
140
6.0
141
12.0
290
     0
  0
SCALE
  5
68
102
{ACAD_REACTORS
330
47
102
}
330
47
100
AcDbScale
 70
     0
300
1'-0" = 1'-0"
140
12.0
141
12.0
290
     0
  0
ENDSEC
  0
EOF
