  0
SECTION
  2
HEADER
  9
$ACADVER
  1
AC1015
  9
$ACADMAINTVER
 70
     6
  9
$DWGCODEPAGE
  3
ANSI_949
  9
$INSBASE
 10
0.0
 20
0.0
 30
0.0
  9
$EXTMIN
 10
1.000000000000000E+20
 20
1.000000000000000E+20
 30
1.000000000000000E+20
  9
$EXTMAX
 10
-1.000000000000000E+20
 20
-1.000000000000000E+20
 30
-1.000000000000000E+20
  9
$LIMMIN
 10
0.0
 20
0.0
  9
$LIMMAX
 10
420.0
 20
297.0
  9
$ORTHOMODE
 70
     1
  9
$REGENMODE
 70
     1
  9
$FILLMODE
 70
     1
  9
$QTEXTMODE
 70
     0
  9
$MIRRTEXT
 70
     1
  9
$LTSCALE
 40
1.0
  9
$ATTMODE
 70
     1
  9
$TEXTSIZE
 40
3.5
  9
$TRACEWID
 40
1.0
  9
$TEXTSTYLE
  7
Standard
  9
$CLAYER
  8
0
  9
$CELTYPE
  6
ByLayer
  9
$CECOLOR
 62
   256
  9
$CELTSCALE
 40
1.0
  9
$DISPSILH
 70
     0
  9
$DIMSCALE
 40
1.0
  9
$DIMASZ
 40
3.302
  9
$DIMEXO
 40
1.0
  9
$DIMDLI
 40
3.75
  9
$DIMRND
 40
0.0
  9
$DIMDLE
 40
0.0
  9
$DIMEXE
 40
1.0
  9
$DIMTP
 40
0.0
  9
$DIMTM
 40
0.0
  9
$DIMTXT
 40
3.5
  9
$DIMCEN
 40
2.5
  9
$DIMTSZ
 40
0.0
  9
$DIMTOL
 70
     0
  9
$DIMLIM
 70
     0
  9
$DIMTIH
 70
     1
  9
$DIMTOH
 70
     1
  9
$DIMSE1
 70
     0
  9
$DIMSE2
 70
     0
  9
$DIMTAD
 70
     1
  9
$DIMZIN
 70
     0
  9
$DIMBLK
  1

  9
$DIMASO
 70
     1
  9
$DIMSHO
 70
     1
  9
$DIMPOST
  1

  9
$DIMAPOST
  1

  9
$DIMALT
 70
     0
  9
$DIMALTD
 70
     3
  9
$DIMALTF
 40
0.0393700787401575
  9
$DIMLFAC
 40
1.0
  9
$DIMTOFL
 70
     1
  9
$DIMTVP
 40
0.0
  9
$DIMTIX
 70
     0
  9
$DIMSOXD
 70
     0
  9
$DIMSAH
 70
     0
  9
$DIMBLK1
  1

  9
$DIMBLK2
  1

  9
$DIMSTYLE
  2
ISO-25
  9
$DIMCLRD
 70
     0
  9
$DIMCLRE
 70
     0
  9
$DIMCLRT
 70
     0
  9
$DIMTFAC
 40
1.0
  9
$DIMGAP
 40
1.524
  9
$DIMJUST
 70
     0
  9
$DIMSD1
 70
     0
  9
$DIMSD2
 70
     0
  9
$DIMTOLJ
 70
     0
  9
$DIMTZIN
 70
     0
  9
$DIMALTZ
 70
     0
  9
$DIMALTTZ
 70
     0
  9
$DIMUPT
 70
     0
  9
$DIMDEC
 70
     2
  9
$DIMTDEC
 70
     2
  9
$DIMALTU
 70
     2
  9
$DIMALTTD
 70
     3
  9
$DIMTXSTY
  7
Standard
  9
$DIMAUNIT
 70
     0
  9
$DIMADEC
 70
     2
  9
$DIMALTRND
 40
0.0
  9
$DIMAZIN
 70
     0
  9
$DIMDSEP
 70
    44
  9
$DIMATFIT
 70
     3
  9
$DIMFRAC
 70
     0
  9
$DIMLDRBLK
  1

  9
$DIMLUNIT
 70
     2
  9
$DIMLWD
 70
    -2
  9
$DIMLWE
 70
    -2
  9
$DIMTMOVE
 70
     0
  9
$LUNITS
 70
     2
  9
$LUPREC
 70
     2
  9
$SKETCHINC
 40
1.0
  9
$FILLETRAD
 40
10.0
  9
$AUNITS
 70
     0
  9
$AUPREC
 70
     2
  9
$MENU
  1
.
  9
$ELEVATION
 40
0.0
  9
$PELEVATION
 40
0.0
  9
$THICKNESS
 40
0.0
  9
$LIMCHECK
 70
     0
  9
$CHAMFERA
 40
0.0
  9
$CHAMFERB
 40
0.0
  9
$CHAMFERC
 40
0.0
  9
$CHAMFERD
 40
0.0
  9
$SKPOLY
 70
     0
  9
$TDCREATE
 40
2458312.670385579
  9
$TDUCREATE
 40
2458312.295385579
  9
$TDUPDATE
 40
2458320.654846713
  9
$TDUUPDATE
 40
2458320.279846713
  9
$TDINDWG
 40
0.0018300926
  9
$TDUSRTIMER
 40
2458320.278017419
  9
$USRTIMER
 70
     1
  9
$ANGBASE
 50
0.0
  9
$ANGDIR
 70
     0
  9
$PDMODE
 70
     0
  9
$PDSIZE
 40
-1.0
  9
$PLINEWID
 40
0.0
  9
$SPLFRAME
 70
     0
  9
$SPLINETYPE
 70
     6
  9
$SPLINESEGS
 70
     8
  9
$HANDSEED
  5
1B7
  9
$SURFTAB1
 70
     6
  9
$SURFTAB2
 70
     6
  9
$SURFTYPE
 70
     6
  9
$SURFU
 70
     6
  9
$SURFV
 70
     6
  9
$UCSBASE
  2

  9
$UCSNAME
  2

  9
$UCSORG
 10
0.0
 20
0.0
 30
0.0
  9
$UCSXDIR
 10
1.0
 20
0.0
 30
0.0
  9
$UCSYDIR
 10
0.0
 20
1.0
 30
0.0
  9
$UCSORTHOREF
  2

  9
$UCSORTHOVIEW
 70
     0
  9
$UCSORGTOP
 10
0.0
 20
0.0
 30
0.0
  9
$UCSORGBOTTOM
 10
0.0
 20
0.0
 30
0.0
  9
$UCSORGLEFT
 10
0.0
 20
0.0
 30
0.0
  9
$UCSORGRIGHT
 10
0.0
 20
0.0
 30
0.0
  9
$UCSORGFRONT
 10
0.0
 20
0.0
 30
0.0
  9
$UCSORGBACK
 10
0.0
 20
0.0
 30
0.0
  9
$PUCSBASE
  2

  9
$PUCSNAME
  2

  9
$PUCSORG
 10
0.0
 20
0.0
 30
0.0
  9
$PUCSXDIR
 10
1.0
 20
0.0
 30
0.0
  9
$PUCSYDIR
 10
0.0
 20
1.0
 30
0.0
  9
$PUCSORTHOREF
  2

  9
$PUCSORTHOVIEW
 70
     0
  9
$PUCSORGTOP
 10
0.0
 20
0.0
 30
0.0
  9
$PUCSORGBOTTOM
 10
0.0
 20
0.0
 30
0.0
  9
$PUCSORGLEFT
 10
0.0
 20
0.0
 30
0.0
  9
$PUCSORGRIGHT
 10
0.0
 20
0.0
 30
0.0
  9
$PUCSORGFRONT
 10
0.0
 20
0.0
 30
0.0
  9
$PUCSORGBACK
 10
0.0
 20
0.0
 30
0.0
  9
$USERI1
 70
     0
  9
$USERI2
 70
     0
  9
$USERI3
 70
     0
  9
$USERI4
 70
     0
  9
$USERI5
 70
     0
  9
$USERR1
 40
0.0
  9
$USERR2
 40
0.0
  9
$USERR3
 40
0.0
  9
$USERR4
 40
0.0
  9
$USERR5
 40
0.0
  9
$WORLDVIEW
 70
     1
  9
$SHADEDGE
 70
     3
  9
$SHADEDIF
 70
    70
  9
$TILEMODE
 70
     1
  9
$MAXACTVP
 70
    64
  9
$PINSBASE
 10
0.0
 20
0.0
 30
0.0
  9
$PLIMCHECK
 70
     0
  9
$PEXTMIN
 10
1.000000000000000E+20
 20
1.000000000000000E+20
 30
1.000000000000000E+20
  9
$PEXTMAX
 10
-1.000000000000000E+20
 20
-1.000000000000000E+20
 30
-1.000000000000000E+20
  9
$PLIMMIN
 10
0.0
 20
0.0
  9
$PLIMMAX
 10
0.0
 20
0.0
  9
$UNITMODE
 70
     0
  9
$VISRETAIN
 70
     1
  9
$PLINEGEN
 70
     0
  9
$PSLTSCALE
 70
     1
  9
$TREEDEPTH
 70
  3020
  9
$CMLSTYLE
  2
Standard
  9
$CMLJUST
 70
     0
  9
$CMLSCALE
 40
20.0
  9
$PROXYGRAPHICS
 70
     1
  9
$MEASUREMENT
 70
     1
  9
$CELWEIGHT
370
    -1
  9
$ENDCAPS
280
     0
  9
$JOINSTYLE
280
     0
  9
$LWDISPLAY
290
     1
  9
$INSUNITS
 70
     4
  9
$HYPERLINKBASE
  1

  9
$STYLESHEET
  1

  9
$XEDIT
290
     1
  9
$CEPSNTYPE
380
     0
  9
$PSTYLEMODE
290
     1
  9
$FINGERPRINTGUID
  2
{D8FF65A4-DBAC-4EE0-AC1B-91E12EE12CB7}
  9
$VERSIONGUID
  2
{FAEB1C32-E019-11D5-929B-00C0DF256EC4}
  9
$EXTNAMES
290
     1
  9
$PSVPSCALE
 40
0.0
  9
$OLESTARTUP
290
     0
  0
ENDSEC
  0
SECTION
  2
CLASSES
  0
CLASS
  1
ACDBDICTIONARYWDFLT
  2
AcDbDictionaryWithDefault
  3
ObjectDBX Classes
 90
        0
280
     0
281
     0
  0
CLASS
  1
VISUALSTYLE
  2
AcDbVisualStyle
  3
ObjectDBX Classes
 90
     4095
280
     0
281
     0
  0
CLASS
  1
MATERIAL
  2
AcDbMaterial
  3
ObjectDBX Classes
 90
     1153
280
     0
281
     0
  0
CLASS
  1
SCALE
  2
AcDbScale
  3
ObjectDBX Classes
 90
     1153
280
     0
281
     0
  0
CLASS
  1
SUN
  2
AcDbSun
  3
SCENEOE
 90
     1153
280
     0
281
     0
  0
CLASS
  1
ACDBPLACEHOLDER
  2
AcDbPlaceHolder
  3
ObjectDBX Classes
 90
        0
280
     0
281
     0
  0
CLASS
  1
LAYOUT
  2
AcDbLayout
  3
ObjectDBX Classes
 90
        0
280
     0
281
     0
  0
CLASS
  1
TABLESTYLE
  2
AcDbTableStyle
  3
ObjectDBX Classes
 90
     4095
280
     0
281
     0
  0
CLASS
  1
MLEADERSTYLE
  2
AcDbMLeaderStyle
  3
ACDB_MLEADERSTYLE_CLASS
 90
     4095
280
     0
281
     0
  0
CLASS
  1
RASTERVARIABLES
  2
AcDbRasterVariables
  3
ISM
 90
        0
280
     0
281
     0
  0
ENDSEC
  0
SECTION
  2
TABLES
  0
TABLE
  2
VPORT
  5
8
330
0
100
AcDbSymbolTable
 70
     1
  0
VPORT
  5
29
330
8
100
AcDbSymbolTableRecord
100
AcDbViewportTableRecord
  2
*Active
 70
     0
 10
0.0
 20
0.0
 11
1.0
 21
1.0
 12
19.76425642877605
 22
6.654372687115687
 13
0.0
 23
0.0
 14
10.0
 24
10.0
 15
10.0
 25
10.0
 16
0.0
 26
0.0
 36
1.0
 17
0.0
 27
0.0
 37
0.0
 40
142.0653718582654
 41
1.632093933463796
 42
50.0
 43
0.0
 44
0.0
 50
0.0
 51
0.0
 71
    16
 72
  2000
 73
     1
 74
     3
 75
     0
 76
     0
 77
     0
 78
     0
281
     0
 65
     1
110
0.0
120
0.0
130
0.0
111
1.0
121
0.0
131
0.0
112
0.0
122
1.0
132
0.0
 79
     0
146
0.0
  0
ENDTAB
  0
TABLE
  2
LTYPE
  5
5
330
0
100
AcDbSymbolTable
 70
     6
  0
LTYPE
  5
14
330
5
100
AcDbSymbolTableRecord
100
AcDbLinetypeTableRecord
  2
ByBlock
 70
     0
  3

 72
    65
 73
     0
 40
0.0
  0
LTYPE
  5
15
330
5
100
AcDbSymbolTableRecord
100
AcDbLinetypeTableRecord
  2
ByLayer
 70
     0
  3

 72
    65
 73
     0
 40
0.0
  0
LTYPE
  5
16
330
5
100
AcDbSymbolTableRecord
100
AcDbLinetypeTableRecord
  2
Continuous
 70
     0
  3
Solid line
 72
    65
 73
     0
 40
0.0
  0
LTYPE
  5
6A
330
5
100
AcDbSymbolTableRecord
100
AcDbLinetypeTableRecord
  2
HIDDEN
 70
     0
  3
Hidden __ __ __ __ __ __ __ __ __ __ __ __ __ __
 72
    65
 73
     2
 40
1.905
 49
1.27
 74
     0
 49
-0.635
 74
     0
  0
LTYPE
  5
6B
330
5
100
AcDbSymbolTableRecord
100
AcDbLinetypeTableRecord
  2
PHANTOM
 70
     0
  3
Phantom ______  __  __  ______  __  __  ______
 72
    65
 73
     6
 40
12.7
 49
6.35
 74
     0
 49
-1.27
 74
     0
 49
1.27
 74
     0
 49
-1.27
 74
     0
 49
1.27
 74
     0
 49
-1.27
 74
     0
  0
LTYPE
  5
6C
330
5
100
AcDbSymbolTableRecord
100
AcDbLinetypeTableRecord
  2
CENTER
 70
     0
  3
Center ____ _ ____ _ ____ _ ____ _ ____ _ ____
 72
    65
 73
     4
 40
10.16
 49
6.35
 74
     0
 49
-1.27
 74
     0
 49
1.27
 74
     0
 49
-1.27
 74
     0
  0
LTYPE
  5
6D
330
5
100
AcDbSymbolTableRecord
100
AcDbLinetypeTableRecord
  2
CENTERX2
 70
     0
  3
Center (2x) ________  __  ________  __  _____
 72
    65
 73
     4
 40
20.32
 49
12.7
 74
     0
 49
-2.54
 74
     0
 49
2.54
 74
     0
 49
-2.54
 74
     0
  0
LTYPE
  5
6E
330
5
100
AcDbSymbolTableRecord
100
AcDbLinetypeTableRecord
  2
DOT2
 70
     0
  3
Dot (.5x) ........................................
 72
    65
 73
     2
 40
0.635
 49
0.0
 74
     0
 49
-0.635
 74
     0
  0
ENDTAB
  0
TABLE
  2
LAYER
  5
2
102
{ACAD_XDICTIONARY
360
174
102
}
330
0
100
AcDbSymbolTable
 70
    18
  0
LAYER
  5
10
330
2
100
AcDbSymbolTableRecord
100
AcDbLayerTableRecord
  2
0
 70
     0
 62
     7
  6
Continuous
370
    -3
390
F
  0
LAYER
  5
6F
330
2
100
AcDbSymbolTableRecord
100
AcDbLayerTableRecord
  2
FORMAT
 70
     0
 62
     2
  6
Continuous
370
    -3
390
F
  0
LAYER
  5
70
330
2
100
AcDbSymbolTableRecord
100
AcDbLayerTableRecord
  2
외형선
 70
     0
 62
     4
  6
Continuous
370
    30
390
F
  0
LAYER
  5
71
330
2
100
AcDbSymbolTableRecord
100
AcDbLayerTableRecord
  2
숨은선
 70
     0
 62
     2
  6
HIDDEN
370
    15
390
F
  0
LAYER
  5
72
330
2
100
AcDbSymbolTableRecord
100
AcDbLayerTableRecord
  2
중심선
 70
     0
 62
     1
  6
CENTERX2
370
    -3
390
F
  0
LAYER
  5
73
330
2
100
AcDbSymbolTableRecord
100
AcDbLayerTableRecord
  2
파단선
 70
     0
 62
     4
  6
Continuous
370
    -3
390
F
  0
LAYER
  5
74
330
2
100
AcDbSymbolTableRecord
100
AcDbLayerTableRecord
  2
해칭선
 70
     0
 62
   100
  6
Continuous
370
    -3
390
F
  0
LAYER
  5
75
330
2
100
AcDbSymbolTableRecord
100
AcDbLayerTableRecord
  2
가는실선
 70
     0
 62
     4
  6
Continuous
370
    -3
390
F
  0
LAYER
  5
76
330
2
100
AcDbSymbolTableRecord
100
AcDbLayerTableRecord
  2
치수_보조선
 70
     0
 62
     4
  6
Continuous
370
    -3
390
F
  0
LAYER
  5
77
330
2
100
AcDbSymbolTableRecord
100
AcDbLayerTableRecord
  2
치수문자_일반주서
 70
     0
 62
     7
  6
Continuous
370
    15
390
F
  0
LAYER
  5
78
330
2
100
AcDbSymbolTableRecord
100
AcDbLayerTableRecord
  2
개별주서
 70
     0
 62
   100
  6
Continuous
370
    30
390
F
  0
LAYER
  5
79
330
2
100
AcDbSymbolTableRecord
100
AcDbLayerTableRecord
  2
중간선
 70
     0
 62
     2
  6
Continuous
370
    15
390
F
  0
LAYER
  5
7A
330
2
100
AcDbSymbolTableRecord
100
AcDbLayerTableRecord
  2
윤곽선
 70
     0
 62
     3
  6
Continuous
370
    40
390
F
  0
LAYER
  5
7B
330
2
100
AcDbSymbolTableRecord
100
AcDbLayerTableRecord
  2
중심마크
 70
     0
 62
   100
  6
Continuous
370
    30
390
F
  0
LAYER
  5
7C
330
2
100
AcDbSymbolTableRecord
100
AcDbLayerTableRecord
  2
가상선
 70
     0
 62
     4
  6
PHANTOM
370
    -3
390
F
  0
LAYER
  5
7D
330
2
100
AcDbSymbolTableRecord
100
AcDbLayerTableRecord
  2
특수지정선
 70
     0
 62
     5
  6
CENTERX2
370
    60
390
F
  0
LAYER
  5
7E
330
2
100
AcDbSymbolTableRecord
100
AcDbLayerTableRecord
  2
참조1
 70
     0
 62
    -4
  6
Continuous
370
    -3
390
F
  0
LAYER
  5
1AD
330
2
100
AcDbSymbolTableRecord
100
AcDbLayerTableRecord
  2
Defpoints
 70
     0
 62
     7
  6
Continuous
290
     0
370
    -3
390
F
  0
ENDTAB
  0
TABLE
  2
STYLE
  5
3
330
0
100
AcDbSymbolTable
 70
     2
  0
STYLE
  5
11
330
3
100
AcDbSymbolTableRecord
100
AcDbTextStyleTableRecord
  2
Standard
 70
     0
 40
0.0
 41
1.0
 50
0.0
 71
     0
 42
3.5
  3
txt
  4

  0
STYLE
  5
94
330
3
100
AcDbSymbolTableRecord
100
AcDbTextStyleTableRecord
  2
SLDTEXTSTYLE0
 70
     0
 40
0.0
 41
0.75
 50
0.0
 71
     0
 42
3.5
  3
TXT
  4

  0
ENDTAB
  0
TABLE
  2
VIEW
  5
6
330
0
100
AcDbSymbolTable
 70
     0
  0
ENDTAB
  0
TABLE
  2
UCS
  5
7
330
0
100
AcDbSymbolTable
 70
     0
  0
ENDTAB
  0
TABLE
  2
APPID
  5
9
330
0
100
AcDbSymbolTable
 70
     1
  0
APPID
  5
12
330
9
100
AcDbSymbolTableRecord
100
AcDbRegAppTableRecord
  2
ACAD
 70
     0
  0
ENDTAB
  0
TABLE
  2
DIMSTYLE
  5
A
330
0
100
AcDbSymbolTable
 70
     3
100
AcDbDimStyleTable
  0
DIMSTYLE
105
27
330
A
100
AcDbSymbolTableRecord
100
AcDbDimStyleTableRecord
  2
ISO-25
 70
     0
 41
2.5
 42
0.625
 43
3.75
 44
1.25
 73
     0
 74
     0
 77
     1
 78
     8
140
2.5
141
2.5
143
0.03937007874016
147
0.625
171
     3
172
     1
178
     0
271
     2
272
     2
274
     3
278
    44
283
     0
284
     8
340
11
  0
DIMSTYLE
105
C8
330
A
100
AcDbSymbolTableRecord
100
AcDbDimStyleTableRecord
  2
SLDDIMSTYLE0
 70
     0
 41
3.302
 44
0.0
 45
0.000000001
 73
     0
 74
     0
 77
     1
 78
    12
 79
     3
140
3.5
143
0.0393700787401575
147
0.875
148
0.000000001
170
     1
173
     1
178
     0
271
     2
272
     2
276
     2
284
    12
340
94
  0
DIMSTYLE
105
F0
102
{ACAD_REACTORS
330
EF
330
C7
330
DC
330
104
102
}
330
A
100
AcDbSymbolTableRecord
100
AcDbDimStyleTableRecord
  2
SLDDIMSTYLE1
 70
     0
 41
3.302
 44
0.0
 45
0.000000001
 73
     0
 74
     0
 77
     1
 78
    12
 79
     3
140
3.5
143
0.0393700787401575
147
0.875
148
0.000000001
170
     1
172
     1
173
     1
178
     0
271
     2
272
     2
276
     2
284
    12
289
     0
340
94
  0
ENDTAB
  0
TABLE
  2
BLOCK_RECORD
  5
1
330
0
100
AcDbSymbolTable
 70
     9
  0
BLOCK_RECORD
  5
1F
330
1
100
AcDbSymbolTableRecord
100
AcDbBlockTableRecord
  2
*Model_Space
340
22
  0
BLOCK_RECORD
  5
1B
330
1
100
AcDbSymbolTableRecord
100
AcDbBlockTableRecord
  2
*Paper_Space
340
1E
  0
BLOCK_RECORD
  5
23
330
1
100
AcDbSymbolTableRecord
100
AcDbBlockTableRecord
  2
*Paper_Space0
340
26
  0
BLOCK_RECORD
  5
7F
330
1
100
AcDbSymbolTableRecord
100
AcDbBlockTableRecord
  2
블럭10
340
0
102
{BLKREFS
331
C0
102
}
  0
BLOCK_RECORD
  5
C9
330
1
100
AcDbSymbolTableRecord
100
AcDbBlockTableRecord
  2
_D
340
0
  0
BLOCK_RECORD
  5
DD
330
1
100
AcDbSymbolTableRecord
100
AcDbBlockTableRecord
  2
_D_1
340
0
  0
BLOCK_RECORD
  5
F1
330
1
100
AcDbSymbolTableRecord
100
AcDbBlockTableRecord
  2
_D_2
340
0
  0
BLOCK_RECORD
  5
105
330
1
100
AcDbSymbolTableRecord
100
AcDbBlockTableRecord
  2
_D_3
340
0
  0
BLOCK_RECORD
  5
11E
330
1
100
AcDbSymbolTableRecord
100
AcDbBlockTableRecord
  2
SW_DOWELSYMBOL_0
340
0
102
{BLKREFS
331
124
102
}
  0
ENDTAB
  0
ENDSEC
  0
SECTION
  2
BLOCKS
  0
BLOCK
  5
20
330
1F
100
AcDbEntity
  8
0
100
AcDbBlockBegin
  2
*Model_Space
 70
     0
 10
0.0
 20
0.0
 30
0.0
  3
*Model_Space
  1
*Model_Space
  0
ENDBLK
  5
21
330
1F
100
AcDbEntity
  8
0
100
AcDbBlockEnd
  0
BLOCK
  5
1C
330
1B
100
AcDbEntity
 67
     1
  8
0
100
AcDbBlockBegin
  2
*Paper_Space
 70
     0
 10
0.0
 20
0.0
 30
0.0
  3
*Paper_Space
  1
*Paper_Space
  0
ENDBLK
  5
1D
330
1B
100
AcDbEntity
 67
     1
  8
0
100
AcDbBlockEnd
  0
BLOCK
  5
24
330
23
100
AcDbEntity
  8
0
100
AcDbBlockBegin
  2
*Paper_Space0
 70
     0
 10
0.0
 20
0.0
 30
0.0
  3
*Paper_Space0
  1
*Paper_Space0
  0
ENDBLK
  5
25
330
23
100
AcDbEntity
  8
0
100
AcDbBlockEnd
  0
BLOCK
  5
80
330
7F
100
AcDbEntity
  8
0
100
AcDbBlockBegin
  2
블럭10
 70
     2
 10
0.0
 20
0.0
 30
0.0
  3
블럭10
  1
블럭10
  0
ELLIPSE
  5
82
330
7F
100
AcDbEntity
  8
중심선
100
AcDbEllipse
 10
20.54032771741204
 20
12.0471743016438
 30
0.0
 11
6.600054785286829
 21
-1.261213355974178E-13
 31
0.0
210
0.0
220
0.0
230
1.0
 40
0.636358354079598
 41
0.9219305317359503
 42
6.513795318482858
  0
ELLIPSE
  5
83
330
7F
100
AcDbEntity
  8
중심선
100
AcDbEllipse
 10
20.54032771746488
 20
12.04717430159265
 30
0.0
 11
3.960054785062283
 21
1.540847449632565E-10
 31
0.0
210
0.0
220
0.0
230
1.0
 40
0.3939339440162632
 41
1.131841032648279
 42
5.62031148352944
  0
LINE
  5
84
330
7F
100
AcDbEntity
  8
중심선
100
AcDbLine
 10
2.268634060543552
 20
16.24717430164393
 30
0.0
 11
5.714909304380834
 21
16.24717430164393
 31
0.0
  0
LINE
  5
85
330
7F
100
AcDbEntity
  8
중심선
100
AcDbLine
 10
5.245725140726316
 20
7.84717430164391
 30
0.0
 11
8.692000384563599
 21
7.84717430164391
 31
0.0
  0
LINE
  5
86
330
7F
100
AcDbEntity
  8
중심선
100
AcDbLine
 10
15.74043728645272
 20
16.24717430164393
 30
0.0
 11
8.692000384563599
 21
7.84717430164391
 31
0.0
  0
LINE
  5
87
330
7F
100
AcDbEntity
  8
중심선
100
AcDbLine
 10
0.1404042013395286
 20
13.71084872107135
 30
0.0
 11
3.58671253028996
 21
13.71088815037384
 31
0.0
  0
LINE
  5
88
330
7F
100
AcDbEntity
  8
중심선
100
AcDbLine
 10
2.750260043222114
 20
10.84717430164391
 30
0.0
 11
6.196535287059397
 21
10.84717430164391
 31
0.0
  0
LINE
  5
89
330
7F
100
AcDbEntity
  8
중심선
100
AcDbLine
 10
12.29416204261559
 20
16.24717430164393
 30
0.0
 11
5.245725140726316
 21
7.84717430164391
 31
0.0
  0
LINE
  5
8A
330
7F
100
AcDbEntity
  8
중심선
100
AcDbLine
 10
10.72767329541681
 20
16.24717430164393
 30
0.0
 11
6.196535287059397
 21
10.84717430164391
 31
0.0
  0
LINE
  5
8B
330
7F
100
AcDbEntity
  8
중심선
100
AcDbLine
 10
7.28139805157953
 20
16.24717430164393
 30
0.0
 11
2.750260043222114
 21
10.84717430164391
 31
0.0
  0
LINE
  5
8C
330
7F
100
AcDbEntity
  8
중심선
100
AcDbLine
 10
5.714909304380834
 20
16.24717430164393
 30
0.0
 11
3.58671253028996
 21
13.71088815037384
 31
0.0
  0
LINE
  5
8D
330
7F
100
AcDbEntity
  8
중심선
100
AcDbLine
 10
2.268634060543552
 20
16.24717430164393
 30
0.0
 11
0.1404042013395286
 21
13.71084872107135
 31
0.0
  0
LINE
  5
8E
330
7F
100
AcDbEntity
  8
중심선
100
AcDbLine
 10
7.28139805157953
 20
16.24717430164393
 30
0.0
 11
10.72767329541681
 21
16.24717430164393
 31
0.0
  0
LINE
  5
8F
330
7F
100
AcDbEntity
  8
중심선
100
AcDbLine
 10
12.29416204261559
 20
16.24717430164393
 30
0.0
 11
15.74043728645272
 21
16.24717430164393
 31
0.0
  0
LINE
  5
90
330
7F
100
AcDbEntity
  8
중심선
100
AcDbLine
 10
19.22036997980202
 20
11.08717430171403
 30
0.0
 11
23.66174974927406
 21
11.08717430171406
 31
0.0
  0
LINE
  5
91
330
7F
100
AcDbEntity
  8
중심선
100
AcDbLine
 10
19.22039502424796
 20
13.00717430171391
 30
0.0
 11
19.22036997980202
 21
11.08717430171403
 31
0.0
  0
LINE
  5
92
330
7F
100
AcDbEntity
  8
중심선
100
AcDbLine
 10
19.22039502424796
 20
13.00717430171391
 30
0.0
 11
26.96566020931264
 21
13.00717430171391
 31
0.0
  0
LINE
  5
93
330
7F
100
AcDbEntity
  8
중심선
100
AcDbLine
 10
22.22332737316547
 20
13.45928029700563
 30
0.0
 11
24.52862924686651
 21
15.39360700705356
 31
0.0
  0
ATTDEF
  5
95
330
7F
100
AcDbEntity
  8
FORMAT
 62
     2
100
AcDbText
 10
4.408487351596664
 20
2.075366912832191
 30
0.0
 40
4.233333333333333
  1
E2031048
 41
0.75
  7
SLDTEXTSTYLE0
 11
4.408487351596664
 21
-0.0412997538344756
 31
0.0
100
AcDbAttributeDefinition
  3

  2
AUTOATTR0
 70
     0
 74
     1
  0
ENDBLK
  5
81
330
7F
100
AcDbEntity
  8
0
100
AcDbBlockEnd
  0
BLOCK
  5
CA
330
C9
100
AcDbEntity
  8
0
100
AcDbBlockBegin
  2
_D
 70
     0
 10
0.0
 20
0.0
 30
0.0
  3
_D
  1
_D
  0
LINE
  5
CC
330
C9
100
AcDbEntity
  8
치수문자_일반주서
 62
     0
370
    -2
100
AcDbLine
 10
53.27500000000003
 20
9.587500000000006
 30
0.0
 11
53.27500000000003
 21
22.67081057025608
 31
0.0
  0
LINE
  5
CD
330
C9
100
AcDbEntity
  8
치수문자_일반주서
 62
     0
370
    -2
100
AcDbLine
 10
12.00000000000002
 20
9.393946962362241
 30
0.0
 11
12.00000000000003
 21
22.67081057025608
 31
0.0
  0
LINE
  5
CE
330
C9
100
AcDbEntity
  8
치수문자_일반주서
 62
     0
370
    -2
100
AcDbLine
 10
49.97300000000003
 20
22.67081057025608
 30
0.0
 11
15.30200000000003
 21
22.67081057025608
 31
0.0
  0
SOLID
  5
CF
330
C9
100
AcDbEntity
  8
치수문자_일반주서
 62
     0
100
AcDbTrace
 10
49.97300000000003
 20
22.12047723692275
 30
0.0
 11
49.97300000000003
 21
23.22114390358942
 31
0.0
 12
53.27500000000003
 22
22.67081057025608
 32
0.0
 13
53.27500000000003
 23
22.67081057025608
 33
0.0
  0
SOLID
  5
D0
330
C9
100
AcDbEntity
  8
치수문자_일반주서
 62
     0
100
AcDbTrace
 10
15.30200000000003
 20
23.22114390358942
 30
0.0
 11
15.30200000000003
 21
22.12047723692275
 31
0.0
 12
12.00000000000003
 22
22.67081057025608
 32
0.0
 13
12.00000000000003
 23
22.67081057025608
 33
0.0
  0
MTEXT
  5
D1
330
C9
100
AcDbEntity
  8
치수문자_일반주서
 62
     0
100
AcDbMText
 10
32.63750000000002
 20
27.04581057025608
 30
0.0
 40
3.5
 41
0.0
 71
     2
 72
     1
  1
\A1;41.28 [1 5/8]
  7
SLDTEXTSTYLE0
 73
     1
 44
1.0
  0
POINT
  5
D2
330
C9
100
AcDbEntity
  8
Defpoints
 62
     0
100
AcDbPoint
 10
53.27500000000003
 20
9.525000000000006
 30
0.0
  0
POINT
  5
D3
330
C9
100
AcDbEntity
  8
Defpoints
 62
     0
100
AcDbPoint
 10
12.00000000000002
 20
9.331446962362241
 30
0.0
  0
POINT
  5
D4
330
C9
100
AcDbEntity
  8
Defpoints
 62
     0
100
AcDbPoint
 10
12.00000000000002
 20
22.67081057025608
 30
0.0
  0
ENDBLK
  5
CB
330
C9
100
AcDbEntity
  8
0
100
AcDbBlockEnd
  0
BLOCK
  5
DE
330
DD
100
AcDbEntity
  8
0
100
AcDbBlockBegin
  2
_D_1
 70
     0
 10
0.0
 20
0.0
 30
0.0
  3
_D_1
  1
_D_1
  0
LINE
  5
E0
330
DD
100
AcDbEntity
  8
치수문자_일반주서
 62
     0
370
    -2
100
AcDbLine
 10
53.27500000000003
 20
9.587500000000006
 30
0.0
 11
53.27500000000003
 21
38.39201576805886
 31
0.0
  0
LINE
  5
E1
330
DD
100
AcDbEntity
  8
치수문자_일반주서
 62
     0
370
    -2
100
AcDbLine
 10
-45.14999999999997
 20
7.682500000000004
 30
0.0
 11
-45.14999999999997
 21
38.39201576805886
 31
0.0
  0
LINE
  5
E2
330
DD
100
AcDbEntity
  8
치수문자_일반주서
 62
     0
370
    -2
100
AcDbLine
 10
49.97300000000003
 20
38.39201576805886
 30
0.0
 11
-41.84799999999997
 21
38.39201576805886
 31
0.0
  0
SOLID
  5
E3
330
DD
100
AcDbEntity
  8
치수문자_일반주서
 62
     0
100
AcDbTrace
 10
49.97300000000003
 20
37.84168243472553
 30
0.0
 11
49.97300000000003
 21
38.9423491013922
 31
0.0
 12
53.27500000000003
 22
38.39201576805886
 32
0.0
 13
53.27500000000003
 23
38.39201576805886
 33
0.0
  0
SOLID
  5
E4
330
DD
100
AcDbEntity
  8
치수문자_일반주서
 62
     0
100
AcDbTrace
 10
-41.84799999999997
 20
38.9423491013922
 30
0.0
 11
-41.84799999999997
 21
37.84168243472553
 31
0.0
 12
-45.14999999999997
 22
38.39201576805886
 32
0.0
 13
-45.14999999999997
 23
38.39201576805886
 33
0.0
  0
MTEXT
  5
E5
330
DD
100
AcDbEntity
  8
치수문자_일반주서
 62
     0
100
AcDbMText
 10
4.062500000000027
 20
42.76701576805886
 30
0.0
 40
3.5
 41
0.0
 71
     2
 72
     1
  1
\A1;98.43 [3 7/8]
  7
SLDTEXTSTYLE0
 73
     1
 44
1.0
  0
POINT
  5
E6
330
DD
100
AcDbEntity
  8
Defpoints
 62
     0
100
AcDbPoint
 10
53.27500000000003
 20
9.525000000000006
 30
0.0
  0
POINT
  5
E7
330
DD
100
AcDbEntity
  8
Defpoints
 62
     0
100
AcDbPoint
 10
-45.14999999999997
 20
7.620000000000004
 30
0.0
  0
POINT
  5
E8
330
DD
100
AcDbEntity
  8
Defpoints
 62
     0
100
AcDbPoint
 10
-45.14999999999997
 20
38.39201576805886
 30
0.0
  0
ENDBLK
  5
DF
330
DD
100
AcDbEntity
  8
0
100
AcDbBlockEnd
  0
BLOCK
  5
F2
330
F1
100
AcDbEntity
  8
0
100
AcDbBlockBegin
  2
_D_2
 70
     0
 10
0.0
 20
0.0
 30
0.0
  3
_D_2
  1
_D_2
  0
LINE
  5
F4
330
F1
100
AcDbEntity
  8
치수문자_일반주서
 62
     0
370
    -2
100
AcDbLine
 10
-43.30749999999998
 20
9.525000000000004
 30
0.0
 11
-55.4982728378272
 21
9.524999999999958
 31
0.0
  0
LINE
  5
F5
330
F1
100
AcDbEntity
  8
치수문자_일반주서
 62
     0
370
    -2
100
AcDbLine
 10
-43.30749999999998
 20
-9.525000000000007
 30
0.0
 11
-55.49827283782714
 21
-9.525000000000054
 31
0.0
  0
LINE
  5
F6
330
F1
100
AcDbEntity
  8
치수문자_일반주서
 62
     0
370
    -2
100
AcDbLine
 10
-55.49827283782719
 20
6.222999999999958
 30
0.0
 11
-55.49827283782715
 21
-6.223000000000054
 31
0.0
  0
SOLID
  5
F7
330
F1
100
AcDbEntity
  8
치수문자_일반주서
 62
     0
100
AcDbTrace
 10
-54.94793950449385
 20
6.22299999999996
 30
0.0
 11
-56.04860617116052
 21
6.222999999999956
 31
0.0
 12
-55.4982728378272
 22
9.524999999999958
 32
0.0
 13
-55.4982728378272
 23
9.524999999999958
 33
0.0
  0
SOLID
  5
F8
330
F1
100
AcDbEntity
  8
치수문자_일반주서
 62
     0
100
AcDbTrace
 10
-56.04860617116049
 20
-6.223000000000056
 30
0.0
 11
-54.94793950449382
 21
-6.223000000000052
 31
0.0
 12
-55.49827283782714
 22
-9.525000000000054
 32
0.0
 13
-55.49827283782714
 23
-9.525000000000054
 33
0.0
  0
MTEXT
  5
F9
330
F1
100
AcDbEntity
  8
치수문자_일반주서
 62
     0
100
AcDbMText
 10
-59.87327283782717
 20
-0.0000000000000084
 30
0.0
 40
3.5
 41
0.0
 71
     2
 72
     1
  1
\A1;%%c19.05 [3/4]
  7
SLDTEXTSTYLE0
 11
-3.356894814614645E-15
 21
1.0
 31
0.0
 73
     1
 44
1.0
  0
POINT
  5
FA
330
F1
100
AcDbEntity
  8
Defpoints
 62
     0
100
AcDbPoint
 10
-43.24499999999998
 20
9.525000000000004
 30
0.0
  0
POINT
  5
FB
330
F1
100
AcDbEntity
  8
Defpoints
 62
     0
100
AcDbPoint
 10
-43.24499999999998
 20
-9.525000000000007
 30
0.0
  0
POINT
  5
FC
330
F1
100
AcDbEntity
  8
Defpoints
 62
     0
100
AcDbPoint
 10
-55.49827283782714
 20
-9.525000000000054
 30
0.0
  0
ENDBLK
  5
F3
330
F1
100
AcDbEntity
  8
0
100
AcDbBlockEnd
  0
BLOCK
  5
106
330
105
100
AcDbEntity
  8
0
100
AcDbBlockBegin
  2
_D_3
 70
     0
 10
0.0
 20
0.0
 30
0.0
  3
_D_3
  1
_D_3
  0
LINE
  5
108
330
105
100
AcDbEntity
  8
치수문자_일반주서
 62
     0
370
    -2
100
AcDbLine
 10
53.33750000000003
 20
9.525000000000006
 30
0.0
 11
66.80084412996045
 21
9.525000000000055
 31
0.0
  0
LINE
  5
109
330
105
100
AcDbEntity
  8
치수문자_일반주서
 62
     0
370
    -2
100
AcDbLine
 10
53.33750000000003
 20
-9.524999999999995
 30
0.0
 11
66.80084412996052
 21
-9.524999999999949
 31
0.0
  0
LINE
  5
10A
330
105
100
AcDbEntity
  8
치수문자_일반주서
 62
     0
370
    -2
100
AcDbLine
 10
66.80084412996045
 20
9.525000000000055
 30
0.0
 11
66.80084412996032
 21
43.87522268430732
 31
0.0
  0
LINE
  5
10B
330
105
100
AcDbEntity
  8
치수문자_일반주서
 62
     0
370
    -2
100
AcDbLine
 10
66.80084412996045
 20
9.525000000000055
 30
0.0
 11
66.80084412996052
 21
-9.524999999999949
 31
0.0
  0
LINE
  5
10C
330
105
100
AcDbEntity
  8
치수문자_일반주서
 62
     0
370
    -2
100
AcDbLine
 10
66.80084412996044
 20
12.82700000000006
 30
0.0
 11
66.80084412996042
 21
16.12900000000005
 31
0.0
  0
LINE
  5
10D
330
105
100
AcDbEntity
  8
치수문자_일반주서
 62
     0
370
    -2
100
AcDbLine
 10
66.80084412996054
 20
-12.82699999999995
 30
0.0
 11
66.80084412996055
 21
-16.12899999999995
 31
0.0
  0
SOLID
  5
10E
330
105
100
AcDbEntity
  8
치수문자_일반주서
 62
     0
100
AcDbTrace
 10
66.25051079662711
 20
12.82700000000005
 30
0.0
 11
67.35117746329377
 21
12.82700000000006
 31
0.0
 12
66.80084412996045
 22
9.525000000000055
 32
0.0
 13
66.80084412996045
 23
9.525000000000055
 33
0.0
  0
SOLID
  5
10F
330
105
100
AcDbEntity
  8
치수문자_일반주서
 62
     0
100
AcDbTrace
 10
67.35117746329387
 20
-12.82699999999995
 30
0.0
 11
66.25051079662721
 21
-12.82699999999995
 31
0.0
 12
66.80084412996052
 22
-9.524999999999949
 32
0.0
 13
66.80084412996052
 23
-9.524999999999949
 33
0.0
  0
MTEXT
  5
110
330
105
100
AcDbEntity
  8
치수문자_일반주서
 62
     0
100
AcDbMText
 10
62.42584412996038
 20
30.09397268430731
 30
0.0
 40
3.5
 41
0.0
 71
     2
 72
     1
  1
\A1;%%c19.05 [3/4]
  7
SLDTEXTSTYLE0
 11
-3.729883127349607E-15
 21
1.0
 31
0.0
 73
     1
 44
1.0
  0
POINT
  5
111
330
105
100
AcDbEntity
  8
Defpoints
 62
     0
100
AcDbPoint
 10
53.27500000000003
 20
9.525000000000006
 30
0.0
  0
POINT
  5
1B0
330
105
100
AcDbEntity
  8
Defpoints
 62
     0
100
AcDbPoint
 10
53.27500000000003
 20
-9.524999999999995
 30
0.0
  0
POINT
  5
1B1
330
105
100
AcDbEntity
  8
Defpoints
 62
     0
100
AcDbPoint
 10
66.80084412996052
 20
-9.524999999999945
 30
0.0
  0
ENDBLK
  5
107
330
105
100
AcDbEntity
  8
0
100
AcDbBlockEnd
  0
BLOCK
  5
11F
330
11E
100
AcDbEntity
  8
0
100
AcDbBlockBegin
  2
SW_DOWELSYMBOL_0
 70
     0
 10
0.0
 20
0.0
 30
0.0
  3
SW_DOWELSYMBOL_0
  1
SW_DOWELSYMBOL_0
  0
CIRCLE
  5
121
330
11E
100
AcDbEntity
  8
해칭선
 62
     0
100
AcDbCircle
 10
0.0
 20
0.0
 30
0.0
 40
3.000000000000001
  0
HATCH
  5
122
330
11E
100
AcDbEntity
  8
0
  6
Continuous
 62
     0
370
     0
100
AcDbHatch
 10
0.0
 20
0.0
 30
0.0
210
0.0
220
0.0
230
1.0
  2
SOLID
 70
     1
 71
     0
 91
        1
 92
        0
 93
        3
 72
     2
 10
0.0
 20
0.0
 40
3.000000000000001
 50
0.0
 51
90.0
 73
     1
 72
     1
 10
0.0
 20
3.000000000000001
 11
0.0
 21
0.0
 72
     1
 10
0.0
 20
0.0
 11
3.000000000000001
 21
0.0
 97
        0
 75
     0
 76
     1
 98
        1
 10
0.0
 20
0.0
  0
HATCH
  5
123
330
11E
100
AcDbEntity
  8
0
  6
Continuous
 62
     0
370
     0
100
AcDbHatch
 10
0.0
 20
0.0
 30
0.0
210
0.0
220
0.0
230
1.0
  2
SOLID
 70
     1
 71
     0
 91
        1
 92
        0
 93
        3
 72
     2
 10
0.0
 20
0.0
 40
3.000000000000001
 50
180.0
 51
270.0000000000008
 73
     1
 72
     1
 10
0.0
 20
-3.000000000000001
 11
0.0
 21
0.0
 72
     1
 10
0.0
 20
0.0
 11
-3.000000000000001
 21
0.0
 97
        0
 75
     0
 76
     1
 98
        1
 10
0.0
 20
0.0
  0
ENDBLK
  5
120
330
11E
100
AcDbEntity
  8
0
100
AcDbBlockEnd
  0
ENDSEC
  0
SECTION
  2
ENTITIES
  0
LINE
  5
96
330
1F
100
AcDbEntity
  8
외형선
  6
Continuous
370
    15
100
AcDbLine
 10
-43.24499999999998
 20
-9.525000000000002
 30
0.0
 11
11.49985173148866
 21
-9.525000000000002
 31
0.0
  0
LINE
  5
97
330
1F
100
AcDbEntity
  8
외형선
  6
Continuous
370
    15
100
AcDbLine
 10
11.49985173148866
 20
9.524999999999999
 30
0.0
 11
-11.65692499999998
 21
9.524999999999999
 31
0.0
  0
LINE
  5
98
330
1F
100
AcDbEntity
  8
외형선
  6
Continuous
370
    15
100
AcDbLine
 10
-43.24499999999998
 20
9.524999999999999
 30
0.0
 11
-45.14999999999997
 21
7.620000000000004
 31
0.0
  0
LINE
  5
99
330
1F
100
AcDbEntity
  8
외형선
  6
Continuous
370
    15
100
AcDbLine
 10
-45.14999999999997
 20
-7.620000000000007
 30
0.0
 11
-43.24499999999998
 21
-9.525000000000002
 31
0.0
  0
LINE
  5
9A
330
1F
100
AcDbEntity
  8
0
  6
Continuous
 62
     1
370
    15
100
AcDbLine
 10
49.73152111489796
 20
2.821190145082126
 30
0.0
 11
49.6645318805194
 21
2.857404530685537
 31
0.0
  0
LINE
  5
9B
330
1F
100
AcDbEntity
  8
0
  6
Continuous
 62
     1
370
    15
100
AcDbLine
 10
13.65951078906047
 20
-2.837597257120754
 30
0.0
 11
13.69525893669386
 21
-2.857520708244405
 31
0.0
  0
LINE
  5
9C
330
1F
100
AcDbEntity
  8
0
  6
Continuous
 62
     1
370
    15
100
AcDbLine
 10
34.58332437184996
 20
9.525
 30
0.0
 11
28.77553256174824
 21
9.525
 31
0.0
  0
LINE
  5
9D
330
1F
100
AcDbEntity
  8
0
  6
Continuous
 62
     1
370
    15
100
AcDbLine
 10
28.77553256174812
 20
-9.525000000000004
 30
0.0
 11
34.58332437184992
 21
-9.525000000000004
 31
0.0
  0
LINE
  5
9E
330
1F
100
AcDbEntity
  8
외형선
  6
Continuous
370
    15
100
AcDbLine
 10
11.49985173148866
 20
9.38500319615771
 30
0.0
 11
11.49985173148866
 21
9.524999999999999
 31
0.0
  0
SPLINE
  5
9F
330
1F
100
AcDbEntity
  8
외형선
  6
Continuous
370
    15
100
AcDbSpline
210
0.0
220
0.0
230
1.0
 70
     8
 71
     3
 72
     8
 73
     4
 74
     0
 42
0.000000001
 43
0.00000001
 40
0.0
 40
0.0
 40
0.0
 40
0.0
 40
1.0
 40
1.0
 40
1.0
 40
1.0
 10
12.00000000000004
 20
9.331446962362232
 30
0.0
 10
11.83321899198862
 20
9.35073302341976
 30
0.0
 10
11.66646470815841
 20
9.368591240140267
 30
0.0
 10
11.49985173148866
 20
9.385010776652496
 30
0.0
  0
SPLINE
  5
A0
330
1F
100
AcDbEntity
  8
외형선
  6
Continuous
370
    15
100
AcDbSpline
210
0.0
220
0.0
230
1.0
 70
     8
 71
     3
 72
     8
 73
     4
 74
     0
 42
0.000000001
 43
0.00000001
 40
0.0
 40
0.0
 40
0.0
 40
0.0
 40
1.0
 40
1.0
 40
1.0
 40
1.0
 10
12.00000000000004
 20
8.100492492871243
 30
0.0
 10
11.83321899198862
 20
8.151076893826426
 30
0.0
 10
11.66646470815841
 20
8.200419993525268
 30
0.0
 10
11.49985173148866
 20
8.248489128721854
 30
0.0
  0
LINE
  5
A1
330
1F
100
AcDbEntity
  8
외형선
  6
Continuous
370
    15
100
AcDbLine
 10
11.49985173148866
 20
-1.627064844469907
 30
0.0
 11
11.49985173148866
 21
8.248499932424265
 31
0.0
  0
SPLINE
  5
A2
330
1F
100
AcDbEntity
  8
외형선
  6
Continuous
370
    15
100
AcDbSpline
210
0.0
220
0.0
230
1.0
 70
     8
 71
     3
 72
     8
 73
     4
 74
     0
 42
0.000000001
 43
0.00000001
 40
0.0
 40
0.0
 40
0.0
 40
0.0
 40
1.0
 40
1.0
 40
1.0
 40
1.0
 10
12.00000000000004
 20
-1.910424714198672
 30
0.0
 10
11.83321899198862
 20
-1.816222176651038
 30
0.0
 10
11.66646470815841
 20
-1.721732567748184
 30
0.0
 10
11.49985173148866
 20
-1.627021119136693
 30
0.0
  0
SPLINE
  5
A3
330
1F
100
AcDbEntity
  8
외형선
  6
Continuous
370
    15
100
AcDbSpline
210
0.0
220
0.0
230
1.0
 70
     8
 71
     3
 72
     8
 73
     4
 74
     0
 42
0.000000001
 43
0.00000001
 40
0.0
 40
0.0
 40
0.0
 40
0.0
 40
1.0
 40
1.0
 40
1.0
 40
1.0
 10
12.00000000000004
 20
-5.010753074432661
 30
0.0
 10
11.83321899198862
 20
-4.928977230740694
 30
0.0
 10
11.66646470815841
 20
-4.846439599279881
 30
0.0
 10
11.49985173148866
 20
-4.763197675234267
 30
0.0
  0
LINE
  5
A4
330
1F
100
AcDbEntity
  8
외형선
  6
Continuous
370
    15
100
AcDbLine
 10
11.49985173148866
 20
-9.525000000000002
 30
0.0
 11
11.49985173148866
 21
-4.763178966278362
 31
0.0
  0
SPLINE
  5
A5
330
1F
100
AcDbEntity
  8
외형선
  6
Continuous
370
    15
100
AcDbSpline
210
0.0
220
0.0
230
1.0
 70
     8
 71
     3
 72
     8
 73
     4
 74
     0
 42
0.000000001
 43
0.00000001
 40
0.0
 40
0.0
 40
0.0
 40
0.0
 40
1.0
 40
1.0
 40
1.0
 40
1.0
 10
12.00000000000004
 20
-9.331446962362225
 30
0.0
 10
11.83321899198862
 20
-9.350733023419757
 30
0.0
 10
11.66646470815841
 20
-9.36859124014026
 30
0.0
 10
11.49985173148866
 20
-9.38501077665249
 30
0.0
  0
LINE
  5
A6
330
1F
100
AcDbEntity
  8
외형선
  6
Continuous
370
    15
100
AcDbLine
 10
-43.24499999999998
 20
-0.0000000000000018
 30
0.0
 11
-43.24499999999998
 21
9.524999999999999
 31
0.0
  0
LINE
  5
A7
330
1F
100
AcDbEntity
  8
외형선
  6
Continuous
370
    15
100
AcDbLine
 10
-43.24499999999998
 20
-9.525000000000002
 30
0.0
 11
-43.24499999999998
 21
-0.0000000000000018
 31
0.0
  0
LINE
  5
A8
330
1F
100
AcDbEntity
  8
외형선
  6
Continuous
370
    15
100
AcDbLine
 10
12.00000000000004
 20
-5.010753074432688
 30
0.0
 11
12.00000000000004
 21
-1.910424714198669
 31
0.0
  0
LINE
  5
A9
330
1F
100
AcDbEntity
  8
외형선
  6
Continuous
370
    15
100
AcDbLine
 10
12.00000000000004
 20
8.100492492871263
 30
0.0
 11
12.00000000000004
 21
9.331446962362234
 31
0.0
  0
LINE
  5
AA
330
1F
100
AcDbEntity
  8
외형선
  6
Continuous
370
    15
100
AcDbLine
 10
-45.14999999999997
 20
-0.0000000000000018
 30
0.0
 11
-45.14999999999997
 21
7.620000000000004
 31
0.0
  0
LINE
  5
AB
330
1F
100
AcDbEntity
  8
외형선
  6
Continuous
370
    15
100
AcDbLine
 10
-45.14999999999997
 20
-7.620000000000007
 30
0.0
 11
-45.14999999999997
 21
-0.0000000000000018
 31
0.0
  0
SPLINE
  5
AC
330
1F
100
AcDbEntity
  8
외형선
  6
Continuous
370
    15
100
AcDbSpline
210
0.0
220
0.0
230
1.0
 70
    24
 71
     3
 72
    21
 73
    17
 74
     0
 42
0.000000001
 43
0.00000001
 40
0.0
 40
0.0
 40
0.0
 40
0.0
 40
0.0036010739301424
 40
0.0794599246889175
 40
0.1553187754476927
 40
0.2311776262064677
 40
0.3070364769652426
 40
0.3828953277240177
 40
0.4587541784827929
 40
0.5346130292415684
 40
0.6104718800003438
 40
0.6863307307591142
 40
0.7621895815178849
 40
0.8380484322766646
 40
0.9139072830354447
 40
1.0
 40
1.0
 40
1.0
 40
1.0
 10
12.00000000000001
 20
-1.816629452981622
 30
0.0
 10
12.0
 20
-1.814642500473484
 30
0.0
 10
12.0
 20
-1.770799163813398
 30
0.0
 10
12.00000000000004
 20
-1.541149029555906
 30
0.0
 10
12.00000000000005
 20
-1.120920003675574
 30
0.0
 10
12.00000000000002
 20
-0.5417071291165959
 30
0.0
 10
12.00000000000003
 20
0.1529062324076994
 30
0.0
 10
12.00000000000001
 20
0.953672214131509
 30
0.0
 10
12.0
 20
1.832534867787562
 30
0.0
 10
12.00000000000001
 20
2.76773367506306
 30
0.0
 10
12.00000000000005
 20
3.730943146029697
 30
0.0
 10
12.00000000000004
 20
4.695247708970164
 30
0.0
 10
12.00000000000004
 20
5.634588807771704
 30
0.0
 10
12.00000000000004
 20
6.51765411364602
 30
0.0
 10
12.00000000000005
 20
7.370032864044368
 30
0.0
 10
12.00000000000004
 20
7.846960128044726
 30
0.0
 10
12.00000000000004
 20
8.100492492871263
 30
0.0
  0
SPLINE
  5
AD
330
1F
100
AcDbEntity
  8
외형선
  6
Continuous
370
    15
100
AcDbSpline
210
0.0
220
0.0
230
1.0
 70
    24
 71
     3
 72
    12
 73
     8
 74
     0
 42
0.000000001
 43
0.00000001
 40
0.0
 40
0.0
 40
0.0
 40
0.0
 40
0.1953257186915404
 40
0.3956253042300943
 40
0.6034404578198571
 40
0.8172822649421221
 40
1.0
 40
1.0
 40
1.0
 40
1.0
 10
12.00000000000004
 20
-9.331446962362223
 30
0.0
 10
12.00000000000004
 20
-9.034005817492735
 30
0.0
 10
12.00000000000003
 20
-8.431549345207214
 30
0.0
 10
11.99999999999999
 20
-7.515816948183066
 30
0.0
 10
12.00000000000007
 20
-6.608450254269429
 30
0.0
 10
12.00000000000001
 20
-5.774743502249756
 30
0.0
 10
12.00000000000003
 20
-5.299456898316333
 30
0.0
 10
12.00000000000004
 20
-5.080465088671223
 30
0.0
  0
LINE
  5
AE
330
1F
100
AcDbEntity
  8
0
  6
Continuous
 62
     1
370
    15
100
AcDbLine
 10
53.27500000000003
 20
-8.626614851660985
 30
0.0
 11
53.27500000000003
 21
0.8161148516610938
 31
0.0
  0
SPLINE
  5
AF
330
1F
100
AcDbEntity
  8
0
  6
Continuous
 62
     1
370
    15
100
AcDbSpline
210
0.0
220
0.0
230
1.0
 70
     8
 71
     3
 72
    58
 73
    54
 74
     0
 42
0.000000001
 43
0.00000001
 40
0.0
 40
0.0
 40
0.0
 40
0.0
 40
0.0624999999999998
 40
0.0624999999999998
 40
0.0937499999999994
 40
0.0937499999999994
 40
0.1249999999999989
 40
0.1249999999999989
 40
0.1562499999999984
 40
0.1562499999999984
 40
0.1874999999999979
 40
0.1874999999999979
 40
0.249999999999997
 40
0.249999999999997
 40
0.2812499999999965
 40
0.2812499999999965
 40
0.3124999999999961
 40
0.3124999999999961
 40
0.3437499999999956
 40
0.3437499999999956
 40
0.3749999999999951
 40
0.3749999999999951
 40
0.4374999999999949
 40
0.4374999999999949
 40
0.4687499999999953
 40
0.4687499999999953
 40
0.4999999999999956
 40
0.4999999999999956
 40
0.5312499999999959
 40
0.5312499999999959
 40
0.5624999999999962
 40
0.5624999999999962
 40
0.6249999999999977
 40
0.6249999999999977
 40
0.656249999999998
 40
0.656249999999998
 40
0.6874999999999983
 40
0.6874999999999983
 40
0.7187499999999987
 40
0.7187499999999987
 40
0.749999999999999
 40
0.749999999999999
 40
0.8124999999999997
 40
0.8124999999999997
 40
0.8750000000000002
 40
0.8750000000000002
 40
0.9062500000000001
 40
0.9062500000000001
 40
0.9375000000000001
 40
0.9375000000000001
 40
0.96875
 40
0.96875
 40
1.0
 40
1.0
 40
1.0
 40
1.0
 10
53.27500000000004
 20
-8.626614851660984
 30
0.0
 10
52.41877745212276
 20
-8.416436300352306
 30
0.0
 10
51.55323955791552
 20
-8.170232924403642
 30
0.0
 10
50.26461191650774
 20
-7.753452351307294
 30
0.0
 10
49.83695101321545
 20
-7.606707245003467
 30
0.0
 10
48.976398863414
 20
-7.297426413323084
 30
0.0
 10
48.54504457000975
 20
-7.135049795215466
 30
0.0
 10
47.68413250124432
 20
-6.796306062188432
 30
0.0
 10
47.25607405304904
 20
-6.620156602053469
 30
0.0
 10
46.39760911173227
 20
-6.254441391661003
 30
0.0
 10
45.96658311023486
 20
-6.064768599425804
 30
0.0
 10
44.67403896278456
 20
-5.477839402657752
 30
0.0
 10
43.8184580201892
 20
-5.06355525801466
 30
0.0
 10
42.5263070007978
 20
-4.412351865436698
 30
0.0
 10
42.09505094110117
 20
-4.190464946911312
 30
0.0
 10
41.23541068044726
 20
-3.739104056824862
 30
0.0
 10
40.8079482018125
 20
-3.509805824634978
 30
0.0
 10
39.94782132912237
 20
-3.043605956943439
 30
0.0
 10
39.51649998837139
 20
-2.806935256344923
 30
0.0
 10
38.65529345006754
 20
-2.328613582090436
 30
0.0
 10
38.22663843723139
 20
-2.087197180791374
 30
0.0
 10
36.93996849929069
 20
-1.357193973977193
 30
0.0
 10
36.074297804908
 20
-0.8614992408533801
 30
0.0
 10
34.78761981212376
 20
-0.1179686196024307
 30
0.0
 10
34.35897000582248
 20
0.1302006182344582
 30
0.0
 10
33.49776542919812
 20
0.6265194898348074
 30
0.0
 10
33.06644371924466
 20
0.8744301817469953
 30
0.0
 10
32.20631341930248
 20
1.367484257892494
 30
0.0
 10
31.77885019490683
 20
1.612374400212089
 30
0.0
 10
30.91921384968179
 20
2.099270358102502
 30
0.0
 10
30.48795840583415
 20
2.341096202968386
 30
0.0
 10
29.19580518028081
 20
3.058369728226158
 30
0.0
 10
28.34022548397903
 20
3.524952091185643
 30
0.0
 10
27.04768207400452
 20
4.202115866052746
 30
0.0
 10
26.6166549657424
 20
4.42380500266973
 30
0.0
 10
25.75818513937524
 20
4.857121857881002
 30
0.0
 10
25.33013040788126
 20
5.068866449580646
 30
0.0
 10
24.46922079120257
 20
5.48238187848553
 30
0.0
 10
24.03786637533628
 20
5.683896244166009
 30
0.0
 10
23.17731128732807
 20
6.074596244077235
 30
0.0
 10
22.74964814694177
 20
6.263568731465286
 30
0.0
 10
21.46102710945542
 20
6.811629857479848
 30
0.0
 10
20.59548822087737
 20
7.151496058669348
 30
0.0
 10
18.88303046153517
 20
7.768014338214926
 30
0.0
 10
18.0175062261452
 20
8.04688372446873
 30
0.0
 10
16.72887198628228
 20
8.41332754830968
 30
0.0
 10
16.30121330891808
 20
8.526870994133079
 30
0.0
 10
15.44066410098851
 20
8.736819177093633
 30
0.0
 10
15.00930993189404
 20
8.83306926349053
 30
0.0
 10
14.14839541471208
 20
9.007231787753806
 30
0.0
 10
13.72033323865511
 20
9.085068890884356
 30
0.0
 10
12.86187318602416
 20
9.222262047823627
 30
0.0
 10
12.43084829313473
 20
9.28162494373432
 30
0.0
 10
12.00000000000001
 20
9.331446962362243
 30
0.0
  0
SPLINE
  5
B0
330
1F
100
AcDbEntity
  8
0
  6
Continuous
 62
     1
370
    15
100
AcDbSpline
210
0.0
220
0.0
230
1.0
 70
     8
 71
     3
 72
    21
 73
    17
 74
     0
 42
0.000000001
 43
0.00000001
 40
0.0
 40
0.0
 40
0.0
 40
0.0
 40
0.0749484004048921
 40
0.1498668653586832
 40
0.2247682955808157
 40
0.2996656542716251
 40
0.3745719195816208
 40
0.4481653337457792
 40
0.5217882868559565
 40
0.5953802264597592
 40
0.6689464347141691
 40
0.7440075889384907
 40
0.8190744237197086
 40
0.8941594245393478
 40
0.9692746010548955
 40
1.0
 40
1.0
 40
1.0
 40
1.0
 10
53.27500000000003
 20
0.8161148516610928
 30
0.0
 10
52.41167835827346
 20
1.310596679300834
 30
0.0
 10
50.68537989769381
 20
2.299362831545004
 30
0.0
 10
48.09658682858211
 20
3.720909427995291
 30
0.0
 10
45.50847750922294
 20
5.052301846916274
 30
0.0
 10
42.9205457197435
 20
6.259156460803904
 30
0.0
 10
40.347603784649
 20
7.306128858949702
 30
0.0
 10
37.78923535327896
 20
8.170910398544795
 30
0.0
 10
35.24563267466175
 20
8.836606882799598
 30
0.0
 10
32.70271270124019
 20
9.292976542282668
 30
0.0
 10
30.1434080255564
 20
9.53081996503924
 30
0.0
 10
27.56709787274227
 20
9.538142999094562
 30
0.0
 10
24.97326525882184
 20
9.313291901491136
 30
0.0
 10
22.3787155774483
 20
8.846784107623376
 30
0.0
 10
20.29459970225486
 20
8.332136583386372
 30
0.0
 10
19.07547479365663
 20
7.909852758319959
 30
0.0
 10
18.72156421619078
 20
7.787264243123781
 30
0.0
  0
LINE
  5
B1
330
1F
100
AcDbEntity
  8
0
  6
Continuous
 62
     1
370
    15
100
AcDbLine
 10
53.27500000000003
 20
-9.524999999999995
 30
0.0
 11
53.27500000000003
 21
-8.626614851660985
 31
0.0
  0
SPLINE
  5
B2
330
1F
100
AcDbEntity
  8
0
  6
Continuous
 62
     1
370
    15
100
AcDbSpline
210
0.0
220
0.0
230
1.0
 70
     8
 71
     3
 72
    58
 73
    54
 74
     0
 42
0.000000001
 43
0.00000001
 40
0.0
 40
0.0
 40
0.0
 40
0.0
 40
0.062499999999999
 40
0.062499999999999
 40
0.0937499999999985
 40
0.0937499999999985
 40
0.1249999999999979
 40
0.1249999999999979
 40
0.1562499999999974
 40
0.1562499999999974
 40
0.1874999999999969
 40
0.1874999999999969
 40
0.2499999999999966
 40
0.2499999999999966
 40
0.2812499999999969
 40
0.2812499999999969
 40
0.3124999999999972
 40
0.3124999999999972
 40
0.3437499999999974
 40
0.3437499999999974
 40
0.3749999999999976
 40
0.3749999999999976
 40
0.4374999999999981
 40
0.4374999999999981
 40
0.468749999999998
 40
0.468749999999998
 40
0.4999999999999979
 40
0.4999999999999979
 40
0.5312499999999977
 40
0.5312499999999977
 40
0.5624999999999976
 40
0.5624999999999976
 40
0.6249999999999973
 40
0.6249999999999973
 40
0.6562499999999971
 40
0.6562499999999971
 40
0.6874999999999971
 40
0.6874999999999971
 40
0.718749999999997
 40
0.718749999999997
 40
0.7499999999999969
 40
0.7499999999999969
 40
0.8124999999999974
 40
0.8124999999999974
 40
0.874999999999998
 40
0.874999999999998
 40
0.9062499999999986
 40
0.9062499999999986
 40
0.937499999999999
 40
0.937499999999999
 40
0.9687499999999996
 40
0.9687499999999996
 40
1.0
 40
1.0
 40
1.0
 40
1.0
 10
53.27500000000003
 20
-9.524999999999995
 30
0.0
 10
52.41877745212278
 20
-9.447495985243057
 30
0.0
 10
51.5532395579155
 20
-9.366068701962663
 30
0.0
 10
50.26461191650764
 20
-9.187537458486304
 30
0.0
 10
49.83695101321548
 20
-9.11871633878658
 30
0.0
 10
48.97639886341405
 20
-8.962361138290678
 30
0.0
 10
48.54504457000976
 20
-8.874889517456618
 30
0.0
 10
47.68413250124433
 20
-8.68215225162104
 30
0.0
 10
47.25607405304904
 20
-8.577024519006056
 30
0.0
 10
46.39760911173228
 20
-8.34936053277694
 30
0.0
 10
45.96658311023488
 20
-8.22674464214127
 30
0.0
 10
44.67403896278458
 20
-7.83413454677687
 30
0.0
 10
43.81845802018925
 20
-7.540012493388424
 30
0.0
 10
42.52630700079781
 20
-7.053614599590411
 30
0.0
 10
42.09505094110116
 20
-6.88404364223507
 30
0.0
 10
41.23541068044724
 20
-6.531608251105291
 30
0.0
 10
40.80794820181249
 20
-6.34889422428184
 30
0.0
 10
39.94782132912237
 20
-5.97017631708623
 30
0.0
 10
39.51649998837143
 20
-5.774347266104022
 30
0.0
 10
38.65529345006757
 20
-5.37152845694339
 30
0.0
 10
38.22663843723142
 20
-5.164743718276087
 30
0.0
 10
36.93996849929074
 20
-4.529171976137242
 30
0.0
 10
36.07429780490801
 20
-4.083896999548694
 30
0.0
 10
34.78761981212373
 20
-3.395815777223156
 30
0.0
 10
34.35897000582249
 20
-3.162813251272493
 30
0.0
 10
33.49776542919818
 20
-2.690127382871673
 30
0.0
 10
33.06644371924466
 20
-2.450664380445637
 30
0.0
 10
32.20631341930253
 20
-1.96769908207546
 30
0.0
 10
31.77885019490682
 20
-1.7244569185114
 30
0.0
 10
30.91921384968186
 20
-1.234070606250363
 30
0.0
 10
30.48795840583419
 20
-0.987095499088682
 30
0.0
 10
29.19580518028081
 20
-0.2442114496536457
 30
0.0
 10
28.34022548397908
 20
0.252935380815374
 30
0.0
 10
27.04768207400449
 20
0.9958406432720035
 30
0.0
 10
26.6166549657424
 20
1.242744919423181
 30
0.0
 10
25.75818513937529
 20
1.73283941780794
 30
0.0
 10
25.33013040788124
 20
1.976150836700739
 30
0.0
 10
24.46922079120256
 20
2.459156367247011
 30
0.0
 10
24.03786637533633
 20
2.698562453426302
 30
0.0
 10
23.17731128732812
 20
3.170989469551714
 30
0.0
 10
22.74964814694177
 20
3.403738447996236
 30
0.0
 10
21.46102710945542
 20
4.091909421331634
 30
0.0
 10
20.59548822087737
 20
4.536939504940024
 30
0.0
 10
18.88303046153517
 20
5.383396145512052
 30
0.0
 10
18.0175062261452
 20
5.787866772201896
 30
0.0
 10
16.72887198628225
 20
6.355277212852196
 30
0.0
 10
16.30121330891806
 20
6.537871263391582
 30
0.0
 10
15.44066410098851
 20
6.890111642431785
 30
0.0
 10
15.00930993189406
 20
7.059525007627171
 30
0.0
 10
14.14839541471208
 20
7.383379533418574
 30
0.0
 10
13.72033323865515
 20
7.537653282439146
 30
0.0
 10
12.86187318602418
 20
7.830847365615236
 30
0.0
 10
12.43084829313471
 20
7.969816925726984
 30
0.0
 10
12.00000000000003
 20
8.100492492871242
 30
0.0
  0
SPLINE
  5
B3
330
1F
100
AcDbEntity
  8
0
  6
Continuous
 62
     1
370
    15
100
AcDbSpline
210
0.0
220
0.0
230
1.0
 70
     8
 71
     3
 72
    20
 73
    16
 74
     0
 42
0.000000001
 43
0.00000001
 40
0.0
 40
0.0
 40
0.0
 40
0.0
 40
0.0793007531437913
 40
0.1586187041132891
 40
0.2379675169430842
 40
0.3173208662258107
 40
0.3966418589516261
 40
0.4745257820374094
 40
0.5524051398346125
 40
0.6302982422229493
 40
0.7082233381229278
 40
0.7877554367514731
 40
0.8672563690761552
 40
0.9467355520806678
 40
1.0
 40
1.0
 40
1.0
 40
1.0
 10
12.00000000000003
 20
-1.910424714198665
 30
0.0
 10
12.86264232814772
 20
-2.393928751276457
 30
0.0
 10
14.58811406428559
 20
-3.361041682168306
 30
0.0
 10
17.17685343909294
 20
-4.716605086539638
 30
0.0
 10
19.76642880112786
 20
-5.959525325080847
 30
0.0
 10
22.35608712560233
 20
-7.055063655973965
 30
0.0
 10
24.92952347136404
 20
-7.972128887130562
 30
0.0
 10
27.48675641955036
 20
-8.691590040987188
 30
0.0
 10
30.02843317208586
 20
-9.200692421404689
 30
0.0
 10
32.57063944593817
 20
-9.49186916993968
 30
0.0
 10
35.13106198702507
 20
-9.557949552990484
 30
0.0
 10
37.70920942876793
 20
-9.394524048869082
 30
0.0
 10
40.3039297841669
 20
-8.99056907506229
 30
0.0
 10
42.6127903289751
 20
-8.458483889423162
 30
0.0
 10
44.05678474527413
 20
-7.980777589566262
 30
0.0
 10
44.63619910095716
 20
-7.789094100479975
 30
0.0
  0
SPLINE
  5
B4
330
1F
100
AcDbEntity
  8
외형선
  6
Continuous
370
    15
100
AcDbSpline
210
0.0
220
0.0
230
1.0
 70
    24
 71
     3
 72
    21
 73
    17
 74
     0
 42
0.000000001
 43
0.00000001
 40
0.0
 40
0.0
 40
0.0
 40
0.0
 40
0.0790396446141143
 40
0.1546516672983973
 40
0.2302636899826804
 40
0.3058757126669627
 40
0.3814877353512449
 40
0.4570997580355278
 40
0.5327117807198108
 40
0.6083238034040935
 40
0.6839358260883762
 40
0.7595478487726591
 40
0.8351598714569418
 40
0.9107718941412246
 40
0.9863839168255074
 40
1.0
 40
1.0
 40
1.0
 40
1.0
 10
12.00000000000003
 20
8.100492492871247
 30
0.0
 10
12.00000000000003
 20
7.868080150299203
 30
0.0
 10
12.0
 20
7.413334225580373
 30
0.0
 10
12.00000000000004
 20
6.59380297531326
 30
0.0
 10
12.00000000000004
 20
5.716702030288891
 30
0.0
 10
12.00000000000003
 20
4.781022411522314
 30
0.0
 10
12.00000000000006
 20
3.817974477888312
 30
0.0
 10
12.00000000000005
 20
2.853504577108309
 30
0.0
 10
12.00000000000006
 20
1.914663292332104
 30
0.0
 10
12.00000000000002
 20
1.029764068195909
 30
0.0
 10
12.0
 20
0.2209022025877973
 30
0.0
 10
12.00000000000002
 20
-0.4839871127006291
 30
0.0
 10
12.00000000000008
 20
-1.074296286161899
 30
0.0
 10
12.00000000000001
 20
-1.509899260591821
 30
0.0
 10
12.0
 20
-1.758287111008208
 30
0.0
 10
12.0
 20
-1.808905203431191
 30
0.0
 10
12.0
 20
-1.816629452981622
 30
0.0
  0
SPLINE
  5
B5
330
1F
100
AcDbEntity
  8
0
  6
Continuous
 62
     1
370
    15
100
AcDbSpline
210
0.0
220
0.0
230
1.0
 70
     8
 71
     3
 72
    15
 73
    11
 74
     0
 42
0.000000001
 43
0.00000001
 40
0.0
 40
0.0
 40
0.0
 40
0.0
 40
0.028369553950181
 40
0.1672359813383806
 40
0.306047991034265
 40
0.4448220254919479
 40
0.5835811489375327
 40
0.7223484790128126
 40
0.8611471039553721
 40
1.0
 40
1.0
 40
1.0
 40
1.0
 10
34.58332437184998
 20
9.5063476006253
 30
0.0
 10
34.76008737498563
 20
9.51211513388318
 30
0.0
 10
35.80208945741593
 20
9.546114226219164
 30
0.0
 10
37.70922209665696
 20
9.380835475064748
 30
0.0
 10
40.30392645319344
 20
8.998609773455462
 30
0.0
 10
42.89786990721422
 20
8.374311852695618
 30
0.0
 10
45.49146447091524
 20
7.549227613021167
 30
0.0
 10
48.08525203192176
 20
6.534496712054696
 30
0.0
 10
50.67971938855536
 20
5.365896917903027
 30
0.0
 10
52.40979373996644
 20
4.480830071248589
 30
0.0
 10
53.27500000000004
 20
4.038210148209428
 30
0.0
  0
LINE
  5
B6
330
1F
100
AcDbEntity
  8
0
  6
Continuous
 62
     1
370
    15
100
AcDbLine
 10
53.27500000000003
 20
0.8161148516610934
 30
0.0
 11
53.27500000000003
 21
4.038210148209427
 31
0.0
  0
SPLINE
  5
B7
330
1F
100
AcDbEntity
  8
0
  6
Continuous
 62
     1
370
    15
100
AcDbSpline
210
0.0
220
0.0
230
1.0
 70
     8
 71
     3
 72
    14
 73
    10
 74
     0
 42
0.000000001
 43
0.00000001
 40
0.0
 40
0.0
 40
0.0
 40
0.0
 40
0.0720365124779343
 40
0.2266560184454086
 40
0.3813129420540325
 40
0.5360320202906915
 40
0.6907374113512051
 40
0.8453848655750124
 40
1.0
 40
1.0
 40
1.0
 40
1.0
 10
28.77553256174812
 20
-9.495714795211567
 30
0.0
 10
28.37274168003961
 20
-9.501998568522884
 30
0.0
 10
27.10539857341524
 20
-9.521769862142804
 30
0.0
 10
24.97326604075675
 20
-9.303196729592814
 30
0.0
 10
22.37870976689553
 20
-8.856202576291471
 30
0.0
 10
19.78336448738711
 20
-8.178303372456483
 30
0.0
 10
17.18815692282713
 20
-7.299649737532568
 30
0.0
 10
14.59377535526292
 20
-6.24871804869842
 30
0.0
 10
12.86453154629809
 20
-5.42337931490225
 30
0.0
 10
12.00000000000004
 20
-5.010753074432661
 30
0.0
  0
SPLINE
  5
B8
330
1F
100
AcDbEntity
  8
0
  6
Continuous
 62
     1
370
    15
100
AcDbSpline
210
0.0
220
0.0
230
1.0
 70
     8
 71
     3
 72
    11
 73
     7
 74
     0
 42
0.000000001
 43
0.00000001
 40
0.0
 40
0.0
 40
0.0
 40
0.0
 40
0.2997780003201718
 40
0.5994362650673242
 40
0.8990263944337951
 40
0.9999999999999999
 40
0.9999999999999999
 40
0.9999999999999999
 40
0.9999999999999999
 10
53.27500000000003
 20
9.525000000000006
 30
0.0
 10
52.41167839820468
 20
9.425439396263505
 30
0.0
 10
50.68538001747148
 20
9.296398595683883
 30
0.0
 10
48.0965863497401
 20
8.799530174006819
 30
0.0
 10
46.08033729220338
 20
8.295490192917734
 30
0.0
 10
44.92694483079842
 20
7.891045909785369
 30
0.0
 10
44.63619910095714
 20
7.789094100479971
 30
0.0
  0
LINE
  5
B9
330
1F
100
AcDbEntity
  8
0
  6
Continuous
 62
     1
370
    15
100
AcDbLine
 10
53.27500000000003
 20
4.015680782406305
 30
0.0
 11
53.27500000000003
 21
9.525000000000006
 31
0.0
  0
SPLINE
  5
BA
330
1F
100
AcDbEntity
  8
0
  6
Continuous
 62
     1
370
    15
100
AcDbSpline
210
0.0
220
0.0
230
1.0
 70
     8
 71
     3
 72
    10
 73
     6
 74
     0
 42
0.000000001
 43
0.00000001
 40
0.0
 40
0.0
 40
0.0
 40
0.0
 40
0.3850382524428766
 40
0.7701600075070153
 40
0.9999999999999999
 40
0.9999999999999999
 40
0.9999999999999999
 40
0.9999999999999999
 10
12.00000000000003
 20
-9.331446962362229
 30
0.0
 10
12.86264356727146
 20
-9.20777766497851
 30
0.0
 10
14.58811778192549
 20
-8.960412250251142
 30
0.0
 10
16.82859723437879
 20
-8.42037095202739
 30
0.0
 10
18.20655637912904
 20
-7.959509675777648
 30
0.0
 10
18.72156421619067
 20
-7.787264243123789
 30
0.0
  0
SPLINE
  5
BB
330
1F
100
AcDbEntity
  8
외형선
  6
Continuous
370
    15
100
AcDbSpline
210
0.0
220
0.0
230
1.0
 70
    24
 71
     3
 72
    12
 73
     8
 74
     0
 42
0.000000001
 43
0.00000001
 40
0.0
 40
0.0
 40
0.0
 40
0.0
 40
0.1647290230680327
 40
0.3723172228653135
 40
0.5859254945197935
 40
0.7901034898070013
 40
1.0
 40
1.0
 40
1.0
 40
1.0
 10
12.00000000000002
 20
-5.080475088671222
 30
0.0
 10
12.00000000000003
 20
-5.275514328227588
 30
0.0
 10
12.00000000000006
 20
-5.716338092424857
 30
0.0
 10
12.00000000000006
 20
-6.519707297647013
 30
0.0
 10
11.99999999999998
 20
-7.427715819939309
 30
0.0
 10
12.00000000000004
 20
-8.379755688474972
 30
0.0
 10
12.00000000000004
 20
-9.011309212126273
 30
0.0
 10
12.00000000000004
 20
-9.331446962362223
 30
0.0
  0
LINE
  5
BC
330
1F
100
AcDbEntity
  8
중심선
100
AcDbLine
 10
-48.14999999999998
 20
-0.0000000000000057
 30
0.0
 11
56.27500000000004
 21
0.0000000000000067
 31
0.0
  0
LINE
  5
BD
330
1F
100
AcDbEntity
  8
참조1
100
AcDbLine
 10
13.36810364977729
 20
0.0010749287238892
 30
0.0
 11
13.3681036497773
 21
-39.99892507127611
 31
0.0
  0
LINE
  5
BE
330
1F
100
AcDbEntity
  8
참조1
100
AcDbLine
 10
13.3681036497773
 20
-39.99892507127611
 30
0.0
 11
-21.63450316453139
 21
-39.9989250712761
 31
0.0
  0
CIRCLE
  5
BF
330
1F
100
AcDbEntity
  8
해칭선
100
AcDbCircle
 10
0.0
 20
0.0
 30
0.0
 40
3.000000000000003
  0
INSERT
  5
C0
330
1F
100
AcDbEntity
  8
0
  6
Continuous
 62
     7
100
AcDbBlockReference
 66
     1
  2
블럭10
 10
-0.5721692823479132
 20
-52.04609937292004
 30
0.0
  0
ATTRIB
  5
C1
330
C0
100
AcDbEntity
  8
FORMAT
 62
     2
100
AcDbText
 10
-9.753464571089193
 20
-49.97073246008785
 30
0.0
 40
4.233333333333333
  1
E2031048 [ 4 FLUTE ]
 41
0.75
  7
SLDTEXTSTYLE0
 11
-9.753464571089193
 21
-52.08739912675452
 31
0.0
100
AcDbAttribute
  2
AUTOATTR0
 70
     0
 74
     1
  0
SEQEND
  5
C2
330
C0
100
AcDbEntity
  8
0
  6
Continuous
 62
     7
  0
HATCH
  5
C3
330
1F
100
AcDbEntity
  8
중심선
100
AcDbHatch
 10
0.0
 20
0.0
 30
0.0
210
0.0
220
0.0
230
1.0
  2
SOLID
 70
     1
 71
     0
 91
        1
 92
        0
 93
        4
 72
     1
 10
5.142740022032938
 20
-35.7989250712761
 11
1.696464778195655
 21
-35.7989250712761
 72
     1
 10
1.696464778195655
 20
-35.7989250712761
 11
-0.4317650810083673
 21
-38.3352506518487
 72
     1
 10
-0.4317650810083673
 20
-38.3352506518487
 11
3.014543247942064
 21
-38.33521122254621
 72
     1
 10
3.014543247942064
 20
-38.33521122254621
 11
5.142740022032938
 21
-35.7989250712761
 97
        0
 75
     0
 76
     1
 98
        1
 10
0.0
 20
0.0
  0
HATCH
  5
C4
330
1F
100
AcDbEntity
  8
중심선
100
AcDbHatch
 10
0.0
 20
0.0
 30
0.0
210
0.0
220
0.0
230
1.0
  2
SOLID
 70
     1
 71
     0
 91
        1
 92
        0
 93
        4
 72
     1
 10
10.15550401306894
 20
-35.79892507127608
 11
6.709228769231662
 21
-35.7989250712761
 72
     1
 10
6.709228769231662
 20
-35.7989250712761
 11
2.178090760874219
 21
-41.19892507127612
 72
     1
 10
2.178090760874218
 20
-41.19892507127612
 11
5.624366004711501
 21
-41.19892507127612
 72
     1
 10
5.624366004711501
 20
-41.19892507127612
 11
10.15550401306894
 21
-35.79892507127608
 97
        0
 75
     0
 76
     1
 98
        1
 10
0.0
 20
0.0
  0
HATCH
  5
C5
330
1F
100
AcDbEntity
  8
중심선
100
AcDbHatch
 10
0.0
 20
0.0
 30
0.0
210
0.0
220
0.0
230
1.0
  2
SOLID
 70
     1
 71
     0
 91
        1
 92
        0
 93
        4
 72
     1
 10
15.16826800410484
 20
-35.79892507127608
 11
11.7219927602677
 21
-35.7989250712761
 72
     1
 10
11.7219927602677
 20
-35.7989250712761
 11
4.673555858378419
 21
-44.19892507127612
 72
     1
 10
4.673555858378419
 20
-44.19892507127612
 11
8.119831102215702
 21
-44.19892507127612
 72
     1
 10
8.119831102215702
 20
-44.19892507127612
 11
15.16826800410484
 21
-35.79892507127608
 97
        0
 75
     0
 76
     1
 98
        1
 10
0.0
 20
0.0
  0
HATCH
  5
C6
330
1F
100
AcDbEntity
  8
중심선
100
AcDbHatch
 10
0.0
 20
0.0
 30
0.0
210
0.0
220
0.0
230
1.0
  2
SOLID
 70
     1
 71
     0
 91
        1
 92
        0
 93
        6
 72
     3
 10
19.96815843511698
 20
-39.99892507132738
 11
3.960054785062284
 21
1.540850780301639E-10
 40
0.3939339440162633
 50
17.09539180608434
 51
320.0019657685074
 73
     0
 72
     1
 10
21.65115809081758
 20
-38.58681907591438
 11
23.95645996451862
 21
-36.65249236586649
 72
     3
 10
19.96815843506414
 20
-39.99892507127625
 11
6.600054785286829
 21
-1.249000902703301E-13
 40
0.6363583540795982
 50
39.99873849337406
 51
368.4976242363725
 73
     1
 72
     1
 10
26.39349092696474
 20
-39.03892507120613
 11
18.64822574190006
 21
-39.03892507120613
 72
     1
 10
18.64822574190006
 20
-39.03892507120613
 11
18.64820069745413
 21
-40.95892507120602
 72
     1
 10
18.64820069745413
 20
-40.95892507120602
 11
23.08958046692616
 21
-40.95892507120599
 97
        0
 75
     0
 76
     1
 98
        1
 10
0.0
 20
0.0
  0
DIMENSION
  5
C7
330
1F
100
AcDbEntity
  8
치수문자_일반주서
100
AcDbDimension
  2
_D
 10
12.00000000000003
 20
22.67081057025608
 30
0.0
 11
32.63750000000002
 21
22.67081057025608
 31
0.0
 70
   160
  1
<>
 71
     2
 42
41.27500000000001
  3
SLDDIMSTYLE1
100
AcDbAlignedDimension
 13
53.27500000000003
 23
9.525000000000006
 33
0.0
 14
12.00000000000002
 24
9.331446962362241
 34
0.0
 50
0.0000000000000049
100
AcDbRotatedDimension
1001
ACAD
1000
DSTYLE
1002
{
1070
   171
1070
     6
1070
   273
1070
     7
1002
}
  0
DIMENSION
  5
DC
330
1F
100
AcDbEntity
  8
치수문자_일반주서
100
AcDbDimension
  2
_D_1
 10
-45.14999999999997
 20
38.39201576805886
 30
0.0
 11
4.062500000000027
 21
38.39201576805886
 31
0.0
 70
   160
  1
<>
 71
     2
 42
98.425
  3
SLDDIMSTYLE1
100
AcDbAlignedDimension
 13
53.27500000000003
 23
9.525000000000006
 33
0.0
 14
-45.14999999999997
 24
7.620000000000004
 34
0.0
 50
0.0000000000000083
100
AcDbRotatedDimension
1001
ACAD
1000
DSTYLE
1002
{
1070
   171
1070
     6
1070
   273
1070
     7
1002
}
  0
DIMENSION
  5
EF
330
1F
100
AcDbEntity
  8
치수문자_일반주서
100
AcDbDimension
  2
_D_2
 10
-55.49827283782714
 20
-9.525000000000054
 30
0.0
 11
-55.49827283782717
 21
0.0000000000000061
 31
0.0
 70
   160
  1
%%c<>
 71
     2
 42
19.05000000000001
 52
-270.0
  3
SLDDIMSTYLE1
100
AcDbAlignedDimension
 13
-43.24499999999998
 23
9.525000000000004
 33
0.0
 14
-43.24499999999998
 24
-9.525000000000007
 34
0.0
 50
90.0000000000002
100
AcDbRotatedDimension
1001
ACAD
1000
DSTYLE
1002
{
1070
   171
1070
     6
1070
   273
1070
     7
1002
}
  0
DIMENSION
  5
104
330
1F
100
AcDbEntity
  8
치수문자_일반주서
100
AcDbDimension
  2
_D_3
 10
66.80084412996052
 20
-9.524999999999949
 30
0.0
 11
66.80084412996038
 21
30.09397268430732
 31
0.0
 70
   160
  1
%%c<>
 71
     2
 42
19.05
 52
-270.0
  3
SLDDIMSTYLE1
100
AcDbAlignedDimension
 13
53.27500000000003
 23
9.525000000000006
 33
0.0
 14
53.27500000000003
 24
-9.524999999999995
 34
0.0
 50
90.0000000000002
100
AcDbRotatedDimension
1001
ACAD
1000
DSTYLE
1002
{
1070
   171
1070
     6
1070
   273
1070
     7
1002
}
  0
LINE
  5
117
330
1F
100
AcDbEntity
  8
참조1
100
AcDbLine
 10
76.33783746512287
 20
7.441074928723896
 30
0.0
 11
76.33783746512287
 21
-7.438925071276109
 31
0.0
  0
LINE
  5
118
330
1F
100
AcDbEntity
  8
참조1
100
AcDbLine
 10
89.03783746512288
 20
5.441074928723896
 30
0.0
 11
76.33783746512287
 21
5.441074928723896
 31
0.0
  0
SOLID
  5
119
330
1F
100
AcDbEntity
  8
참조1
100
AcDbTrace
 10
76.33783746512287
 20
5.441074928723896
 30
0.0
 11
82.68783746512287
 21
4.425074928723896
 31
0.0
 12
82.68783746512287
 22
6.457074928723896
 32
0.0
 13
82.68783746512287
 23
6.457074928723896
 33
0.0
  0
LINE
  5
11A
330
1F
100
AcDbEntity
  8
참조1
100
AcDbLine
 10
89.03783746512288
 20
-5.438925071276109
 30
0.0
 11
76.33783746512287
 21
-5.438925071276109
 31
0.0
  0
SOLID
  5
11B
330
1F
100
AcDbEntity
  8
참조1
100
AcDbTrace
 10
76.33783746512287
 20
-5.438925071276109
 30
0.0
 11
82.68783746512287
 21
-6.454925071276109
 31
0.0
 12
82.68783746512287
 22
-4.422925071276109
 32
0.0
 13
82.68783746512287
 23
-4.422925071276109
 33
0.0
  0
MTEXT
  5
11C
330
1F
100
AcDbEntity
  8
참조1
100
AcDbMText
 10
85.72218759774887
 20
11.01136670591222
 30
0.0
 40
3.5
 41
0.0
 71
     1
 72
     1
  1
A
  7
SLDTEXTSTYLE0
 73
     1
 44
1.0
  0
MTEXT
  5
11D
330
1F
100
AcDbEntity
  8
참조1
100
AcDbMText
 10
85.72218759774887
 20
0.1313667059122201
 30
0.0
 40
3.5
 41
0.0
 71
     1
 72
     1
  1
A
  7
SLDTEXTSTYLE0
 73
     1
 44
1.0
  0
INSERT
  5
124
330
1F
100
AcDbEntity
  8
해칭선
100
AcDbBlockReference
  2
SW_DOWELSYMBOL_0
 10
0.0
 20
0.0
 30
0.0
  0
LINE
  5
17D
330
1F
100
AcDbEntity
  8
외형선
  6
Continuous
370
    15
100
AcDbLine
 10
-25.14432499999995
 20
7.619999999999997
 30
0.0
 11
-13.56192499999994
 21
7.619999999999997
 31
0.0
  0
LINE
  5
17E
330
1F
100
AcDbEntity
  8
외형선
  6
Continuous
370
    15
100
AcDbLine
 10
-25.14432499999995
 20
7.619999999999983
 30
0.0
 11
-27.04932500000009
 21
9.525000000000013
 31
0.0
  0
LINE
  5
17F
330
1F
100
AcDbEntity
  8
외형선
  6
Continuous
370
    15
100
AcDbLine
 10
-13.56192499999994
 20
7.619999999999983
 30
0.0
 11
-11.65692499999997
 21
9.525000000000013
 31
0.0
  0
LINE
  5
181
330
1F
100
AcDbEntity
  8
외형선
  6
Continuous
370
    15
100
AcDbLine
 10
-27.04932500000007
 20
9.524999999999999
 30
0.0
 11
-43.24499999999997
 21
9.524999999999999
 31
0.0
  0
ENDSEC
  0
SECTION
  2
OBJECTS
  0
DICTIONARY
  5
C
330
0
100
AcDbDictionary
281
     1
  3
ACAD_GROUP
350
D
  3
ACAD_IMAGE_VARS
350
148
  3
ACAD_LAYOUT
350
1A
  3
ACAD_MLINESTYLE
350
17
  3
ACAD_PLOTSETTINGS
350
19
  3
ACAD_PLOTSTYLENAME
350
E
  3
ACAD_SCALELIST
350
47
  3
APPDATA
350
146
  3
DWGPROPS
350
1B6
  0
DICTIONARY
  5
174
330
2
100
AcDbDictionary
280
     1
281
     1
  3
ACAD_LAYERSTATES
360
175
  0
DICTIONARY
  5
D
102
{ACAD_REACTORS
330
C
102
}
330
C
100
AcDbDictionary
281
     1
  0
RASTERVARIABLES
  5
148
102
{ACAD_REACTORS
330
C
102
}
330
C
100
AcDbRasterVariables
 90
        0
 70
     1
 71
     1
 72
     1
  0
DICTIONARY
  5
1A
102
{ACAD_REACTORS
330
C
102
}
330
C
100
AcDbDictionary
281
     1
  3
Layout1
350
1E
  3
Layout2
350
26
  3
Model
350
22
  0
DICTIONARY
  5
17
102
{ACAD_REACTORS
330
C
102
}
330
C
100
AcDbDictionary
281
     1
  3
Standard
350
18
  0
DICTIONARY
  5
19
102
{ACAD_REACTORS
330
C
102
}
330
C
100
AcDbDictionary
281
     1
  0
ACDBDICTIONARYWDFLT
  5
E
102
{ACAD_REACTORS
330
C
102
}
330
C
100
AcDbDictionary
281
     1
  3
Normal
350
F
100
AcDbDictionaryWithDefault
340
F
  0
DICTIONARY
  5
47
102
{ACAD_REACTORS
330
C
102
}
330
C
100
AcDbDictionary
281
     1
  3
A0
350
48
  3
A1
350
49
  3
A2
350
4A
  3
A3
350
4B
  3
A4
350
4C
  3
A5
350
4D
  3
A6
350
4E
  3
A7
350
4F
  3
A8
350
50
  3
A9
350
51
  3
B0
350
52
  3
B1
350
53
  3
B2
350
54
  3
B3
350
55
  3
B4
350
56
  3
B5
350
57
  3
B6
350
58
  3
B7
350
59
  3
B8
350
5A
  3
B9
350
5B
  3
C0
350
5C
  3
C1
350
5D
  3
C2
350
5E
  3
C3
350
5F
  3
C4
350
60
  3
C5
350
61
  3
C6
350
62
  3
C7
350
63
  3
C8
350
64
  3
C9
350
65
  3
D0
350
66
  3
D1
350
67
  3
D2
350
68
  0
DICTIONARY
  5
146
102
{ACAD_REACTORS
330
C
102
}
330
C
100
AcDbDictionary
281
     1
  0
XRECORD
  5
1B6
102
{ACAD_REACTORS
330
C
102
}
330
C
100
AcDbXrecord
280
     1
  1
DWGPROPS COOKIE
  2

  3

  4

  6

  7

  8
12017012
  9

300
=
301
=
302
=
303
=
304
=
305
=
306
=
307
=
308
=
309
=
 40
0.0
 41
2458312.295385579
 42
2458320.279846713
  1

 90
        0
  0
DICTIONARY
  5
175
102
{ACAD_REACTORS
330
174
102
}
330
174
100
AcDbDictionary
281
     1
  0
LAYOUT
  5
1E
102
{ACAD_REACTORS
330
1A
102
}
330
1A
100
AcDbPlotSettings
  1

  2
none_device
  4

  6

 40
0.0
 41
0.0
 42
0.0
 43
0.0
 44
0.0
 45
0.0
 46
0.0
 47
0.0
 48
0.0
 49
0.0
140
0.0
141
0.0
142
1.0
143
1.0
 70
   688
 72
     1
 73
     0
 74
     5
  7

 75
    16
147
1.0
148
0.0
149
0.0
100
AcDbLayout
  1
Layout1
 70
     1
 71
     1
 10
0.0
 20
0.0
 11
420.0
 21
297.0
 12
0.0
 22
0.0
 32
0.0
 14
1.000000000000000E+20
 24
1.000000000000000E+20
 34
1.000000000000000E+20
 15
-1.000000000000000E+20
 25
-1.000000000000000E+20
 35
-1.000000000000000E+20
146
0.0
 13
0.0
 23
0.0
 33
0.0
 16
1.0
 26
0.0
 36
0.0
 17
0.0
 27
1.0
 37
0.0
 76
     0
330
1B
  0
LAYOUT
  5
26
102
{ACAD_REACTORS
330
1A
102
}
330
1A
100
AcDbPlotSettings
  1

  2
none_device
  4

  6

 40
0.0
 41
0.0
 42
0.0
 43
0.0
 44
0.0
 45
0.0
 46
0.0
 47
0.0
 48
0.0
 49
0.0
140
0.0
141
0.0
142
1.0
143
1.0
 70
   688
 72
     1
 73
     0
 74
     5
  7

 75
    16
147
1.0
148
0.0
149
0.0
100
AcDbLayout
  1
Layout2
 70
     1
 71
     2
 10
0.0
 20
0.0
 11
0.0
 21
0.0
 12
0.0
 22
0.0
 32
0.0
 14
0.0
 24
0.0
 34
0.0
 15
0.0
 25
0.0
 35
0.0
146
0.0
 13
0.0
 23
0.0
 33
0.0
 16
1.0
 26
0.0
 36
0.0
 17
0.0
 27
1.0
 37
0.0
 76
     0
330
23
  0
LAYOUT
  5
22
102
{ACAD_REACTORS
330
1A
102
}
330
1A
100
AcDbPlotSettings
  1

  2
none_device
  4
ANSI_A_(11.00_x_8.50_Inches)
  6

 40
6.35
 41
19.05
 42
6.35000508
 43
19.05000254
 44
279.4
 45
215.9
 46
74.96488237436446
 47
63.32141866393889
 48
0.0
 49
0.0
140
0.0
141
0.0
142
0.0552135299546503
143
1.0
 70
  1696
 72
     0
 73
     0
 74
     0
  7

 75
     0
147
0.0235690232323232
148
0.0
149
0.0
100
AcDbLayout
  1
Model
 70
     1
 71
     0
 10
0.0
 20
0.0
 11
420.0
 21
297.0
 12
0.0
 22
0.0
 32
0.0
 14
1.000000000000000E+20
 24
1.000000000000000E+20
 34
1.000000000000000E+20
 15
-1.000000000000000E+20
 25
-1.000000000000000E+20
 35
-1.000000000000000E+20
146
0.0
 13
0.0
 23
0.0
 33
0.0
 16
1.0
 26
0.0
 36
0.0
 17
0.0
 27
1.0
 37
0.0
 76
     0
330
1F
331
29
  0
MLINESTYLE
  5
18
102
{ACAD_REACTORS
330
17
102
}
330
17
100
AcDbMlineStyle
  2
Standard
 70
     0
  3

 62
   256
 51
90.0
 52
90.0
 71
     2
 49
0.5
 62
   256
  6
BYLAYER
 49
-0.5
 62
   256
  6
BYLAYER
  0
ACDBPLACEHOLDER
  5
F
102
{ACAD_REACTORS
330
E
102
}
330
E
  0
SCALE
  5
48
102
{ACAD_REACTORS
330
47
102
}
330
47
100
AcDbScale
 70
     0
300
1:1
140
1.0
141
1.0
290
     1
  0
SCALE
  5
49
102
{ACAD_REACTORS
330
47
102
}
330
47
100
AcDbScale
 70
     0
300
1:2
140
1.0
141
2.0
290
     0
  0
SCALE
  5
4A
102
{ACAD_REACTORS
330
47
102
}
330
47
100
AcDbScale
 70
     0
300
1:4
140
1.0
141
4.0
290
     0
  0
SCALE
  5
4B
102
{ACAD_REACTORS
330
47
102
}
330
47
100
AcDbScale
 70
     0
300
1:5
140
1.0
141
5.0
290
     0
  0
SCALE
  5
4C
102
{ACAD_REACTORS
330
47
102
}
330
47
100
AcDbScale
 70
     0
300
1:8
140
1.0
141
8.0
290
     0
  0
SCALE
  5
4D
102
{ACAD_REACTORS
330
47
102
}
330
47
100
AcDbScale
 70
     0
300
1:10
140
1.0
141
10.0
290
     0
  0
SCALE
  5
4E
102
{ACAD_REACTORS
330
47
102
}
330
47
100
AcDbScale
 70
     0
300
1:16
140
1.0
141
16.0
290
     0
  0
SCALE
  5
4F
102
{ACAD_REACTORS
330
47
102
}
330
47
100
AcDbScale
 70
     0
300
1:20
140
1.0
141
20.0
290
     0
  0
SCALE
  5
50
102
{ACAD_REACTORS
330
47
102
}
330
47
100
AcDbScale
 70
     0
300
1:30
140
1.0
141
30.0
290
     0
  0
SCALE
  5
51
102
{ACAD_REACTORS
330
47
102
}
330
47
100
AcDbScale
 70
     0
300
1:40
140
1.0
141
40.0
290
     0
  0
SCALE
  5
52
102
{ACAD_REACTORS
330
47
102
}
330
47
100
AcDbScale
 70
     0
300
1:50
140
1.0
141
50.0
290
     0
  0
SCALE
  5
53
102
{ACAD_REACTORS
330
47
102
}
330
47
100
AcDbScale
 70
     0
300
1:100
140
1.0
141
100.0
290
     0
  0
SCALE
  5
54
102
{ACAD_REACTORS
330
47
102
}
330
47
100
AcDbScale
 70
     0
300
2:1
140
2.0
141
1.0
290
     0
  0
SCALE
  5
55
102
{ACAD_REACTORS
330
47
102
}
330
47
100
AcDbScale
 70
     0
300
4:1
140
4.0
141
1.0
290
     0
  0
SCALE
  5
56
102
{ACAD_REACTORS
330
47
102
}
330
47
100
AcDbScale
 70
     0
300
8:1
140
8.0
141
1.0
290
     0
  0
SCALE
  5
57
102
{ACAD_REACTORS
330
47
102
}
330
47
100
AcDbScale
 70
     0
300
10:1
140
10.0
141
1.0
290
     0
  0
SCALE
  5
58
102
{ACAD_REACTORS
330
47
102
}
330
47
100
AcDbScale
 70
     0
300
100:1
140
100.0
141
1.0
290
     0
  0
SCALE
  5
59
102
{ACAD_REACTORS
330
47
102
}
330
47
100
AcDbScale
 70
     0
300
1/128" = 1'-0"
140
0.0078125
141
12.0
290
     0
  0
SCALE
  5
5A
102
{ACAD_REACTORS
330
47
102
}
330
47
100
AcDbScale
 70
     0
300
1/64" = 1'-0"
140
0.015625
141
12.0
290
     0
  0
SCALE
  5
5B
102
{ACAD_REACTORS
330
47
102
}
330
47
100
AcDbScale
 70
     0
300
1/32" = 1'-0"
140
0.03125
141
12.0
290
     0
  0
SCALE
  5
5C
102
{ACAD_REACTORS
330
47
102
}
330
47
100
AcDbScale
 70
     0
300
1/16" = 1'-0"
140
0.0625
141
12.0
290
     0
  0
SCALE
  5
5D
102
{ACAD_REACTORS
330
47
102
}
330
47
100
AcDbScale
 70
     0
300
3/32" = 1'-0"
140
0.09375
141
12.0
290
     0
  0
SCALE
  5
5E
102
{ACAD_REACTORS
330
47
102
}
330
47
100
AcDbScale
 70
     0
300
1/8" = 1'-0"
140
0.125
141
12.0
290
     0
  0
SCALE
  5
5F
102
{ACAD_REACTORS
330
47
102
}
330
47
100
AcDbScale
 70
     0
300
3/16" = 1'-0"
140
0.1875
141
12.0
290
     0
  0
SCALE
  5
60
102
{ACAD_REACTORS
330
47
102
}
330
47
100
AcDbScale
 70
     0
300
1/4" = 1'-0"
140
0.25
141
12.0
290
     0
  0
SCALE
  5
61
102
{ACAD_REACTORS
330
47
102
}
330
47
100
AcDbScale
 70
     0
300
3/8" = 1'-0"
140
0.375
141
12.0
290
     0
  0
SCALE
  5
62
102
{ACAD_REACTORS
330
47
102
}
330
47
100
AcDbScale
 70
     0
300
1/2" = 1'-0"
140
0.5
141
12.0
290
     0
  0
SCALE
  5
63
102
{ACAD_REACTORS
330
47
102
}
330
47
100
AcDbScale
 70
     0
300
3/4" = 1'-0"
140
0.75
141
12.0
290
     0
  0
SCALE
  5
64
102
{ACAD_REACTORS
330
47
102
}
330
47
100
AcDbScale
 70
     0
300
1" = 1'-0"
140
1.0
141
12.0
290
     0
  0
SCALE
  5
65
102
{ACAD_REACTORS
330
47
102
}
330
47
100
AcDbScale
 70
     0
300
1-1/2" = 1'-0"
140
1.5
141
12.0
290
     0
  0
SCALE
  5
66
102
{ACAD_REACTORS
330
47
102
}
330
47
100
AcDbScale
 70
     0
300
3" = 1'-0"
140
3.0
141
12.0
290
     0
  0
SCALE
  5
67
102
{ACAD_REACTORS
330
47
102
}
330
47
100
AcDbScale
 70
     0
300
6" = 1'-0"
140
6.0
141
12.0
290
     0
  0
SCALE
  5
68
102
{ACAD_REACTORS
330
47
102
}
330
47
100
AcDbScale
 70
     0
300
1'-0" = 1'-0"
140
12.0
141
12.0
290
     0
  0
ENDSEC
  0
EOF
