  0
SECTION
  2
HEADER
  9
$ACADVER
  1
AC1015
  9
$ACADMAINTVER
 70
     6
  9
$DWGCODEPAGE
  3
ANSI_949
  9
$INSBASE
 10
0.0
 20
0.0
 30
0.0
  9
$EXTMIN
 10
1.000000000000000E+20
 20
1.000000000000000E+20
 30
1.000000000000000E+20
  9
$EXTMAX
 10
-1.000000000000000E+20
 20
-1.000000000000000E+20
 30
-1.000000000000000E+20
  9
$LIMMIN
 10
0.0
 20
0.0
  9
$LIMMAX
 10
420.0
 20
297.0
  9
$ORTHOMODE
 70
     1
  9
$REGENMODE
 70
     1
  9
$FILLMODE
 70
     1
  9
$QTEXTMODE
 70
     0
  9
$MIRRTEXT
 70
     1
  9
$LTSCALE
 40
1.0
  9
$ATTMODE
 70
     1
  9
$TEXTSIZE
 40
3.5
  9
$TRACEWID
 40
1.0
  9
$TEXTSTYLE
  7
Standard
  9
$CLAYER
  8
0
  9
$CELTYPE
  6
ByLayer
  9
$CECOLOR
 62
   256
  9
$CELTSCALE
 40
1.0
  9
$DISPSILH
 70
     0
  9
$DIMSCALE
 40
1.0
  9
$DIMASZ
 40
3.302
  9
$DIMEXO
 40
1.0
  9
$DIMDLI
 40
3.75
  9
$DIMRND
 40
0.0
  9
$DIMDLE
 40
0.0
  9
$DIMEXE
 40
1.0
  9
$DIMTP
 40
0.0
  9
$DIMTM
 40
0.0
  9
$DIMTXT
 40
3.5
  9
$DIMCEN
 40
2.5
  9
$DIMTSZ
 40
0.0
  9
$DIMTOL
 70
     0
  9
$DIMLIM
 70
     0
  9
$DIMTIH
 70
     1
  9
$DIMTOH
 70
     1
  9
$DIMSE1
 70
     0
  9
$DIMSE2
 70
     0
  9
$DIMTAD
 70
     1
  9
$DIMZIN
 70
     0
  9
$DIMBLK
  1

  9
$DIMASO
 70
     1
  9
$DIMSHO
 70
     1
  9
$DIMPOST
  1

  9
$DIMAPOST
  1

  9
$DIMALT
 70
     0
  9
$DIMALTD
 70
     3
  9
$DIMALTF
 40
0.0393700787401575
  9
$DIMLFAC
 40
1.0
  9
$DIMTOFL
 70
     1
  9
$DIMTVP
 40
0.0
  9
$DIMTIX
 70
     0
  9
$DIMSOXD
 70
     0
  9
$DIMSAH
 70
     0
  9
$DIMBLK1
  1

  9
$DIMBLK2
  1

  9
$DIMSTYLE
  2
ISO-25
  9
$DIMCLRD
 70
     0
  9
$DIMCLRE
 70
     0
  9
$DIMCLRT
 70
     0
  9
$DIMTFAC
 40
1.0
  9
$DIMGAP
 40
1.524
  9
$DIMJUST
 70
     0
  9
$DIMSD1
 70
     0
  9
$DIMSD2
 70
     0
  9
$DIMTOLJ
 70
     0
  9
$DIMTZIN
 70
     0
  9
$DIMALTZ
 70
     0
  9
$DIMALTTZ
 70
     0
  9
$DIMUPT
 70
     0
  9
$DIMDEC
 70
     2
  9
$DIMTDEC
 70
     2
  9
$DIMALTU
 70
     2
  9
$DIMALTTD
 70
     3
  9
$DIMTXSTY
  7
Standard
  9
$DIMAUNIT
 70
     0
  9
$DIMADEC
 70
     2
  9
$DIMALTRND
 40
0.0
  9
$DIMAZIN
 70
     0
  9
$DIMDSEP
 70
    44
  9
$DIMATFIT
 70
     3
  9
$DIMFRAC
 70
     0
  9
$DIMLDRBLK
  1

  9
$DIMLUNIT
 70
     2
  9
$DIMLWD
 70
    -2
  9
$DIMLWE
 70
    -2
  9
$DIMTMOVE
 70
     0
  9
$LUNITS
 70
     2
  9
$LUPREC
 70
     2
  9
$SKETCHINC
 40
1.0
  9
$FILLETRAD
 40
10.0
  9
$AUNITS
 70
     0
  9
$AUPREC
 70
     2
  9
$MENU
  1
.
  9
$ELEVATION
 40
0.0
  9
$PELEVATION
 40
0.0
  9
$THICKNESS
 40
0.0
  9
$LIMCHECK
 70
     0
  9
$CHAMFERA
 40
0.0
  9
$CHAMFERB
 40
0.0
  9
$CHAMFERC
 40
0.0
  9
$CHAMFERD
 40
0.0
  9
$SKPOLY
 70
     0
  9
$TDCREATE
 40
2458312.748643507
  9
$TDUCREATE
 40
2458312.373643507
  9
$TDUPDATE
 40
2458323.694766713
  9
$TDUUPDATE
 40
2458323.319766713
  9
$TDINDWG
 40
0.0001746644
  9
$TDUSRTIMER
 40
2458323.319672361
  9
$USRTIMER
 70
     1
  9
$ANGBASE
 50
0.0
  9
$ANGDIR
 70
     0
  9
$PDMODE
 70
     0
  9
$PDSIZE
 40
-1.0
  9
$PLINEWID
 40
0.0
  9
$SPLFRAME
 70
     0
  9
$SPLINETYPE
 70
     6
  9
$SPLINESEGS
 70
     8
  9
$HANDSEED
  5
262
  9
$SURFTAB1
 70
     6
  9
$SURFTAB2
 70
     6
  9
$SURFTYPE
 70
     6
  9
$SURFU
 70
     6
  9
$SURFV
 70
     6
  9
$UCSBASE
  2

  9
$UCSNAME
  2

  9
$UCSORG
 10
0.0
 20
0.0
 30
0.0
  9
$UCSXDIR
 10
1.0
 20
0.0
 30
0.0
  9
$UCSYDIR
 10
0.0
 20
1.0
 30
0.0
  9
$UCSORTHOREF
  2

  9
$UCSORTHOVIEW
 70
     0
  9
$UCSORGTOP
 10
0.0
 20
0.0
 30
0.0
  9
$UCSORGBOTTOM
 10
0.0
 20
0.0
 30
0.0
  9
$UCSORGLEFT
 10
0.0
 20
0.0
 30
0.0
  9
$UCSORGRIGHT
 10
0.0
 20
0.0
 30
0.0
  9
$UCSORGFRONT
 10
0.0
 20
0.0
 30
0.0
  9
$UCSORGBACK
 10
0.0
 20
0.0
 30
0.0
  9
$PUCSBASE
  2

  9
$PUCSNAME
  2

  9
$PUCSORG
 10
0.0
 20
0.0
 30
0.0
  9
$PUCSXDIR
 10
1.0
 20
0.0
 30
0.0
  9
$PUCSYDIR
 10
0.0
 20
1.0
 30
0.0
  9
$PUCSORTHOREF
  2

  9
$PUCSORTHOVIEW
 70
     0
  9
$PUCSORGTOP
 10
0.0
 20
0.0
 30
0.0
  9
$PUCSORGBOTTOM
 10
0.0
 20
0.0
 30
0.0
  9
$PUCSORGLEFT
 10
0.0
 20
0.0
 30
0.0
  9
$PUCSORGRIGHT
 10
0.0
 20
0.0
 30
0.0
  9
$PUCSORGFRONT
 10
0.0
 20
0.0
 30
0.0
  9
$PUCSORGBACK
 10
0.0
 20
0.0
 30
0.0
  9
$USERI1
 70
     0
  9
$USERI2
 70
     0
  9
$USERI3
 70
     0
  9
$USERI4
 70
     0
  9
$USERI5
 70
     0
  9
$USERR1
 40
0.0
  9
$USERR2
 40
0.0
  9
$USERR3
 40
0.0
  9
$USERR4
 40
0.0
  9
$USERR5
 40
0.0
  9
$WORLDVIEW
 70
     1
  9
$SHADEDGE
 70
     3
  9
$SHADEDIF
 70
    70
  9
$TILEMODE
 70
     1
  9
$MAXACTVP
 70
    64
  9
$PINSBASE
 10
0.0
 20
0.0
 30
0.0
  9
$PLIMCHECK
 70
     0
  9
$PEXTMIN
 10
1.000000000000000E+20
 20
1.000000000000000E+20
 30
1.000000000000000E+20
  9
$PEXTMAX
 10
-1.000000000000000E+20
 20
-1.000000000000000E+20
 30
-1.000000000000000E+20
  9
$PLIMMIN
 10
0.0
 20
0.0
  9
$PLIMMAX
 10
0.0
 20
0.0
  9
$UNITMODE
 70
     0
  9
$VISRETAIN
 70
     1
  9
$PLINEGEN
 70
     0
  9
$PSLTSCALE
 70
     1
  9
$TREEDEPTH
 70
  3020
  9
$CMLSTYLE
  2
Standard
  9
$CMLJUST
 70
     0
  9
$CMLSCALE
 40
20.0
  9
$PROXYGRAPHICS
 70
     1
  9
$MEASUREMENT
 70
     1
  9
$CELWEIGHT
370
    -1
  9
$ENDCAPS
280
     0
  9
$JOINSTYLE
280
     0
  9
$LWDISPLAY
290
     1
  9
$INSUNITS
 70
     4
  9
$HYPERLINKBASE
  1

  9
$STYLESHEET
  1

  9
$XEDIT
290
     1
  9
$CEPSNTYPE
380
     0
  9
$PSTYLEMODE
290
     1
  9
$FINGERPRINTGUID
  2
{70EEB414-E5E9-4C07-8309-5090A34B30B6}
  9
$VERSIONGUID
  2
{FAEB1C32-E019-11D5-929B-00C0DF256EC4}
  9
$EXTNAMES
290
     1
  9
$PSVPSCALE
 40
0.0
  9
$OLESTARTUP
290
     0
  0
ENDSEC
  0
SECTION
  2
CLASSES
  0
CLASS
  1
ACDBDICTIONARYWDFLT
  2
AcDbDictionaryWithDefault
  3
ObjectDBX Classes
 90
        0
280
     0
281
     0
  0
CLASS
  1
VISUALSTYLE
  2
AcDbVisualStyle
  3
ObjectDBX Classes
 90
     4095
280
     0
281
     0
  0
CLASS
  1
MATERIAL
  2
AcDbMaterial
  3
ObjectDBX Classes
 90
     1153
280
     0
281
     0
  0
CLASS
  1
SCALE
  2
AcDbScale
  3
ObjectDBX Classes
 90
     1153
280
     0
281
     0
  0
CLASS
  1
SUN
  2
AcDbSun
  3
SCENEOE
 90
     1153
280
     0
281
     0
  0
CLASS
  1
ACDBPLACEHOLDER
  2
AcDbPlaceHolder
  3
ObjectDBX Classes
 90
        0
280
     0
281
     0
  0
CLASS
  1
LAYOUT
  2
AcDbLayout
  3
ObjectDBX Classes
 90
        0
280
     0
281
     0
  0
CLASS
  1
TABLESTYLE
  2
AcDbTableStyle
  3
ObjectDBX Classes
 90
     4095
280
     0
281
     0
  0
CLASS
  1
MLEADERSTYLE
  2
AcDbMLeaderStyle
  3
ACDB_MLEADERSTYLE_CLASS
 90
     4095
280
     0
281
     0
  0
CLASS
  1
RASTERVARIABLES
  2
AcDbRasterVariables
  3
ISM
 90
        0
280
     0
281
     0
  0
ENDSEC
  0
SECTION
  2
TABLES
  0
TABLE
  2
VPORT
  5
8
330
0
100
AcDbSymbolTable
 70
     1
  0
VPORT
  5
29
330
8
100
AcDbSymbolTableRecord
100
AcDbViewportTableRecord
  2
*Active
 70
     0
 10
0.0
 20
0.0
 11
1.0
 21
1.0
 12
-60.94720337852518
 22
-65.27399023135669
 13
0.0
 23
0.0
 14
10.0
 24
10.0
 15
10.0
 25
10.0
 16
0.0
 26
0.0
 36
1.0
 17
0.0
 27
0.0
 37
0.0
 40
149.7959718867045
 41
1.632495164410058
 42
50.0
 43
0.0
 44
0.0
 50
0.0
 51
0.0
 71
    16
 72
  2000
 73
     1
 74
     3
 75
     0
 76
     0
 77
     0
 78
     0
281
     0
 65
     1
110
0.0
120
0.0
130
0.0
111
1.0
121
0.0
131
0.0
112
0.0
122
1.0
132
0.0
 79
     0
146
0.0
  0
ENDTAB
  0
TABLE
  2
LTYPE
  5
5
330
0
100
AcDbSymbolTable
 70
     6
  0
LTYPE
  5
14
330
5
100
AcDbSymbolTableRecord
100
AcDbLinetypeTableRecord
  2
ByBlock
 70
     0
  3

 72
    65
 73
     0
 40
0.0
  0
LTYPE
  5
15
330
5
100
AcDbSymbolTableRecord
100
AcDbLinetypeTableRecord
  2
ByLayer
 70
     0
  3

 72
    65
 73
     0
 40
0.0
  0
LTYPE
  5
16
330
5
100
AcDbSymbolTableRecord
100
AcDbLinetypeTableRecord
  2
Continuous
 70
     0
  3
Solid line
 72
    65
 73
     0
 40
0.0
  0
LTYPE
  5
6A
330
5
100
AcDbSymbolTableRecord
100
AcDbLinetypeTableRecord
  2
HIDDEN
 70
     0
  3
Hidden __ __ __ __ __ __ __ __ __ __ __ __ __ __
 72
    65
 73
     2
 40
1.905
 49
1.27
 74
     0
 49
-0.635
 74
     0
  0
LTYPE
  5
6B
330
5
100
AcDbSymbolTableRecord
100
AcDbLinetypeTableRecord
  2
PHANTOM
 70
     0
  3
Phantom ______  __  __  ______  __  __  ______
 72
    65
 73
     6
 40
12.7
 49
6.35
 74
     0
 49
-1.27
 74
     0
 49
1.27
 74
     0
 49
-1.27
 74
     0
 49
1.27
 74
     0
 49
-1.27
 74
     0
  0
LTYPE
  5
6C
330
5
100
AcDbSymbolTableRecord
100
AcDbLinetypeTableRecord
  2
CENTER
 70
     0
  3
Center ____ _ ____ _ ____ _ ____ _ ____ _ ____
 72
    65
 73
     4
 40
10.16
 49
6.35
 74
     0
 49
-1.27
 74
     0
 49
1.27
 74
     0
 49
-1.27
 74
     0
  0
LTYPE
  5
6D
330
5
100
AcDbSymbolTableRecord
100
AcDbLinetypeTableRecord
  2
CENTERX2
 70
     0
  3
Center (2x) ________  __  ________  __  _____
 72
    65
 73
     4
 40
20.32
 49
12.7
 74
     0
 49
-2.54
 74
     0
 49
2.54
 74
     0
 49
-2.54
 74
     0
  0
LTYPE
  5
6E
330
5
100
AcDbSymbolTableRecord
100
AcDbLinetypeTableRecord
  2
DOT2
 70
     0
  3
Dot (.5x) ........................................
 72
    65
 73
     2
 40
0.635
 49
0.0
 74
     0
 49
-0.635
 74
     0
  0
ENDTAB
  0
TABLE
  2
LAYER
  5
2
102
{ACAD_XDICTIONARY
360
1C5
102
}
330
0
100
AcDbSymbolTable
 70
    18
  0
LAYER
  5
10
330
2
100
AcDbSymbolTableRecord
100
AcDbLayerTableRecord
  2
0
 70
     0
 62
     7
  6
Continuous
370
    -3
390
F
  0
LAYER
  5
6F
330
2
100
AcDbSymbolTableRecord
100
AcDbLayerTableRecord
  2
FORMAT
 70
     0
 62
     2
  6
Continuous
370
    -3
390
F
  0
LAYER
  5
70
330
2
100
AcDbSymbolTableRecord
100
AcDbLayerTableRecord
  2
외형선
 70
     0
 62
     4
  6
Continuous
370
    30
390
F
  0
LAYER
  5
71
330
2
100
AcDbSymbolTableRecord
100
AcDbLayerTableRecord
  2
숨은선
 70
     0
 62
     2
  6
HIDDEN
370
    15
390
F
  0
LAYER
  5
72
330
2
100
AcDbSymbolTableRecord
100
AcDbLayerTableRecord
  2
중심선
 70
     0
 62
     1
  6
CENTERX2
370
    -3
390
F
  0
LAYER
  5
73
330
2
100
AcDbSymbolTableRecord
100
AcDbLayerTableRecord
  2
파단선
 70
     0
 62
     4
  6
Continuous
370
    -3
390
F
  0
LAYER
  5
74
330
2
100
AcDbSymbolTableRecord
100
AcDbLayerTableRecord
  2
해칭선
 70
     0
 62
   100
  6
Continuous
370
    -3
390
F
  0
LAYER
  5
75
330
2
100
AcDbSymbolTableRecord
100
AcDbLayerTableRecord
  2
가는실선
 70
     0
 62
     4
  6
Continuous
370
    -3
390
F
  0
LAYER
  5
76
330
2
100
AcDbSymbolTableRecord
100
AcDbLayerTableRecord
  2
치수_보조선
 70
     0
 62
     4
  6
Continuous
370
    -3
390
F
  0
LAYER
  5
77
330
2
100
AcDbSymbolTableRecord
100
AcDbLayerTableRecord
  2
치수문자_일반주서
 70
     0
 62
     7
  6
Continuous
370
    15
390
F
  0
LAYER
  5
78
330
2
100
AcDbSymbolTableRecord
100
AcDbLayerTableRecord
  2
개별주서
 70
     0
 62
   100
  6
Continuous
370
    30
390
F
  0
LAYER
  5
79
330
2
100
AcDbSymbolTableRecord
100
AcDbLayerTableRecord
  2
중간선
 70
     0
 62
     2
  6
Continuous
370
    15
390
F
  0
LAYER
  5
7A
330
2
100
AcDbSymbolTableRecord
100
AcDbLayerTableRecord
  2
윤곽선
 70
     0
 62
     3
  6
Continuous
370
    40
390
F
  0
LAYER
  5
7B
330
2
100
AcDbSymbolTableRecord
100
AcDbLayerTableRecord
  2
중심마크
 70
     0
 62
   100
  6
Continuous
370
    30
390
F
  0
LAYER
  5
7C
330
2
100
AcDbSymbolTableRecord
100
AcDbLayerTableRecord
  2
가상선
 70
     0
 62
     4
  6
PHANTOM
370
    -3
390
F
  0
LAYER
  5
7D
330
2
100
AcDbSymbolTableRecord
100
AcDbLayerTableRecord
  2
특수지정선
 70
     0
 62
     5
  6
CENTERX2
370
    60
390
F
  0
LAYER
  5
7E
330
2
100
AcDbSymbolTableRecord
100
AcDbLayerTableRecord
  2
참조1
 70
     0
 62
    -4
  6
Continuous
370
    -3
390
F
  0
LAYER
  5
13D
330
2
100
AcDbSymbolTableRecord
100
AcDbLayerTableRecord
  2
Defpoints
 70
     0
 62
     7
  6
Continuous
290
     0
370
    -3
390
F
  0
ENDTAB
  0
TABLE
  2
STYLE
  5
3
330
0
100
AcDbSymbolTable
 70
     2
  0
STYLE
  5
11
330
3
100
AcDbSymbolTableRecord
100
AcDbTextStyleTableRecord
  2
Standard
 70
     0
 40
0.0
 41
1.0
 50
0.0
 71
     0
 42
3.5
  3
txt
  4

  0
STYLE
  5
94
330
3
100
AcDbSymbolTableRecord
100
AcDbTextStyleTableRecord
  2
SLDTEXTSTYLE0
 70
     0
 40
0.0
 41
0.75
 50
0.0
 71
     0
 42
3.5
  3
TXT
  4

  0
ENDTAB
  0
TABLE
  2
VIEW
  5
6
330
0
100
AcDbSymbolTable
 70
     0
  0
ENDTAB
  0
TABLE
  2
UCS
  5
7
330
0
100
AcDbSymbolTable
 70
     0
  0
ENDTAB
  0
TABLE
  2
APPID
  5
9
330
0
100
AcDbSymbolTable
 70
     1
  0
APPID
  5
12
330
9
100
AcDbSymbolTableRecord
100
AcDbRegAppTableRecord
  2
ACAD
 70
     0
  0
ENDTAB
  0
TABLE
  2
DIMSTYLE
  5
A
330
0
100
AcDbSymbolTable
 70
     4
100
AcDbDimStyleTable
  0
DIMSTYLE
105
27
330
A
100
AcDbSymbolTableRecord
100
AcDbDimStyleTableRecord
  2
ISO-25
 70
     0
 41
2.5
 42
0.625
 43
3.75
 44
1.25
 73
     0
 74
     0
 77
     1
 78
     8
140
2.5
141
2.5
143
0.03937007874016
147
0.625
171
     3
172
     1
178
     0
271
     2
272
     2
274
     3
278
    44
283
     0
284
     8
340
11
  0
DIMSTYLE
105
BA
330
A
100
AcDbSymbolTableRecord
100
AcDbDimStyleTableRecord
  2
SLDDIMSTYLE0
 70
     0
 41
3.302
 44
0.0
 45
0.000000001
 73
     0
 74
     0
 77
     1
 78
    12
 79
     3
140
3.5
143
0.0393700787401575
147
0.875
148
0.000000001
170
     1
173
     1
178
     0
271
     2
272
     2
276
     2
284
    12
340
94
  0
DIMSTYLE
105
CE
102
{ACAD_REACTORS
330
176
330
186
330
193
330
1A0
330
1D9
330
1DA
330
1DB
330
1DC
102
}
330
A
100
AcDbSymbolTableRecord
100
AcDbDimStyleTableRecord
  2
SLDDIMSTYLE1
 70
     0
 41
3.302
 44
0.0
 45
0.000000001
 73
     0
 74
     0
 77
     1
 78
     4
 79
     1
140
3.5
143
0.0393700787401575
147
0.875
148
0.000000001
170
     1
172
     1
173
     1
178
     0
271
     2
272
     2
276
     2
284
    12
289
     0
340
94
  0
DIMSTYLE
105
F7
330
A
100
AcDbSymbolTableRecord
100
AcDbDimStyleTableRecord
  2
SLDDIMSTYLE2
 70
     0
 41
3.302
 44
0.0
 45
0.000000001
 73
     0
 74
     0
 77
     1
 78
    12
 79
     3
140
3.5
143
0.0393700787401575
147
0.875
148
0.000000001
170
     1
172
     1
173
     1
178
     0
271
     2
272
     2
276
     2
284
    12
289
     0
340
94
  0
ENDTAB
  0
TABLE
  2
BLOCK_RECORD
  5
1
330
0
100
AcDbSymbolTable
 70
    17
  0
BLOCK_RECORD
  5
1F
330
1
100
AcDbSymbolTableRecord
100
AcDbBlockTableRecord
  2
*Model_Space
340
22
  0
BLOCK_RECORD
  5
1B
330
1
100
AcDbSymbolTableRecord
100
AcDbBlockTableRecord
  2
*Paper_Space
340
1E
  0
BLOCK_RECORD
  5
23
330
1
100
AcDbSymbolTableRecord
100
AcDbBlockTableRecord
  2
*Paper_Space0
340
26
  0
BLOCK_RECORD
  5
7F
330
1
100
AcDbSymbolTableRecord
100
AcDbBlockTableRecord
  2
블럭10
340
0
102
{BLKREFS
331
B2
102
}
  0
BLOCK_RECORD
  5
BB
330
1
100
AcDbSymbolTableRecord
100
AcDbBlockTableRecord
  2
_D
340
0
  0
BLOCK_RECORD
  5
CF
330
1
100
AcDbSymbolTableRecord
100
AcDbBlockTableRecord
  2
_D_1
340
0
  0
BLOCK_RECORD
  5
E4
330
1
100
AcDbSymbolTableRecord
100
AcDbBlockTableRecord
  2
_D_2
340
0
  0
BLOCK_RECORD
  5
F8
330
1
100
AcDbSymbolTableRecord
100
AcDbBlockTableRecord
  2
_D_3
340
0
  0
BLOCK_RECORD
  5
112
330
1
100
AcDbSymbolTableRecord
100
AcDbBlockTableRecord
  2
SW_DOWELSYMBOL_0
340
0
102
{BLKREFS
331
0
331
1B0
331
1DD
102
}
  0
BLOCK_RECORD
  5
177
330
1
100
AcDbSymbolTableRecord
100
AcDbBlockTableRecord
  2
*D8
340
0
  0
BLOCK_RECORD
  5
187
330
1
100
AcDbSymbolTableRecord
100
AcDbBlockTableRecord
  2
*D9
340
0
  0
BLOCK_RECORD
  5
194
330
1
100
AcDbSymbolTableRecord
100
AcDbBlockTableRecord
  2
*D10
340
0
  0
BLOCK_RECORD
  5
1A1
330
1
100
AcDbSymbolTableRecord
100
AcDbBlockTableRecord
  2
*D11
340
0
  0
BLOCK_RECORD
  5
1EC
330
1
100
AcDbSymbolTableRecord
100
AcDbBlockTableRecord
  2
*D12
340
0
  0
BLOCK_RECORD
  5
1FB
330
1
100
AcDbSymbolTableRecord
100
AcDbBlockTableRecord
  2
*D13
340
0
  0
BLOCK_RECORD
  5
207
330
1
100
AcDbSymbolTableRecord
100
AcDbBlockTableRecord
  2
*D14
340
0
  0
BLOCK_RECORD
  5
213
330
1
100
AcDbSymbolTableRecord
100
AcDbBlockTableRecord
  2
*D15
340
0
  0
ENDTAB
  0
ENDSEC
  0
SECTION
  2
BLOCKS
  0
BLOCK
  5
20
330
1F
100
AcDbEntity
  8
0
100
AcDbBlockBegin
  2
*Model_Space
 70
     0
 10
0.0
 20
0.0
 30
0.0
  3
*Model_Space
  1
*Model_Space
  0
ENDBLK
  5
21
330
1F
100
AcDbEntity
  8
0
100
AcDbBlockEnd
  0
BLOCK
  5
1C
330
1B
100
AcDbEntity
 67
     1
  8
0
100
AcDbBlockBegin
  2
*Paper_Space
 70
     0
 10
0.0
 20
0.0
 30
0.0
  3
*Paper_Space
  1
*Paper_Space
  0
ENDBLK
  5
1D
330
1B
100
AcDbEntity
 67
     1
  8
0
100
AcDbBlockEnd
  0
BLOCK
  5
24
330
23
100
AcDbEntity
  8
0
100
AcDbBlockBegin
  2
*Paper_Space0
 70
     0
 10
0.0
 20
0.0
 30
0.0
  3
*Paper_Space0
  1
*Paper_Space0
  0
ENDBLK
  5
25
330
23
100
AcDbEntity
  8
0
100
AcDbBlockEnd
  0
BLOCK
  5
80
330
7F
100
AcDbEntity
  8
0
100
AcDbBlockBegin
  2
블럭10
 70
     2
 10
0.0
 20
0.0
 30
0.0
  3
블럭10
  1
블럭10
  0
ELLIPSE
  5
82
330
7F
100
AcDbEntity
  8
중심선
100
AcDbEllipse
 10
20.54032771741204
 20
12.0471743016438
 30
0.0
 11
6.600054785286829
 21
-1.261213355974178E-13
 31
0.0
210
0.0
220
0.0
230
1.0
 40
0.636358354079598
 41
0.9219305317359503
 42
6.513795318482858
  0
ELLIPSE
  5
83
330
7F
100
AcDbEntity
  8
중심선
100
AcDbEllipse
 10
20.54032771746488
 20
12.04717430159265
 30
0.0
 11
3.960054785062283
 21
1.540847449632565E-10
 31
0.0
210
0.0
220
0.0
230
1.0
 40
0.3939339440162632
 41
1.131841032648279
 42
5.62031148352944
  0
LINE
  5
84
330
7F
100
AcDbEntity
  8
중심선
100
AcDbLine
 10
2.268634060543552
 20
16.24717430164393
 30
0.0
 11
5.714909304380834
 21
16.24717430164393
 31
0.0
  0
LINE
  5
85
330
7F
100
AcDbEntity
  8
중심선
100
AcDbLine
 10
5.245725140726316
 20
7.84717430164391
 30
0.0
 11
8.692000384563599
 21
7.84717430164391
 31
0.0
  0
LINE
  5
86
330
7F
100
AcDbEntity
  8
중심선
100
AcDbLine
 10
15.74043728645272
 20
16.24717430164393
 30
0.0
 11
8.692000384563599
 21
7.84717430164391
 31
0.0
  0
LINE
  5
87
330
7F
100
AcDbEntity
  8
중심선
100
AcDbLine
 10
0.1404042013395286
 20
13.71084872107135
 30
0.0
 11
3.58671253028996
 21
13.71088815037384
 31
0.0
  0
LINE
  5
88
330
7F
100
AcDbEntity
  8
중심선
100
AcDbLine
 10
2.750260043222114
 20
10.84717430164391
 30
0.0
 11
6.196535287059397
 21
10.84717430164391
 31
0.0
  0
LINE
  5
89
330
7F
100
AcDbEntity
  8
중심선
100
AcDbLine
 10
12.29416204261559
 20
16.24717430164393
 30
0.0
 11
5.245725140726316
 21
7.84717430164391
 31
0.0
  0
LINE
  5
8A
330
7F
100
AcDbEntity
  8
중심선
100
AcDbLine
 10
10.72767329541681
 20
16.24717430164393
 30
0.0
 11
6.196535287059397
 21
10.84717430164391
 31
0.0
  0
LINE
  5
8B
330
7F
100
AcDbEntity
  8
중심선
100
AcDbLine
 10
7.28139805157953
 20
16.24717430164393
 30
0.0
 11
2.750260043222114
 21
10.84717430164391
 31
0.0
  0
LINE
  5
8C
330
7F
100
AcDbEntity
  8
중심선
100
AcDbLine
 10
5.714909304380834
 20
16.24717430164393
 30
0.0
 11
3.58671253028996
 21
13.71088815037384
 31
0.0
  0
LINE
  5
8D
330
7F
100
AcDbEntity
  8
중심선
100
AcDbLine
 10
2.268634060543552
 20
16.24717430164393
 30
0.0
 11
0.1404042013395286
 21
13.71084872107135
 31
0.0
  0
LINE
  5
8E
330
7F
100
AcDbEntity
  8
중심선
100
AcDbLine
 10
7.28139805157953
 20
16.24717430164393
 30
0.0
 11
10.72767329541681
 21
16.24717430164393
 31
0.0
  0
LINE
  5
8F
330
7F
100
AcDbEntity
  8
중심선
100
AcDbLine
 10
12.29416204261559
 20
16.24717430164393
 30
0.0
 11
15.74043728645272
 21
16.24717430164393
 31
0.0
  0
LINE
  5
90
330
7F
100
AcDbEntity
  8
중심선
100
AcDbLine
 10
19.22036997980202
 20
11.08717430171403
 30
0.0
 11
23.66174974927406
 21
11.08717430171406
 31
0.0
  0
LINE
  5
91
330
7F
100
AcDbEntity
  8
중심선
100
AcDbLine
 10
19.22039502424796
 20
13.00717430171391
 30
0.0
 11
19.22036997980202
 21
11.08717430171403
 31
0.0
  0
LINE
  5
92
330
7F
100
AcDbEntity
  8
중심선
100
AcDbLine
 10
19.22039502424796
 20
13.00717430171391
 30
0.0
 11
26.96566020931264
 21
13.00717430171391
 31
0.0
  0
LINE
  5
93
330
7F
100
AcDbEntity
  8
중심선
100
AcDbLine
 10
22.22332737316547
 20
13.45928029700563
 30
0.0
 11
24.52862924686651
 21
15.39360700705356
 31
0.0
  0
ATTDEF
  5
95
330
7F
100
AcDbEntity
  8
FORMAT
 62
     2
100
AcDbText
 10
4.408487351596664
 20
2.075366912832191
 30
0.0
 40
4.233333333333333
  1
E2031050
 41
0.75
  7
SLDTEXTSTYLE0
 11
4.408487351596664
 21
-0.0412997538344756
 31
0.0
100
AcDbAttributeDefinition
  3

  2
AUTOATTR0
 70
     0
 74
     1
  0
ENDBLK
  5
81
330
7F
100
AcDbEntity
  8
0
100
AcDbBlockEnd
  0
BLOCK
  5
BC
330
BB
100
AcDbEntity
  8
0
100
AcDbBlockBegin
  2
_D
 70
     0
 10
0.0
 20
0.0
 30
0.0
  3
_D
  1
_D
  0
SOLID
  5
BE
330
BB
100
AcDbEntity
  8
치수문자_일반주서
100
AcDbTrace
 10
-1.841524023601865
 20
5.218258589704702
 30
0.0
 11
-2.349524023601865
 21
1.916258589704702
 31
0.0
 12
-1.333524023601865
 22
1.916258589704702
 32
0.0
 13
-1.333524023601865
 23
1.916258589704702
 33
0.0
  0
SOLID
  5
BF
330
BB
100
AcDbEntity
  8
치수문자_일반주서
100
AcDbTrace
 10
-1.841524023601868
 20
-5.100491410295307
 30
0.0
 11
-1.333524023601868
 21
-1.798491410295307
 31
0.0
 12
-2.349524023601868
 22
-1.798491410295307
 32
0.0
 13
-2.349524023601868
 23
-1.798491410295307
 33
0.0
  0
LINE
  5
C0
330
BB
100
AcDbEntity
  8
치수문자_일반주서
100
AcDbLine
 10
-12.63440573964458
 20
10.23472747827022
 30
0.0
 11
-12.63440573964457
 21
9.52378999270572
 31
0.0
  0
LINE
  5
C1
330
BB
100
AcDbEntity
  8
치수문자_일반주서
100
AcDbLine
 10
-12.63440573964457
 20
9.52378999270572
 30
0.0
 11
-7.078155748585271
 21
9.523789992705758
 31
0.0
  0
LINE
  5
C2
330
BB
100
AcDbEntity
  8
치수문자_일반주서
100
AcDbLine
 10
-7.078155748585271
 20
9.523789992705758
 30
0.0
 11
-7.078155748585276
 21
10.23472747827026
 31
0.0
  0
LINE
  5
C3
330
BB
100
AcDbEntity
  8
치수문자_일반주서
100
AcDbLine
 10
-12.63440573964466
 20
21.06346034040748
 30
0.0
 11
-12.63440573964466
 21
21.77439782597198
 31
0.0
  0
LINE
  5
C4
330
BB
100
AcDbEntity
  8
치수문자_일반주서
100
AcDbLine
 10
-12.63440573964466
 20
21.77439782597198
 30
0.0
 11
-7.078155748585358
 21
21.77439782597202
 31
0.0
  0
LINE
  5
C5
330
BB
100
AcDbEntity
  8
치수문자_일반주서
100
AcDbLine
 10
-7.078155748585358
 20
21.77439782597202
 30
0.0
 11
-7.078155748585353
 21
21.06346034040752
 31
0.0
  0
LINE
  5
C6
330
BB
100
AcDbEntity
  8
치수문자_일반주서
100
AcDbLine
 10
3.481157664253888
 20
5.218258589704702
 30
0.0
 11
-2.841524023601865
 21
5.218258589704702
 31
0.0
  0
LINE
  5
C7
330
BB
100
AcDbEntity
  8
치수문자_일반주서
100
AcDbLine
 10
3.481157664253888
 20
-5.100491410295314
 30
0.0
 11
-2.841524023601868
 21
-5.100491410295307
 31
0.0
  0
LINE
  5
C8
330
BB
100
AcDbEntity
  8
치수문자_일반주서
100
AcDbLine
 10
-1.841524023601865
 20
5.218258589704702
 30
0.0
 11
-1.84152402360186
 21
24.10706285215994
 31
0.0
  0
LINE
  5
C9
330
BB
100
AcDbEntity
  8
치수문자_일반주서
100
AcDbLine
 10
-1.841524023601865
 20
5.218258589704702
 30
0.0
 11
-1.841524023601868
 21
-5.100491410295307
 31
0.0
  0
MTEXT
  5
CA
330
BB
100
AcDbEntity
  8
치수문자_일반주서
100
AcDbMText
 10
-11.58989266316418
 20
11.1233993788816
 30
0.0
 40
3.5
 41
0.0
 71
     1
 72
     1
  1
0.41
  7
SLDTEXTSTYLE0
 11
-7.044195017643634E-15
 21
1.0
 31
0.0
 73
     1
 44
1.0
  0
MTEXT
  5
CB
330
BB
100
AcDbEntity
  8
치수문자_일반주서
100
AcDbMText
 10
-6.353261112803678
 20
7.191124966517865
 30
0.0
 40
3.5
 41
0.0
 71
     1
 72
     1
  1
%%c
  7
SLDTEXTSTYLE0
 11
-7.044195017643634E-15
 21
1.0
 31
0.0
 73
     1
 44
1.0
  0
MTEXT
  5
CC
330
BB
100
AcDbEntity
  8
치수문자_일반주서
100
AcDbMText
 10
-6.353261112803716
 20
12.46956236489195
 30
0.0
 40
3.5
 41
0.0
 71
     1
 72
     1
  1
10.32
  7
SLDTEXTSTYLE0
 11
-7.044195017643634E-15
 21
1.0
 31
0.0
 73
     1
 44
1.0
  0
ENDBLK
  5
BD
330
BB
100
AcDbEntity
  8
0
100
AcDbBlockEnd
  0
BLOCK
  5
D0
330
CF
100
AcDbEntity
  8
0
100
AcDbBlockBegin
  2
_D_1
 70
     0
 10
0.0
 20
0.0
 30
0.0
  3
_D_1
  1
_D_1
  0
SOLID
  5
D2
330
CF
100
AcDbEntity
  8
치수문자_일반주서
100
AcDbTrace
 10
29.88115766425387
 20
15.04947043550686
 30
0.0
 11
33.18315766425387
 21
14.54147043550687
 31
0.0
 12
33.18315766425387
 22
15.55747043550687
 32
0.0
 13
33.18315766425387
 23
15.55747043550687
 33
0.0
  0
SOLID
  5
D3
330
CF
100
AcDbEntity
  8
치수문자_일반주서
100
AcDbTrace
 10
4.481157664253845
 20
15.04947043550681
 30
0.0
 11
1.179157664253845
 21
15.5574704355068
 31
0.0
 12
1.179157664253847
 22
14.5414704355068
 32
0.0
 13
1.179157664253847
 23
14.5414704355068
 33
0.0
  0
LINE
  5
D4
330
CF
100
AcDbEntity
  8
치수문자_일반주서
100
AcDbLine
 10
11.76679158243119
 20
25.84235215154961
 30
0.0
 11
11.05585409686669
 21
25.8423521515496
 31
0.0
  0
LINE
  5
D5
330
CF
100
AcDbEntity
  8
치수문자_일반주서
100
AcDbLine
 10
11.05585409686669
 20
25.8423521515496
 30
0.0
 11
11.05585409686674
 21
20.2861021604903
 31
0.0
  0
LINE
  5
D6
330
CF
100
AcDbEntity
  8
치수문자_일반주서
100
AcDbLine
 10
11.05585409686674
 20
20.2861021604903
 30
0.0
 11
11.76679158243124
 21
20.28610216049031
 31
0.0
  0
LINE
  5
D7
330
CF
100
AcDbEntity
  8
치수문자_일반주서
100
AcDbLine
 10
22.59552444456845
 20
25.8423521515497
 30
0.0
 11
23.30646193013295
 21
25.84235215154971
 31
0.0
  0
LINE
  5
D8
330
CF
100
AcDbEntity
  8
치수문자_일반주서
100
AcDbLine
 10
23.30646193013295
 20
25.84235215154971
 30
0.0
 11
23.306461930133
 21
20.28610216049041
 31
0.0
  0
LINE
  5
D9
330
CF
100
AcDbEntity
  8
치수문자_일반주서
100
AcDbLine
 10
23.306461930133
 20
20.28610216049041
 30
0.0
 11
22.5955244445685
 21
20.2861021604904
 31
0.0
  0
LINE
  5
DA
330
CF
100
AcDbEntity
  8
치수문자_일반주서
100
AcDbLine
 10
29.88115766425388
 20
6.001577696114738
 30
0.0
 11
29.88115766425386
 21
16.04947043550686
 31
0.0
  0
LINE
  5
DB
330
CF
100
AcDbEntity
  8
치수문자_일반주서
100
AcDbLine
 10
4.481157664253865
 20
5.995193093878775
 30
0.0
 11
4.481157664253844
 21
16.04947043550681
 31
0.0
  0
LINE
  5
DC
330
CF
100
AcDbEntity
  8
치수문자_일반주서
100
AcDbLine
 10
29.88115766425387
 20
15.04947043550686
 30
0.0
 11
36.23115766425386
 21
15.04947043550688
 31
0.0
  0
LINE
  5
DD
330
CF
100
AcDbEntity
  8
치수문자_일반주서
100
AcDbLine
 10
29.88115766425387
 20
15.04947043550686
 30
0.0
 11
4.481157664253845
 21
15.04947043550681
 31
0.0
  0
LINE
  5
DE
330
CF
100
AcDbEntity
  8
치수문자_일반주서
100
AcDbLine
 10
4.481157664253845
 20
15.04947043550681
 30
0.0
 11
-1.868842335746155
 21
15.04947043550679
 31
0.0
  0
MTEXT
  5
DF
330
CF
100
AcDbEntity
  8
치수문자_일반주서
100
AcDbMText
 10
10.54209537138005
 20
19.61467970136857
 30
0.0
 40
3.5
 41
0.0
 71
     1
 72
     1
  1

  7
SLDTEXTSTYLE0
 73
     1
 44
1.0
  0
MTEXT
  5
E0
330
CF
100
AcDbEntity
  8
치수문자_일반주서
100
AcDbMText
 10
12.65546348304257
 20
24.79783907506921
 30
0.0
 40
3.5
 41
0.0
 71
     1
 72
     1
  1
1.00
  7
SLDTEXTSTYLE0
 73
     1
 44
1.0
  0
MTEXT
  5
E1
330
CF
100
AcDbEntity
  8
치수문자_일반주서
100
AcDbMText
 10
11.36240776986589
 20
19.56120752470873
 30
0.0
 40
3.5
 41
0.0
 71
     1
 72
     1
  1
25.40
  7
SLDTEXTSTYLE0
 73
     1
 44
1.0
  0
MTEXT
  5
E2
330
CF
100
AcDbEntity
  8
치수문자_일반주서
100
AcDbMText
 10
25.15216517527362
 20
19.6146797013687
 30
0.0
 40
3.5
 41
0.0
 71
     1
 72
     1
  1

  7
SLDTEXTSTYLE0
 73
     1
 44
1.0
  0
ENDBLK
  5
D1
330
CF
100
AcDbEntity
  8
0
100
AcDbBlockEnd
  0
BLOCK
  5
E5
330
E4
100
AcDbEntity
  8
0
100
AcDbBlockBegin
  2
_D_2
 70
     0
 10
0.0
 20
0.0
 30
0.0
  3
_D_2
  1
_D_2
  0
SOLID
  5
E7
330
E4
100
AcDbEntity
  8
치수문자_일반주서
100
AcDbTrace
 10
29.88115766425389
 20
27.04947043550681
 30
0.0
 11
26.57915766425389
 21
27.5574704355068
 31
0.0
 12
26.57915766425389
 22
26.54147043550681
 32
0.0
 13
26.57915766425389
 23
26.54147043550681
 33
0.0
  0
SOLID
  5
E8
330
E4
100
AcDbEntity
  8
치수문자_일반주서
100
AcDbTrace
 10
-38.38134233574612
 20
27.0494704355068
 30
0.0
 11
-35.07934233574612
 21
26.5414704355068
 31
0.0
 12
-35.07934233574612
 22
27.5574704355068
 32
0.0
 13
-35.07934233574612
 23
27.5574704355068
 33
0.0
  0
LINE
  5
E9
330
E4
100
AcDbEntity
  8
치수문자_일반주서
100
AcDbLine
 10
-8.732315079352109
 20
37.84235215154953
 30
0.0
 11
-9.443252564916609
 21
37.84235215154954
 31
0.0
  0
LINE
  5
EA
330
E4
100
AcDbEntity
  8
치수문자_일반주서
100
AcDbLine
 10
-9.443252564916609
 20
37.84235215154954
 30
0.0
 11
-9.44325256491665
 21
32.28610216049024
 31
0.0
  0
LINE
  5
EB
330
E4
100
AcDbEntity
  8
치수문자_일반주서
100
AcDbLine
 10
-9.44325256491665
 20
32.28610216049024
 30
0.0
 11
-8.73231507935215
 21
32.28610216049023
 31
0.0
  0
LINE
  5
EC
330
E4
100
AcDbEntity
  8
치수문자_일반주서
100
AcDbLine
 10
2.096417782785149
 20
37.84235215154946
 30
0.0
 11
2.807355268349649
 21
37.84235215154945
 31
0.0
  0
LINE
  5
ED
330
E4
100
AcDbEntity
  8
치수문자_일반주서
100
AcDbLine
 10
2.807355268349649
 20
37.84235215154945
 30
0.0
 11
2.807355268349609
 21
32.28610216049015
 31
0.0
  0
LINE
  5
EE
330
E4
100
AcDbEntity
  8
치수문자_일반주서
100
AcDbLine
 10
2.807355268349609
 20
32.28610216049015
 30
0.0
 11
2.096417782785109
 21
32.28610216049015
 31
0.0
  0
LINE
  5
EF
330
E4
100
AcDbEntity
  8
치수문자_일반주서
100
AcDbLine
 10
29.88115766425389
 20
6.001577696114738
 30
0.0
 11
29.88115766425389
 21
28.04947043550681
 31
0.0
  0
LINE
  5
F0
330
E4
100
AcDbEntity
  8
치수문자_일반주서
100
AcDbLine
 10
-38.38134233574612
 20
4.8688835897047
 30
0.0
 11
-38.38134233574612
 21
28.04947043550681
 31
0.0
  0
LINE
  5
F1
330
E4
100
AcDbEntity
  8
치수문자_일반주서
100
AcDbLine
 10
29.88115766425389
 20
27.04947043550681
 30
0.0
 11
-38.38134233574612
 21
27.0494704355068
 31
0.0
  0
MTEXT
  5
F2
330
E4
100
AcDbEntity
  8
치수문자_일반주서
100
AcDbMText
 10
-9.95701129040335
 20
31.61467970136853
 30
0.0
 40
3.5
 41
0.0
 71
     1
 72
     1
  1

  7
SLDTEXTSTYLE0
 73
     1
 44
1.0
  0
MTEXT
  5
F3
330
E4
100
AcDbEntity
  8
치수문자_일반주서
100
AcDbMText
 10
-7.843643178740747
 20
36.79783907506912
 30
0.0
 40
3.5
 41
0.0
 71
     1
 72
     1
  1
2.69
  7
SLDTEXTSTYLE0
 73
     1
 44
1.0
  0
MTEXT
  5
F4
330
E4
100
AcDbEntity
  8
치수문자_일반주서
100
AcDbMText
 10
-9.136698891917511
 20
31.56120752470866
 30
0.0
 40
3.5
 41
0.0
 71
     1
 72
     1
  1
68.26
  7
SLDTEXTSTYLE0
 73
     1
 44
1.0
  0
MTEXT
  5
F5
330
E4
100
AcDbEntity
  8
치수문자_일반주서
100
AcDbMText
 10
4.653058513490217
 20
31.61467970136842
 30
0.0
 40
3.5
 41
0.0
 71
     1
 72
     1
  1

  7
SLDTEXTSTYLE0
 73
     1
 44
1.0
  0
ENDBLK
  5
E6
330
E4
100
AcDbEntity
  8
0
100
AcDbBlockEnd
  0
BLOCK
  5
F9
330
F8
100
AcDbEntity
  8
0
100
AcDbBlockBegin
  2
_D_3
 70
     0
 10
0.0
 20
0.0
 30
0.0
  3
_D_3
  1
_D_3
  0
SOLID
  5
FB
330
F8
100
AcDbEntity
  8
치수문자_일반주서
100
AcDbTrace
 10
-51.38134233574612
 20
4.821383589704696
 30
0.0
 11
-50.87334233574612
 21
8.123383589704694
 31
0.0
 12
-51.88934233574612
 22
8.123383589704694
 32
0.0
 13
-51.88934233574612
 23
8.123383589704694
 33
0.0
  0
SOLID
  5
FC
330
F8
100
AcDbEntity
  8
치수문자_일반주서
100
AcDbTrace
 10
-51.38134233574612
 20
-4.70361641029531
 30
0.0
 11
-51.88934233574612
 21
-8.00561641029531
 31
0.0
 12
-50.87334233574612
 22
-8.00561641029531
 32
0.0
 13
-50.87334233574612
 23
-8.00561641029531
 33
0.0
  0
LINE
  5
FD
330
F8
100
AcDbEntity
  8
치수문자_일반주서
100
AcDbLine
 10
-62.17422405178885
 20
-5.35548284136401
 30
0.0
 11
-62.17422405178885
 21
-6.06642032692851
 31
0.0
  0
LINE
  5
FE
330
F8
100
AcDbEntity
  8
치수문자_일반주서
100
AcDbLine
 10
-62.17422405178885
 20
-6.06642032692851
 30
0.0
 11
-56.61797406072954
 21
-6.066420326928471
 31
0.0
  0
LINE
  5
FF
330
F8
100
AcDbEntity
  8
치수문자_일반주서
100
AcDbLine
 10
-56.61797406072954
 20
-6.066420326928471
 30
0.0
 11
-56.61797406072955
 21
-5.355482841363971
 31
0.0
  0
LINE
  5
100
330
F8
100
AcDbEntity
  8
치수문자_일반주서
100
AcDbLine
 10
-62.17422405178892
 20
5.473250020773248
 30
0.0
 11
-62.17422405178893
 21
6.184187506337748
 31
0.0
  0
LINE
  5
101
330
F8
100
AcDbEntity
  8
치수문자_일반주서
100
AcDbLine
 10
-62.17422405178893
 20
6.184187506337748
 30
0.0
 11
-56.61797406072962
 21
6.184187506337787
 31
0.0
  0
LINE
  5
102
330
F8
100
AcDbEntity
  8
치수문자_일반주서
100
AcDbLine
 10
-56.61797406072962
 20
6.184187506337787
 30
0.0
 11
-56.61797406072962
 21
5.473250020773287
 31
0.0
  0
LINE
  5
103
330
F8
100
AcDbEntity
  8
치수문자_일반주서
100
AcDbLine
 10
-38.42884233574613
 20
4.821383589704697
 30
0.0
 11
-52.38134233574613
 21
4.821383589704696
 31
0.0
  0
LINE
  5
104
330
F8
100
AcDbEntity
  8
치수문자_일반주서
100
AcDbLine
 10
-38.42884233574613
 20
-4.703616410295309
 30
0.0
 11
-52.38134233574613
 21
-4.70361641029531
 31
0.0
  0
LINE
  5
105
330
F8
100
AcDbEntity
  8
치수문자_일반주서
100
AcDbLine
 10
-51.38134233574612
 20
4.821383589704696
 30
0.0
 11
-51.38134233574612
 21
11.17138358970469
 31
0.0
  0
LINE
  5
106
330
F8
100
AcDbEntity
  8
치수문자_일반주서
100
AcDbLine
 10
-51.38134233574612
 20
4.821383589704696
 30
0.0
 11
-51.38134233574612
 21
-4.70361641029531
 31
0.0
  0
LINE
  5
107
330
F8
100
AcDbEntity
  8
치수문자_일반주서
100
AcDbLine
 10
-51.38134233574612
 20
-4.70361641029531
 30
0.0
 11
-51.38134233574612
 21
-11.05361641029531
 31
0.0
  0
MTEXT
  5
108
330
F8
100
AcDbEntity
  8
치수문자_일반주서
100
AcDbMText
 10
-61.12971097530844
 20
-4.466810940752632
 30
0.0
 40
3.5
 41
0.0
 71
     1
 72
     1
  1
0.38
  7
SLDTEXTSTYLE0
 11
-7.044195017643634E-15
 21
1.0
 31
0.0
 73
     1
 44
1.0
  0
MTEXT
  5
109
330
F8
100
AcDbEntity
  8
치수문자_일반주서
100
AcDbMText
 10
-55.89307942494795
 20
-7.106030105600923
 30
0.0
 40
3.5
 41
0.0
 71
     1
 72
     1
  1
%%c
  7
SLDTEXTSTYLE0
 11
-7.044195017643634E-15
 21
1.0
 31
0.0
 73
     1
 44
1.0
  0
MTEXT
  5
10A
330
F8
100
AcDbEntity
  8
치수문자_일반주서
100
AcDbMText
 10
-55.89307942494798
 20
-1.827592707226842
 30
0.0
 40
3.5
 41
0.0
 71
     1
 72
     1
  1
9.53
  7
SLDTEXTSTYLE0
 11
-7.044195017643634E-15
 21
1.0
 31
0.0
 73
     1
 44
1.0
  0
ENDBLK
  5
FA
330
F8
100
AcDbEntity
  8
0
100
AcDbBlockEnd
  0
BLOCK
  5
113
330
112
100
AcDbEntity
  8
0
100
AcDbBlockBegin
  2
SW_DOWELSYMBOL_0
 70
     0
 10
0.0
 20
0.0
 30
0.0
  3
SW_DOWELSYMBOL_0
  1
SW_DOWELSYMBOL_0
  0
CIRCLE
  5
115
330
112
100
AcDbEntity
  8
해칭선
 62
     0
100
AcDbCircle
 10
0.0
 20
0.0
 30
0.0
 40
2.999999999999999
  0
HATCH
  5
116
330
112
100
AcDbEntity
  8
0
  6
Continuous
 62
     0
370
     0
100
AcDbHatch
 10
0.0
 20
0.0
 30
0.0
210
0.0
220
0.0
230
1.0
  2
SOLID
 70
     1
 71
     0
 91
        1
 92
        0
 93
        3
 72
     2
 10
0.0
 20
0.0
 40
2.999999999999999
 50
0.0
 51
90.0
 73
     1
 72
     1
 10
0.0
 20
2.999999999999999
 11
0.0
 21
0.0
 72
     1
 10
0.0
 20
0.0
 11
2.999999999999999
 21
0.0
 97
        0
 75
     0
 76
     1
 98
        1
 10
0.0
 20
0.0
  0
HATCH
  5
117
330
112
100
AcDbEntity
  8
0
  6
Continuous
 62
     0
370
     0
100
AcDbHatch
 10
0.0
 20
0.0
 30
0.0
210
0.0
220
0.0
230
1.0
  2
SOLID
 70
     1
 71
     0
 91
        1
 92
        0
 93
        3
 72
     2
 10
0.0
 20
0.0
 40
2.999999999999999
 50
180.0
 51
270.0000000000008
 73
     1
 72
     1
 10
0.0
 20
-2.999999999999999
 11
0.0
 21
0.0
 72
     1
 10
0.0
 20
0.0
 11
-2.999999999999999
 21
0.0
 97
        0
 75
     0
 76
     1
 98
        1
 10
0.0
 20
0.0
  0
ENDBLK
  5
114
330
112
100
AcDbEntity
  8
0
100
AcDbBlockEnd
  0
BLOCK
  5
178
330
177
100
AcDbEntity
  8
0
100
AcDbBlockBegin
  2
*D8
 70
     1
 10
0.0
 20
0.0
 30
0.0
  3
*D8
  1
*D8
  0
LINE
  5
179
330
177
100
AcDbEntity
  8
치수문자_일반주서
 62
     0
370
    -2
100
AcDbLine
 10
122.3557728378272
 20
28.09774999999993
 30
0.0
 11
122.3557728378272
 21
38.71417190648769
 31
0.0
  0
LINE
  5
17A
330
177
100
AcDbEntity
  8
치수문자_일반주서
 62
     0
370
    -2
100
AcDbLine
 10
74.73077283782723
 20
27.80668549245492
 30
0.0
 11
74.73077283782723
 21
38.71417190648769
 31
0.0
  0
LINE
  5
17B
330
177
100
AcDbEntity
  8
치수문자_일반주서
 62
     0
370
    -2
100
AcDbLine
 10
74.73077283782723
 20
38.71417190648769
 30
0.0
 11
37.50177283782723
 21
38.71417190648769
 31
0.0
  0
LINE
  5
17C
330
177
100
AcDbEntity
  8
치수문자_일반주서
 62
     0
370
    -2
100
AcDbLine
 10
122.3557728378272
 20
38.71417190648769
 30
0.0
 11
74.73077283782723
 21
38.71417190648769
 31
0.0
  0
LINE
  5
17D
330
177
100
AcDbEntity
  8
치수문자_일반주서
 62
     0
370
    -2
100
AcDbLine
 10
125.6577728378272
 20
38.71417190648769
 30
0.0
 11
128.9597728378272
 21
38.71417190648769
 31
0.0
  0
LINE
  5
17E
330
177
100
AcDbEntity
  8
치수문자_일반주서
 62
     0
370
    -2
100
AcDbLine
 10
71.42877283782724
 20
38.71417190648769
 30
0.0
 11
68.12677283782725
 21
38.71417190648769
 31
0.0
  0
SOLID
  5
17F
330
177
100
AcDbEntity
  8
치수문자_일반주서
 62
     0
100
AcDbTrace
 10
125.6577728378272
 20
39.26450523982103
 30
0.0
 11
125.6577728378272
 21
38.16383857315436
 31
0.0
 12
122.3557728378272
 22
38.71417190648769
 32
0.0
 13
122.3557728378272
 23
38.71417190648769
 33
0.0
  0
SOLID
  5
180
330
177
100
AcDbEntity
  8
치수문자_일반주서
 62
     0
100
AcDbTrace
 10
71.42877283782724
 20
38.16383857315436
 30
0.0
 11
71.42877283782724
 21
39.26450523982103
 31
0.0
 12
74.73077283782723
 22
38.71417190648769
 32
0.0
 13
74.73077283782723
 23
38.71417190648769
 33
0.0
  0
MTEXT
  5
181
330
177
100
AcDbEntity
  8
치수문자_일반주서
 62
     0
100
AcDbMText
 10
52.81427283782723
 20
43.08917190648769
 30
0.0
 40
3.5
 41
0.0
 71
     2
 72
     1
  1
\A1;47.63 [1 7/8]
  7
SLDTEXTSTYLE0
 73
     1
 44
1.0
  0
POINT
  5
182
330
177
100
AcDbEntity
  8
Defpoints
 62
     0
100
AcDbPoint
 10
122.3557728378272
 20
28.03524999999993
 30
0.0
  0
POINT
  5
183
330
177
100
AcDbEntity
  8
Defpoints
 62
     0
100
AcDbPoint
 10
74.73077283782723
 20
27.74418549245492
 30
0.0
  0
POINT
  5
184
330
177
100
AcDbEntity
  8
Defpoints
 62
     0
100
AcDbPoint
 10
74.73077283782723
 20
38.71417190648769
 30
0.0
  0
ENDBLK
  5
185
330
177
100
AcDbEntity
  8
0
100
AcDbBlockEnd
  0
BLOCK
  5
188
330
187
100
AcDbEntity
  8
0
100
AcDbBlockBegin
  2
*D9
 70
     1
 10
0.0
 20
0.0
 30
0.0
  3
*D9
  1
*D9
  0
LINE
  5
189
330
187
100
AcDbEntity
  8
치수문자_일반주서
 62
     0
370
    -2
100
AcDbLine
 10
122.3557728378272
 20
28.09774999999993
 30
0.0
 11
122.3557728378272
 21
56.89642788210998
 31
0.0
  0
LINE
  5
18A
330
187
100
AcDbEntity
  8
치수문자_일반주서
 62
     0
370
    -2
100
AcDbLine
 10
17.58077283782725
 20
22.70024999999992
 30
0.0
 11
17.58077283782725
 21
56.89642788210998
 31
0.0
  0
LINE
  5
18B
330
187
100
AcDbEntity
  8
치수문자_일반주서
 62
     0
370
    -2
100
AcDbLine
 10
119.0537728378272
 20
56.89642788210998
 30
0.0
 11
20.88277283782725
 21
56.89642788210998
 31
0.0
  0
SOLID
  5
18C
330
187
100
AcDbEntity
  8
치수문자_일반주서
 62
     0
100
AcDbTrace
 10
119.0537728378272
 20
56.34609454877665
 30
0.0
 11
119.0537728378272
 21
57.44676121544332
 31
0.0
 12
122.3557728378272
 22
56.89642788210998
 32
0.0
 13
122.3557728378272
 23
56.89642788210998
 33
0.0
  0
SOLID
  5
18D
330
187
100
AcDbEntity
  8
치수문자_일반주서
 62
     0
100
AcDbTrace
 10
20.88277283782725
 20
57.44676121544332
 30
0.0
 11
20.88277283782725
 21
56.34609454877665
 31
0.0
 12
17.58077283782725
 22
56.89642788210998
 32
0.0
 13
17.58077283782725
 23
56.89642788210998
 33
0.0
  0
MTEXT
  5
18E
330
187
100
AcDbEntity
  8
치수문자_일반주서
 62
     0
100
AcDbMText
 10
71.55577283782722
 20
61.27142788210998
 30
0.0
 40
3.5
 41
0.0
 71
     2
 72
     1
  1
\A1;104.78 [4 1/8]
  7
SLDTEXTSTYLE0
 73
     1
 44
1.0
  0
POINT
  5
18F
330
187
100
AcDbEntity
  8
Defpoints
 62
     0
100
AcDbPoint
 10
122.3557728378272
 20
28.03524999999993
 30
0.0
  0
POINT
  5
190
330
187
100
AcDbEntity
  8
Defpoints
 62
     0
100
AcDbPoint
 10
17.58077283782725
 20
22.63774999999992
 30
0.0
  0
POINT
  5
191
330
187
100
AcDbEntity
  8
Defpoints
 62
     0
100
AcDbPoint
 10
17.58077283782725
 20
56.89642788210998
 30
0.0
  0
ENDBLK
  5
192
330
187
100
AcDbEntity
  8
0
100
AcDbBlockEnd
  0
BLOCK
  5
195
330
194
100
AcDbEntity
  8
0
100
AcDbBlockBegin
  2
*D10
 70
     1
 10
0.0
 20
0.0
 30
0.0
  3
*D10
  1
*D10
  0
LINE
  5
196
330
194
100
AcDbEntity
  8
치수문자_일반주서
 62
     0
370
    -2
100
AcDbLine
 10
19.74077283782724
 20
26.44774999999992
 30
0.0
 11
4.37500000000001
 21
26.44774999999986
 31
0.0
  0
LINE
  5
197
330
194
100
AcDbEntity
  8
치수문자_일반주서
 62
     0
370
    -2
100
AcDbLine
 10
19.74077283782724
 20
7.397749999999913
 30
0.0
 11
4.375000000000076
 21
7.397749999999856
 31
0.0
  0
LINE
  5
198
330
194
100
AcDbEntity
  8
치수문자_일반주서
 62
     0
370
    -2
100
AcDbLine
 10
4.375000000000021
 20
23.14574999999986
 30
0.0
 11
4.375000000000065
 21
10.69974999999986
 31
0.0
  0
SOLID
  5
199
330
194
100
AcDbEntity
  8
치수문자_일반주서
 62
     0
100
AcDbTrace
 10
4.925333333333355
 20
23.14574999999986
 30
0.0
 11
3.824666666666688
 21
23.14574999999986
 31
0.0
 12
4.37500000000001
 22
26.44774999999986
 32
0.0
 13
4.37500000000001
 23
26.44774999999986
 33
0.0
  0
SOLID
  5
19A
330
194
100
AcDbEntity
  8
치수문자_일반주서
 62
     0
100
AcDbTrace
 10
3.824666666666732
 20
10.69974999999985
 30
0.0
 11
4.925333333333398
 21
10.69974999999986
 31
0.0
 12
4.375000000000076
 22
7.397749999999856
 32
0.0
 13
4.375000000000076
 23
7.397749999999856
 33
0.0
  0
MTEXT
  5
19B
330
194
100
AcDbEntity
  8
치수문자_일반주서
 62
     0
100
AcDbMText
 10
0.0000000000000426
 20
16.92274999999989
 30
0.0
 40
3.5
 41
0.0
 71
     2
 72
     1
  1
\A1;%%c19.05 [3/4]
  7
SLDTEXTSTYLE0
 11
-3.496765431890256E-15
 21
1.0
 31
0.0
 73
     1
 44
1.0
  0
POINT
  5
19C
330
194
100
AcDbEntity
  8
Defpoints
 62
     0
100
AcDbPoint
 10
19.80327283782724
 20
26.44774999999992
 30
0.0
  0
POINT
  5
19D
330
194
100
AcDbEntity
  8
Defpoints
 62
     0
100
AcDbPoint
 10
19.80327283782724
 20
7.397749999999913
 30
0.0
  0
POINT
  5
19E
330
194
100
AcDbEntity
  8
Defpoints
 62
     0
100
AcDbPoint
 10
4.375000000000078
 20
7.397749999999855
 30
0.0
  0
ENDBLK
  5
19F
330
194
100
AcDbEntity
  8
0
100
AcDbBlockEnd
  0
BLOCK
  5
1A2
330
1A1
100
AcDbEntity
  8
0
100
AcDbBlockBegin
  2
*D11
 70
     1
 10
0.0
 20
0.0
 30
0.0
  3
*D11
  1
*D11
  0
LINE
  5
1A3
330
1A1
100
AcDbEntity
  8
치수문자_일반주서
 62
     0
370
    -2
100
AcDbLine
 10
122.4182728378272
 20
27.24149999999992
 30
0.0
 11
140.9485745312797
 21
27.24149999999999
 31
0.0
  0
LINE
  5
1A4
330
1A1
100
AcDbEntity
  8
치수문자_일반주서
 62
     0
370
    -2
100
AcDbLine
 10
122.4182728378272
 20
6.603999999999925
 30
0.0
 11
140.9485745312798
 21
6.603999999999999
 31
0.0
  0
LINE
  5
1A5
330
1A1
100
AcDbEntity
  8
치수문자_일반주서
 62
     0
370
    -2
100
AcDbLine
 10
140.9485745312797
 20
27.24149999999999
 30
0.0
 11
140.9485745312795
 21
68.37225993705901
 31
0.0
  0
LINE
  5
1A6
330
1A1
100
AcDbEntity
  8
치수문자_일반주서
 62
     0
370
    -2
100
AcDbLine
 10
140.9485745312797
 20
27.24149999999999
 30
0.0
 11
140.9485745312798
 21
6.603999999999999
 31
0.0
  0
LINE
  5
1A7
330
1A1
100
AcDbEntity
  8
치수문자_일반주서
 62
     0
370
    -2
100
AcDbLine
 10
140.9485745312797
 20
30.54349999999999
 30
0.0
 11
140.9485745312797
 21
33.84549999999999
 31
0.0
  0
LINE
  5
1A8
330
1A1
100
AcDbEntity
  8
치수문자_일반주서
 62
     0
370
    -2
100
AcDbLine
 10
140.9485745312798
 20
3.302
 30
0.0
 11
140.9485745312798
 21
0.0
 31
0.0
  0
SOLID
  5
1A9
330
1A1
100
AcDbEntity
  8
치수문자_일반주서
 62
     0
100
AcDbTrace
 10
140.3982411979464
 20
30.54349999999999
 30
0.0
 11
141.498907864613
 21
30.5435
 31
0.0
 12
140.9485745312797
 22
27.24149999999999
 32
0.0
 13
140.9485745312797
 23
27.24149999999999
 33
0.0
  0
SOLID
  5
1AA
330
1A1
100
AcDbEntity
  8
치수문자_일반주서
 62
     0
100
AcDbTrace
 10
141.4989078646131
 20
3.302000000000002
 30
0.0
 11
140.3982411979465
 21
3.301999999999997
 31
0.0
 12
140.9485745312798
 22
6.603999999999999
 32
0.0
 13
140.9485745312798
 23
6.603999999999999
 33
0.0
  0
MTEXT
  5
1AB
330
1A1
100
AcDbEntity
  8
치수문자_일반주서
 62
     0
100
AcDbMText
 10
136.5735745312796
 20
52.40350993705899
 30
0.0
 40
3.5
 41
0.0
 71
     2
 72
     1
  1
\A1;%%c20.64 [13/16]
  7
SLDTEXTSTYLE0
 11
-4.131562848756488E-15
 21
1.0
 31
0.0
 73
     1
 44
1.0
  0
POINT
  5
1AC
330
1A1
100
AcDbEntity
  8
Defpoints
 62
     0
100
AcDbPoint
 10
122.3557728378272
 20
27.24149999999992
 30
0.0
  0
POINT
  5
1AD
330
1A1
100
AcDbEntity
  8
Defpoints
 62
     0
100
AcDbPoint
 10
122.3557728378272
 20
6.603999999999925
 30
0.0
  0
POINT
  5
1AE
330
1A1
100
AcDbEntity
  8
Defpoints
 62
     0
100
AcDbPoint
 10
140.9485745312797
 20
6.603999999999994
 30
0.0
  0
ENDBLK
  5
1AF
330
1A1
100
AcDbEntity
  8
0
100
AcDbBlockEnd
  0
BLOCK
  5
1ED
330
1EC
100
AcDbEntity
  8
0
100
AcDbBlockBegin
  2
*D12
 70
     1
 10
0.0
 20
0.0
 30
0.0
  3
*D12
  1
*D12
  0
LINE
  5
1EF
330
1EC
100
AcDbEntity
  8
치수문자_일반주서
 62
     0
370
    -2
100
AcDbLine
 10
59.62499999999997
 20
11.17500000000001
 30
0.0
 11
59.62499999999997
 21
21.79142190648778
 31
0.0
  0
LINE
  5
1F0
330
1EC
100
AcDbEntity
  8
치수문자_일반주서
 62
     0
370
    -2
100
AcDbLine
 10
11.99999999999997
 20
10.88393549245501
 30
0.0
 11
11.99999999999997
 21
21.79142190648778
 31
0.0
  0
LINE
  5
1F1
330
1EC
100
AcDbEntity
  8
치수문자_일반주서
 62
     0
370
    -2
100
AcDbLine
 10
11.99999999999997
 20
21.79142190648778
 30
0.0
 11
-25.22900000000003
 21
21.79142190648778
 31
0.0
  0
LINE
  5
1F2
330
1EC
100
AcDbEntity
  8
치수문자_일반주서
 62
     0
370
    -2
100
AcDbLine
 10
59.62499999999997
 20
21.79142190648778
 30
0.0
 11
11.99999999999997
 21
21.79142190648778
 31
0.0
  0
LINE
  5
1F3
330
1EC
100
AcDbEntity
  8
치수문자_일반주서
 62
     0
370
    -2
100
AcDbLine
 10
62.92699999999997
 20
21.79142190648778
 30
0.0
 11
66.22899999999997
 21
21.79142190648778
 31
0.0
  0
LINE
  5
1F4
330
1EC
100
AcDbEntity
  8
치수문자_일반주서
 62
     0
370
    -2
100
AcDbLine
 10
8.697999999999972
 20
21.79142190648778
 30
0.0
 11
5.395999999999972
 21
21.79142190648778
 31
0.0
  0
SOLID
  5
1F5
330
1EC
100
AcDbEntity
  8
치수문자_일반주서
 62
     0
100
AcDbTrace
 10
62.92699999999997
 20
22.34175523982111
 30
0.0
 11
62.92699999999997
 21
21.24108857315444
 31
0.0
 12
59.62499999999997
 22
21.79142190648778
 32
0.0
 13
59.62499999999997
 23
21.79142190648778
 33
0.0
  0
SOLID
  5
1F6
330
1EC
100
AcDbEntity
  8
치수문자_일반주서
 62
     0
100
AcDbTrace
 10
8.697999999999972
 20
21.24108857315444
 30
0.0
 11
8.697999999999972
 21
22.34175523982111
 31
0.0
 12
11.99999999999997
 22
21.79142190648778
 32
0.0
 13
11.99999999999997
 23
21.79142190648778
 33
0.0
  0
MTEXT
  5
1F7
330
1EC
100
AcDbEntity
  8
치수문자_일반주서
 62
     0
100
AcDbMText
 10
-9.916500000000028
 20
26.16642190648778
 30
0.0
 40
3.5
 41
0.0
 71
     2
 72
     1
  1
\A1;47.63 [1 7/8]
  7
SLDTEXTSTYLE0
 73
     1
 44
1.0
  0
POINT
  5
1F8
330
1EC
100
AcDbEntity
  8
Defpoints
 62
     0
100
AcDbPoint
 10
59.62499999999997
 20
11.11250000000001
 30
0.0
  0
POINT
  5
1F9
330
1EC
100
AcDbEntity
  8
Defpoints
 62
     0
100
AcDbPoint
 10
11.99999999999997
 20
10.82143549245501
 30
0.0
  0
POINT
  5
1FA
330
1EC
100
AcDbEntity
  8
Defpoints
 62
     0
100
AcDbPoint
 10
11.99999999999997
 20
21.79142190648778
 30
0.0
  0
ENDBLK
  5
1EE
330
1EC
100
AcDbEntity
  8
0
100
AcDbBlockEnd
  0
BLOCK
  5
1FC
330
1FB
100
AcDbEntity
  8
0
100
AcDbBlockBegin
  2
*D13
 70
     1
 10
0.0
 20
0.0
 30
0.0
  3
*D13
  1
*D13
  0
LINE
  5
1FE
330
1FB
100
AcDbEntity
  8
치수문자_일반주서
 62
     0
370
    -2
100
AcDbLine
 10
59.62499999999997
 20
11.17500000000001
 30
0.0
 11
59.62499999999998
 21
39.97367788211007
 31
0.0
  0
LINE
  5
1FF
330
1FB
100
AcDbEntity
  8
치수문자_일반주서
 62
     0
370
    -2
100
AcDbLine
 10
-41.97500000000002
 20
7.365000000000013
 30
0.0
 11
-41.97500000000001
 21
39.97367788211007
 31
0.0
  0
LINE
  5
200
330
1FB
100
AcDbEntity
  8
치수문자_일반주서
 62
     0
370
    -2
100
AcDbLine
 10
56.32299999999998
 20
39.97367788211007
 30
0.0
 11
-38.67300000000001
 21
39.97367788211007
 31
0.0
  0
SOLID
  5
201
330
1FB
100
AcDbEntity
  8
치수문자_일반주서
 62
     0
100
AcDbTrace
 10
56.32299999999998
 20
39.42334454877673
 30
0.0
 11
56.32299999999998
 21
40.5240112154434
 31
0.0
 12
59.62499999999998
 22
39.97367788211007
 32
0.0
 13
59.62499999999998
 23
39.97367788211007
 33
0.0
  0
SOLID
  5
202
330
1FB
100
AcDbEntity
  8
치수문자_일반주서
 62
     0
100
AcDbTrace
 10
-38.67300000000001
 20
40.5240112154434
 30
0.0
 11
-38.67300000000001
 21
39.42334454877673
 31
0.0
 12
-41.97500000000001
 22
39.97367788211007
 32
0.0
 13
-41.97500000000001
 23
39.97367788211007
 33
0.0
  0
MTEXT
  5
203
330
1FB
100
AcDbEntity
  8
치수문자_일반주서
 62
     0
100
AcDbMText
 10
8.82499999999996
 20
44.34867788211007
 30
0.0
 40
3.5
 41
0.0
 71
     2
 72
     1
  1
\A1;101.60 [4]
  7
SLDTEXTSTYLE0
 73
     1
 44
1.0
  0
POINT
  5
204
330
1FB
100
AcDbEntity
  8
Defpoints
 62
     0
100
AcDbPoint
 10
59.62499999999997
 20
11.11250000000001
 30
0.0
  0
POINT
  5
205
330
1FB
100
AcDbEntity
  8
Defpoints
 62
     0
100
AcDbPoint
 10
-41.97500000000002
 20
7.302500000000013
 30
0.0
  0
POINT
  5
206
330
1FB
100
AcDbEntity
  8
Defpoints
 62
     0
100
AcDbPoint
 10
-41.97500000000002
 20
39.97367788211007
 30
0.0
  0
ENDBLK
  5
1FD
330
1FB
100
AcDbEntity
  8
0
100
AcDbBlockEnd
  0
BLOCK
  5
208
330
207
100
AcDbEntity
  8
0
100
AcDbBlockBegin
  2
*D14
 70
     1
 10
0.0
 20
0.0
 30
0.0
  3
*D14
  1
*D14
  0
LINE
  5
20A
330
207
100
AcDbEntity
  8
치수문자_일반주서
 62
     0
370
    -2
100
AcDbLine
 10
-39.81500000000003
 20
7.937500000000002
 30
0.0
 11
-58.35577283782725
 21
7.937499999999932
 31
0.0
  0
LINE
  5
20B
330
207
100
AcDbEntity
  8
치수문자_일반주서
 62
     0
370
    -2
100
AcDbLine
 10
-39.81500000000003
 20
-7.9375
 30
0.0
 11
-58.35577283782719
 21
-7.937500000000069
 31
0.0
  0
LINE
  5
20C
330
207
100
AcDbEntity
  8
치수문자_일반주서
 62
     0
370
    -2
100
AcDbLine
 10
-58.35577283782723
 20
4.635499999999933
 30
0.0
 11
-58.3557728378272
 21
-4.63550000000007
 31
0.0
  0
SOLID
  5
20D
330
207
100
AcDbEntity
  8
치수문자_일반주서
 62
     0
100
AcDbTrace
 10
-57.8054395044939
 20
4.635499999999935
 30
0.0
 11
-58.90610617116057
 21
4.635499999999931
 31
0.0
 12
-58.35577283782725
 22
7.937499999999932
 32
0.0
 13
-58.35577283782725
 23
7.937499999999932
 33
0.0
  0
SOLID
  5
20E
330
207
100
AcDbEntity
  8
치수문자_일반주서
 62
     0
100
AcDbTrace
 10
-58.90610617116054
 20
-4.635500000000071
 30
0.0
 11
-57.80543950449387
 21
-4.635500000000068
 31
0.0
 12
-58.35577283782719
 22
-7.937500000000069
 32
0.0
 13
-58.35577283782719
 23
-7.937500000000069
 33
0.0
  0
MTEXT
  5
20F
330
207
100
AcDbEntity
  8
치수문자_일반주서
 62
     0
100
AcDbMText
 10
-62.73077283782722
 20
-0.0000000000000191
 30
0.0
 40
3.5
 41
0.0
 71
     2
 72
     1
  1
\A1;%%c15.88 [5/8]
  7
SLDTEXTSTYLE0
 11
-3.580687802255623E-15
 21
1.0
 31
0.0
 73
     1
 44
1.0
  0
POINT
  5
210
330
207
100
AcDbEntity
  8
Defpoints
 62
     0
100
AcDbPoint
 10
-39.75250000000003
 20
7.937500000000002
 30
0.0
  0
POINT
  5
211
330
207
100
AcDbEntity
  8
Defpoints
 62
     0
100
AcDbPoint
 10
-39.75250000000003
 20
-7.9375
 30
0.0
  0
POINT
  5
212
330
207
100
AcDbEntity
  8
Defpoints
 62
     0
100
AcDbPoint
 10
-58.35577283782719
 20
-7.937500000000069
 30
0.0
  0
ENDBLK
  5
209
330
207
100
AcDbEntity
  8
0
100
AcDbBlockEnd
  0
BLOCK
  5
214
330
213
100
AcDbEntity
  8
0
100
AcDbBlockBegin
  2
*D15
 70
     1
 10
0.0
 20
0.0
 30
0.0
  3
*D15
  1
*D15
  0
LINE
  5
216
330
213
100
AcDbEntity
  8
치수문자_일반주서
 62
     0
370
    -2
100
AcDbLine
 10
59.68749999999997
 20
9.921875000000009
 30
0.0
 11
78.21780169345243
 21
9.921875000000075
 31
0.0
  0
LINE
  5
217
330
213
100
AcDbEntity
  8
치수문자_일반주서
 62
     0
370
    -2
100
AcDbLine
 10
59.68749999999994
 20
-9.921874999999991
 30
0.0
 11
78.2178016934525
 21
-9.921874999999922
 31
0.0
  0
LINE
  5
218
330
213
100
AcDbEntity
  8
치수문자_일반주서
 62
     0
370
    -2
100
AcDbLine
 10
78.21780169345243
 20
9.921875000000075
 30
0.0
 11
78.21780169345229
 21
52.1057599370591
 31
0.0
  0
LINE
  5
219
330
213
100
AcDbEntity
  8
치수문자_일반주서
 62
     0
370
    -2
100
AcDbLine
 10
78.21780169345243
 20
9.921875000000075
 30
0.0
 11
78.2178016934525
 21
-9.921874999999922
 31
0.0
  0
LINE
  5
21A
330
213
100
AcDbEntity
  8
치수문자_일반주서
 62
     0
370
    -2
100
AcDbLine
 10
78.21780169345242
 20
13.22387500000007
 30
0.0
 11
78.2178016934524
 21
16.52587500000007
 31
0.0
  0
LINE
  5
21B
330
213
100
AcDbEntity
  8
치수문자_일반주서
 62
     0
370
    -2
100
AcDbLine
 10
78.21780169345251
 20
-13.22387499999992
 30
0.0
 11
78.21780169345253
 21
-16.52587499999992
 31
0.0
  0
SOLID
  5
21C
330
213
100
AcDbEntity
  8
치수문자_일반주서
 62
     0
100
AcDbTrace
 10
77.66746836011909
 20
13.22387500000007
 30
0.0
 11
78.76813502678574
 21
13.22387500000008
 31
0.0
 12
78.21780169345243
 22
9.921875000000075
 32
0.0
 13
78.21780169345243
 23
9.921875000000075
 33
0.0
  0
SOLID
  5
21D
330
213
100
AcDbEntity
  8
치수문자_일반주서
 62
     0
100
AcDbTrace
 10
78.76813502678584
 20
-13.22387499999992
 30
0.0
 11
77.66746836011919
 21
-13.22387499999992
 31
0.0
 12
78.2178016934525
 22
-9.921874999999922
 32
0.0
 13
78.2178016934525
 23
-9.921874999999922
 33
0.0
  0
MTEXT
  5
21E
330
213
100
AcDbEntity
  8
치수문자_일반주서
 62
     0
100
AcDbMText
 10
73.84280169345234
 20
35.48075993705908
 30
0.0
 40
3.5
 41
0.0
 71
     2
 72
     1
  1
\A1;%%c19.84 [25/32]
  7
SLDTEXTSTYLE0
 11
-3.580687802255623E-15
 21
1.0
 31
0.0
 73
     1
 44
1.0
  0
POINT
  5
21F
330
213
100
AcDbEntity
  8
Defpoints
 62
     0
100
AcDbPoint
 10
59.62499999999997
 20
9.921875000000009
 30
0.0
  0
POINT
  5
220
330
213
100
AcDbEntity
  8
Defpoints
 62
     0
100
AcDbPoint
 10
59.62499999999994
 20
-9.921874999999991
 30
0.0
  0
POINT
  5
221
330
213
100
AcDbEntity
  8
Defpoints
 62
     0
100
AcDbPoint
 10
78.2178016934525
 20
-9.921874999999922
 30
0.0
  0
ENDBLK
  5
215
330
213
100
AcDbEntity
  8
0
100
AcDbBlockEnd
  0
ENDSEC
  0
SECTION
  2
ENTITIES
  0
LINE
  5
AF
330
1F
100
AcDbEntity
  8
참조1
100
AcDbLine
 10
6.862407664253888
 20
0.0010749287238892
 30
0.0
 11
6.862407664253894
 21
-39.99892507127611
 31
0.0
  0
LINE
  5
B0
330
1F
100
AcDbEntity
  8
참조1
100
AcDbLine
 10
6.862407664253894
 20
-39.99892507127611
 30
0.0
 11
-19.40894915005478
 21
-39.9989250712761
 31
0.0
  0
INSERT
  5
B2
330
1F
100
AcDbEntity
  8
0
  6
Continuous
 62
     7
100
AcDbBlockReference
 66
     1
  2
블럭10
 10
-7.077865267871316
 20
-52.04609937292004
 30
0.0
  0
ATTRIB
  5
B3
330
B2
100
AcDbEntity
  8
FORMAT
 62
     2
100
AcDbText
 10
-16.2591605566126
 20
-49.97073246008785
 30
0.0
 40
4.233333333333333
  1
E2031050 [ 4 FLUTE ]
 41
0.75
  7
SLDTEXTSTYLE0
 11
-16.2591605566126
 21
-52.08739912675452
 31
0.0
100
AcDbAttribute
  2
AUTOATTR0
 70
     0
 74
     1
  0
SEQEND
  5
B4
330
B2
100
AcDbEntity
  8
0
  6
Continuous
 62
     7
  0
HATCH
  5
B5
330
1F
100
AcDbEntity
  8
중심선
100
AcDbHatch
 10
0.0
 20
0.0
 30
0.0
210
0.0
220
0.0
230
1.0
  2
SOLID
 70
     1
 71
     0
 91
        1
 92
        0
 93
        4
 72
     1
 10
-1.362955963490481
 20
-35.7989250712761
 11
-4.809231207327763
 21
-35.7989250712761
 72
     1
 10
-4.809231207327763
 20
-35.7989250712761
 11
-6.937461066531786
 21
-38.3352506518487
 72
     1
 10
-6.937461066531786
 20
-38.3352506518487
 11
-3.491152737581355
 21
-38.33521122254621
 72
     1
 10
-3.491152737581355
 20
-38.33521122254621
 11
-1.362955963490481
 21
-35.7989250712761
 97
        0
 75
     0
 76
     1
 98
        1
 10
0.0
 20
0.0
  0
HATCH
  5
B6
330
1F
100
AcDbEntity
  8
중심선
100
AcDbHatch
 10
0.0
 20
0.0
 30
0.0
210
0.0
220
0.0
230
1.0
  2
SOLID
 70
     1
 71
     0
 91
        1
 92
        0
 93
        4
 72
     1
 10
3.649808027545498
 20
-35.7989250712761
 11
0.2035327837082157
 21
-35.7989250712761
 72
     1
 10
0.2035327837082157
 20
-35.7989250712761
 11
-4.327605224649201
 21
-41.19892507127612
 72
     1
 10
-4.327605224649201
 20
-41.19892507127612
 11
-0.8813299808119179
 21
-41.19892507127612
 72
     1
 10
-0.8813299808119179
 20
-41.19892507127612
 11
3.649808027545498
 21
-35.7989250712761
 97
        0
 75
     0
 76
     1
 98
        1
 10
0.0
 20
0.0
  0
HATCH
  5
B7
330
1F
100
AcDbEntity
  8
중심선
100
AcDbHatch
 10
0.0
 20
0.0
 30
0.0
210
0.0
220
0.0
230
1.0
  2
SOLID
 70
     1
 71
     0
 91
        1
 92
        0
 93
        4
 72
     1
 10
8.662572018581422
 20
-35.79892507127608
 11
5.216296774744277
 21
-35.7989250712761
 72
     1
 10
5.216296774744277
 20
-35.7989250712761
 11
-1.832140127144999
 21
-44.19892507127612
 72
     1
 10
-1.832140127144999
 20
-44.19892507127612
 11
1.614135116692283
 21
-44.19892507127612
 72
     1
 10
1.614135116692283
 20
-44.19892507127612
 11
8.662572018581422
 21
-35.79892507127608
 97
        0
 75
     0
 76
     1
 98
        1
 10
0.0
 20
0.0
  0
HATCH
  5
B8
330
1F
100
AcDbEntity
  8
중심선
100
AcDbHatch
 10
0.0
 20
0.0
 30
0.0
210
0.0
220
0.0
230
1.0
  2
SOLID
 70
     1
 71
     0
 91
        1
 92
        0
 93
        6
 72
     3
 10
13.46246244959356
 20
-39.99892507132738
 11
3.960054785062284
 21
1.540850780301639E-10
 40
0.3939339440162633
 50
17.09539180608433
 51
320.0019657685081
 73
     0
 72
     1
 10
15.14546210529416
 20
-38.58681907591441
 11
17.45076397899523
 21
-36.65249236586646
 72
     3
 10
13.46246244954072
 20
-39.99892507127625
 11
6.600054785286829
 21
-1.249000902703301E-13
 40
0.6363583540795982
 50
39.99873849337411
 51
368.4976242363725
 73
     1
 72
     1
 10
19.88779494144133
 20
-39.03892507120613
 11
12.14252975637664
 21
-39.03892507120613
 72
     1
 10
12.14252975637664
 20
-39.03892507120613
 11
12.14250471193071
 21
-40.95892507120602
 72
     1
 10
12.14250471193071
 20
-40.95892507120602
 11
16.58388448140274
 21
-40.95892507120599
 97
        0
 75
     0
 76
     1
 98
        1
 10
0.0
 20
0.0
  0
LINE
  5
10B
330
1F
100
AcDbEntity
  8
참조1
100
AcDbLine
 10
78.56339147959949
 20
7.441074928723896
 30
0.0
 11
78.56339147959949
 21
-7.438925071276109
 31
0.0
  0
LINE
  5
10C
330
1F
100
AcDbEntity
  8
참조1
100
AcDbLine
 10
91.26339147959949
 20
5.441074928723896
 30
0.0
 11
78.56339147959949
 21
5.441074928723896
 31
0.0
  0
SOLID
  5
10D
330
1F
100
AcDbEntity
  8
참조1
100
AcDbTrace
 10
78.56339147959949
 20
5.441074928723896
 30
0.0
 11
84.91339147959948
 21
4.425074928723896
 31
0.0
 12
84.91339147959948
 22
6.457074928723896
 32
0.0
 13
84.91339147959948
 23
6.457074928723896
 33
0.0
  0
LINE
  5
10E
330
1F
100
AcDbEntity
  8
참조1
100
AcDbLine
 10
91.26339147959949
 20
-5.438925071276109
 30
0.0
 11
78.56339147959949
 21
-5.438925071276109
 31
0.0
  0
SOLID
  5
10F
330
1F
100
AcDbEntity
  8
참조1
100
AcDbTrace
 10
78.56339147959949
 20
-5.438925071276109
 30
0.0
 11
84.91339147959948
 21
-6.454925071276109
 31
0.0
 12
84.91339147959948
 22
-4.422925071276109
 32
0.0
 13
84.91339147959948
 23
-4.422925071276109
 33
0.0
  0
MTEXT
  5
110
330
1F
100
AcDbEntity
  8
참조1
100
AcDbMText
 10
87.94774161222547
 20
11.01136670591222
 30
0.0
 40
3.5
 41
0.0
 71
     1
 72
     1
  1
A
  7
SLDTEXTSTYLE0
 73
     1
 44
1.0
  0
MTEXT
  5
111
330
1F
100
AcDbEntity
  8
참조1
100
AcDbMText
 10
87.94774161222547
 20
0.1313667059122192
 30
0.0
 40
3.5
 41
0.0
 71
     1
 72
     1
  1
A
  7
SLDTEXTSTYLE0
 73
     1
 44
1.0
  0
LINE
  5
1CA
330
1F
100
AcDbEntity
  8
외형선
  6
Continuous
370
    15
100
AcDbLine
 10
-41.97500000000002
 20
-5.715000000000011
 30
0.0
 11
-39.75250000000003
 21
-7.9375
 31
0.0
  0
LINE
  5
1CB
330
1F
100
AcDbEntity
  8
0
  6
Continuous
 62
     1
370
    15
100
AcDbLine
 10
55.93338689888184
 20
2.938926262210483
 30
0.0
 11
55.86390609642933
 21
2.976485633748891
 31
0.0
  0
LINE
  5
1CC
330
1F
100
AcDbEntity
  8
0
  6
Continuous
 62
     1
370
    15
100
AcDbLine
 10
40.15557388837563
 20
9.921874999999998
 30
0.0
 11
34.10388679279835
 21
9.921874999999998
 31
0.0
  0
LINE
  5
1CD
330
1F
100
AcDbEntity
  8
0
  6
Continuous
 62
     1
370
    15
100
AcDbLine
 10
34.10388679279826
 20
-9.921875000000009
 30
0.0
 11
40.15557388837563
 21
-9.921875000000009
 31
0.0
  0
LINE
  5
1CE
330
1F
100
AcDbEntity
  8
0
  6
Continuous
 62
     1
370
    15
100
AcDbLine
 10
59.62499999999997
 20
-9.921874999999991
 30
0.0
 11
59.62499999999997
 21
-8.986057137146846
 31
0.0
  0
SPLINE
  5
1CF
330
1F
100
AcDbEntity
  8
0
  6
Continuous
 62
     1
370
    15
100
AcDbSpline
210
0.0
220
0.0
230
1.0
 70
     8
 71
     3
 72
    60
 73
    56
 74
     0
 42
0.000000001
 43
0.00000001
 40
0.0
 40
0.0
 40
0.0
 40
0.0
 40
0.0625000000000002
 40
0.0625000000000002
 40
0.0937500000000002
 40
0.0937500000000002
 40
0.1250000000000003
 40
0.1250000000000003
 40
0.1562500000000004
 40
0.1562500000000004
 40
0.1875000000000005
 40
0.1875000000000005
 40
0.2187500000000006
 40
0.2187500000000006
 40
0.2500000000000007
 40
0.2500000000000007
 40
0.3125000000000008
 40
0.3125000000000008
 40
0.3437500000000009
 40
0.3437500000000009
 40
0.375000000000001
 40
0.375000000000001
 40
0.4062500000000011
 40
0.4062500000000011
 40
0.4375000000000012
 40
0.4375000000000012
 40
0.4687500000000013
 40
0.4687500000000013
 40
0.5000000000000013
 40
0.5000000000000013
 40
0.5625000000000016
 40
0.5625000000000016
 40
0.6250000000000017
 40
0.6250000000000017
 40
0.6562500000000014
 40
0.6562500000000014
 40
0.6875000000000012
 40
0.6875000000000012
 40
0.718750000000001
 40
0.718750000000001
 40
0.7500000000000007
 40
0.7500000000000007
 40
0.7812500000000004
 40
0.7812500000000004
 40
0.8125000000000002
 40
0.8125000000000002
 40
0.8749999999999998
 40
0.8749999999999998
 40
0.9062499999999999
 40
0.9062499999999999
 40
0.9374999999999999
 40
0.9374999999999999
 40
0.96875
 40
0.96875
 40
1.0
 40
1.0
 40
1.0
 40
1.0
 10
59.62499999999997
 20
-8.986057137146846
 30
0.0
 10
58.74246702359816
 20
-8.769486957600398
 30
0.0
 10
57.85096944732162
 20
-8.516245989634392
 30
0.0
 10
56.52411138596738
 20
-8.088031599051957
 30
0.0
 10
56.08279434682323
 20
-7.937212120173325
 30
0.0
 10
55.19579404444288
 20
-7.619552365561401
 30
0.0
 10
54.75152600019147
 20
-7.452861639967364
 30
0.0
 10
53.86543578305947
 20
-7.105267934607943
 30
0.0
 10
53.42479251773141
 20
-6.924543706696266
 30
0.0
 10
52.53884461677292
 20
-6.549034806184356
 30
0.0
 10
52.09459120831093
 20
-6.354376092400288
 30
0.0
 10
51.20750669715845
 20
-5.95297834328
 30
0.0
 10
50.76602195213835
 20
-5.74645783778309
 30
0.0
 10
49.88165005388764
 20
-5.322185703007404
 30
0.0
 10
49.43767560979605
 20
-5.10424684306154
 30
0.0
 10
48.10634617166484
 20
-4.435894192267886
 30
0.0
 10
47.22432304134792
 20
-3.971784861404331
 30
0.0
 10
45.89308109095661
 20
-3.253249224119234
 30
0.0
 10
45.44902212407394
 20
-3.010191824826021
 30
0.0
 10
44.56425632434971
 20
-2.519182670913246
 30
0.0
 10
44.12308843689554
 20
-2.271152925825345
 30
0.0
 10
43.23617878585371
 20
-1.770206106901616
 30
0.0
 10
42.79189934569946
 20
-1.517559676988119
 30
0.0
 10
41.90567323292382
 20
-1.010187822894666
 30
0.0
 10
41.46501139713425
 20
-0.7557121058598103
 30
0.0
 10
40.57921222943558
 20
-0.2449058536109112
 30
0.0
 10
40.13497669629334
 20
0.0112529895555139
 30
0.0
 10
39.24781442097572
 20
0.5227866862145135
 30
0.0
 10
38.80614341994405
 20
0.7779196108107838
 30
0.0
 10
37.47989535504334
 20
1.54047379016363
 30
0.0
 10
36.58835169019103
 20
2.046109838574891
 30
0.0
 10
34.8222934578333
 20
3.033905643922302
 30
0.0
 10
33.9318423477587
 20
3.519020985754398
 30
0.0
 10
32.60441259270522
 20
4.221309576069961
 30
0.0
 10
32.1633752991527
 20
4.451187543929406
 30
0.0
 10
31.2765627398197
 20
4.902433220470113
 30
0.0
 10
30.83227514392668
 20
5.123534333119045
 30
0.0
 10
29.94591955932608
 20
5.554716436332907
 30
0.0
 10
29.50522058306204
 20
5.764592697821332
 30
0.0
 10
28.61957656211146
 20
6.173124827434473
 30
0.0
 10
28.17536214338413
 20
6.371648737383758
 30
0.0
 10
27.28812855039265
 20
6.755410712843473
 30
0.0
 10
26.84625274771174
 20
6.940495586439378
 30
0.0
 10
25.96230026677475
 20
7.29653059459928
 30
0.0
 10
25.51842327636191
 20
7.467708941126856
 30
0.0
 10
24.18704508602744
 20
7.958336807408239
 30
0.0
 10
23.30496035392903
 20
8.254309240160232
 30
0.0
 10
21.97384461832911
 20
8.6481112414463
 30
0.0
 10
21.52971406776831
 20
8.770910499037738
 30
0.0
 10
20.64457992045772
 20
8.998517057587222
 30
0.0
 10
20.20365465986408
 20
9.103344662771077
 30
0.0
 10
19.31694563025809
 20
9.295032612858149
 30
0.0
 10
18.87265311898902
 20
9.381757351961232
 30
0.0
 10
17.98617448951598
 20
9.536195832686197
 30
0.0
 10
17.54541980366189
 20
9.603856858005429
 30
0.0
 10
11.99999999999997
 20
9.921875000000004
 30
0.0
  0
LINE
  5
1D0
330
1F
100
AcDbEntity
  8
0
  6
Continuous
 62
     1
370
    15
100
AcDbLine
 10
59.62499999999997
 20
-8.986057137146846
 30
0.0
 11
59.62499999999997
 21
0.850119637146976
 31
0.0
  0
SPLINE
  5
1D1
330
1F
100
AcDbEntity
  8
0
  6
Continuous
 62
     1
370
    15
100
AcDbSpline
210
0.0
220
0.0
230
1.0
 70
     8
 71
     3
 72
    21
 73
    17
 74
     0
 42
0.000000001
 43
0.00000001
 40
0.0
 40
0.0
 40
0.0
 40
0.0
 40
0.0741216400208409
 40
0.1482281301624112
 40
0.2223237637707428
 40
0.2964128534282319
 40
0.3704997233277669
 40
0.4432647605392205
 40
0.5160390152419125
 40
0.5888289277052645
 40
0.661635080569705
 40
0.735909764771136
 40
0.8101720195704561
 40
0.884425926656866
 40
0.9586755820105474
 40
1.0
 40
1.0
 40
1.0
 40
1.0
 10
59.62499999999997
 20
0.850119637146976
 30
0.0
 10
58.73567737671657
 20
1.359575641291127
 30
0.0
 10
56.95721390068766
 20
2.378383520785825
 30
0.0
 10
54.2898865086358
 20
3.844066831734902
 30
0.0
 10
51.62301647183595
 20
5.218710547299839
 30
0.0
 10
48.9564365562441
 20
6.467483086684004
 30
0.0
 10
46.3058166688276
 20
7.554382898684652
 30
0.0
 10
43.67102320132654
 20
8.456823669266921
 30
0.0
 10
41.05170133086271
 20
9.157786973849609
 30
0.0
 10
38.43178688990958
 20
9.646363048075775
 30
0.0
 10
35.7936784792271
 20
9.913178289439307
 30
0.0
 10
33.13807160548569
 20
9.945811858290147
 30
0.0
 10
30.46517080855605
 20
9.741021750747002
 30
0.0
 10
27.79263342058109
 20
9.29173207209104
 30
0.0
 10
25.51528106068629
 20
8.747445228836858
 30
0.0
 10
24.12874403238341
 20
8.279132059026825
 30
0.0
 10
23.63297682389085
 20
8.111683005624188
 30
0.0
  0
SPLINE
  5
1D2
330
1F
100
AcDbEntity
  8
0
  6
Continuous
 62
     1
370
    15
100
AcDbSpline
210
0.0
220
0.0
230
1.0
 70
     8
 71
     3
 72
    15
 73
    11
 74
     0
 42
0.000000001
 43
0.00000001
 40
0.0
 40
0.0
 40
0.0
 40
0.0
 40
0.0390462452703473
 40
0.1763194551032954
 40
0.3135819985006395
 40
0.4508414574297966
 40
0.5881054191454106
 40
0.7253814631841574
 40
0.8626771483875799
 40
1.0
 40
1.0
 40
1.0
 40
1.0
 10
40.15557388837566
 20
9.89815000671517
 30
0.0
 10
40.40898024781925
 20
9.905009896724277
 30
0.0
 10
41.55327647675117
 20
9.93598680782293
 30
0.0
 10
43.58833300054178
 20
9.752768421482097
 30
0.0
 10
46.26073732898747
 20
9.342689113255224
 30
0.0
 10
48.93306604109054
 20
8.68927774224255
 30
0.0
 10
51.60550023085721
 20
7.831352345663139
 30
0.0
 10
54.27821891334037
 20
6.781118469776271
 30
0.0
 10
56.95138667919313
 20
5.574712765390168
 30
0.0
 10
58.73373678723328
 20
4.662580268701303
 30
0.0
 10
59.62499999999997
 20
4.206468904384815
 30
0.0
  0
LINE
  5
1D3
330
1F
100
AcDbEntity
  8
0
  6
Continuous
 62
     1
370
    15
100
AcDbLine
 10
59.62499999999997
 20
0.850119637146976
 30
0.0
 11
59.62499999999997
 21
4.206468904384819
 31
0.0
  0
SPLINE
  5
1D4
330
1F
100
AcDbEntity
  8
0
  6
Continuous
 62
     1
370
    15
100
AcDbSpline
210
0.0
220
0.0
230
1.0
 70
     8
 71
     3
 72
    11
 73
     7
 74
     0
 42
0.000000001
 43
0.00000001
 40
0.0
 40
0.0
 40
0.0
 40
0.0
 40
0.296454873392216
 40
0.5928491537438598
 40
0.8892000126036714
 40
1.0
 40
1.0
 40
1.0
 40
1.0
 10
59.62499999999997
 20
9.921875000000009
 30
0.0
 10
58.73567727895537
 20
9.819108237507052
 30
0.0
 10
56.95721360742407
 20
9.686561833985774
 30
0.0
 10
54.28988768133878
 20
9.179353137076191
 30
0.0
 10
52.17951650106245
 20
8.654351515813081
 30
0.0
 10
50.95824237813067
 20
8.228846246981616
 30
0.0
 10
50.62589096913184
 20
8.113051379165134
 30
0.0
  0
LINE
  5
1D5
330
1F
100
AcDbEntity
  8
0
  6
Continuous
 62
     1
370
    15
100
AcDbLine
 10
59.62499999999997
 20
4.205532734153318
 30
0.0
 11
59.62499999999997
 21
9.921875000000009
 31
0.0
  0
SPLINE
  5
1D6
330
1F
100
AcDbEntity
  8
0
  6
Continuous
 62
     1
370
    15
100
AcDbSpline
210
0.0
220
0.0
230
1.0
 70
     8
 71
     3
 72
    10
 73
     6
 74
     0
 42
0.000000001
 43
0.00000001
 40
0.0
 40
0.0
 40
0.0
 40
0.0
 40
0.4083955381270858
 40
0.8167455171329746
 40
1.0
 40
1.0
 40
1.0
 40
1.0
 10
11.99999999999997
 20
-9.921874999999993
 30
0.0
 10
17.99167813130989
 20
-9.52077787135839
 30
0.0
 10
19.7695780775143
 20
-9.238357417040858
 30
0.0
 10
21.94632165298259
 20
-8.690920686761944
 30
0.0
 10
23.23408213058175
 20
-8.248672973197733
 30
0.0
 10
23.63297682389073
 20
-8.111683005624192
 30
0.0
  0
LINE
  5
1D7
330
1F
100
AcDbEntity
  8
중심선
100
AcDbLine
 10
-48.15000000000002
 20
-0.0000000000000071
 30
0.0
 11
62.625
 21
0.0000000000000071
 31
0.0
  0
CIRCLE
  5
1D8
330
1F
100
AcDbEntity
  8
해칭선
100
AcDbCircle
 10
0.0
 20
0.0
 30
0.0
 40
3.000000000000003
  0
DIMENSION
  5
1D9
330
1F
100
AcDbEntity
  8
치수문자_일반주서
100
AcDbDimension
  2
*D12
 10
11.99999999999997
 20
21.79142190648778
 30
0.0
 11
-9.916500000000028
 21
21.79142190648778
 31
0.0
 70
   160
  1
<>
 71
     2
 42
47.625
  3
SLDDIMSTYLE1
100
AcDbAlignedDimension
 13
59.62499999999997
 23
11.11250000000001
 33
0.0
 14
11.99999999999997
 24
10.82143549245501
 34
0.0
100
AcDbRotatedDimension
1001
ACAD
1000
DSTYLE
1002
{
1070
   171
1070
     6
1070
   273
1070
     7
1002
}
  0
DIMENSION
  5
1DA
330
1F
100
AcDbEntity
  8
치수문자_일반주서
100
AcDbDimension
  2
*D13
 10
-41.97500000000001
 20
39.97367788211007
 30
0.0
 11
8.82499999999996
 21
39.97367788211007
 31
0.0
 70
   160
  1
<>
 71
     2
 42
101.6
  3
SLDDIMSTYLE1
100
AcDbAlignedDimension
 13
59.62499999999997
 23
11.11250000000001
 33
0.0
 14
-41.97500000000002
 24
7.302500000000013
 34
0.0
 50
0.0000000000000078
100
AcDbRotatedDimension
1001
ACAD
1000
DSTYLE
1002
{
1070
   171
1070
     6
1070
   273
1070
     7
1002
}
  0
DIMENSION
  5
1DB
330
1F
100
AcDbEntity
  8
치수문자_일반주서
100
AcDbDimension
  2
*D14
 10
-58.35577283782719
 20
-7.937500000000069
 30
0.0
 11
-58.35577283782722
 21
-0.0000000000000036
 31
0.0
 70
   160
  1
%%c<>
 71
     2
 42
15.875
 52
-270.0
  3
SLDDIMSTYLE1
100
AcDbAlignedDimension
 13
-39.75250000000003
 23
7.937500000000002
 33
0.0
 14
-39.75250000000003
 24
-7.9375
 34
0.0
 50
90.0000000000002
100
AcDbRotatedDimension
1001
ACAD
1000
DSTYLE
1002
{
1070
   171
1070
     6
1070
   273
1070
     7
1002
}
  0
DIMENSION
  5
1DC
330
1F
100
AcDbEntity
  8
치수문자_일반주서
100
AcDbDimension
  2
*D15
 10
78.2178016934525
 20
-9.921874999999922
 30
0.0
 11
78.21780169345234
 21
35.4807599370591
 31
0.0
 70
   160
  1
%%c<>
 71
     2
 42
19.84375
 52
-270.0
  3
SLDDIMSTYLE1
100
AcDbAlignedDimension
 13
59.62499999999997
 23
9.921875000000009
 33
0.0
 14
59.62499999999994
 24
-9.921874999999991
 34
0.0
 50
90.0000000000002
100
AcDbRotatedDimension
1001
ACAD
1000
DSTYLE
1002
{
1070
   171
1070
     6
1070
   273
1070
     7
1002
}
  0
INSERT
  5
1DD
330
1F
100
AcDbEntity
  8
해칭선
100
AcDbBlockReference
  2
SW_DOWELSYMBOL_0
 10
0.0
 20
0.0
 30
0.0
  0
LINE
  5
1DE
330
1F
100
AcDbEntity
  8
외형선
  6
Continuous
370
    15
100
AcDbLine
 10
11.99999999999997
 20
9.921875000000004
 30
0.0
 11
11.99999999999997
 21
-9.921874999999993
 31
0.0
  0
LINE
  5
1DF
330
1F
100
AcDbEntity
  8
외형선
  6
Continuous
370
    15
100
AcDbLine
 10
-41.97500000000002
 20
-5.715000000000011
 30
0.0
 11
-41.97500000000002
 21
-0.0000000000000036
 31
0.0
  0
LINE
  5
1E0
330
1F
100
AcDbEntity
  8
외형선
  6
Continuous
370
    15
100
AcDbLine
 10
-39.75250000000003
 20
-7.9375
 30
0.0
 11
11.99999999999997
 21
-7.9375
 31
0.0
  0
SPLINE
  5
1E1
330
1F
100
AcDbEntity
  8
0
  6
Continuous
 62
     1
370
    15
100
AcDbSpline
210
0.0
220
0.0
230
1.0
 70
     8
 71
     3
 72
    60
 73
    56
 74
     0
 42
0.000000001
 43
0.00000001
 40
0.0
 40
0.0
 40
0.0
 40
0.0
 40
0.0625
 40
0.0625
 40
0.0937499999999997
 40
0.0937499999999997
 40
0.1249999999999993
 40
0.1249999999999993
 40
0.156249999999999
 40
0.156249999999999
 40
0.1874999999999986
 40
0.1874999999999986
 40
0.2187499999999983
 40
0.2187499999999983
 40
0.2499999999999979
 40
0.2499999999999979
 40
0.3124999999999979
 40
0.3124999999999979
 40
0.3437499999999983
 40
0.3437499999999983
 40
0.3749999999999986
 40
0.3749999999999986
 40
0.4062499999999989
 40
0.4062499999999989
 40
0.4374999999999992
 40
0.4374999999999992
 40
0.4687499999999996
 40
0.4687499999999996
 40
0.4999999999999999
 40
0.4999999999999999
 40
0.5624999999999999
 40
0.5624999999999999
 40
0.6249999999999999
 40
0.6249999999999999
 40
0.6562499999999999
 40
0.6562499999999999
 40
0.6874999999999999
 40
0.6874999999999999
 40
0.7187499999999999
 40
0.7187499999999999
 40
0.7499999999999998
 40
0.7499999999999998
 40
0.7812499999999998
 40
0.7812499999999998
 40
0.8124999999999998
 40
0.8124999999999998
 40
0.8750000000000003
 40
0.8750000000000003
 40
0.9062500000000003
 40
0.9062500000000003
 40
0.9375000000000002
 40
0.9375000000000002
 40
0.9687500000000001
 40
0.9687500000000001
 40
0.9962650575977661
 40
0.9962650575977661
 40
0.9962650575977661
 40
0.9962650575977661
 10
59.62499999999994
 20
-9.921874999999991
 30
0.0
 10
58.74246702359811
 20
-9.841619777432166
 30
0.0
 10
57.8509694473216
 20
-9.758164118414927
 30
0.0
 10
56.52411138596735
 20
-9.57554737771249
 30
0.0
 10
56.0827943468232
 20
-9.505136333466506
 30
0.0
 10
55.19579404444288
 20
-9.345271261700306
 30
0.0
 10
54.75152600019142
 20
-9.255878323592212
 30
0.0
 10
53.86543578305947
 20
-9.058991870703801
 30
0.0
 10
53.42479251773138
 20
-8.95161652541569
 30
0.0
 10
52.53884461677289
 20
-8.718880932942367
 30
0.0
 10
52.09459120831092
 20
-8.593583093456335
 30
0.0
 10
51.20750669715845
 20
-8.326228248662142
 30
0.0
 10
50.76602195213835
 20
-8.184327156349552
 30
0.0
 10
49.88165005388767
 20
-7.884386624471025
 30
0.0
 10
49.43767560979605
 20
-7.726205046228921
 30
0.0
 10
48.10634617166487
 20
-7.229068038098948
 30
0.0
 10
47.22432304134792
 20
-6.868180926764335
 30
0.0
 10
45.89308109095663
 20
-6.286887943816014
 30
0.0
 10
45.44902212407397
 20
-6.086603116401466
 30
0.0
 10
44.56425632434969
 20
-5.674824671014657
 30
0.0
 10
44.12308843689554
 20
-5.463275420788932
 30
0.0
 10
43.23617878585371
 20
-5.028978915079139
 30
0.0
 10
42.79189934569948
 20
-4.806456696692877
 30
0.0
 10
41.90567323292382
 20
-4.352666388914013
 30
0.0
 10
41.46501139713425
 20
-4.121633153693198
 30
0.0
 10
40.57921222943556
 20
-3.651043933035465
 30
0.0
 10
40.13497669629334
 20
-3.411634685824841
 30
0.0
 10
39.24781442097569
 20
-2.926721778096803
 30
0.0
 10
38.80614341994404
 20
-2.681454837640201
 30
0.0
 10
37.47989535504331
 20
-1.938163547716225
 30
0.0
 10
36.58835169019105
 20
-1.431525177856575
 30
0.0
 10
34.82229345783324
 20
-0.4141072844574064
 30
0.0
 10
33.9318423477587
 20
0.0997059641425972
 30
0.0
 10
32.60441259270522
 20
0.8651961495180056
 30
0.0
 10
32.16337529915273
 20
1.119476874984202
 30
0.0
 10
31.27656273981974
 20
1.626207241877031
 30
0.0
 10
30.83227514392675
 20
1.878368755331981
 30
0.0
 10
29.94591955932611
 20
2.378026020527365
 30
0.0
 10
29.50522058306204
 20
2.625271153103069
 30
0.0
 10
28.61957656211149
 20
3.114834191489137
 30
0.0
 10
28.17536214338416
 20
3.357008076383801
 30
0.0
 10
27.28812855039268
 20
3.833958690386796
 30
0.0
 10
26.84625274771176
 20
4.068536284709138
 30
0.0
 10
25.9623002667748
 20
4.529173624126418
 30
0.0
 10
25.51842327636194
 20
4.755538021497672
 30
0.0
 10
24.18704508602746
 20
5.419670915244477
 30
0.0
 10
23.30496035392906
 20
5.841660401088282
 30
0.0
 10
21.97384461832916
 20
6.438516722405406
 30
0.0
 10
21.52971406776836
 20
6.63129759094956
 30
0.0
 10
20.64457992045776
 20
7.002822883307023
 30
0.0
 10
20.20365465986414
 20
7.181577172516961
 30
0.0
 10
19.31694563025814
 20
7.525071417286786
 30
0.0
 10
18.87265311898911
 20
7.689596051670457
 30
0.0
 10
18.03914963546632
 20
7.984016995709251
 30
0.0
 10
17.65081167093786
 20
8.115590605342778
 30
0.0
 10
11.99999999999997
 20
9.921875000000004
 30
0.0
  0
SPLINE
  5
1E3
330
1F
100
AcDbEntity
  8
0
  6
Continuous
 62
     1
370
    15
100
AcDbSpline
210
0.0
220
0.0
230
1.0
 70
     8
 71
     3
 72
    14
 73
    10
 74
     0
 42
0.000000001
 43
0.00000001
 40
0.0
 40
0.0
 40
0.0
 40
0.0
 40
0.0568138165349043
 40
0.21402676638416
 40
0.3712220441525627
 40
0.528408321016724
 40
0.6855942835776279
 40
0.842788618975045
 40
0.9597608073344053
 40
0.9597608073344053
 40
0.9597608073344053
 40
0.9597608073344053
 10
34.10388679279828
 20
-9.894194122525171
 30
0.0
 10
33.78190156324332
 20
-9.90155093459066
 30
0.0
 10
32.56893151989529
 20
-9.929265226523604
 30
0.0
 10
30.46517556658448
 20
-9.72955677005959
 30
0.0
 10
27.79263247510772
 20
-9.300118338689385
 30
0.0
 10
25.12028020825362
 20
-8.630960222542363
 30
0.0
 10
22.44793084845814
 20
-7.755184128537388
 30
0.0
 10
20.00345327358416
 20
-6.790467208800727
 30
0.0
 10
18.44970833717801
 20
-6.077625411960893
 30
0.0
 10
11.99999999999998
 20
-3.198907396183261
 30
0.0
  0
SPLINE
  5
1E4
330
1F
100
AcDbEntity
  8
0
  6
Continuous
 62
     1
370
    15
100
AcDbSpline
210
0.0
220
0.0
230
1.0
 70
     8
 71
     3
 72
    20
 73
    16
 74
     0
 42
0.000000001
 43
0.00000001
 40
0.0205058163018186
 40
0.0205058163018186
 40
0.0205058163018186
 40
0.0205058163018186
 40
0.0795558868877038
 40
0.159102898809953
 40
0.2386456743911404
 40
0.3181888597755414
 40
0.3977371003797957
 40
0.4758761125677247
 40
0.554034693779256
 40
0.6321986332126214
 40
0.7103417406283059
 40
0.7900662668969916
 40
0.8697845983915728
 40
0.9495011385113821
 40
1.0
 40
1.0
 40
1.0
 40
1.0
 10
11.99999999999997
 20
0.3981839626423959
 30
0.0
 10
18.44996308000628
 20
-3.004363421971928
 30
0.0
 10
19.99871413534611
 20
-3.858183916256071
 30
0.0
 10
22.43624787692664
 20
-5.118992589045103
 30
0.0
 10
25.10275434215898
 20
-6.379137621704936
 30
0.0
 10
27.76927205871981
 20
-7.484924403323275
 30
0.0
 10
30.42015114017016
 20
-8.40560299413143
 30
0.0
 10
33.05557420010638
 20
-9.122773711778768
 30
0.0
 10
35.67570503894126
 20
-9.62402089886516
 30
0.0
 10
38.29594676303322
 20
-9.902233195939598
 30
0.0
 10
40.93346532577024
 20
-9.950594914918037
 30
0.0
 10
43.58833756758072
 20
-9.765175916527317
 30
0.0
 10
46.26073695564413
 20
-9.334605602985947
 30
0.0
 10
48.60655309439667
 20
-8.785617571758108
 30
0.0
 10
50.06160643570673
 20
-8.30099352838797
 30
0.0
 10
50.62589096913181
 20
-8.113051379165135
 30
0.0
  0
LINE
  5
1E6
330
1F
100
AcDbEntity
  8
외형선
  6
Continuous
370
    15
100
AcDbLine
 10
-41.97500000000002
 20
5.715000000000012
 30
0.0
 11
-39.75250000000003
 21
7.937500000000002
 31
0.0
  0
LINE
  5
1EB
330
1F
100
AcDbEntity
  8
외형선
  6
Continuous
370
    15
100
AcDbLine
 10
-39.75250000000003
 20
7.937500000000002
 30
0.0
 11
-24.50932500000002
 21
7.937500000000002
 31
0.0
  0
LINE
  5
223
330
1F
100
AcDbEntity
  8
외형선
  6
Continuous
370
    15
100
AcDbLine
 10
-41.97500000000002
 20
-0.0000000000000036
 30
0.0
 11
-41.97500000000002
 21
5.715000000000011
 31
0.0
  0
LINE
  5
224
330
1F
100
AcDbEntity
  8
외형선
  6
Continuous
370
    15
100
AcDbLine
 10
-39.75250000000003
 20
7.937500000000002
 30
0.0
 11
-39.75250000000003
 21
-7.9375
 31
0.0
  0
LINE
  5
25D
330
1F
100
AcDbEntity
  8
외형선
  6
Continuous
370
    15
100
AcDbLine
 10
-22.85832500000004
 20
6.286499999999961
 30
0.0
 11
-12.67292500000002
 21
6.286499999999961
 31
0.0
  0
LINE
  5
25E
330
1F
100
AcDbEntity
  8
외형선
  6
Continuous
370
    15
100
AcDbLine
 10
-22.85832500000004
 20
6.286500000000061
 30
0.0
 11
-24.50932499999999
 21
7.937499999999972
 31
0.0
  0
LINE
  5
25F
330
1F
100
AcDbEntity
  8
외형선
  6
Continuous
370
    15
100
AcDbLine
 10
-12.67292500000013
 20
6.286500000000061
 30
0.0
 11
-11.02192500000012
 21
7.937499999999972
 31
0.0
  0
LINE
  5
260
330
1F
100
AcDbEntity
  8
외형선
  6
Continuous
370
    15
100
AcDbLine
 10
-11.0219250000001
 20
7.937500000000002
 30
0.0
 11
11.99999999999997
 21
7.937500000000002
 31
0.0
  0
ENDSEC
  0
SECTION
  2
OBJECTS
  0
DICTIONARY
  5
C
330
0
100
AcDbDictionary
281
     1
  3
ACAD_GROUP
350
D
  3
ACAD_IMAGE_VARS
350
13C
  3
ACAD_LAYOUT
350
1A
  3
ACAD_MLINESTYLE
350
17
  3
ACAD_PLOTSETTINGS
350
19
  3
ACAD_PLOTSTYLENAME
350
E
  3
ACAD_SCALELIST
350
47
  3
APPDATA
350
13A
  3
DWGPROPS
350
261
  0
DICTIONARY
  5
1C5
330
2
100
AcDbDictionary
280
     1
281
     1
  3
ACAD_LAYERSTATES
360
1C6
  0
DICTIONARY
  5
D
102
{ACAD_REACTORS
330
C
102
}
330
C
100
AcDbDictionary
281
     1
  0
RASTERVARIABLES
  5
13C
102
{ACAD_REACTORS
330
C
102
}
330
C
100
AcDbRasterVariables
 90
        0
 70
     1
 71
     1
 72
     1
  0
DICTIONARY
  5
1A
102
{ACAD_REACTORS
330
C
102
}
330
C
100
AcDbDictionary
281
     1
  3
Layout1
350
1E
  3
Layout2
350
26
  3
Model
350
22
  0
DICTIONARY
  5
17
102
{ACAD_REACTORS
330
C
102
}
330
C
100
AcDbDictionary
281
     1
  3
Standard
350
18
  0
DICTIONARY
  5
19
102
{ACAD_REACTORS
330
C
102
}
330
C
100
AcDbDictionary
281
     1
  0
ACDBDICTIONARYWDFLT
  5
E
102
{ACAD_REACTORS
330
C
102
}
330
C
100
AcDbDictionary
281
     1
  3
Normal
350
F
100
AcDbDictionaryWithDefault
340
F
  0
DICTIONARY
  5
47
102
{ACAD_REACTORS
330
C
102
}
330
C
100
AcDbDictionary
281
     1
  3
A0
350
48
  3
A1
350
49
  3
A2
350
4A
  3
A3
350
4B
  3
A4
350
4C
  3
A5
350
4D
  3
A6
350
4E
  3
A7
350
4F
  3
A8
350
50
  3
A9
350
51
  3
B0
350
52
  3
B1
350
53
  3
B2
350
54
  3
B3
350
55
  3
B4
350
56
  3
B5
350
57
  3
B6
350
58
  3
B7
350
59
  3
B8
350
5A
  3
B9
350
5B
  3
C0
350
5C
  3
C1
350
5D
  3
C2
350
5E
  3
C3
350
5F
  3
C4
350
60
  3
C5
350
61
  3
C6
350
62
  3
C7
350
63
  3
C8
350
64
  3
C9
350
65
  3
D0
350
66
  3
D1
350
67
  3
D2
350
68
  0
DICTIONARY
  5
13A
102
{ACAD_REACTORS
330
C
102
}
330
C
100
AcDbDictionary
281
     1
  0
XRECORD
  5
261
102
{ACAD_REACTORS
330
C
102
}
330
C
100
AcDbXrecord
280
     1
  1
DWGPROPS COOKIE
  2

  3

  4

  6

  7

  8
12016016
  9

300
=
301
=
302
=
303
=
304
=
305
=
306
=
307
=
308
=
309
=
 40
0.0
 41
2458312.373643507
 42
2458323.319766713
  1

 90
        0
  0
DICTIONARY
  5
1C6
102
{ACAD_REACTORS
330
1C5
102
}
330
1C5
100
AcDbDictionary
281
     1
  0
LAYOUT
  5
1E
102
{ACAD_REACTORS
330
1A
102
}
330
1A
100
AcDbPlotSettings
  1

  2
none_device
  4

  6

 40
0.0
 41
0.0
 42
0.0
 43
0.0
 44
0.0
 45
0.0
 46
0.0
 47
0.0
 48
0.0
 49
0.0
140
0.0
141
0.0
142
1.0
143
1.0
 70
   688
 72
     1
 73
     0
 74
     5
  7

 75
    16
147
1.0
148
0.0
149
0.0
100
AcDbLayout
  1
Layout1
 70
     1
 71
     1
 10
0.0
 20
0.0
 11
420.0
 21
297.0
 12
0.0
 22
0.0
 32
0.0
 14
1.000000000000000E+20
 24
1.000000000000000E+20
 34
1.000000000000000E+20
 15
-1.000000000000000E+20
 25
-1.000000000000000E+20
 35
-1.000000000000000E+20
146
0.0
 13
0.0
 23
0.0
 33
0.0
 16
1.0
 26
0.0
 36
0.0
 17
0.0
 27
1.0
 37
0.0
 76
     0
330
1B
  0
LAYOUT
  5
26
102
{ACAD_REACTORS
330
1A
102
}
330
1A
100
AcDbPlotSettings
  1

  2
none_device
  4

  6

 40
0.0
 41
0.0
 42
0.0
 43
0.0
 44
0.0
 45
0.0
 46
0.0
 47
0.0
 48
0.0
 49
0.0
140
0.0
141
0.0
142
1.0
143
1.0
 70
   688
 72
     1
 73
     0
 74
     5
  7

 75
    16
147
1.0
148
0.0
149
0.0
100
AcDbLayout
  1
Layout2
 70
     1
 71
     2
 10
0.0
 20
0.0
 11
0.0
 21
0.0
 12
0.0
 22
0.0
 32
0.0
 14
0.0
 24
0.0
 34
0.0
 15
0.0
 25
0.0
 35
0.0
146
0.0
 13
0.0
 23
0.0
 33
0.0
 16
1.0
 26
0.0
 36
0.0
 17
0.0
 27
1.0
 37
0.0
 76
     0
330
23
  0
LAYOUT
  5
22
102
{ACAD_REACTORS
330
1A
102
}
330
1A
100
AcDbPlotSettings
  1

  2
none_device
  4
ANSI_A_(11.00_x_8.50_Inches)
  6

 40
6.35
 41
19.05
 42
6.35000508
 43
19.05000254
 44
279.4
 45
215.9
 46
107.1300962393278
 47
100.5026560646533
 48
0.0
 49
0.0
140
0.0
141
0.0
142
0.0709734699818263
143
1.0
 70
  1696
 72
     0
 73
     0
 74
     0
  7

 75
     0
147
0.0235690232323232
148
0.0
149
0.0
100
AcDbLayout
  1
Model
 70
     1
 71
     0
 10
0.0
 20
0.0
 11
420.0
 21
297.0
 12
0.0
 22
0.0
 32
0.0
 14
1.000000000000000E+20
 24
1.000000000000000E+20
 34
1.000000000000000E+20
 15
-1.000000000000000E+20
 25
-1.000000000000000E+20
 35
-1.000000000000000E+20
146
0.0
 13
0.0
 23
0.0
 33
0.0
 16
1.0
 26
0.0
 36
0.0
 17
0.0
 27
1.0
 37
0.0
 76
     0
330
1F
331
29
  0
MLINESTYLE
  5
18
102
{ACAD_REACTORS
330
17
102
}
330
17
100
AcDbMlineStyle
  2
Standard
 70
     0
  3

 62
   256
 51
90.0
 52
90.0
 71
     2
 49
0.5
 62
   256
  6
BYLAYER
 49
-0.5
 62
   256
  6
BYLAYER
  0
ACDBPLACEHOLDER
  5
F
102
{ACAD_REACTORS
330
E
102
}
330
E
  0
SCALE
  5
48
102
{ACAD_REACTORS
330
47
102
}
330
47
100
AcDbScale
 70
     0
300
1:1
140
1.0
141
1.0
290
     1
  0
SCALE
  5
49
102
{ACAD_REACTORS
330
47
102
}
330
47
100
AcDbScale
 70
     0
300
1:2
140
1.0
141
2.0
290
     0
  0
SCALE
  5
4A
102
{ACAD_REACTORS
330
47
102
}
330
47
100
AcDbScale
 70
     0
300
1:4
140
1.0
141
4.0
290
     0
  0
SCALE
  5
4B
102
{ACAD_REACTORS
330
47
102
}
330
47
100
AcDbScale
 70
     0
300
1:5
140
1.0
141
5.0
290
     0
  0
SCALE
  5
4C
102
{ACAD_REACTORS
330
47
102
}
330
47
100
AcDbScale
 70
     0
300
1:8
140
1.0
141
8.0
290
     0
  0
SCALE
  5
4D
102
{ACAD_REACTORS
330
47
102
}
330
47
100
AcDbScale
 70
     0
300
1:10
140
1.0
141
10.0
290
     0
  0
SCALE
  5
4E
102
{ACAD_REACTORS
330
47
102
}
330
47
100
AcDbScale
 70
     0
300
1:16
140
1.0
141
16.0
290
     0
  0
SCALE
  5
4F
102
{ACAD_REACTORS
330
47
102
}
330
47
100
AcDbScale
 70
     0
300
1:20
140
1.0
141
20.0
290
     0
  0
SCALE
  5
50
102
{ACAD_REACTORS
330
47
102
}
330
47
100
AcDbScale
 70
     0
300
1:30
140
1.0
141
30.0
290
     0
  0
SCALE
  5
51
102
{ACAD_REACTORS
330
47
102
}
330
47
100
AcDbScale
 70
     0
300
1:40
140
1.0
141
40.0
290
     0
  0
SCALE
  5
52
102
{ACAD_REACTORS
330
47
102
}
330
47
100
AcDbScale
 70
     0
300
1:50
140
1.0
141
50.0
290
     0
  0
SCALE
  5
53
102
{ACAD_REACTORS
330
47
102
}
330
47
100
AcDbScale
 70
     0
300
1:100
140
1.0
141
100.0
290
     0
  0
SCALE
  5
54
102
{ACAD_REACTORS
330
47
102
}
330
47
100
AcDbScale
 70
     0
300
2:1
140
2.0
141
1.0
290
     0
  0
SCALE
  5
55
102
{ACAD_REACTORS
330
47
102
}
330
47
100
AcDbScale
 70
     0
300
4:1
140
4.0
141
1.0
290
     0
  0
SCALE
  5
56
102
{ACAD_REACTORS
330
47
102
}
330
47
100
AcDbScale
 70
     0
300
8:1
140
8.0
141
1.0
290
     0
  0
SCALE
  5
57
102
{ACAD_REACTORS
330
47
102
}
330
47
100
AcDbScale
 70
     0
300
10:1
140
10.0
141
1.0
290
     0
  0
SCALE
  5
58
102
{ACAD_REACTORS
330
47
102
}
330
47
100
AcDbScale
 70
     0
300
100:1
140
100.0
141
1.0
290
     0
  0
SCALE
  5
59
102
{ACAD_REACTORS
330
47
102
}
330
47
100
AcDbScale
 70
     0
300
1/128" = 1'-0"
140
0.0078125
141
12.0
290
     0
  0
SCALE
  5
5A
102
{ACAD_REACTORS
330
47
102
}
330
47
100
AcDbScale
 70
     0
300
1/64" = 1'-0"
140
0.015625
141
12.0
290
     0
  0
SCALE
  5
5B
102
{ACAD_REACTORS
330
47
102
}
330
47
100
AcDbScale
 70
     0
300
1/32" = 1'-0"
140
0.03125
141
12.0
290
     0
  0
SCALE
  5
5C
102
{ACAD_REACTORS
330
47
102
}
330
47
100
AcDbScale
 70
     0
300
1/16" = 1'-0"
140
0.0625
141
12.0
290
     0
  0
SCALE
  5
5D
102
{ACAD_REACTORS
330
47
102
}
330
47
100
AcDbScale
 70
     0
300
3/32" = 1'-0"
140
0.09375
141
12.0
290
     0
  0
SCALE
  5
5E
102
{ACAD_REACTORS
330
47
102
}
330
47
100
AcDbScale
 70
     0
300
1/8" = 1'-0"
140
0.125
141
12.0
290
     0
  0
SCALE
  5
5F
102
{ACAD_REACTORS
330
47
102
}
330
47
100
AcDbScale
 70
     0
300
3/16" = 1'-0"
140
0.1875
141
12.0
290
     0
  0
SCALE
  5
60
102
{ACAD_REACTORS
330
47
102
}
330
47
100
AcDbScale
 70
     0
300
1/4" = 1'-0"
140
0.25
141
12.0
290
     0
  0
SCALE
  5
61
102
{ACAD_REACTORS
330
47
102
}
330
47
100
AcDbScale
 70
     0
300
3/8" = 1'-0"
140
0.375
141
12.0
290
     0
  0
SCALE
  5
62
102
{ACAD_REACTORS
330
47
102
}
330
47
100
AcDbScale
 70
     0
300
1/2" = 1'-0"
140
0.5
141
12.0
290
     0
  0
SCALE
  5
63
102
{ACAD_REACTORS
330
47
102
}
330
47
100
AcDbScale
 70
     0
300
3/4" = 1'-0"
140
0.75
141
12.0
290
     0
  0
SCALE
  5
64
102
{ACAD_REACTORS
330
47
102
}
330
47
100
AcDbScale
 70
     0
300
1" = 1'-0"
140
1.0
141
12.0
290
     0
  0
SCALE
  5
65
102
{ACAD_REACTORS
330
47
102
}
330
47
100
AcDbScale
 70
     0
300
1-1/2" = 1'-0"
140
1.5
141
12.0
290
     0
  0
SCALE
  5
66
102
{ACAD_REACTORS
330
47
102
}
330
47
100
AcDbScale
 70
     0
300
3" = 1'-0"
140
3.0
141
12.0
290
     0
  0
SCALE
  5
67
102
{ACAD_REACTORS
330
47
102
}
330
47
100
AcDbScale
 70
     0
300
6" = 1'-0"
140
6.0
141
12.0
290
     0
  0
SCALE
  5
68
102
{ACAD_REACTORS
330
47
102
}
330
47
100
AcDbScale
 70
     0
300
1'-0" = 1'-0"
140
12.0
141
12.0
290
     0
  0
ENDSEC
  0
EOF
