  0
SECTION
  2
HEADER
  9
$ACADVER
  1
AC1015
  9
$ACADMAINTVER
 70
     6
  9
$DWGCODEPAGE
  3
ANSI_949
  9
$INSBASE
 10
0.0
 20
0.0
 30
0.0
  9
$EXTMIN
 10
1.000000000000000E+20
 20
1.000000000000000E+20
 30
1.000000000000000E+20
  9
$EXTMAX
 10
-1.000000000000000E+20
 20
-1.000000000000000E+20
 30
-1.000000000000000E+20
  9
$LIMMIN
 10
0.0
 20
0.0
  9
$LIMMAX
 10
420.0
 20
297.0
  9
$ORTHOMODE
 70
     1
  9
$REGENMODE
 70
     1
  9
$FILLMODE
 70
     1
  9
$QTEXTMODE
 70
     0
  9
$MIRRTEXT
 70
     1
  9
$LTSCALE
 40
1.0
  9
$ATTMODE
 70
     1
  9
$TEXTSIZE
 40
3.5
  9
$TRACEWID
 40
1.0
  9
$TEXTSTYLE
  7
Standard
  9
$CLAYER
  8
0
  9
$CELTYPE
  6
ByLayer
  9
$CECOLOR
 62
   256
  9
$CELTSCALE
 40
1.0
  9
$DISPSILH
 70
     0
  9
$DIMSCALE
 40
1.0
  9
$DIMASZ
 40
3.302
  9
$DIMEXO
 40
1.0
  9
$DIMDLI
 40
3.75
  9
$DIMRND
 40
0.0
  9
$DIMDLE
 40
0.0
  9
$DIMEXE
 40
1.0
  9
$DIMTP
 40
0.0
  9
$DIMTM
 40
0.0
  9
$DIMTXT
 40
3.5
  9
$DIMCEN
 40
2.5
  9
$DIMTSZ
 40
0.0
  9
$DIMTOL
 70
     0
  9
$DIMLIM
 70
     0
  9
$DIMTIH
 70
     1
  9
$DIMTOH
 70
     1
  9
$DIMSE1
 70
     0
  9
$DIMSE2
 70
     0
  9
$DIMTAD
 70
     1
  9
$DIMZIN
 70
     0
  9
$DIMBLK
  1

  9
$DIMASO
 70
     1
  9
$DIMSHO
 70
     1
  9
$DIMPOST
  1

  9
$DIMAPOST
  1

  9
$DIMALT
 70
     0
  9
$DIMALTD
 70
     3
  9
$DIMALTF
 40
0.0393700787401575
  9
$DIMLFAC
 40
1.0
  9
$DIMTOFL
 70
     1
  9
$DIMTVP
 40
0.0
  9
$DIMTIX
 70
     0
  9
$DIMSOXD
 70
     0
  9
$DIMSAH
 70
     0
  9
$DIMBLK1
  1

  9
$DIMBLK2
  1

  9
$DIMSTYLE
  2
ISO-25
  9
$DIMCLRD
 70
     0
  9
$DIMCLRE
 70
     0
  9
$DIMCLRT
 70
     0
  9
$DIMTFAC
 40
1.0
  9
$DIMGAP
 40
1.524
  9
$DIMJUST
 70
     0
  9
$DIMSD1
 70
     0
  9
$DIMSD2
 70
     0
  9
$DIMTOLJ
 70
     0
  9
$DIMTZIN
 70
     0
  9
$DIMALTZ
 70
     0
  9
$DIMALTTZ
 70
     0
  9
$DIMUPT
 70
     0
  9
$DIMDEC
 70
     2
  9
$DIMTDEC
 70
     2
  9
$DIMALTU
 70
     2
  9
$DIMALTTD
 70
     3
  9
$DIMTXSTY
  7
Standard
  9
$DIMAUNIT
 70
     0
  9
$DIMADEC
 70
     2
  9
$DIMALTRND
 40
0.0
  9
$DIMAZIN
 70
     0
  9
$DIMDSEP
 70
    44
  9
$DIMATFIT
 70
     3
  9
$DIMFRAC
 70
     0
  9
$DIMLDRBLK
  1

  9
$DIMLUNIT
 70
     2
  9
$DIMLWD
 70
    -2
  9
$DIMLWE
 70
    -2
  9
$DIMTMOVE
 70
     0
  9
$LUNITS
 70
     2
  9
$LUPREC
 70
     2
  9
$SKETCHINC
 40
1.0
  9
$FILLETRAD
 40
10.0
  9
$AUNITS
 70
     0
  9
$AUPREC
 70
     2
  9
$MENU
  1
.
  9
$ELEVATION
 40
0.0
  9
$PELEVATION
 40
0.0
  9
$THICKNESS
 40
0.0
  9
$LIMCHECK
 70
     0
  9
$CHAMFERA
 40
0.0
  9
$CHAMFERB
 40
0.0
  9
$CHAMFERC
 40
0.0
  9
$CHAMFERD
 40
0.0
  9
$SKPOLY
 70
     0
  9
$TDCREATE
 40
2458312.750126227
  9
$TDUCREATE
 40
2458312.375126227
  9
$TDUPDATE
 40
2458323.717045567
  9
$TDUUPDATE
 40
2458323.342045567
  9
$TDINDWG
 40
0.0001088773
  9
$TDUSRTIMER
 40
2458323.341936829
  9
$USRTIMER
 70
     1
  9
$ANGBASE
 50
0.0
  9
$ANGDIR
 70
     0
  9
$PDMODE
 70
     0
  9
$PDSIZE
 40
-1.0
  9
$PLINEWID
 40
0.0
  9
$SPLFRAME
 70
     0
  9
$SPLINETYPE
 70
     6
  9
$SPLINESEGS
 70
     8
  9
$HANDSEED
  5
2B0
  9
$SURFTAB1
 70
     6
  9
$SURFTAB2
 70
     6
  9
$SURFTYPE
 70
     6
  9
$SURFU
 70
     6
  9
$SURFV
 70
     6
  9
$UCSBASE
  2

  9
$UCSNAME
  2

  9
$UCSORG
 10
0.0
 20
0.0
 30
0.0
  9
$UCSXDIR
 10
1.0
 20
0.0
 30
0.0
  9
$UCSYDIR
 10
0.0
 20
1.0
 30
0.0
  9
$UCSORTHOREF
  2

  9
$UCSORTHOVIEW
 70
     0
  9
$UCSORGTOP
 10
0.0
 20
0.0
 30
0.0
  9
$UCSORGBOTTOM
 10
0.0
 20
0.0
 30
0.0
  9
$UCSORGLEFT
 10
0.0
 20
0.0
 30
0.0
  9
$UCSORGRIGHT
 10
0.0
 20
0.0
 30
0.0
  9
$UCSORGFRONT
 10
0.0
 20
0.0
 30
0.0
  9
$UCSORGBACK
 10
0.0
 20
0.0
 30
0.0
  9
$PUCSBASE
  2

  9
$PUCSNAME
  2

  9
$PUCSORG
 10
0.0
 20
0.0
 30
0.0
  9
$PUCSXDIR
 10
1.0
 20
0.0
 30
0.0
  9
$PUCSYDIR
 10
0.0
 20
1.0
 30
0.0
  9
$PUCSORTHOREF
  2

  9
$PUCSORTHOVIEW
 70
     0
  9
$PUCSORGTOP
 10
0.0
 20
0.0
 30
0.0
  9
$PUCSORGBOTTOM
 10
0.0
 20
0.0
 30
0.0
  9
$PUCSORGLEFT
 10
0.0
 20
0.0
 30
0.0
  9
$PUCSORGRIGHT
 10
0.0
 20
0.0
 30
0.0
  9
$PUCSORGFRONT
 10
0.0
 20
0.0
 30
0.0
  9
$PUCSORGBACK
 10
0.0
 20
0.0
 30
0.0
  9
$USERI1
 70
     0
  9
$USERI2
 70
     0
  9
$USERI3
 70
     0
  9
$USERI4
 70
     0
  9
$USERI5
 70
     0
  9
$USERR1
 40
0.0
  9
$USERR2
 40
0.0
  9
$USERR3
 40
0.0
  9
$USERR4
 40
0.0
  9
$USERR5
 40
0.0
  9
$WORLDVIEW
 70
     1
  9
$SHADEDGE
 70
     3
  9
$SHADEDIF
 70
    70
  9
$TILEMODE
 70
     1
  9
$MAXACTVP
 70
    64
  9
$PINSBASE
 10
0.0
 20
0.0
 30
0.0
  9
$PLIMCHECK
 70
     0
  9
$PEXTMIN
 10
1.000000000000000E+20
 20
1.000000000000000E+20
 30
1.000000000000000E+20
  9
$PEXTMAX
 10
-1.000000000000000E+20
 20
-1.000000000000000E+20
 30
-1.000000000000000E+20
  9
$PLIMMIN
 10
0.0
 20
0.0
  9
$PLIMMAX
 10
0.0
 20
0.0
  9
$UNITMODE
 70
     0
  9
$VISRETAIN
 70
     1
  9
$PLINEGEN
 70
     0
  9
$PSLTSCALE
 70
     1
  9
$TREEDEPTH
 70
  3020
  9
$CMLSTYLE
  2
Standard
  9
$CMLJUST
 70
     0
  9
$CMLSCALE
 40
20.0
  9
$PROXYGRAPHICS
 70
     1
  9
$MEASUREMENT
 70
     1
  9
$CELWEIGHT
370
    -1
  9
$ENDCAPS
280
     0
  9
$JOINSTYLE
280
     0
  9
$LWDISPLAY
290
     1
  9
$INSUNITS
 70
     4
  9
$HYPERLINKBASE
  1

  9
$STYLESHEET
  1

  9
$XEDIT
290
     1
  9
$CEPSNTYPE
380
     0
  9
$PSTYLEMODE
290
     1
  9
$FINGERPRINTGUID
  2
{479D031E-3376-4E60-A929-8F49C3E80C54}
  9
$VERSIONGUID
  2
{FAEB1C32-E019-11D5-929B-00C0DF256EC4}
  9
$EXTNAMES
290
     1
  9
$PSVPSCALE
 40
0.0
  9
$OLESTARTUP
290
     0
  0
ENDSEC
  0
SECTION
  2
CLASSES
  0
CLASS
  1
ACDBDICTIONARYWDFLT
  2
AcDbDictionaryWithDefault
  3
ObjectDBX Classes
 90
        0
280
     0
281
     0
  0
CLASS
  1
VISUALSTYLE
  2
AcDbVisualStyle
  3
ObjectDBX Classes
 90
     4095
280
     0
281
     0
  0
CLASS
  1
MATERIAL
  2
AcDbMaterial
  3
ObjectDBX Classes
 90
     1153
280
     0
281
     0
  0
CLASS
  1
SCALE
  2
AcDbScale
  3
ObjectDBX Classes
 90
     1153
280
     0
281
     0
  0
CLASS
  1
SUN
  2
AcDbSun
  3
SCENEOE
 90
     1153
280
     0
281
     0
  0
CLASS
  1
ACDBPLACEHOLDER
  2
AcDbPlaceHolder
  3
ObjectDBX Classes
 90
        0
280
     0
281
     0
  0
CLASS
  1
LAYOUT
  2
AcDbLayout
  3
ObjectDBX Classes
 90
        0
280
     0
281
     0
  0
CLASS
  1
TABLESTYLE
  2
AcDbTableStyle
  3
ObjectDBX Classes
 90
     4095
280
     0
281
     0
  0
CLASS
  1
MLEADERSTYLE
  2
AcDbMLeaderStyle
  3
ACDB_MLEADERSTYLE_CLASS
 90
     4095
280
     0
281
     0
  0
CLASS
  1
RASTERVARIABLES
  2
AcDbRasterVariables
  3
ISM
 90
        0
280
     0
281
     0
  0
ENDSEC
  0
SECTION
  2
TABLES
  0
TABLE
  2
VPORT
  5
8
330
0
100
AcDbSymbolTable
 70
     1
  0
VPORT
  5
29
330
8
100
AcDbSymbolTableRecord
100
AcDbViewportTableRecord
  2
*Active
 70
     0
 10
0.0
 20
0.0
 11
1.0
 21
1.0
 12
-59.58164798365679
 22
-25.31251201995233
 13
0.0
 23
0.0
 14
10.0
 24
10.0
 15
10.0
 25
10.0
 16
0.0
 26
0.0
 36
1.0
 17
0.0
 27
0.0
 37
0.0
 40
117.3445584270021
 41
1.632495164410058
 42
50.0
 43
0.0
 44
0.0
 50
0.0
 51
0.0
 71
    16
 72
  2000
 73
     1
 74
     3
 75
     0
 76
     0
 77
     0
 78
     0
281
     0
 65
     1
110
0.0
120
0.0
130
0.0
111
1.0
121
0.0
131
0.0
112
0.0
122
1.0
132
0.0
 79
     0
146
0.0
  0
ENDTAB
  0
TABLE
  2
LTYPE
  5
5
330
0
100
AcDbSymbolTable
 70
     6
  0
LTYPE
  5
14
330
5
100
AcDbSymbolTableRecord
100
AcDbLinetypeTableRecord
  2
ByBlock
 70
     0
  3

 72
    65
 73
     0
 40
0.0
  0
LTYPE
  5
15
330
5
100
AcDbSymbolTableRecord
100
AcDbLinetypeTableRecord
  2
ByLayer
 70
     0
  3

 72
    65
 73
     0
 40
0.0
  0
LTYPE
  5
16
330
5
100
AcDbSymbolTableRecord
100
AcDbLinetypeTableRecord
  2
Continuous
 70
     0
  3
Solid line
 72
    65
 73
     0
 40
0.0
  0
LTYPE
  5
6A
330
5
100
AcDbSymbolTableRecord
100
AcDbLinetypeTableRecord
  2
HIDDEN
 70
     0
  3
Hidden __ __ __ __ __ __ __ __ __ __ __ __ __ __
 72
    65
 73
     2
 40
1.905
 49
1.27
 74
     0
 49
-0.635
 74
     0
  0
LTYPE
  5
6B
330
5
100
AcDbSymbolTableRecord
100
AcDbLinetypeTableRecord
  2
PHANTOM
 70
     0
  3
Phantom ______  __  __  ______  __  __  ______
 72
    65
 73
     6
 40
12.7
 49
6.35
 74
     0
 49
-1.27
 74
     0
 49
1.27
 74
     0
 49
-1.27
 74
     0
 49
1.27
 74
     0
 49
-1.27
 74
     0
  0
LTYPE
  5
6C
330
5
100
AcDbSymbolTableRecord
100
AcDbLinetypeTableRecord
  2
CENTER
 70
     0
  3
Center ____ _ ____ _ ____ _ ____ _ ____ _ ____
 72
    65
 73
     4
 40
10.16
 49
6.35
 74
     0
 49
-1.27
 74
     0
 49
1.27
 74
     0
 49
-1.27
 74
     0
  0
LTYPE
  5
6D
330
5
100
AcDbSymbolTableRecord
100
AcDbLinetypeTableRecord
  2
CENTERX2
 70
     0
  3
Center (2x) ________  __  ________  __  _____
 72
    65
 73
     4
 40
20.32
 49
12.7
 74
     0
 49
-2.54
 74
     0
 49
2.54
 74
     0
 49
-2.54
 74
     0
  0
LTYPE
  5
6E
330
5
100
AcDbSymbolTableRecord
100
AcDbLinetypeTableRecord
  2
DOT2
 70
     0
  3
Dot (.5x) ........................................
 72
    65
 73
     2
 40
0.635
 49
0.0
 74
     0
 49
-0.635
 74
     0
  0
ENDTAB
  0
TABLE
  2
LAYER
  5
2
102
{ACAD_XDICTIONARY
360
1CB
102
}
330
0
100
AcDbSymbolTable
 70
    18
  0
LAYER
  5
10
330
2
100
AcDbSymbolTableRecord
100
AcDbLayerTableRecord
  2
0
 70
     0
 62
     7
  6
Continuous
370
    -3
390
F
  0
LAYER
  5
6F
330
2
100
AcDbSymbolTableRecord
100
AcDbLayerTableRecord
  2
FORMAT
 70
     0
 62
     2
  6
Continuous
370
    -3
390
F
  0
LAYER
  5
70
330
2
100
AcDbSymbolTableRecord
100
AcDbLayerTableRecord
  2
외형선
 70
     0
 62
     4
  6
Continuous
370
    30
390
F
  0
LAYER
  5
71
330
2
100
AcDbSymbolTableRecord
100
AcDbLayerTableRecord
  2
숨은선
 70
     0
 62
     2
  6
HIDDEN
370
    15
390
F
  0
LAYER
  5
72
330
2
100
AcDbSymbolTableRecord
100
AcDbLayerTableRecord
  2
중심선
 70
     0
 62
     1
  6
CENTERX2
370
    -3
390
F
  0
LAYER
  5
73
330
2
100
AcDbSymbolTableRecord
100
AcDbLayerTableRecord
  2
파단선
 70
     0
 62
     4
  6
Continuous
370
    -3
390
F
  0
LAYER
  5
74
330
2
100
AcDbSymbolTableRecord
100
AcDbLayerTableRecord
  2
해칭선
 70
     0
 62
   100
  6
Continuous
370
    -3
390
F
  0
LAYER
  5
75
330
2
100
AcDbSymbolTableRecord
100
AcDbLayerTableRecord
  2
가는실선
 70
     0
 62
     4
  6
Continuous
370
    -3
390
F
  0
LAYER
  5
76
330
2
100
AcDbSymbolTableRecord
100
AcDbLayerTableRecord
  2
치수_보조선
 70
     0
 62
     4
  6
Continuous
370
    -3
390
F
  0
LAYER
  5
77
330
2
100
AcDbSymbolTableRecord
100
AcDbLayerTableRecord
  2
치수문자_일반주서
 70
     0
 62
     7
  6
Continuous
370
    15
390
F
  0
LAYER
  5
78
330
2
100
AcDbSymbolTableRecord
100
AcDbLayerTableRecord
  2
개별주서
 70
     0
 62
   100
  6
Continuous
370
    30
390
F
  0
LAYER
  5
79
330
2
100
AcDbSymbolTableRecord
100
AcDbLayerTableRecord
  2
중간선
 70
     0
 62
     2
  6
Continuous
370
    15
390
F
  0
LAYER
  5
7A
330
2
100
AcDbSymbolTableRecord
100
AcDbLayerTableRecord
  2
윤곽선
 70
     0
 62
     3
  6
Continuous
370
    40
390
F
  0
LAYER
  5
7B
330
2
100
AcDbSymbolTableRecord
100
AcDbLayerTableRecord
  2
중심마크
 70
     0
 62
   100
  6
Continuous
370
    30
390
F
  0
LAYER
  5
7C
330
2
100
AcDbSymbolTableRecord
100
AcDbLayerTableRecord
  2
가상선
 70
     0
 62
     4
  6
PHANTOM
370
    -3
390
F
  0
LAYER
  5
7D
330
2
100
AcDbSymbolTableRecord
100
AcDbLayerTableRecord
  2
특수지정선
 70
     0
 62
     5
  6
CENTERX2
370
    60
390
F
  0
LAYER
  5
7E
330
2
100
AcDbSymbolTableRecord
100
AcDbLayerTableRecord
  2
참조1
 70
     0
 62
    -4
  6
Continuous
370
    -3
390
F
  0
LAYER
  5
137
330
2
100
AcDbSymbolTableRecord
100
AcDbLayerTableRecord
  2
Defpoints
 70
     0
 62
     7
  6
Continuous
290
     0
370
    -3
390
F
  0
ENDTAB
  0
TABLE
  2
STYLE
  5
3
330
0
100
AcDbSymbolTable
 70
     2
  0
STYLE
  5
11
330
3
100
AcDbSymbolTableRecord
100
AcDbTextStyleTableRecord
  2
Standard
 70
     0
 40
0.0
 41
1.0
 50
0.0
 71
     0
 42
3.5
  3
txt
  4

  0
STYLE
  5
94
330
3
100
AcDbSymbolTableRecord
100
AcDbTextStyleTableRecord
  2
SLDTEXTSTYLE0
 70
     0
 40
0.0
 41
0.75
 50
0.0
 71
     0
 42
3.5
  3
TXT
  4

  0
ENDTAB
  0
TABLE
  2
VIEW
  5
6
330
0
100
AcDbSymbolTable
 70
     0
  0
ENDTAB
  0
TABLE
  2
UCS
  5
7
330
0
100
AcDbSymbolTable
 70
     0
  0
ENDTAB
  0
TABLE
  2
APPID
  5
9
330
0
100
AcDbSymbolTable
 70
     1
  0
APPID
  5
12
330
9
100
AcDbSymbolTableRecord
100
AcDbRegAppTableRecord
  2
ACAD
 70
     0
  0
ENDTAB
  0
TABLE
  2
DIMSTYLE
  5
A
330
0
100
AcDbSymbolTable
 70
     4
100
AcDbDimStyleTable
  0
DIMSTYLE
105
27
330
A
100
AcDbSymbolTableRecord
100
AcDbDimStyleTableRecord
  2
ISO-25
 70
     0
 41
2.5
 42
0.625
 43
3.75
 44
1.25
 73
     0
 74
     0
 77
     1
 78
     8
140
2.5
141
2.5
143
0.03937007874016
147
0.625
171
     3
172
     1
178
     0
271
     2
272
     2
274
     3
278
    44
283
     0
284
     8
340
11
  0
DIMSTYLE
105
B4
330
A
100
AcDbSymbolTableRecord
100
AcDbDimStyleTableRecord
  2
SLDDIMSTYLE0
 70
     0
 41
3.302
 44
0.0
 45
0.000000001
 73
     0
 74
     0
 77
     1
 78
    12
 79
     3
140
3.5
143
0.0393700787401575
147
0.875
148
0.000000001
170
     1
173
     1
178
     0
271
     2
272
     2
276
     2
284
    12
340
94
  0
DIMSTYLE
105
C8
102
{ACAD_REACTORS
330
189
330
196
330
1A3
330
1B0
330
22B
330
22C
330
22D
330
22E
102
}
330
A
100
AcDbSymbolTableRecord
100
AcDbDimStyleTableRecord
  2
SLDDIMSTYLE1
 70
     0
 41
3.302
 44
0.0
 45
0.000000001
 73
     0
 74
     0
 77
     1
 78
     4
 79
     1
140
3.5
143
0.0393700787401575
147
0.875
148
0.000000001
170
     1
172
     1
173
     1
178
     0
271
     2
272
     2
276
     2
284
    12
289
     0
340
94
  0
DIMSTYLE
105
F1
330
A
100
AcDbSymbolTableRecord
100
AcDbDimStyleTableRecord
  2
SLDDIMSTYLE2
 70
     0
 41
3.302
 44
0.0
 45
0.000000001
 73
     0
 74
     0
 77
     1
 78
    12
 79
     3
140
3.5
143
0.0393700787401575
147
0.875
148
0.000000001
170
     1
172
     1
173
     1
178
     0
271
     2
272
     2
276
     2
284
    12
289
     0
340
94
  0
ENDTAB
  0
TABLE
  2
BLOCK_RECORD
  5
1
330
0
100
AcDbSymbolTable
 70
    17
  0
BLOCK_RECORD
  5
1F
330
1
100
AcDbSymbolTableRecord
100
AcDbBlockTableRecord
  2
*Model_Space
340
22
  0
BLOCK_RECORD
  5
1B
330
1
100
AcDbSymbolTableRecord
100
AcDbBlockTableRecord
  2
*Paper_Space
340
1E
  0
BLOCK_RECORD
  5
23
330
1
100
AcDbSymbolTableRecord
100
AcDbBlockTableRecord
  2
*Paper_Space0
340
26
  0
BLOCK_RECORD
  5
7F
330
1
100
AcDbSymbolTableRecord
100
AcDbBlockTableRecord
  2
블럭10
340
0
102
{BLKREFS
331
AC
102
}
  0
BLOCK_RECORD
  5
B5
330
1
100
AcDbSymbolTableRecord
100
AcDbBlockTableRecord
  2
_D
340
0
  0
BLOCK_RECORD
  5
C9
330
1
100
AcDbSymbolTableRecord
100
AcDbBlockTableRecord
  2
_D_1
340
0
  0
BLOCK_RECORD
  5
DE
330
1
100
AcDbSymbolTableRecord
100
AcDbBlockTableRecord
  2
_D_2
340
0
  0
BLOCK_RECORD
  5
F2
330
1
100
AcDbSymbolTableRecord
100
AcDbBlockTableRecord
  2
_D_3
340
0
  0
BLOCK_RECORD
  5
10C
330
1
100
AcDbSymbolTableRecord
100
AcDbBlockTableRecord
  2
SW_DOWELSYMBOL_0
340
0
102
{BLKREFS
331
0
331
1C0
331
22F
102
}
  0
BLOCK_RECORD
  5
1CF
330
1
100
AcDbSymbolTableRecord
100
AcDbBlockTableRecord
  2
*D8
340
0
  0
BLOCK_RECORD
  5
1DB
330
1
100
AcDbSymbolTableRecord
100
AcDbBlockTableRecord
  2
*D9
340
0
  0
BLOCK_RECORD
  5
1E7
330
1
100
AcDbSymbolTableRecord
100
AcDbBlockTableRecord
  2
*D10
340
0
  0
BLOCK_RECORD
  5
1F3
330
1
100
AcDbSymbolTableRecord
100
AcDbBlockTableRecord
  2
*D11
340
0
  0
BLOCK_RECORD
  5
234
330
1
100
AcDbSymbolTableRecord
100
AcDbBlockTableRecord
  2
*D12
340
0
  0
BLOCK_RECORD
  5
240
330
1
100
AcDbSymbolTableRecord
100
AcDbBlockTableRecord
  2
*D13
340
0
  0
BLOCK_RECORD
  5
24C
330
1
100
AcDbSymbolTableRecord
100
AcDbBlockTableRecord
  2
*D14
340
0
  0
BLOCK_RECORD
  5
258
330
1
100
AcDbSymbolTableRecord
100
AcDbBlockTableRecord
  2
*D15
340
0
  0
ENDTAB
  0
ENDSEC
  0
SECTION
  2
BLOCKS
  0
BLOCK
  5
20
330
1F
100
AcDbEntity
  8
0
100
AcDbBlockBegin
  2
*Model_Space
 70
     0
 10
0.0
 20
0.0
 30
0.0
  3
*Model_Space
  1
*Model_Space
  0
ENDBLK
  5
21
330
1F
100
AcDbEntity
  8
0
100
AcDbBlockEnd
  0
BLOCK
  5
1C
330
1B
100
AcDbEntity
 67
     1
  8
0
100
AcDbBlockBegin
  2
*Paper_Space
 70
     0
 10
0.0
 20
0.0
 30
0.0
  3
*Paper_Space
  1
*Paper_Space
  0
ENDBLK
  5
1D
330
1B
100
AcDbEntity
 67
     1
  8
0
100
AcDbBlockEnd
  0
BLOCK
  5
24
330
23
100
AcDbEntity
  8
0
100
AcDbBlockBegin
  2
*Paper_Space0
 70
     0
 10
0.0
 20
0.0
 30
0.0
  3
*Paper_Space0
  1
*Paper_Space0
  0
ENDBLK
  5
25
330
23
100
AcDbEntity
  8
0
100
AcDbBlockEnd
  0
BLOCK
  5
80
330
7F
100
AcDbEntity
  8
0
100
AcDbBlockBegin
  2
블럭10
 70
     2
 10
0.0
 20
0.0
 30
0.0
  3
블럭10
  1
블럭10
  0
ELLIPSE
  5
82
330
7F
100
AcDbEntity
  8
중심선
100
AcDbEllipse
 10
20.54032771741204
 20
12.0471743016438
 30
0.0
 11
6.600054785286829
 21
-1.261213355974178E-13
 31
0.0
210
0.0
220
0.0
230
1.0
 40
0.636358354079598
 41
0.9219305317359503
 42
6.513795318482858
  0
ELLIPSE
  5
83
330
7F
100
AcDbEntity
  8
중심선
100
AcDbEllipse
 10
20.54032771746488
 20
12.04717430159265
 30
0.0
 11
3.960054785062283
 21
1.540847449632565E-10
 31
0.0
210
0.0
220
0.0
230
1.0
 40
0.3939339440162632
 41
1.131841032648279
 42
5.62031148352944
  0
LINE
  5
84
330
7F
100
AcDbEntity
  8
중심선
100
AcDbLine
 10
2.268634060543552
 20
16.24717430164393
 30
0.0
 11
5.714909304380834
 21
16.24717430164393
 31
0.0
  0
LINE
  5
85
330
7F
100
AcDbEntity
  8
중심선
100
AcDbLine
 10
5.245725140726316
 20
7.84717430164391
 30
0.0
 11
8.692000384563599
 21
7.84717430164391
 31
0.0
  0
LINE
  5
86
330
7F
100
AcDbEntity
  8
중심선
100
AcDbLine
 10
15.74043728645272
 20
16.24717430164393
 30
0.0
 11
8.692000384563599
 21
7.84717430164391
 31
0.0
  0
LINE
  5
87
330
7F
100
AcDbEntity
  8
중심선
100
AcDbLine
 10
0.1404042013395286
 20
13.71084872107135
 30
0.0
 11
3.58671253028996
 21
13.71088815037384
 31
0.0
  0
LINE
  5
88
330
7F
100
AcDbEntity
  8
중심선
100
AcDbLine
 10
2.750260043222114
 20
10.84717430164391
 30
0.0
 11
6.196535287059397
 21
10.84717430164391
 31
0.0
  0
LINE
  5
89
330
7F
100
AcDbEntity
  8
중심선
100
AcDbLine
 10
12.29416204261559
 20
16.24717430164393
 30
0.0
 11
5.245725140726316
 21
7.84717430164391
 31
0.0
  0
LINE
  5
8A
330
7F
100
AcDbEntity
  8
중심선
100
AcDbLine
 10
10.72767329541681
 20
16.24717430164393
 30
0.0
 11
6.196535287059397
 21
10.84717430164391
 31
0.0
  0
LINE
  5
8B
330
7F
100
AcDbEntity
  8
중심선
100
AcDbLine
 10
7.28139805157953
 20
16.24717430164393
 30
0.0
 11
2.750260043222114
 21
10.84717430164391
 31
0.0
  0
LINE
  5
8C
330
7F
100
AcDbEntity
  8
중심선
100
AcDbLine
 10
5.714909304380834
 20
16.24717430164393
 30
0.0
 11
3.58671253028996
 21
13.71088815037384
 31
0.0
  0
LINE
  5
8D
330
7F
100
AcDbEntity
  8
중심선
100
AcDbLine
 10
2.268634060543552
 20
16.24717430164393
 30
0.0
 11
0.1404042013395286
 21
13.71084872107135
 31
0.0
  0
LINE
  5
8E
330
7F
100
AcDbEntity
  8
중심선
100
AcDbLine
 10
7.28139805157953
 20
16.24717430164393
 30
0.0
 11
10.72767329541681
 21
16.24717430164393
 31
0.0
  0
LINE
  5
8F
330
7F
100
AcDbEntity
  8
중심선
100
AcDbLine
 10
12.29416204261559
 20
16.24717430164393
 30
0.0
 11
15.74043728645272
 21
16.24717430164393
 31
0.0
  0
LINE
  5
90
330
7F
100
AcDbEntity
  8
중심선
100
AcDbLine
 10
19.22036997980202
 20
11.08717430171403
 30
0.0
 11
23.66174974927406
 21
11.08717430171406
 31
0.0
  0
LINE
  5
91
330
7F
100
AcDbEntity
  8
중심선
100
AcDbLine
 10
19.22039502424796
 20
13.00717430171391
 30
0.0
 11
19.22036997980202
 21
11.08717430171403
 31
0.0
  0
LINE
  5
92
330
7F
100
AcDbEntity
  8
중심선
100
AcDbLine
 10
19.22039502424796
 20
13.00717430171391
 30
0.0
 11
26.96566020931264
 21
13.00717430171391
 31
0.0
  0
LINE
  5
93
330
7F
100
AcDbEntity
  8
중심선
100
AcDbLine
 10
22.22332737316547
 20
13.45928029700563
 30
0.0
 11
24.52862924686651
 21
15.39360700705356
 31
0.0
  0
ATTDEF
  5
95
330
7F
100
AcDbEntity
  8
FORMAT
 62
     2
100
AcDbText
 10
4.408487351596664
 20
2.075366912832191
 30
0.0
 40
4.233333333333333
  1
E2031903
 41
0.75
  7
SLDTEXTSTYLE0
 11
4.408487351596664
 21
-0.0412997538344756
 31
0.0
100
AcDbAttributeDefinition
  3

  2
AUTOATTR0
 70
     0
 74
     1
  0
ENDBLK
  5
81
330
7F
100
AcDbEntity
  8
0
100
AcDbBlockEnd
  0
BLOCK
  5
B6
330
B5
100
AcDbEntity
  8
0
100
AcDbBlockBegin
  2
_D
 70
     0
 10
0.0
 20
0.0
 30
0.0
  3
_D
  1
_D
  0
SOLID
  5
B8
330
B5
100
AcDbEntity
  8
치수문자_일반주서
100
AcDbTrace
 10
-1.841524023601865
 20
5.218258589704702
 30
0.0
 11
-2.349524023601865
 21
1.916258589704702
 31
0.0
 12
-1.333524023601865
 22
1.916258589704702
 32
0.0
 13
-1.333524023601865
 23
1.916258589704702
 33
0.0
  0
SOLID
  5
B9
330
B5
100
AcDbEntity
  8
치수문자_일반주서
100
AcDbTrace
 10
-1.841524023601868
 20
-5.100491410295307
 30
0.0
 11
-1.333524023601868
 21
-1.798491410295307
 31
0.0
 12
-2.349524023601868
 22
-1.798491410295307
 32
0.0
 13
-2.349524023601868
 23
-1.798491410295307
 33
0.0
  0
LINE
  5
BA
330
B5
100
AcDbEntity
  8
치수문자_일반주서
100
AcDbLine
 10
-12.63440573964458
 20
10.23472747827022
 30
0.0
 11
-12.63440573964457
 21
9.52378999270572
 31
0.0
  0
LINE
  5
BB
330
B5
100
AcDbEntity
  8
치수문자_일반주서
100
AcDbLine
 10
-12.63440573964457
 20
9.52378999270572
 30
0.0
 11
-7.078155748585271
 21
9.523789992705758
 31
0.0
  0
LINE
  5
BC
330
B5
100
AcDbEntity
  8
치수문자_일반주서
100
AcDbLine
 10
-7.078155748585271
 20
9.523789992705758
 30
0.0
 11
-7.078155748585276
 21
10.23472747827026
 31
0.0
  0
LINE
  5
BD
330
B5
100
AcDbEntity
  8
치수문자_일반주서
100
AcDbLine
 10
-12.63440573964466
 20
21.06346034040748
 30
0.0
 11
-12.63440573964466
 21
21.77439782597198
 31
0.0
  0
LINE
  5
BE
330
B5
100
AcDbEntity
  8
치수문자_일반주서
100
AcDbLine
 10
-12.63440573964466
 20
21.77439782597198
 30
0.0
 11
-7.078155748585358
 21
21.77439782597202
 31
0.0
  0
LINE
  5
BF
330
B5
100
AcDbEntity
  8
치수문자_일반주서
100
AcDbLine
 10
-7.078155748585358
 20
21.77439782597202
 30
0.0
 11
-7.078155748585353
 21
21.06346034040752
 31
0.0
  0
LINE
  5
C0
330
B5
100
AcDbEntity
  8
치수문자_일반주서
100
AcDbLine
 10
3.481157664253888
 20
5.218258589704702
 30
0.0
 11
-2.841524023601865
 21
5.218258589704702
 31
0.0
  0
LINE
  5
C1
330
B5
100
AcDbEntity
  8
치수문자_일반주서
100
AcDbLine
 10
3.481157664253888
 20
-5.100491410295314
 30
0.0
 11
-2.841524023601868
 21
-5.100491410295307
 31
0.0
  0
LINE
  5
C2
330
B5
100
AcDbEntity
  8
치수문자_일반주서
100
AcDbLine
 10
-1.841524023601865
 20
5.218258589704702
 30
0.0
 11
-1.84152402360186
 21
24.10706285215994
 31
0.0
  0
LINE
  5
C3
330
B5
100
AcDbEntity
  8
치수문자_일반주서
100
AcDbLine
 10
-1.841524023601865
 20
5.218258589704702
 30
0.0
 11
-1.841524023601868
 21
-5.100491410295307
 31
0.0
  0
MTEXT
  5
C4
330
B5
100
AcDbEntity
  8
치수문자_일반주서
100
AcDbMText
 10
-11.58989266316418
 20
11.1233993788816
 30
0.0
 40
3.5
 41
0.0
 71
     1
 72
     1
  1
0.41
  7
SLDTEXTSTYLE0
 11
-7.044195017643634E-15
 21
1.0
 31
0.0
 73
     1
 44
1.0
  0
MTEXT
  5
C5
330
B5
100
AcDbEntity
  8
치수문자_일반주서
100
AcDbMText
 10
-6.353261112803678
 20
7.191124966517865
 30
0.0
 40
3.5
 41
0.0
 71
     1
 72
     1
  1
%%c
  7
SLDTEXTSTYLE0
 11
-7.044195017643634E-15
 21
1.0
 31
0.0
 73
     1
 44
1.0
  0
MTEXT
  5
C6
330
B5
100
AcDbEntity
  8
치수문자_일반주서
100
AcDbMText
 10
-6.353261112803716
 20
12.46956236489195
 30
0.0
 40
3.5
 41
0.0
 71
     1
 72
     1
  1
10.32
  7
SLDTEXTSTYLE0
 11
-7.044195017643634E-15
 21
1.0
 31
0.0
 73
     1
 44
1.0
  0
ENDBLK
  5
B7
330
B5
100
AcDbEntity
  8
0
100
AcDbBlockEnd
  0
BLOCK
  5
CA
330
C9
100
AcDbEntity
  8
0
100
AcDbBlockBegin
  2
_D_1
 70
     0
 10
0.0
 20
0.0
 30
0.0
  3
_D_1
  1
_D_1
  0
SOLID
  5
CC
330
C9
100
AcDbEntity
  8
치수문자_일반주서
100
AcDbTrace
 10
29.88115766425387
 20
15.04947043550686
 30
0.0
 11
33.18315766425387
 21
14.54147043550687
 31
0.0
 12
33.18315766425387
 22
15.55747043550687
 32
0.0
 13
33.18315766425387
 23
15.55747043550687
 33
0.0
  0
SOLID
  5
CD
330
C9
100
AcDbEntity
  8
치수문자_일반주서
100
AcDbTrace
 10
4.481157664253845
 20
15.04947043550681
 30
0.0
 11
1.179157664253845
 21
15.5574704355068
 31
0.0
 12
1.179157664253847
 22
14.5414704355068
 32
0.0
 13
1.179157664253847
 23
14.5414704355068
 33
0.0
  0
LINE
  5
CE
330
C9
100
AcDbEntity
  8
치수문자_일반주서
100
AcDbLine
 10
11.76679158243119
 20
25.84235215154961
 30
0.0
 11
11.05585409686669
 21
25.8423521515496
 31
0.0
  0
LINE
  5
CF
330
C9
100
AcDbEntity
  8
치수문자_일반주서
100
AcDbLine
 10
11.05585409686669
 20
25.8423521515496
 30
0.0
 11
11.05585409686674
 21
20.2861021604903
 31
0.0
  0
LINE
  5
D0
330
C9
100
AcDbEntity
  8
치수문자_일반주서
100
AcDbLine
 10
11.05585409686674
 20
20.2861021604903
 30
0.0
 11
11.76679158243124
 21
20.28610216049031
 31
0.0
  0
LINE
  5
D1
330
C9
100
AcDbEntity
  8
치수문자_일반주서
100
AcDbLine
 10
22.59552444456845
 20
25.8423521515497
 30
0.0
 11
23.30646193013295
 21
25.84235215154971
 31
0.0
  0
LINE
  5
D2
330
C9
100
AcDbEntity
  8
치수문자_일반주서
100
AcDbLine
 10
23.30646193013295
 20
25.84235215154971
 30
0.0
 11
23.306461930133
 21
20.28610216049041
 31
0.0
  0
LINE
  5
D3
330
C9
100
AcDbEntity
  8
치수문자_일반주서
100
AcDbLine
 10
23.306461930133
 20
20.28610216049041
 30
0.0
 11
22.5955244445685
 21
20.2861021604904
 31
0.0
  0
LINE
  5
D4
330
C9
100
AcDbEntity
  8
치수문자_일반주서
100
AcDbLine
 10
29.88115766425388
 20
6.001577696114738
 30
0.0
 11
29.88115766425386
 21
16.04947043550686
 31
0.0
  0
LINE
  5
D5
330
C9
100
AcDbEntity
  8
치수문자_일반주서
100
AcDbLine
 10
4.481157664253865
 20
5.995193093878775
 30
0.0
 11
4.481157664253844
 21
16.04947043550681
 31
0.0
  0
LINE
  5
D6
330
C9
100
AcDbEntity
  8
치수문자_일반주서
100
AcDbLine
 10
29.88115766425387
 20
15.04947043550686
 30
0.0
 11
36.23115766425386
 21
15.04947043550688
 31
0.0
  0
LINE
  5
D7
330
C9
100
AcDbEntity
  8
치수문자_일반주서
100
AcDbLine
 10
29.88115766425387
 20
15.04947043550686
 30
0.0
 11
4.481157664253845
 21
15.04947043550681
 31
0.0
  0
LINE
  5
D8
330
C9
100
AcDbEntity
  8
치수문자_일반주서
100
AcDbLine
 10
4.481157664253845
 20
15.04947043550681
 30
0.0
 11
-1.868842335746155
 21
15.04947043550679
 31
0.0
  0
MTEXT
  5
D9
330
C9
100
AcDbEntity
  8
치수문자_일반주서
100
AcDbMText
 10
10.54209537138005
 20
19.61467970136857
 30
0.0
 40
3.5
 41
0.0
 71
     1
 72
     1
  1

  7
SLDTEXTSTYLE0
 73
     1
 44
1.0
  0
MTEXT
  5
DA
330
C9
100
AcDbEntity
  8
치수문자_일반주서
100
AcDbMText
 10
12.65546348304257
 20
24.79783907506921
 30
0.0
 40
3.5
 41
0.0
 71
     1
 72
     1
  1
1.00
  7
SLDTEXTSTYLE0
 73
     1
 44
1.0
  0
MTEXT
  5
DB
330
C9
100
AcDbEntity
  8
치수문자_일반주서
100
AcDbMText
 10
11.36240776986589
 20
19.56120752470873
 30
0.0
 40
3.5
 41
0.0
 71
     1
 72
     1
  1
25.40
  7
SLDTEXTSTYLE0
 73
     1
 44
1.0
  0
MTEXT
  5
DC
330
C9
100
AcDbEntity
  8
치수문자_일반주서
100
AcDbMText
 10
25.15216517527362
 20
19.6146797013687
 30
0.0
 40
3.5
 41
0.0
 71
     1
 72
     1
  1

  7
SLDTEXTSTYLE0
 73
     1
 44
1.0
  0
ENDBLK
  5
CB
330
C9
100
AcDbEntity
  8
0
100
AcDbBlockEnd
  0
BLOCK
  5
DF
330
DE
100
AcDbEntity
  8
0
100
AcDbBlockBegin
  2
_D_2
 70
     0
 10
0.0
 20
0.0
 30
0.0
  3
_D_2
  1
_D_2
  0
SOLID
  5
E1
330
DE
100
AcDbEntity
  8
치수문자_일반주서
100
AcDbTrace
 10
29.88115766425389
 20
27.04947043550681
 30
0.0
 11
26.57915766425389
 21
27.5574704355068
 31
0.0
 12
26.57915766425389
 22
26.54147043550681
 32
0.0
 13
26.57915766425389
 23
26.54147043550681
 33
0.0
  0
SOLID
  5
E2
330
DE
100
AcDbEntity
  8
치수문자_일반주서
100
AcDbTrace
 10
-38.38134233574612
 20
27.0494704355068
 30
0.0
 11
-35.07934233574612
 21
26.5414704355068
 31
0.0
 12
-35.07934233574612
 22
27.5574704355068
 32
0.0
 13
-35.07934233574612
 23
27.5574704355068
 33
0.0
  0
LINE
  5
E3
330
DE
100
AcDbEntity
  8
치수문자_일반주서
100
AcDbLine
 10
-8.732315079352109
 20
37.84235215154953
 30
0.0
 11
-9.443252564916609
 21
37.84235215154954
 31
0.0
  0
LINE
  5
E4
330
DE
100
AcDbEntity
  8
치수문자_일반주서
100
AcDbLine
 10
-9.443252564916609
 20
37.84235215154954
 30
0.0
 11
-9.44325256491665
 21
32.28610216049024
 31
0.0
  0
LINE
  5
E5
330
DE
100
AcDbEntity
  8
치수문자_일반주서
100
AcDbLine
 10
-9.44325256491665
 20
32.28610216049024
 30
0.0
 11
-8.73231507935215
 21
32.28610216049023
 31
0.0
  0
LINE
  5
E6
330
DE
100
AcDbEntity
  8
치수문자_일반주서
100
AcDbLine
 10
2.096417782785149
 20
37.84235215154946
 30
0.0
 11
2.807355268349649
 21
37.84235215154945
 31
0.0
  0
LINE
  5
E7
330
DE
100
AcDbEntity
  8
치수문자_일반주서
100
AcDbLine
 10
2.807355268349649
 20
37.84235215154945
 30
0.0
 11
2.807355268349609
 21
32.28610216049015
 31
0.0
  0
LINE
  5
E8
330
DE
100
AcDbEntity
  8
치수문자_일반주서
100
AcDbLine
 10
2.807355268349609
 20
32.28610216049015
 30
0.0
 11
2.096417782785109
 21
32.28610216049015
 31
0.0
  0
LINE
  5
E9
330
DE
100
AcDbEntity
  8
치수문자_일반주서
100
AcDbLine
 10
29.88115766425389
 20
6.001577696114738
 30
0.0
 11
29.88115766425389
 21
28.04947043550681
 31
0.0
  0
LINE
  5
EA
330
DE
100
AcDbEntity
  8
치수문자_일반주서
100
AcDbLine
 10
-38.38134233574612
 20
4.8688835897047
 30
0.0
 11
-38.38134233574612
 21
28.04947043550681
 31
0.0
  0
LINE
  5
EB
330
DE
100
AcDbEntity
  8
치수문자_일반주서
100
AcDbLine
 10
29.88115766425389
 20
27.04947043550681
 30
0.0
 11
-38.38134233574612
 21
27.0494704355068
 31
0.0
  0
MTEXT
  5
EC
330
DE
100
AcDbEntity
  8
치수문자_일반주서
100
AcDbMText
 10
-9.95701129040335
 20
31.61467970136853
 30
0.0
 40
3.5
 41
0.0
 71
     1
 72
     1
  1

  7
SLDTEXTSTYLE0
 73
     1
 44
1.0
  0
MTEXT
  5
ED
330
DE
100
AcDbEntity
  8
치수문자_일반주서
100
AcDbMText
 10
-7.843643178740747
 20
36.79783907506912
 30
0.0
 40
3.5
 41
0.0
 71
     1
 72
     1
  1
2.69
  7
SLDTEXTSTYLE0
 73
     1
 44
1.0
  0
MTEXT
  5
EE
330
DE
100
AcDbEntity
  8
치수문자_일반주서
100
AcDbMText
 10
-9.136698891917511
 20
31.56120752470866
 30
0.0
 40
3.5
 41
0.0
 71
     1
 72
     1
  1
68.26
  7
SLDTEXTSTYLE0
 73
     1
 44
1.0
  0
MTEXT
  5
EF
330
DE
100
AcDbEntity
  8
치수문자_일반주서
100
AcDbMText
 10
4.653058513490217
 20
31.61467970136842
 30
0.0
 40
3.5
 41
0.0
 71
     1
 72
     1
  1

  7
SLDTEXTSTYLE0
 73
     1
 44
1.0
  0
ENDBLK
  5
E0
330
DE
100
AcDbEntity
  8
0
100
AcDbBlockEnd
  0
BLOCK
  5
F3
330
F2
100
AcDbEntity
  8
0
100
AcDbBlockBegin
  2
_D_3
 70
     0
 10
0.0
 20
0.0
 30
0.0
  3
_D_3
  1
_D_3
  0
SOLID
  5
F5
330
F2
100
AcDbEntity
  8
치수문자_일반주서
100
AcDbTrace
 10
-51.38134233574612
 20
4.821383589704696
 30
0.0
 11
-50.87334233574612
 21
8.123383589704694
 31
0.0
 12
-51.88934233574612
 22
8.123383589704694
 32
0.0
 13
-51.88934233574612
 23
8.123383589704694
 33
0.0
  0
SOLID
  5
F6
330
F2
100
AcDbEntity
  8
치수문자_일반주서
100
AcDbTrace
 10
-51.38134233574612
 20
-4.70361641029531
 30
0.0
 11
-51.88934233574612
 21
-8.00561641029531
 31
0.0
 12
-50.87334233574612
 22
-8.00561641029531
 32
0.0
 13
-50.87334233574612
 23
-8.00561641029531
 33
0.0
  0
LINE
  5
F7
330
F2
100
AcDbEntity
  8
치수문자_일반주서
100
AcDbLine
 10
-62.17422405178885
 20
-5.35548284136401
 30
0.0
 11
-62.17422405178885
 21
-6.06642032692851
 31
0.0
  0
LINE
  5
F8
330
F2
100
AcDbEntity
  8
치수문자_일반주서
100
AcDbLine
 10
-62.17422405178885
 20
-6.06642032692851
 30
0.0
 11
-56.61797406072954
 21
-6.066420326928471
 31
0.0
  0
LINE
  5
F9
330
F2
100
AcDbEntity
  8
치수문자_일반주서
100
AcDbLine
 10
-56.61797406072954
 20
-6.066420326928471
 30
0.0
 11
-56.61797406072955
 21
-5.355482841363971
 31
0.0
  0
LINE
  5
FA
330
F2
100
AcDbEntity
  8
치수문자_일반주서
100
AcDbLine
 10
-62.17422405178892
 20
5.473250020773248
 30
0.0
 11
-62.17422405178893
 21
6.184187506337748
 31
0.0
  0
LINE
  5
FB
330
F2
100
AcDbEntity
  8
치수문자_일반주서
100
AcDbLine
 10
-62.17422405178893
 20
6.184187506337748
 30
0.0
 11
-56.61797406072962
 21
6.184187506337787
 31
0.0
  0
LINE
  5
FC
330
F2
100
AcDbEntity
  8
치수문자_일반주서
100
AcDbLine
 10
-56.61797406072962
 20
6.184187506337787
 30
0.0
 11
-56.61797406072962
 21
5.473250020773287
 31
0.0
  0
LINE
  5
FD
330
F2
100
AcDbEntity
  8
치수문자_일반주서
100
AcDbLine
 10
-38.42884233574613
 20
4.821383589704697
 30
0.0
 11
-52.38134233574613
 21
4.821383589704696
 31
0.0
  0
LINE
  5
FE
330
F2
100
AcDbEntity
  8
치수문자_일반주서
100
AcDbLine
 10
-38.42884233574613
 20
-4.703616410295309
 30
0.0
 11
-52.38134233574613
 21
-4.70361641029531
 31
0.0
  0
LINE
  5
FF
330
F2
100
AcDbEntity
  8
치수문자_일반주서
100
AcDbLine
 10
-51.38134233574612
 20
4.821383589704696
 30
0.0
 11
-51.38134233574612
 21
11.17138358970469
 31
0.0
  0
LINE
  5
100
330
F2
100
AcDbEntity
  8
치수문자_일반주서
100
AcDbLine
 10
-51.38134233574612
 20
4.821383589704696
 30
0.0
 11
-51.38134233574612
 21
-4.70361641029531
 31
0.0
  0
LINE
  5
101
330
F2
100
AcDbEntity
  8
치수문자_일반주서
100
AcDbLine
 10
-51.38134233574612
 20
-4.70361641029531
 30
0.0
 11
-51.38134233574612
 21
-11.05361641029531
 31
0.0
  0
MTEXT
  5
102
330
F2
100
AcDbEntity
  8
치수문자_일반주서
100
AcDbMText
 10
-61.12971097530844
 20
-4.466810940752632
 30
0.0
 40
3.5
 41
0.0
 71
     1
 72
     1
  1
0.38
  7
SLDTEXTSTYLE0
 11
-7.044195017643634E-15
 21
1.0
 31
0.0
 73
     1
 44
1.0
  0
MTEXT
  5
103
330
F2
100
AcDbEntity
  8
치수문자_일반주서
100
AcDbMText
 10
-55.89307942494795
 20
-7.106030105600923
 30
0.0
 40
3.5
 41
0.0
 71
     1
 72
     1
  1
%%c
  7
SLDTEXTSTYLE0
 11
-7.044195017643634E-15
 21
1.0
 31
0.0
 73
     1
 44
1.0
  0
MTEXT
  5
104
330
F2
100
AcDbEntity
  8
치수문자_일반주서
100
AcDbMText
 10
-55.89307942494798
 20
-1.827592707226842
 30
0.0
 40
3.5
 41
0.0
 71
     1
 72
     1
  1
9.53
  7
SLDTEXTSTYLE0
 11
-7.044195017643634E-15
 21
1.0
 31
0.0
 73
     1
 44
1.0
  0
ENDBLK
  5
F4
330
F2
100
AcDbEntity
  8
0
100
AcDbBlockEnd
  0
BLOCK
  5
10D
330
10C
100
AcDbEntity
  8
0
100
AcDbBlockBegin
  2
SW_DOWELSYMBOL_0
 70
     0
 10
0.0
 20
0.0
 30
0.0
  3
SW_DOWELSYMBOL_0
  1
SW_DOWELSYMBOL_0
  0
CIRCLE
  5
10F
330
10C
100
AcDbEntity
  8
해칭선
 62
     0
100
AcDbCircle
 10
0.0
 20
0.0
 30
0.0
 40
2.999999999999999
  0
HATCH
  5
110
330
10C
100
AcDbEntity
  8
0
  6
Continuous
 62
     0
370
     0
100
AcDbHatch
 10
0.0
 20
0.0
 30
0.0
210
0.0
220
0.0
230
1.0
  2
SOLID
 70
     1
 71
     0
 91
        1
 92
        0
 93
        3
 72
     2
 10
0.0
 20
0.0
 40
2.999999999999999
 50
0.0
 51
90.0
 73
     1
 72
     1
 10
0.0
 20
2.999999999999999
 11
0.0
 21
0.0
 72
     1
 10
0.0
 20
0.0
 11
2.999999999999999
 21
0.0
 97
        0
 75
     0
 76
     1
 98
        1
 10
0.0
 20
0.0
  0
HATCH
  5
111
330
10C
100
AcDbEntity
  8
0
  6
Continuous
 62
     0
370
     0
100
AcDbHatch
 10
0.0
 20
0.0
 30
0.0
210
0.0
220
0.0
230
1.0
  2
SOLID
 70
     1
 71
     0
 91
        1
 92
        0
 93
        3
 72
     2
 10
0.0
 20
0.0
 40
2.999999999999999
 50
180.0
 51
270.0000000000008
 73
     1
 72
     1
 10
0.0
 20
-2.999999999999999
 11
0.0
 21
0.0
 72
     1
 10
0.0
 20
0.0
 11
-2.999999999999999
 21
0.0
 97
        0
 75
     0
 76
     1
 98
        1
 10
0.0
 20
0.0
  0
ENDBLK
  5
10E
330
10C
100
AcDbEntity
  8
0
100
AcDbBlockEnd
  0
BLOCK
  5
1D0
330
1CF
100
AcDbEntity
  8
0
100
AcDbBlockBegin
  2
*D8
 70
     1
 10
0.0
 20
0.0
 30
0.0
  3
*D8
  1
*D8
  0
LINE
  5
1D2
330
1CF
100
AcDbEntity
  8
치수문자_일반주서
 62
     0
370
    -2
100
AcDbLine
 10
97.90827283782724
 20
19.36649999999993
 30
0.0
 11
97.90827283782724
 21
32.46148634215358
 31
0.0
  0
LINE
  5
1D3
330
1CF
100
AcDbEntity
  8
치수문자_일반주서
 62
     0
370
    -2
100
AcDbLine
 10
66.15827283782724
 20
19.27589717288205
 30
0.0
 11
66.15827283782724
 21
32.46148634215358
 31
0.0
  0
LINE
  5
1D4
330
1CF
100
AcDbEntity
  8
치수문자_일반주서
 62
     0
370
    -2
100
AcDbLine
 10
94.60627283782725
 20
32.46148634215358
 30
0.0
 11
69.46027283782723
 21
32.46148634215358
 31
0.0
  0
SOLID
  5
1D5
330
1CF
100
AcDbEntity
  8
치수문자_일반주서
 62
     0
100
AcDbTrace
 10
94.60627283782725
 20
31.91115300882024
 30
0.0
 11
94.60627283782725
 21
33.01181967548691
 31
0.0
 12
97.90827283782724
 22
32.46148634215358
 32
0.0
 13
97.90827283782724
 23
32.46148634215358
 33
0.0
  0
SOLID
  5
1D6
330
1CF
100
AcDbEntity
  8
치수문자_일반주서
 62
     0
100
AcDbTrace
 10
69.46027283782723
 20
33.01181967548691
 30
0.0
 11
69.46027283782723
 21
31.91115300882024
 31
0.0
 12
66.15827283782724
 22
32.46148634215358
 32
0.0
 13
66.15827283782724
 23
32.46148634215358
 33
0.0
  0
MTEXT
  5
1D7
330
1CF
100
AcDbEntity
  8
치수문자_일반주서
 62
     0
100
AcDbMText
 10
80.0610082365319
 20
36.83648634215358
 30
0.0
 40
3.5
 41
0.0
 71
     2
 72
     1
  1
\A1;31.75 [1 1/4]
  7
SLDTEXTSTYLE0
 73
     1
 44
1.0
  0
POINT
  5
1D8
330
1CF
100
AcDbEntity
  8
Defpoints
 62
     0
100
AcDbPoint
 10
97.90827283782724
 20
19.30399999999993
 30
0.0
  0
POINT
  5
1D9
330
1CF
100
AcDbEntity
  8
Defpoints
 62
     0
100
AcDbPoint
 10
66.15827283782724
 20
19.21339717288205
 30
0.0
  0
POINT
  5
1DA
330
1CF
100
AcDbEntity
  8
Defpoints
 62
     0
100
AcDbPoint
 10
66.15827283782724
 20
32.46148634215358
 30
0.0
  0
ENDBLK
  5
1D1
330
1CF
100
AcDbEntity
  8
0
100
AcDbBlockEnd
  0
BLOCK
  5
1DC
330
1DB
100
AcDbEntity
  8
0
100
AcDbBlockBegin
  2
*D9
 70
     1
 10
0.0
 20
0.0
 30
0.0
  3
*D9
  1
*D9
  0
LINE
  5
1DE
330
1DB
100
AcDbEntity
  8
치수문자_일반주서
 62
     0
370
    -2
100
AcDbLine
 10
97.90827283782724
 20
19.36649999999993
 30
0.0
 11
97.90827283782724
 21
43.41097644803383
 31
0.0
  0
LINE
  5
1DF
330
1DB
100
AcDbEntity
  8
치수문자_일반주서
 62
     0
370
    -2
100
AcDbLine
 10
15.35827283782724
 20
18.09649999999993
 30
0.0
 11
15.35827283782724
 21
43.41097644803383
 31
0.0
  0
LINE
  5
1E0
330
1DB
100
AcDbEntity
  8
치수문자_일반주서
 62
     0
370
    -2
100
AcDbLine
 10
94.60627283782725
 20
43.41097644803383
 30
0.0
 11
18.66027283782724
 21
43.41097644803383
 31
0.0
  0
SOLID
  5
1E1
330
1DB
100
AcDbEntity
  8
치수문자_일반주서
 62
     0
100
AcDbTrace
 10
94.60627283782725
 20
42.86064311470049
 30
0.0
 11
94.60627283782725
 21
43.96130978136716
 31
0.0
 12
97.90827283782724
 22
43.41097644803383
 32
0.0
 13
97.90827283782724
 23
43.41097644803383
 33
0.0
  0
SOLID
  5
1E2
330
1DB
100
AcDbEntity
  8
치수문자_일반주서
 62
     0
100
AcDbTrace
 10
18.66027283782724
 20
43.96130978136716
 30
0.0
 11
18.66027283782724
 21
42.86064311470049
 31
0.0
 12
15.35827283782724
 22
43.41097644803383
 32
0.0
 13
15.35827283782724
 23
43.41097644803383
 33
0.0
  0
MTEXT
  5
1E3
330
1DB
100
AcDbEntity
  8
치수문자_일반주서
 62
     0
100
AcDbMText
 10
56.93411205491638
 20
47.78597644803383
 30
0.0
 40
3.5
 41
0.0
 71
     2
 72
     1
  1
\A1;82.55 [3 1/4]
  7
SLDTEXTSTYLE0
 73
     1
 44
1.0
  0
POINT
  5
1E4
330
1DB
100
AcDbEntity
  8
Defpoints
 62
     0
100
AcDbPoint
 10
97.90827283782724
 20
19.30399999999993
 30
0.0
  0
POINT
  5
1E5
330
1DB
100
AcDbEntity
  8
Defpoints
 62
     0
100
AcDbPoint
 10
15.35827283782724
 20
18.03399999999993
 30
0.0
  0
POINT
  5
1E6
330
1DB
100
AcDbEntity
  8
Defpoints
 62
     0
100
AcDbPoint
 10
15.35827283782724
 20
43.41097644803383
 30
0.0
  0
ENDBLK
  5
1DD
330
1DB
100
AcDbEntity
  8
0
100
AcDbBlockEnd
  0
BLOCK
  5
1E8
330
1E7
100
AcDbEntity
  8
0
100
AcDbBlockBegin
  2
*D10
 70
     1
 10
0.0
 20
0.0
 30
0.0
  3
*D10
  1
*D10
  0
LINE
  5
1EA
330
1E7
100
AcDbEntity
  8
치수문자_일반주서
 62
     0
370
    -2
100
AcDbLine
 10
16.56577283782724
 20
19.30399999999992
 30
0.0
 11
4.375000000000028
 21
19.30399999999988
 31
0.0
  0
LINE
  5
1EB
330
1E7
100
AcDbEntity
  8
치수문자_일반주서
 62
     0
370
    -2
100
AcDbLine
 10
16.56577283782724
 20
6.603999999999934
 30
0.0
 11
4.375000000000072
 21
6.603999999999888
 31
0.0
  0
LINE
  5
1EC
330
1E7
100
AcDbEntity
  8
치수문자_일반주서
 62
     0
370
    -2
100
AcDbLine
 10
4.375000000000039
 20
16.00199999999988
 30
0.0
 11
4.37500000000006
 21
9.905999999999889
 31
0.0
  0
SOLID
  5
1ED
330
1E7
100
AcDbEntity
  8
치수문자_일반주서
 62
     0
100
AcDbTrace
 10
4.925333333333373
 20
16.00199999999988
 30
0.0
 11
3.824666666666706
 21
16.00199999999987
 31
0.0
 12
4.375000000000028
 22
19.30399999999988
 32
0.0
 13
4.375000000000028
 23
19.30399999999988
 33
0.0
  0
SOLID
  5
1EE
330
1E7
100
AcDbEntity
  8
치수문자_일반주서
 62
     0
100
AcDbTrace
 10
3.824666666666727
 20
9.905999999999887
 30
0.0
 11
4.925333333333394
 21
9.90599999999989
 31
0.0
 12
4.375000000000072
 22
6.603999999999888
 32
0.0
 13
4.375000000000072
 23
6.603999999999888
 33
0.0
  0
MTEXT
  5
1EF
330
1E7
100
AcDbEntity
  8
치수문자_일반주서
 62
     0
100
AcDbMText
 10
0.0000000000000497
 20
12.95399999999991
 30
0.0
 40
3.5
 41
0.0
 71
     2
 72
     1
  1
\A1;%%c12.70 [1/2]
  7
SLDTEXTSTYLE0
 11
-3.496765431890260E-15
 21
1.0
 31
0.0
 73
     1
 44
1.0
  0
POINT
  5
1F0
330
1E7
100
AcDbEntity
  8
Defpoints
 62
     0
100
AcDbPoint
 10
16.62827283782724
 20
19.30399999999992
 30
0.0
  0
POINT
  5
1F1
330
1E7
100
AcDbEntity
  8
Defpoints
 62
     0
100
AcDbPoint
 10
16.62827283782724
 20
6.603999999999934
 30
0.0
  0
POINT
  5
1F2
330
1E7
100
AcDbEntity
  8
Defpoints
 62
     0
100
AcDbPoint
 10
4.375000000000064
 20
6.603999999999888
 30
0.0
  0
ENDBLK
  5
1E9
330
1E7
100
AcDbEntity
  8
0
100
AcDbBlockEnd
  0
BLOCK
  5
1F4
330
1F3
100
AcDbEntity
  8
0
100
AcDbBlockBegin
  2
*D11
 70
     1
 10
0.0
 20
0.0
 30
0.0
  3
*D11
  1
*D11
  0
LINE
  5
1F6
330
1F3
100
AcDbEntity
  8
치수문자_일반주서
 62
     0
370
    -2
100
AcDbLine
 10
97.97077283782724
 20
19.30399999999993
 30
0.0
 11
115.8230867222497
 21
19.304
 31
0.0
  0
LINE
  5
1F7
330
1F3
100
AcDbEntity
  8
치수문자_일반주서
 62
     0
370
    -2
100
AcDbLine
 10
97.97077283782724
 20
6.603999999999935
 30
0.0
 11
115.8230867222498
 21
6.603999999999999
 31
0.0
  0
LINE
  5
1F8
330
1F3
100
AcDbEntity
  8
치수문자_일반주서
 62
     0
370
    -2
100
AcDbLine
 10
115.8230867222497
 20
19.304
 30
0.0
 11
115.8230867222496
 21
61.26729155664174
 31
0.0
  0
LINE
  5
1F9
330
1F3
100
AcDbEntity
  8
치수문자_일반주서
 62
     0
370
    -2
100
AcDbLine
 10
115.8230867222497
 20
19.304
 30
0.0
 11
115.8230867222498
 21
6.603999999999999
 31
0.0
  0
LINE
  5
1FA
330
1F3
100
AcDbEntity
  8
치수문자_일반주서
 62
     0
370
    -2
100
AcDbLine
 10
115.8230867222497
 20
22.606
 30
0.0
 11
115.8230867222497
 21
25.908
 31
0.0
  0
LINE
  5
1FB
330
1F3
100
AcDbEntity
  8
치수문자_일반주서
 62
     0
370
    -2
100
AcDbLine
 10
115.8230867222498
 20
3.302
 30
0.0
 11
115.8230867222498
 21
0.0
 31
0.0
  0
SOLID
  5
1FC
330
1F3
100
AcDbEntity
  8
치수문자_일반주서
 62
     0
100
AcDbTrace
 10
115.2727533889164
 20
22.606
 30
0.0
 11
116.373420055583
 21
22.60600000000001
 31
0.0
 12
115.8230867222497
 22
19.304
 32
0.0
 13
115.8230867222497
 23
19.304
 33
0.0
  0
SOLID
  5
1FD
330
1F3
100
AcDbEntity
  8
치수문자_일반주서
 62
     0
100
AcDbTrace
 10
116.3734200555831
 20
3.302000000000001
 30
0.0
 11
115.2727533889164
 21
3.301999999999998
 31
0.0
 12
115.8230867222498
 22
6.603999999999999
 32
0.0
 13
115.8230867222498
 23
6.603999999999999
 33
0.0
  0
MTEXT
  5
1FE
330
1F3
100
AcDbEntity
  8
치수문자_일반주서
 62
     0
100
AcDbMText
 10
111.4480867222496
 20
47.92354155664172
 30
0.0
 40
3.5
 41
0.0
 71
     2
 72
     1
  1
\A1;%%c12.70 [1/2]
  7
SLDTEXTSTYLE0
 11
-3.356894814614647E-15
 21
1.0
 31
0.0
 73
     1
 44
1.0
  0
POINT
  5
1FF
330
1F3
100
AcDbEntity
  8
Defpoints
 62
     0
100
AcDbPoint
 10
97.90827283782724
 20
19.30399999999993
 30
0.0
  0
POINT
  5
200
330
1F3
100
AcDbEntity
  8
Defpoints
 62
     0
100
AcDbPoint
 10
97.90827283782724
 20
6.603999999999935
 30
0.0
  0
POINT
  5
201
330
1F3
100
AcDbEntity
  8
Defpoints
 62
     0
100
AcDbPoint
 10
115.8230867222498
 20
6.604000000000002
 30
0.0
  0
ENDBLK
  5
1F5
330
1F3
100
AcDbEntity
  8
0
100
AcDbBlockEnd
  0
BLOCK
  5
235
330
234
100
AcDbEntity
  8
0
100
AcDbBlockBegin
  2
*D12
 70
     1
 10
0.0
 20
0.0
 30
0.0
  3
*D12
  1
*D12
  0
LINE
  5
237
330
234
100
AcDbEntity
  8
치수문자_일반주서
 62
     0
370
    -2
100
AcDbLine
 10
35.4
 20
6.412500000000002
 30
0.0
 11
35.4
 21
19.50748634215364
 31
0.0
  0
LINE
  5
238
330
234
100
AcDbEntity
  8
치수문자_일반주서
 62
     0
370
    -2
100
AcDbLine
 10
10.0
 20
6.412500000000001
 30
0.0
 11
10.0
 21
19.50748634215364
 31
0.0
  0
LINE
  5
239
330
234
100
AcDbEntity
  8
치수문자_일반주서
 62
     0
370
    -2
100
AcDbLine
 10
32.098
 20
19.50748634215364
 30
0.0
 11
13.302
 21
19.50748634215364
 31
0.0
  0
SOLID
  5
23A
330
234
100
AcDbEntity
  8
치수문자_일반주서
 62
     0
100
AcDbTrace
 10
32.098
 20
18.95715300882031
 30
0.0
 11
32.098
 21
20.05781967548698
 31
0.0
 12
35.4
 22
19.50748634215364
 32
0.0
 13
35.4
 23
19.50748634215364
 33
0.0
  0
SOLID
  5
23B
330
234
100
AcDbEntity
  8
치수문자_일반주서
 62
     0
100
AcDbTrace
 10
13.302
 20
20.05781967548698
 30
0.0
 11
13.302
 21
18.95715300882031
 31
0.0
 12
10.0
 22
19.50748634215364
 32
0.0
 13
10.0
 23
19.50748634215364
 33
0.0
  0
MTEXT
  5
23C
330
234
100
AcDbEntity
  8
치수문자_일반주서
 62
     0
100
AcDbMText
 10
22.7
 20
23.88248634215364
 30
0.0
 40
3.5
 41
0.0
 71
     2
 72
     1
  1
\A1;25.40 [1]
  7
SLDTEXTSTYLE0
 73
     1
 44
1.0
  0
POINT
  5
23D
330
234
100
AcDbEntity
  8
Defpoints
 62
     0
100
AcDbPoint
 10
35.4
 20
6.350000000000002
 30
0.0
  0
POINT
  5
23E
330
234
100
AcDbEntity
  8
Defpoints
 62
     0
100
AcDbPoint
 10
10.0
 20
6.350000000000001
 30
0.0
  0
POINT
  5
23F
330
234
100
AcDbEntity
  8
Defpoints
 62
     0
100
AcDbPoint
 10
10.0
 20
19.50748634215364
 30
0.0
  0
ENDBLK
  5
236
330
234
100
AcDbEntity
  8
0
100
AcDbBlockEnd
  0
BLOCK
  5
241
330
240
100
AcDbEntity
  8
0
100
AcDbBlockBegin
  2
*D13
 70
     1
 10
0.0
 20
0.0
 30
0.0
  3
*D13
  1
*D13
  0
LINE
  5
243
330
240
100
AcDbEntity
  8
치수문자_일반주서
 62
     0
370
    -2
100
AcDbLine
 10
35.4
 20
6.412500000000002
 30
0.0
 11
35.4
 21
30.4569764480339
 31
0.0
  0
LINE
  5
244
330
240
100
AcDbEntity
  8
치수문자_일반주서
 62
     0
370
    -2
100
AcDbLine
 10
-32.8625
 20
3.555000000000002
 30
0.0
 11
-32.8625
 21
30.4569764480339
 31
0.0
  0
LINE
  5
245
330
240
100
AcDbEntity
  8
치수문자_일반주서
 62
     0
370
    -2
100
AcDbLine
 10
32.098
 20
30.4569764480339
 30
0.0
 11
-29.5605
 21
30.4569764480339
 31
0.0
  0
SOLID
  5
246
330
240
100
AcDbEntity
  8
치수문자_일반주서
 62
     0
100
AcDbTrace
 10
32.098
 20
29.90664311470056
 30
0.0
 11
32.098
 21
31.00730978136723
 31
0.0
 12
35.4
 22
30.4569764480339
 32
0.0
 13
35.4
 23
30.4569764480339
 33
0.0
  0
SOLID
  5
247
330
240
100
AcDbEntity
  8
치수문자_일반주서
 62
     0
100
AcDbTrace
 10
-29.5605
 20
31.00730978136723
 30
0.0
 11
-29.5605
 21
29.90664311470056
 31
0.0
 12
-32.8625
 22
30.4569764480339
 32
0.0
 13
-32.8625
 23
30.4569764480339
 33
0.0
  0
MTEXT
  5
248
330
240
100
AcDbEntity
  8
치수문자_일반주서
 62
     0
100
AcDbMText
 10
-5.574160782910866
 20
34.8319764480339
 30
0.0
 40
3.5
 41
0.0
 71
     2
 72
     1
  1
\A1;68.26 [2 11/16]
  7
SLDTEXTSTYLE0
 73
     1
 44
1.0
  0
POINT
  5
249
330
240
100
AcDbEntity
  8
Defpoints
 62
     0
100
AcDbPoint
 10
35.4
 20
6.350000000000002
 30
0.0
  0
POINT
  5
24A
330
240
100
AcDbEntity
  8
Defpoints
 62
     0
100
AcDbPoint
 10
-32.8625
 20
3.492500000000002
 30
0.0
  0
POINT
  5
24B
330
240
100
AcDbEntity
  8
Defpoints
 62
     0
100
AcDbPoint
 10
-32.8625
 20
30.4569764480339
 30
0.0
  0
ENDBLK
  5
242
330
240
100
AcDbEntity
  8
0
100
AcDbBlockEnd
  0
BLOCK
  5
24D
330
24C
100
AcDbEntity
  8
0
100
AcDbBlockBegin
  2
*D14
 70
     1
 10
0.0
 20
0.0
 30
0.0
  3
*D14
  1
*D14
  0
LINE
  5
24F
330
24C
100
AcDbEntity
  8
치수문자_일반주서
 62
     0
370
    -2
100
AcDbLine
 10
-31.655
 20
4.762500000000005
 30
0.0
 11
-42.86607106936224
 21
4.762499999999962
 31
0.0
  0
LINE
  5
250
330
24C
100
AcDbEntity
  8
치수문자_일반주서
 62
     0
370
    -2
100
AcDbLine
 10
-31.65500000000001
 20
-4.762499999999998
 30
0.0
 11
-42.86607106936221
 21
-4.762500000000041
 31
0.0
  0
LINE
  5
251
330
24C
100
AcDbEntity
  8
치수문자_일반주서
 62
     0
370
    -2
100
AcDbLine
 10
-42.86607106936223
 20
1.460499999999962
 30
0.0
 11
-42.86607106936222
 21
-1.460500000000041
 31
0.0
  0
SOLID
  5
252
330
24C
100
AcDbEntity
  8
치수문자_일반주서
 62
     0
100
AcDbTrace
 10
-42.31573773602889
 20
1.460499999999964
 30
0.0
 11
-43.41640440269556
 21
1.46049999999996
 31
0.0
 12
-42.86607106936224
 22
4.762499999999962
 32
0.0
 13
-42.86607106936224
 23
4.762499999999962
 33
0.0
  0
SOLID
  5
253
330
24C
100
AcDbEntity
  8
치수문자_일반주서
 62
     0
100
AcDbTrace
 10
-43.41640440269556
 20
-1.460500000000043
 30
0.0
 11
-42.31573773602889
 21
-1.460500000000039
 31
0.0
 12
-42.86607106936221
 22
-4.762500000000041
 32
0.0
 13
-42.86607106936221
 23
-4.762500000000041
 33
0.0
  0
MTEXT
  5
254
330
24C
100
AcDbEntity
  8
치수문자_일반주서
 62
     0
100
AcDbMText
 10
-47.24107106936223
 20
-0.0000000000000261
 30
0.0
 40
3.5
 41
0.0
 71
     2
 72
     1
  1
\A1;%%c9.53 [3/8]
  7
SLDTEXTSTYLE0
 11
-3.729883127349606E-15
 21
1.0
 31
0.0
 73
     1
 44
1.0
  0
POINT
  5
255
330
24C
100
AcDbEntity
  8
Defpoints
 62
     0
100
AcDbPoint
 10
-31.5925
 20
4.762500000000005
 30
0.0
  0
POINT
  5
256
330
24C
100
AcDbEntity
  8
Defpoints
 62
     0
100
AcDbPoint
 10
-31.59250000000001
 20
-4.762499999999998
 30
0.0
  0
POINT
  5
257
330
24C
100
AcDbEntity
  8
Defpoints
 62
     0
100
AcDbPoint
 10
-42.86607106936221
 20
-4.76250000000004
 30
0.0
  0
ENDBLK
  5
24E
330
24C
100
AcDbEntity
  8
0
100
AcDbBlockEnd
  0
BLOCK
  5
259
330
258
100
AcDbEntity
  8
0
100
AcDbBlockBegin
  2
*D15
 70
     1
 10
0.0
 20
0.0
 30
0.0
  3
*D15
  1
*D15
  0
LINE
  5
25B
330
258
100
AcDbEntity
  8
치수문자_일반주서
 62
     0
370
    -2
100
AcDbLine
 10
35.4625
 20
6.350000000000002
 30
0.0
 11
53.31481388442247
 21
6.350000000000069
 31
0.0
  0
LINE
  5
25C
330
258
100
AcDbEntity
  8
치수문자_일반주서
 62
     0
370
    -2
100
AcDbLine
 10
35.4625
 20
-6.349999999999997
 30
0.0
 11
53.31481388442251
 21
-6.34999999999993
 31
0.0
  0
LINE
  5
25D
330
258
100
AcDbEntity
  8
치수문자_일반주서
 62
     0
370
    -2
100
AcDbLine
 10
53.31481388442247
 20
6.350000000000069
 30
0.0
 11
53.31481388442233
 21
48.3132915566418
 31
0.0
  0
LINE
  5
25E
330
258
100
AcDbEntity
  8
치수문자_일반주서
 62
     0
370
    -2
100
AcDbLine
 10
53.31481388442247
 20
6.350000000000069
 30
0.0
 11
53.31481388442251
 21
-6.34999999999993
 31
0.0
  0
LINE
  5
25F
330
258
100
AcDbEntity
  8
치수문자_일반주서
 62
     0
370
    -2
100
AcDbLine
 10
53.31481388442246
 20
9.652000000000069
 30
0.0
 11
53.31481388442244
 21
12.95400000000007
 31
0.0
  0
LINE
  5
260
330
258
100
AcDbEntity
  8
치수문자_일반주서
 62
     0
370
    -2
100
AcDbLine
 10
53.31481388442253
 20
-9.65199999999993
 30
0.0
 11
53.31481388442254
 21
-12.95399999999993
 31
0.0
  0
SOLID
  5
261
330
258
100
AcDbEntity
  8
치수문자_일반주서
 62
     0
100
AcDbTrace
 10
52.76448055108912
 20
9.652000000000067
 30
0.0
 11
53.86514721775579
 21
9.65200000000007
 31
0.0
 12
53.31481388442247
 22
6.350000000000069
 32
0.0
 13
53.31481388442247
 23
6.350000000000069
 33
0.0
  0
SOLID
  5
262
330
258
100
AcDbEntity
  8
치수문자_일반주서
 62
     0
100
AcDbTrace
 10
53.86514721775586
 20
-9.651999999999928
 30
0.0
 11
52.76448055108919
 21
-9.651999999999932
 31
0.0
 12
53.31481388442251
 22
-6.34999999999993
 32
0.0
 13
53.31481388442251
 23
-6.34999999999993
 33
0.0
  0
MTEXT
  5
263
330
258
100
AcDbEntity
  8
치수문자_일반주서
 62
     0
100
AcDbMText
 10
48.93981388442237
 20
34.96954155664179
 30
0.0
 40
3.5
 41
0.0
 71
     2
 72
     1
  1
\A1;%%c12.70 [1/2]
  7
SLDTEXTSTYLE0
 11
-3.356894814614647E-15
 21
1.0
 31
0.0
 73
     1
 44
1.0
  0
POINT
  5
264
330
258
100
AcDbEntity
  8
Defpoints
 62
     0
100
AcDbPoint
 10
35.4
 20
6.350000000000002
 30
0.0
  0
POINT
  5
265
330
258
100
AcDbEntity
  8
Defpoints
 62
     0
100
AcDbPoint
 10
35.4
 20
-6.349999999999997
 30
0.0
  0
POINT
  5
266
330
258
100
AcDbEntity
  8
Defpoints
 62
     0
100
AcDbPoint
 10
53.31481388442251
 20
-6.34999999999993
 30
0.0
  0
ENDBLK
  5
25A
330
258
100
AcDbEntity
  8
0
100
AcDbBlockEnd
  0
ENDSEC
  0
SECTION
  2
ENTITIES
  0
LINE
  5
A9
330
1F
100
AcDbEntity
  8
참조1
100
AcDbLine
 10
-10.60009233574612
 20
0.0010749287238865
 30
0.0
 11
-10.60009233574612
 21
-39.99892507127611
 31
0.0
  0
LINE
  5
AA
330
1F
100
AcDbEntity
  8
참조1
100
AcDbLine
 10
-10.60009233574612
 20
-39.99892507127611
 30
0.0
 11
-25.7589491500548
 21
-39.9989250712761
 31
0.0
  0
INSERT
  5
AC
330
1F
100
AcDbEntity
  8
0
  6
Continuous
 62
     7
100
AcDbBlockReference
 66
     1
  2
블럭10
 10
-24.54036526787133
 20
-52.04609937292004
 30
0.0
  0
ATTRIB
  5
AD
330
AC
100
AcDbEntity
  8
FORMAT
 62
     2
100
AcDbText
 10
-33.72166055661261
 20
-49.97073246008785
 30
0.0
 40
4.233333333333333
  1
E2031903 [ 4 FLUTE ]
 41
0.75
  7
SLDTEXTSTYLE0
 11
-33.72166055661261
 21
-52.08739912675452
 31
0.0
100
AcDbAttribute
  2
AUTOATTR0
 70
     0
 74
     1
  0
SEQEND
  5
AE
330
AC
100
AcDbEntity
  8
0
  6
Continuous
 62
     7
  0
HATCH
  5
AF
330
1F
100
AcDbEntity
  8
중심선
100
AcDbHatch
 10
0.0
 20
0.0
 30
0.0
210
0.0
220
0.0
230
1.0
  2
SOLID
 70
     1
 71
     0
 91
        1
 92
        0
 93
        4
 72
     1
 10
-18.82545596349049
 20
-35.7989250712761
 11
-22.27173120732778
 21
-35.7989250712761
 72
     1
 10
-22.27173120732778
 20
-35.7989250712761
 11
-24.3999610665318
 21
-38.3352506518487
 72
     1
 10
-24.3999610665318
 20
-38.3352506518487
 11
-20.95365273758137
 21
-38.33521122254621
 72
     1
 10
-20.95365273758137
 20
-38.33521122254621
 11
-18.82545596349049
 21
-35.7989250712761
 97
        0
 75
     0
 76
     1
 98
        1
 10
-6.350000000000016
 20
-0.0000000000000027
  0
HATCH
  5
B0
330
1F
100
AcDbEntity
  8
중심선
100
AcDbHatch
 10
0.0
 20
0.0
 30
0.0
210
0.0
220
0.0
230
1.0
  2
SOLID
 70
     1
 71
     0
 91
        1
 92
        0
 93
        4
 72
     1
 10
-13.81269197245452
 20
-35.7989250712761
 11
-17.2589672162918
 21
-35.7989250712761
 72
     1
 10
-17.2589672162918
 20
-35.7989250712761
 11
-21.79010522464921
 21
-41.19892507127612
 72
     1
 10
-21.79010522464921
 20
-41.19892507127612
 11
-18.34382998081193
 21
-41.19892507127612
 72
     1
 10
-18.34382998081193
 20
-41.19892507127612
 11
-13.81269197245452
 21
-35.7989250712761
 97
        0
 75
     0
 76
     1
 98
        1
 10
-6.350000000000016
 20
-0.0000000000000027
  0
HATCH
  5
B1
330
1F
100
AcDbEntity
  8
중심선
100
AcDbHatch
 10
0.0
 20
0.0
 30
0.0
210
0.0
220
0.0
230
1.0
  2
SOLID
 70
     1
 71
     0
 91
        1
 92
        0
 93
        4
 72
     1
 10
-8.799927981418648
 20
-35.7989250712761
 11
-12.24620322525576
 21
-35.7989250712761
 72
     1
 10
-12.24620322525576
 20
-35.7989250712761
 11
-19.29464012714501
 21
-44.19892507127612
 72
     1
 10
-19.29464012714501
 20
-44.19892507127612
 11
-15.84836488330773
 21
-44.19892507127612
 72
     1
 10
-15.84836488330773
 20
-44.19892507127612
 11
-8.799927981418648
 21
-35.7989250712761
 97
        0
 75
     0
 76
     1
 98
        1
 10
-6.350000000000016
 20
-0.0000000000000027
  0
HATCH
  5
B2
330
1F
100
AcDbEntity
  8
중심선
100
AcDbHatch
 10
0.0
 20
0.0
 30
0.0
210
0.0
220
0.0
230
1.0
  2
SOLID
 70
     1
 71
     0
 91
        1
 92
        0
 93
        6
 72
     3
 10
-4.000037550406448
 20
-39.99892507132738
 11
3.960054785062284
 21
1.540882976769353E-10
 40
0.3939339440162627
 50
17.09539180608437
 51
320.0019657685075
 73
     0
 72
     1
 10
-2.317037894705853
 20
-38.58681907591438
 11
-0.0117360210048147
 21
-36.65249236586649
 72
     3
 10
-4.000037550459295
 20
-39.99892507127625
 11
6.600054785286829
 21
-1.278976924368180E-13
 40
0.636358354079598
 50
39.9987384933741
 51
368.4976242363725
 73
     1
 72
     1
 10
2.425294941441315
 20
-39.03892507120613
 11
-5.319970243623372
 21
-39.0389250712061
 72
     1
 10
-5.319970243623372
 20
-39.0389250712061
 11
-5.319995288069306
 21
-40.95892507120602
 72
     1
 10
-5.319995288069306
 20
-40.95892507120602
 11
-0.878615518597269
 21
-40.95892507120599
 97
        0
 75
     0
 76
     1
 98
        1
 10
-6.350000000000016
 20
-0.0000000000000027
  0
LINE
  5
105
330
1F
100
AcDbEntity
  8
참조1
100
AcDbLine
 10
72.21339147959947
 20
7.441074928723893
 30
0.0
 11
72.21339147959947
 21
-7.438925071276111
 31
0.0
  0
LINE
  5
106
330
1F
100
AcDbEntity
  8
참조1
100
AcDbLine
 10
84.91339147959948
 20
5.441074928723893
 30
0.0
 11
72.21339147959947
 21
5.441074928723893
 31
0.0
  0
SOLID
  5
107
330
1F
100
AcDbEntity
  8
참조1
100
AcDbTrace
 10
72.21339147959947
 20
5.441074928723893
 30
0.0
 11
78.56339147959946
 21
4.425074928723893
 31
0.0
 12
78.56339147959946
 22
6.457074928723893
 32
0.0
 13
78.56339147959946
 23
6.457074928723893
 33
0.0
  0
LINE
  5
108
330
1F
100
AcDbEntity
  8
참조1
100
AcDbLine
 10
84.91339147959948
 20
-5.438925071276111
 30
0.0
 11
72.21339147959947
 21
-5.438925071276111
 31
0.0
  0
SOLID
  5
109
330
1F
100
AcDbEntity
  8
참조1
100
AcDbTrace
 10
72.21339147959947
 20
-5.438925071276111
 30
0.0
 11
78.56339147959946
 21
-6.454925071276111
 31
0.0
 12
78.56339147959946
 22
-4.422925071276111
 32
0.0
 13
78.56339147959946
 23
-4.422925071276111
 33
0.0
  0
MTEXT
  5
10A
330
1F
100
AcDbEntity
  8
참조1
100
AcDbMText
 10
81.59774161222546
 20
11.01136670591222
 30
0.0
 40
3.5
 41
0.0
 71
     1
 72
     1
  1
A
  7
SLDTEXTSTYLE0
 73
     1
 44
1.0
  0
MTEXT
  5
10B
330
1F
100
AcDbEntity
  8
참조1
100
AcDbMText
 10
81.59774161222546
 20
0.1313667059122166
 30
0.0
 40
3.5
 41
0.0
 71
     1
 72
     1
  1
A
  7
SLDTEXTSTYLE0
 73
     1
 44
1.0
  0
LINE
  5
203
330
1F
100
AcDbEntity
  8
외형선
  6
Continuous
370
    15
100
AcDbLine
 10
-31.5925
 20
-4.762500000000003
 30
0.0
 11
10.00000000000001
 21
-4.762500000000003
 31
0.0
  0
LINE
  5
206
330
1F
100
AcDbEntity
  8
외형선
  6
Continuous
370
    15
100
AcDbLine
 10
-32.8625
 20
-3.492500000000001
 30
0.0
 11
-31.59250000000001
 21
-4.762499999999998
 31
0.0
  0
LINE
  5
208
330
1F
100
AcDbEntity
  8
0
  6
Continuous
 62
     1
370
    15
100
AcDbLine
 10
33.03179796316774
 20
1.883863746395343
 30
0.0
 11
32.992642940145
 21
1.905024268548956
 31
0.0
  0
LINE
  5
209
330
1F
100
AcDbEntity
  8
0
  6
Continuous
 62
     1
370
    15
100
AcDbLine
 10
19.06684546377439
 20
-6.350000000000005
 30
0.0
 11
22.9400853178977
 21
-6.350000000000005
 31
0.0
  0
LINE
  5
20A
330
1F
100
AcDbEntity
  8
0
  6
Continuous
 62
     1
370
    15
100
AcDbLine
 10
22.9400853178977
 20
6.349999999999999
 30
0.0
 11
19.06684546377448
 21
6.349999999999999
 31
0.0
  0
LINE
  5
217
330
1F
100
AcDbEntity
  8
외형선
  6
Continuous
370
    15
100
AcDbLine
 10
-32.8625
 20
0.0
 30
0.0
 11
-32.8625
 21
3.492500000000004
 31
0.0
  0
LINE
  5
218
330
1F
100
AcDbEntity
  8
외형선
  6
Continuous
370
    15
100
AcDbLine
 10
-32.8625
 20
-3.492500000000001
 30
0.0
 11
-32.8625
 21
0.0
 31
0.0
  0
LINE
  5
21B
330
1F
100
AcDbEntity
  8
0
  6
Continuous
 62
     1
370
    15
100
AcDbLine
 10
35.4
 20
-6.349999999999997
 30
0.0
 11
35.4
 21
-5.75107656777399
 31
0.0
  0
SPLINE
  5
21C
330
1F
100
AcDbEntity
  8
0
  6
Continuous
 62
     1
370
    15
100
AcDbSpline
210
0.0
220
0.0
230
1.0
 70
     8
 71
     3
 72
    48
 73
    44
 74
     0
 42
0.000000001
 43
0.00000001
 40
0.0
 40
0.0
 40
0.0
 40
0.0
 40
0.0625000000000018
 40
0.0625000000000018
 40
0.0937500000000023
 40
0.0937500000000023
 40
0.1250000000000027
 40
0.1250000000000027
 40
0.1562500000000031
 40
0.1562500000000031
 40
0.1875000000000035
 40
0.1875000000000035
 40
0.2500000000000034
 40
0.2500000000000034
 40
0.2812500000000034
 40
0.2812500000000034
 40
0.3125000000000033
 40
0.3125000000000033
 40
0.3437500000000033
 40
0.3437500000000033
 40
0.3750000000000033
 40
0.3750000000000033
 40
0.4375000000000023
 40
0.4375000000000023
 40
0.5000000000000012
 40
0.5000000000000012
 40
0.5312500000000007
 40
0.5312500000000007
 40
0.5625000000000002
 40
0.5625000000000002
 40
0.5937499999999997
 40
0.5937499999999997
 40
0.6249999999999991
 40
0.6249999999999991
 40
0.6874999999999991
 40
0.6874999999999991
 40
0.7187499999999993
 40
0.7187499999999993
 40
0.7499999999999996
 40
0.7499999999999996
 40
0.7812499999999999
 40
0.7812499999999999
 40
0.80003985938955
 40
0.80003985938955
 40
0.80003985938955
 40
0.80003985938955
 10
35.39999999999998
 20
-6.349999999999997
 30
0.0
 10
34.7421903939678
 20
-6.293988358516049
 30
0.0
 10
34.07501174443433
 20
-6.226699655026752
 30
0.0
 10
33.08441013302659
 20
-6.07606924416716
 30
0.0
 10
32.75579172860227
 20
-6.017656352298226
 30
0.0
 10
32.09348589100968
 20
-5.884367810428011
 30
0.0
 10
31.76135536096017
 20
-5.809563655088117
 30
0.0
 10
31.09919017872107
 20
-5.644551349714977
 30
0.0
 10
30.77070629398835
 20
-5.554506101346566
 30
0.0
 10
30.11007471842422
 20
-5.359299888270229
 30
0.0
 10
29.77813232263059
 20
-5.254126875433825
 30
0.0
 10
28.78349054538321
 20
-4.917741129838121
 30
0.0
 10
28.12632874845541
 20
-4.666248277495911
 30
0.0
 10
27.13155099675925
 20
-4.252012356445165
 30
0.0
 10
26.79970457196713
 20
-4.10792254587061
 30
0.0
 10
26.13954364956708
 20
-3.809528289359398
 30
0.0
 10
25.81076168747827
 20
-3.655173787303881
 30
0.0
 10
25.14832493850597
 20
-3.336207533821676
 30
0.0
 10
24.81619932849265
 20
-3.171823889212614
 30
0.0
 10
24.15418453867287
 20
-2.83526619189703
 30
0.0
 10
23.82580612907719
 20
-2.66336712820438
 30
0.0
 10
22.83452750658865
 20
-2.136492583521169
 30
0.0
 10
22.1686902642727
 20
-1.770795897705322
 30
0.0
 10
20.85181261074205
 20
-1.026925770380418
 30
0.0
 10
20.18456144994942
 20
-0.6457215881242222
 30
0.0
 10
19.19469475239888
 20
-0.0738394658648369
 30
0.0
 10
18.86572020267416
 20
0.1169575365130671
 30
0.0
 10
18.20316229272688
 20
0.498603416980143
 30
0.0
 10
17.87104652254244
 20
0.6891676282373647
 30
0.0
 10
17.20919185482392
 20
1.067456025472931
 30
0.0
 10
16.8808898706499
 20
1.254911432162792
 30
0.0
 10
16.21982628890918
 20
1.626760488066606
 30
0.0
 10
15.88780756479644
 20
1.811005972599617
 30
0.0
 10
14.89336045771983
 20
2.355315423790549
 30
0.0
 10
14.23610148557228
 20
2.70633372775723
 30
0.0
 10
13.2412464819052
 20
3.209608570601
 30
0.0
 10
12.90951565182073
 20
3.373243613077151
 30
0.0
 10
12.24986393742997
 20
3.690321936678719
 30
0.0
 10
11.92066777951873
 20
3.843985299817708
 30
0.0
 10
11.25799846495432
 20
4.141122288210064
 30
0.0
 10
10.92589745390483
 20
4.284372177796663
 30
0.0
 10
10.39612760521834
 20
4.50385293476722
 30
0.0
 10
10.19813574141557
 20
4.583975612297256
 30
0.0
 10
9.999999999999993
 20
4.661834107796894
 30
0.0
  0
SPLINE
  5
21D
330
1F
100
AcDbEntity
  8
0
  6
Continuous
 62
     1
370
    15
100
AcDbSpline
210
0.0
220
0.0
230
1.0
 70
     8
 71
     3
 72
    18
 73
    14
 74
     0
 42
0.000000001
 43
0.00000001
 40
0.3115246138411917
 40
0.3115246138411917
 40
0.3115246138411917
 40
0.3115246138411917
 40
0.3329350536289982
 40
0.3986858830099361
 40
0.4644621636408833
 40
0.5302696322315446
 40
0.5973920295488273
 40
0.6644914924381895
 40
0.7315781448803773
 40
0.7986621583423427
 40
0.8657537140834917
 40
0.9328629653853654
 40
1.0
 40
1.0
 40
1.0
 40
1.0
 10
14.92604050646785
 20
4.22753131835863
 30
0.0
 10
15.13825605439905
 20
4.136094382031544
 30
0.0
 10
16.00218135232252
 20
3.754264081601587
 30
0.0
 10
17.51811355794742
 20
3.019898398866467
 30
0.0
 10
19.47424200040657
 20
1.977354673825912
 30
0.0
 10
21.44427452053828
 20
0.8652840916156821
 30
0.0
 10
23.42717817843279
 20
-0.2828717908953555
 30
0.0
 10
25.42264086221662
 20
-1.429338994907817
 30
0.0
 10
27.41764309358296
 20
-2.528546106418282
 30
0.0
 10
29.4125511413853
 20
-3.545700028289262
 30
0.0
 10
31.40773214380827
 20
-4.442865521950984
 30
0.0
 10
33.40352806886641
 20
-5.207804991162235
 30
0.0
 10
34.73441754364689
 20
-5.569961058565322
 30
0.0
 10
35.39999999999998
 20
-5.75107656777399
 30
0.0
  0
LINE
  5
21E
330
1F
100
AcDbEntity
  8
0
  6
Continuous
 62
     1
370
    15
100
AcDbLine
 10
35.4
 20
-5.75107656777399
 30
0.0
 11
35.4
 21
0.5440765677740602
 31
0.0
  0
SPLINE
  5
21F
330
1F
100
AcDbEntity
  8
0
  6
Continuous
 62
     1
370
    15
100
AcDbSpline
210
0.0
220
0.0
230
1.0
 70
     8
 71
     3
 72
    19
 73
    15
 74
     0
 42
0.000000001
 43
0.00000001
 40
0.0
 40
0.0
 40
0.0
 40
0.0
 40
0.0864868890511565
 40
0.1729370763562608
 40
0.2593641480778845
 40
0.3457817783998198
 40
0.432203677517813
 40
0.5171016929195683
 40
0.6020408150014696
 40
0.6869930417858748
 40
0.7719002578768354
 40
0.8585153912942161
 40
0.9451222000037698
 40
0.9918376365105378
 40
0.9918376365105378
 40
0.9918376365105378
 40
0.9918376365105378
 10
35.39999999999998
 20
0.5440765677740584
 30
0.0
 10
34.73586618786616
 20
0.9242142415899499
 30
0.0
 10
33.40788039672699
 20
1.684328273252082
 30
0.0
 10
31.41645113852707
 20
2.76487578565635
 30
0.0
 10
29.42564251808678
 20
3.756174080160609
 30
0.0
 10
27.43510358116269
 20
4.624321824624574
 30
0.0
 10
25.45626663455199
 20
5.337171981134383
 30
0.0
 10
23.48876179929868
 20
5.874792778942433
 30
0.0
 10
21.53228949426124
 20
6.223986345764669
 30
0.0
 10
19.57563573771548
 20
6.376398094099227
 30
0.0
 10
17.60644680523834
 20
6.329262477190089
 30
0.0
 10
15.62457544210147
 20
6.070337473066304
 30
0.0
 10
13.9359911575506
 20
5.703506655051222
 30
0.0
 10
12.91237621157133
 20
5.368962954669493
 30
0.0
 10
12.55370629830911
 20
5.249692027876201
 30
0.0
  0
SPLINE
  5
220
330
1F
100
AcDbEntity
  8
0
  6
Continuous
 62
     1
370
    15
100
AcDbSpline
210
0.0
220
0.0
230
1.0
 70
     8
 71
     3
 72
    12
 73
     8
 74
     0
 42
0.000000001
 43
0.00000001
 40
0.0
 40
0.0
 40
0.0
 40
0.0
 40
0.0938774977350836
 40
0.223290528289988
 40
0.352691120768244
 40
0.4820989156678749
 40
0.5881390570598952
 40
0.5881390570598952
 40
0.5881390570598952
 40
0.5881390570598952
 10
19.06684546377439
 20
-6.33070613826298
 30
0.0
 10
18.5844142147972
 20
-6.327781734656939
 30
0.0
 10
17.43693658654059
 20
-6.320825950343549
 30
0.0
 10
15.62458188779848
 20
-6.070422326435198
 30
0.0
 10
13.62967842471181
 20
-5.621548204185894
 30
0.0
 10
11.75485981187995
 20
-5.019686530851876
 30
0.0
 10
10.54493565488092
 20
-4.542265534462751
 30
0.0
 10
9.99999999999999
 20
-4.311319708017778
 30
0.0
  0
SPLINE
  5
221
330
1F
100
AcDbEntity
  8
0
  6
Continuous
 62
     1
370
    15
100
AcDbSpline
210
0.0
220
0.0
230
1.0
 70
     8
 71
     3
 72
    18
 73
    14
 74
     0
 42
0.000000001
 43
0.00000001
 40
0.2443007911661031
 40
0.2443007911661031
 40
0.2443007911661031
 40
0.2443007911661031
 40
0.3065288444693759
 40
0.3831203387532458
 40
0.4583383495289999
 40
0.5335687498268594
 40
0.6088282707874435
 40
0.6841234762057876
 40
0.7609231891018082
 40
0.8376966610179135
 40
0.9144554755513217
 40
0.9912112706317375
 40
1.0
 40
1.0
 40
1.0
 40
1.0
 10
9.999999999999996
 20
-2.439430996092752
 30
0.0
 10
10.53911926825568
 20
-2.726778418948701
 30
0.0
 10
11.74176505214137
 20
-3.348372338416032
 30
0.0
 10
13.59600069564912
 20
-4.215939460394361
 30
0.0
 10
15.56278239787027
 20
-5.001194729564798
 30
0.0
 10
17.51811353531681
 20
-5.624063425681691
 30
0.0
 10
19.47424202509399
 20
-6.069530331698345
 30
0.0
 10
21.44427444372391
 20
-6.325532185292664
 30
0.0
 10
23.42717846695408
 20
-6.377926177130119
 30
0.0
 10
25.42263978783101
 20
-6.225701850855801
 30
0.0
 10
27.41764710186403
 20
-5.852396573849856
 30
0.0
 10
28.8236681038364
 20
-5.497840429994639
 30
0.0
 10
29.56476227276006
 20
-5.226441834724709
 30
0.0
 10
29.64090129076322
 20
-5.198558708129212
 30
0.0
  0
SPLINE
  5
223
330
1F
100
AcDbEntity
  8
0
  6
Continuous
 62
     1
370
    15
100
AcDbSpline
210
0.0
220
0.0
230
1.0
 70
     8
 71
     3
 72
    14
 73
    10
 74
     0
 42
0.000000001
 43
0.00000001
 40
0.0
 40
0.0
 40
0.0
 40
0.0
 40
0.0391070533698805
 40
0.199251425426908
 40
0.3593652231554668
 40
0.5194727225052843
 40
0.6795982227974594
 40
0.8397659565791225
 40
1.0
 40
1.0
 40
1.0
 40
1.0
 10
22.9400853178977
 20
6.330731961796425
 30
0.0
 10
23.10251968129614
 20
6.336549440156657
 30
0.0
 10
23.93012686865776
 20
6.366189639450202
 30
0.0
 10
25.4226321114918
 20
6.212382329934759
 30
0.0
 10
27.41764543797247
 20
5.865595859026567
 30
0.0
 10
29.41255051336177
 20
5.309865557630435
 30
0.0
 10
31.40773231133613
 20
4.582612486722639
 30
0.0
 10
33.40352802695963
 20
3.70992448268455
 30
0.0
 10
34.73441752967604
 20
3.031448365401789
 30
0.0
 10
35.39999999999998
 20
2.692140098806282
 30
0.0
  0
LINE
  5
224
330
1F
100
AcDbEntity
  8
0
  6
Continuous
 62
     1
370
    15
100
AcDbLine
 10
35.4
 20
0.5440765677740602
 30
0.0
 11
35.4
 21
2.69214009880628
 31
0.0
  0
SPLINE
  5
227
330
1F
100
AcDbEntity
  8
0
  6
Continuous
 62
     1
370
    15
100
AcDbSpline
210
0.0
220
0.0
230
1.0
 70
     8
 71
     3
 72
    10
 73
     6
 74
     0
 42
0.000000001
 43
0.00000001
 40
0.0
 40
0.0
 40
0.0
 40
0.0
 40
0.3459255874039182
 40
0.691704377146351
 40
1.0
 40
1.0
 40
1.0
 40
1.0
 10
35.39999999999998
 20
6.350000000000002
 30
0.0
 10
34.73586647003975
 20
6.272971331171559
 30
0.0
 10
33.40788124312802
 20
6.165639859635154
 30
0.0
 10
31.4882250633139
 20
5.776947306849153
 30
0.0
 10
30.23269219456534
 20
5.383845725311201
 30
0.0
 10
29.64090129076322
 20
5.198558708129203
 30
0.0
  0
LINE
  5
228
330
1F
100
AcDbEntity
  8
0
  6
Continuous
 62
     1
370
    15
100
AcDbLine
 10
35.4
 20
2.690139749320211
 30
0.0
 11
35.4
 21
6.350000000000002
 31
0.0
  0
LINE
  5
229
330
1F
100
AcDbEntity
  8
중심선
 48
0.8
100
AcDbLine
 10
-35.86250000000001
 20
-0.0000000000000063
 30
0.0
 11
38.40000000000001
 21
0.0000000000000027
 31
0.0
  0
CIRCLE
  5
22A
330
1F
100
AcDbEntity
  8
해칭선
100
AcDbCircle
 10
0.0
 20
0.0
 30
0.0
 40
3.000000000000003
  0
DIMENSION
  5
22B
330
1F
100
AcDbEntity
  8
치수문자_일반주서
100
AcDbDimension
  2
*D12
 10
10.0
 20
19.50748634215364
 30
0.0
 11
22.7
 21
19.50748634215364
 31
0.0
 70
   160
  1
<>
 71
     2
 42
25.4
  3
SLDDIMSTYLE1
100
AcDbAlignedDimension
 13
35.4
 23
6.350000000000002
 33
0.0
 14
10.0
 24
6.350000000000001
 34
0.0
100
AcDbRotatedDimension
1001
ACAD
1000
DSTYLE
1002
{
1070
   171
1070
     6
1070
   273
1070
     7
1002
}
  0
DIMENSION
  5
22C
330
1F
100
AcDbEntity
  8
치수문자_일반주서
100
AcDbDimension
  2
*D13
 10
-32.8625
 20
30.4569764480339
 30
0.0
 11
-5.574160782910866
 21
30.4569764480339
 31
0.0
 70
   160
  1
<>
 71
     2
 42
68.2625
  3
SLDDIMSTYLE1
100
AcDbAlignedDimension
 13
35.4
 23
6.350000000000002
 33
0.0
 14
-32.8625
 24
3.492500000000002
 34
0.0
 50
0.0000000000000049
100
AcDbRotatedDimension
1001
ACAD
1000
DSTYLE
1002
{
1070
   171
1070
     6
1070
   273
1070
     7
1002
}
  0
DIMENSION
  5
22D
330
1F
100
AcDbEntity
  8
치수문자_일반주서
100
AcDbDimension
  2
*D14
 10
-42.86607106936221
 20
-4.762500000000041
 30
0.0
 11
-42.86607106936223
 21
-0.0000000000000098
 31
0.0
 70
   160
  1
%%c<>
 71
     2
 42
9.525000000000002
 52
-270.0
  3
SLDDIMSTYLE1
100
AcDbAlignedDimension
 13
-31.5925
 23
4.762500000000005
 33
0.0
 14
-31.59250000000001
 24
-4.762499999999998
 34
0.0
 50
90.0000000000002
100
AcDbRotatedDimension
1001
ACAD
1000
DSTYLE
1002
{
1070
   171
1070
     6
1070
   273
1070
     7
1002
}
  0
DIMENSION
  5
22E
330
1F
100
AcDbEntity
  8
치수문자_일반주서
100
AcDbDimension
  2
*D15
 10
53.31481388442251
 20
-6.34999999999993
 30
0.0
 11
53.31481388442237
 21
34.96954155664181
 31
0.0
 70
   160
  1
%%c<>
 71
     2
 42
12.7
 52
-270.0
  3
SLDDIMSTYLE1
100
AcDbAlignedDimension
 13
35.4
 23
6.350000000000002
 33
0.0
 14
35.4
 24
-6.349999999999997
 34
0.0
 50
90.0000000000002
100
AcDbRotatedDimension
1001
ACAD
1000
DSTYLE
1002
{
1070
   171
1070
     6
1070
   273
1070
     7
1002
}
  0
INSERT
  5
22F
330
1F
100
AcDbEntity
  8
해칭선
100
AcDbBlockReference
  2
SW_DOWELSYMBOL_0
 10
0.0
 20
0.0
 30
0.0
  0
LINE
  5
268
330
1F
100
AcDbEntity
  8
외형선
  6
Continuous
370
    15
100
AcDbLine
 10
10.0
 20
6.350000000000001
 30
0.0
 11
10.0
 21
-6.350000000000001
 31
0.0
  0
SPLINE
  5
26B
330
1F
100
AcDbEntity
  8
0
  6
Continuous
 62
     1
370
    15
100
AcDbSpline
210
0.0
220
0.0
230
1.0
 70
     8
 71
     3
 72
     9
 73
     5
 74
     0
 42
0.000000001
 43
0.0000000001
 40
0.0
 40
0.0
 40
0.0
 40
0.0
 40
2.37385801364746
 40
2.956425628001056
 40
2.956425628001056
 40
2.956425628001056
 40
2.956425628001056
 10
10.0
 20
-6.350000000000001
 30
0.0
 10
10.78715970205316
 20
-6.177303010484379
 30
0.0
 10
11.76749597452629
 20
-5.962224516847716
 30
0.0
 10
12.59646692975832
 20
-5.443055780914304
 30
0.0
 10
12.75603832756646
 20
-5.333162080021798
 30
0.0
  0
SPLINE
  5
26C
330
1F
100
AcDbEntity
  8
0
  6
Continuous
 62
     1
370
    15
100
AcDbSpline
210
0.0
220
0.0
230
1.0
 70
    24
 71
     3
 72
     8
 73
     4
 74
     2
 42
0.000000001
 43
0.0000000001
 44
0.0
 40
0.0
 40
0.0
 40
0.0
 40
0.0
 40
5.363837094460502
 40
5.363837094460502
 40
5.363837094460502
 40
5.363837094460502
 10
10.0
 20
6.350000000000001
 30
0.0
 10
11.64201350215595
 20
5.642510439452877
 30
0.0
 10
13.2840270043119
 20
4.935020878905755
 30
0.0
 10
14.92604050646785
 20
4.227531318358632
 30
0.0
 11
10.0
 21
6.350000000000001
 31
0.0
 11
14.92604050646785
 21
4.227531318358632
 31
0.0
  0
LINE
  5
26D
330
1F
100
AcDbEntity
  8
외형선
  6
Continuous
370
    15
100
AcDbLine
 10
-31.59250000000001
 20
4.7625
 30
0.0
 11
-31.59250000000001
 21
-4.762499999999998
 31
0.0
  0
LINE
  5
26E
330
1F
100
AcDbEntity
  8
외형선
  6
Continuous
370
    15
100
AcDbLine
 10
-31.5925
 20
4.762500000000005
 30
0.0
 11
-17.85745000000014
 21
4.762500000000005
 31
0.0
  0
LINE
  5
26F
330
1F
100
AcDbEntity
  8
외형선
  6
Continuous
370
    15
100
AcDbLine
 10
-32.8625
 20
3.492500000000002
 30
0.0
 11
-31.59250000000001
 21
4.7625
 31
0.0
  0
LINE
  5
2AB
330
1F
100
AcDbEntity
  8
외형선
  6
Continuous
370
    15
100
AcDbLine
 10
-16.58745000000013
 20
3.492500000000007
 30
0.0
 11
-9.450050000000005
 21
3.492500000000007
 31
0.0
  0
LINE
  5
2AC
330
1F
100
AcDbEntity
  8
외형선
  6
Continuous
370
    15
100
AcDbLine
 10
-16.58745000000013
 20
3.492500000000007
 30
0.0
 11
-17.85745000000011
 21
4.762499999999989
 31
0.0
  0
LINE
  5
2AD
330
1F
100
AcDbEntity
  8
외형선
  6
Continuous
370
    15
100
AcDbLine
 10
-9.450050000000005
 20
3.492500000000007
 30
0.0
 11
-8.180049999999909
 21
4.762499999999989
 31
0.0
  0
LINE
  5
2AE
330
1F
100
AcDbEntity
  8
외형선
  6
Continuous
370
    15
100
AcDbLine
 10
-8.180049999999895
 20
4.762500000000005
 30
0.0
 11
10.00000000000001
 21
4.762500000000005
 31
0.0
  0
ENDSEC
  0
SECTION
  2
OBJECTS
  0
DICTIONARY
  5
C
330
0
100
AcDbDictionary
281
     1
  3
ACAD_GROUP
350
D
  3
ACAD_IMAGE_VARS
350
136
  3
ACAD_LAYOUT
350
1A
  3
ACAD_MLINESTYLE
350
17
  3
ACAD_PLOTSETTINGS
350
19
  3
ACAD_PLOTSTYLENAME
350
E
  3
ACAD_SCALELIST
350
47
  3
APPDATA
350
134
  3
DWGPROPS
350
2AF
  0
DICTIONARY
  5
1CB
330
2
100
AcDbDictionary
280
     1
281
     1
  3
ACAD_LAYERSTATES
360
1CC
  0
DICTIONARY
  5
D
102
{ACAD_REACTORS
330
C
102
}
330
C
100
AcDbDictionary
281
     1
  0
RASTERVARIABLES
  5
136
102
{ACAD_REACTORS
330
C
102
}
330
C
100
AcDbRasterVariables
 90
        0
 70
     1
 71
     1
 72
     1
  0
DICTIONARY
  5
1A
102
{ACAD_REACTORS
330
C
102
}
330
C
100
AcDbDictionary
281
     1
  3
Layout1
350
1E
  3
Layout2
350
26
  3
Model
350
22
  0
DICTIONARY
  5
17
102
{ACAD_REACTORS
330
C
102
}
330
C
100
AcDbDictionary
281
     1
  3
Standard
350
18
  0
DICTIONARY
  5
19
102
{ACAD_REACTORS
330
C
102
}
330
C
100
AcDbDictionary
281
     1
  0
ACDBDICTIONARYWDFLT
  5
E
102
{ACAD_REACTORS
330
C
102
}
330
C
100
AcDbDictionary
281
     1
  3
Normal
350
F
100
AcDbDictionaryWithDefault
340
F
  0
DICTIONARY
  5
47
102
{ACAD_REACTORS
330
C
102
}
330
C
100
AcDbDictionary
281
     1
  3
A0
350
48
  3
A1
350
49
  3
A2
350
4A
  3
A3
350
4B
  3
A4
350
4C
  3
A5
350
4D
  3
A6
350
4E
  3
A7
350
4F
  3
A8
350
50
  3
A9
350
51
  3
B0
350
52
  3
B1
350
53
  3
B2
350
54
  3
B3
350
55
  3
B4
350
56
  3
B5
350
57
  3
B6
350
58
  3
B7
350
59
  3
B8
350
5A
  3
B9
350
5B
  3
C0
350
5C
  3
C1
350
5D
  3
C2
350
5E
  3
C3
350
5F
  3
C4
350
60
  3
C5
350
61
  3
C6
350
62
  3
C7
350
63
  3
C8
350
64
  3
C9
350
65
  3
D0
350
66
  3
D1
350
67
  3
D2
350
68
  0
DICTIONARY
  5
134
102
{ACAD_REACTORS
330
C
102
}
330
C
100
AcDbDictionary
281
     1
  0
XRECORD
  5
2AF
102
{ACAD_REACTORS
330
C
102
}
330
C
100
AcDbXrecord
280
     1
  1
DWGPROPS COOKIE
  2

  3

  4

  6

  7

  8
12016016
  9

300
=
301
=
302
=
303
=
304
=
305
=
306
=
307
=
308
=
309
=
 40
0.0
 41
2458312.375126227
 42
2458323.342045567
  1

 90
        0
  0
DICTIONARY
  5
1CC
102
{ACAD_REACTORS
330
1CB
102
}
330
1CB
100
AcDbDictionary
281
     1
  0
LAYOUT
  5
1E
102
{ACAD_REACTORS
330
1A
102
}
330
1A
100
AcDbPlotSettings
  1

  2
none_device
  4

  6

 40
0.0
 41
0.0
 42
0.0
 43
0.0
 44
0.0
 45
0.0
 46
0.0
 47
0.0
 48
0.0
 49
0.0
140
0.0
141
0.0
142
1.0
143
1.0
 70
   688
 72
     1
 73
     0
 74
     5
  7

 75
    16
147
1.0
148
0.0
149
0.0
100
AcDbLayout
  1
Layout1
 70
     1
 71
     1
 10
0.0
 20
0.0
 11
420.0
 21
297.0
 12
0.0
 22
0.0
 32
0.0
 14
1.000000000000000E+20
 24
1.000000000000000E+20
 34
1.000000000000000E+20
 15
-1.000000000000000E+20
 25
-1.000000000000000E+20
 35
-1.000000000000000E+20
146
0.0
 13
0.0
 23
0.0
 33
0.0
 16
1.0
 26
0.0
 36
0.0
 17
0.0
 27
1.0
 37
0.0
 76
     0
330
1B
  0
LAYOUT
  5
26
102
{ACAD_REACTORS
330
1A
102
}
330
1A
100
AcDbPlotSettings
  1

  2
none_device
  4

  6

 40
0.0
 41
0.0
 42
0.0
 43
0.0
 44
0.0
 45
0.0
 46
0.0
 47
0.0
 48
0.0
 49
0.0
140
0.0
141
0.0
142
1.0
143
1.0
 70
   688
 72
     1
 73
     0
 74
     5
  7

 75
    16
147
1.0
148
0.0
149
0.0
100
AcDbLayout
  1
Layout2
 70
     1
 71
     2
 10
0.0
 20
0.0
 11
0.0
 21
0.0
 12
0.0
 22
0.0
 32
0.0
 14
0.0
 24
0.0
 34
0.0
 15
0.0
 25
0.0
 35
0.0
146
0.0
 13
0.0
 23
0.0
 33
0.0
 16
1.0
 26
0.0
 36
0.0
 17
0.0
 27
1.0
 37
0.0
 76
     0
330
23
  0
LAYOUT
  5
22
102
{ACAD_REACTORS
330
1A
102
}
330
1A
100
AcDbPlotSettings
  1

  2
none_device
  4
ANSI_A_(11.00_x_8.50_Inches)
  6

 40
6.35
 41
19.05
 42
6.35000508
 43
19.05000254
 44
279.4
 45
215.9
 46
107.1300962393278
 47
100.5026560646533
 48
0.0
 49
0.0
140
0.0
141
0.0
142
0.0709734699818263
143
1.0
 70
  1696
 72
     0
 73
     0
 74
     0
  7

 75
     0
147
0.0235690232323232
148
0.0
149
0.0
100
AcDbLayout
  1
Model
 70
     1
 71
     0
 10
0.0
 20
0.0
 11
420.0
 21
297.0
 12
0.0
 22
0.0
 32
0.0
 14
1.000000000000000E+20
 24
1.000000000000000E+20
 34
1.000000000000000E+20
 15
-1.000000000000000E+20
 25
-1.000000000000000E+20
 35
-1.000000000000000E+20
146
0.0
 13
0.0
 23
0.0
 33
0.0
 16
1.0
 26
0.0
 36
0.0
 17
0.0
 27
1.0
 37
0.0
 76
     0
330
1F
331
29
  0
MLINESTYLE
  5
18
102
{ACAD_REACTORS
330
17
102
}
330
17
100
AcDbMlineStyle
  2
Standard
 70
     0
  3

 62
   256
 51
90.0
 52
90.0
 71
     2
 49
0.5
 62
   256
  6
BYLAYER
 49
-0.5
 62
   256
  6
BYLAYER
  0
ACDBPLACEHOLDER
  5
F
102
{ACAD_REACTORS
330
E
102
}
330
E
  0
SCALE
  5
48
102
{ACAD_REACTORS
330
47
102
}
330
47
100
AcDbScale
 70
     0
300
1:1
140
1.0
141
1.0
290
     1
  0
SCALE
  5
49
102
{ACAD_REACTORS
330
47
102
}
330
47
100
AcDbScale
 70
     0
300
1:2
140
1.0
141
2.0
290
     0
  0
SCALE
  5
4A
102
{ACAD_REACTORS
330
47
102
}
330
47
100
AcDbScale
 70
     0
300
1:4
140
1.0
141
4.0
290
     0
  0
SCALE
  5
4B
102
{ACAD_REACTORS
330
47
102
}
330
47
100
AcDbScale
 70
     0
300
1:5
140
1.0
141
5.0
290
     0
  0
SCALE
  5
4C
102
{ACAD_REACTORS
330
47
102
}
330
47
100
AcDbScale
 70
     0
300
1:8
140
1.0
141
8.0
290
     0
  0
SCALE
  5
4D
102
{ACAD_REACTORS
330
47
102
}
330
47
100
AcDbScale
 70
     0
300
1:10
140
1.0
141
10.0
290
     0
  0
SCALE
  5
4E
102
{ACAD_REACTORS
330
47
102
}
330
47
100
AcDbScale
 70
     0
300
1:16
140
1.0
141
16.0
290
     0
  0
SCALE
  5
4F
102
{ACAD_REACTORS
330
47
102
}
330
47
100
AcDbScale
 70
     0
300
1:20
140
1.0
141
20.0
290
     0
  0
SCALE
  5
50
102
{ACAD_REACTORS
330
47
102
}
330
47
100
AcDbScale
 70
     0
300
1:30
140
1.0
141
30.0
290
     0
  0
SCALE
  5
51
102
{ACAD_REACTORS
330
47
102
}
330
47
100
AcDbScale
 70
     0
300
1:40
140
1.0
141
40.0
290
     0
  0
SCALE
  5
52
102
{ACAD_REACTORS
330
47
102
}
330
47
100
AcDbScale
 70
     0
300
1:50
140
1.0
141
50.0
290
     0
  0
SCALE
  5
53
102
{ACAD_REACTORS
330
47
102
}
330
47
100
AcDbScale
 70
     0
300
1:100
140
1.0
141
100.0
290
     0
  0
SCALE
  5
54
102
{ACAD_REACTORS
330
47
102
}
330
47
100
AcDbScale
 70
     0
300
2:1
140
2.0
141
1.0
290
     0
  0
SCALE
  5
55
102
{ACAD_REACTORS
330
47
102
}
330
47
100
AcDbScale
 70
     0
300
4:1
140
4.0
141
1.0
290
     0
  0
SCALE
  5
56
102
{ACAD_REACTORS
330
47
102
}
330
47
100
AcDbScale
 70
     0
300
8:1
140
8.0
141
1.0
290
     0
  0
SCALE
  5
57
102
{ACAD_REACTORS
330
47
102
}
330
47
100
AcDbScale
 70
     0
300
10:1
140
10.0
141
1.0
290
     0
  0
SCALE
  5
58
102
{ACAD_REACTORS
330
47
102
}
330
47
100
AcDbScale
 70
     0
300
100:1
140
100.0
141
1.0
290
     0
  0
SCALE
  5
59
102
{ACAD_REACTORS
330
47
102
}
330
47
100
AcDbScale
 70
     0
300
1/128" = 1'-0"
140
0.0078125
141
12.0
290
     0
  0
SCALE
  5
5A
102
{ACAD_REACTORS
330
47
102
}
330
47
100
AcDbScale
 70
     0
300
1/64" = 1'-0"
140
0.015625
141
12.0
290
     0
  0
SCALE
  5
5B
102
{ACAD_REACTORS
330
47
102
}
330
47
100
AcDbScale
 70
     0
300
1/32" = 1'-0"
140
0.03125
141
12.0
290
     0
  0
SCALE
  5
5C
102
{ACAD_REACTORS
330
47
102
}
330
47
100
AcDbScale
 70
     0
300
1/16" = 1'-0"
140
0.0625
141
12.0
290
     0
  0
SCALE
  5
5D
102
{ACAD_REACTORS
330
47
102
}
330
47
100
AcDbScale
 70
     0
300
3/32" = 1'-0"
140
0.09375
141
12.0
290
     0
  0
SCALE
  5
5E
102
{ACAD_REACTORS
330
47
102
}
330
47
100
AcDbScale
 70
     0
300
1/8" = 1'-0"
140
0.125
141
12.0
290
     0
  0
SCALE
  5
5F
102
{ACAD_REACTORS
330
47
102
}
330
47
100
AcDbScale
 70
     0
300
3/16" = 1'-0"
140
0.1875
141
12.0
290
     0
  0
SCALE
  5
60
102
{ACAD_REACTORS
330
47
102
}
330
47
100
AcDbScale
 70
     0
300
1/4" = 1'-0"
140
0.25
141
12.0
290
     0
  0
SCALE
  5
61
102
{ACAD_REACTORS
330
47
102
}
330
47
100
AcDbScale
 70
     0
300
3/8" = 1'-0"
140
0.375
141
12.0
290
     0
  0
SCALE
  5
62
102
{ACAD_REACTORS
330
47
102
}
330
47
100
AcDbScale
 70
     0
300
1/2" = 1'-0"
140
0.5
141
12.0
290
     0
  0
SCALE
  5
63
102
{ACAD_REACTORS
330
47
102
}
330
47
100
AcDbScale
 70
     0
300
3/4" = 1'-0"
140
0.75
141
12.0
290
     0
  0
SCALE
  5
64
102
{ACAD_REACTORS
330
47
102
}
330
47
100
AcDbScale
 70
     0
300
1" = 1'-0"
140
1.0
141
12.0
290
     0
  0
SCALE
  5
65
102
{ACAD_REACTORS
330
47
102
}
330
47
100
AcDbScale
 70
     0
300
1-1/2" = 1'-0"
140
1.5
141
12.0
290
     0
  0
SCALE
  5
66
102
{ACAD_REACTORS
330
47
102
}
330
47
100
AcDbScale
 70
     0
300
3" = 1'-0"
140
3.0
141
12.0
290
     0
  0
SCALE
  5
67
102
{ACAD_REACTORS
330
47
102
}
330
47
100
AcDbScale
 70
     0
300
6" = 1'-0"
140
6.0
141
12.0
290
     0
  0
SCALE
  5
68
102
{ACAD_REACTORS
330
47
102
}
330
47
100
AcDbScale
 70
     0
300
1'-0" = 1'-0"
140
12.0
141
12.0
290
     0
  0
ENDSEC
  0
EOF
