  0
SECTION
  2
HEADER
  9
$ACADVER
  1
AC1015
  9
$ACADMAINTVER
 70
     6
  9
$DWGCODEPAGE
  3
ANSI_949
  9
$INSBASE
 10
0.0
 20
0.0
 30
0.0
  9
$EXTMIN
 10
-52.56071113484959
 20
-49.97180738881165
 30
0.0
  9
$EXTMAX
 10
98.70138228801291
 20
44.16605561538036
 30
0.0
  9
$LIMMIN
 10
0.0
 20
0.0
  9
$LIMMAX
 10
420.0
 20
297.0
  9
$ORTHOMODE
 70
     1
  9
$REGENMODE
 70
     1
  9
$FILLMODE
 70
     1
  9
$QTEXTMODE
 70
     0
  9
$MIRRTEXT
 70
     1
  9
$LTSCALE
 40
1.0
  9
$ATTMODE
 70
     1
  9
$TEXTSIZE
 40
3.5
  9
$TRACEWID
 40
1.0
  9
$TEXTSTYLE
  7
Standard
  9
$CLAYER
  8
0
  9
$CELTYPE
  6
ByLayer
  9
$CECOLOR
 62
   256
  9
$CELTSCALE
 40
1.0
  9
$DISPSILH
 70
     0
  9
$DIMSCALE
 40
1.0
  9
$DIMASZ
 40
3.302
  9
$DIMEXO
 40
1.0
  9
$DIMDLI
 40
3.75
  9
$DIMRND
 40
0.0
  9
$DIMDLE
 40
0.0
  9
$DIMEXE
 40
1.0
  9
$DIMTP
 40
0.0
  9
$DIMTM
 40
0.0
  9
$DIMTXT
 40
3.5
  9
$DIMCEN
 40
2.5
  9
$DIMTSZ
 40
0.0
  9
$DIMTOL
 70
     0
  9
$DIMLIM
 70
     0
  9
$DIMTIH
 70
     1
  9
$DIMTOH
 70
     1
  9
$DIMSE1
 70
     0
  9
$DIMSE2
 70
     0
  9
$DIMTAD
 70
     1
  9
$DIMZIN
 70
     0
  9
$DIMBLK
  1

  9
$DIMASO
 70
     1
  9
$DIMSHO
 70
     1
  9
$DIMPOST
  1

  9
$DIMAPOST
  1

  9
$DIMALT
 70
     0
  9
$DIMALTD
 70
     3
  9
$DIMALTF
 40
0.0393700787401575
  9
$DIMLFAC
 40
1.0
  9
$DIMTOFL
 70
     1
  9
$DIMTVP
 40
0.0
  9
$DIMTIX
 70
     0
  9
$DIMSOXD
 70
     0
  9
$DIMSAH
 70
     0
  9
$DIMBLK1
  1

  9
$DIMBLK2
  1

  9
$DIMSTYLE
  2
ISO-25
  9
$DIMCLRD
 70
     0
  9
$DIMCLRE
 70
     0
  9
$DIMCLRT
 70
     0
  9
$DIMTFAC
 40
1.0
  9
$DIMGAP
 40
1.524
  9
$DIMJUST
 70
     0
  9
$DIMSD1
 70
     0
  9
$DIMSD2
 70
     0
  9
$DIMTOLJ
 70
     0
  9
$DIMTZIN
 70
     0
  9
$DIMALTZ
 70
     0
  9
$DIMALTTZ
 70
     0
  9
$DIMUPT
 70
     0
  9
$DIMDEC
 70
     2
  9
$DIMTDEC
 70
     2
  9
$DIMALTU
 70
     2
  9
$DIMALTTD
 70
     3
  9
$DIMTXSTY
  7
Standard
  9
$DIMAUNIT
 70
     0
  9
$DIMADEC
 70
     2
  9
$DIMALTRND
 40
0.0
  9
$DIMAZIN
 70
     0
  9
$DIMDSEP
 70
    44
  9
$DIMATFIT
 70
     3
  9
$DIMFRAC
 70
     0
  9
$DIMLDRBLK
  1

  9
$DIMLUNIT
 70
     2
  9
$DIMLWD
 70
    -2
  9
$DIMLWE
 70
    -2
  9
$DIMTMOVE
 70
     0
  9
$LUNITS
 70
     2
  9
$LUPREC
 70
     2
  9
$SKETCHINC
 40
1.0
  9
$FILLETRAD
 40
10.0
  9
$AUNITS
 70
     0
  9
$AUPREC
 70
     2
  9
$MENU
  1
.
  9
$ELEVATION
 40
0.0
  9
$PELEVATION
 40
0.0
  9
$THICKNESS
 40
0.0
  9
$LIMCHECK
 70
     0
  9
$CHAMFERA
 40
0.0
  9
$CHAMFERB
 40
0.0
  9
$CHAMFERC
 40
0.0
  9
$CHAMFERD
 40
0.0
  9
$SKPOLY
 70
     0
  9
$TDCREATE
 40
2458311.478087049
  9
$TDUCREATE
 40
2458311.103087049
  9
$TDUPDATE
 40
2458323.434867003
  9
$TDUUPDATE
 40
2458323.059867003
  9
$TDINDWG
 40
0.0032312616
  9
$TDUSRTIMER
 40
2458323.059814908
  9
$USRTIMER
 70
     1
  9
$ANGBASE
 50
0.0
  9
$ANGDIR
 70
     0
  9
$PDMODE
 70
     0
  9
$PDSIZE
 40
-1.0
  9
$PLINEWID
 40
0.0
  9
$SPLFRAME
 70
     0
  9
$SPLINETYPE
 70
     6
  9
$SPLINESEGS
 70
     8
  9
$HANDSEED
  5
3B4
  9
$SURFTAB1
 70
     6
  9
$SURFTAB2
 70
     6
  9
$SURFTYPE
 70
     6
  9
$SURFU
 70
     6
  9
$SURFV
 70
     6
  9
$UCSBASE
  2

  9
$UCSNAME
  2

  9
$UCSORG
 10
0.0
 20
0.0
 30
0.0
  9
$UCSXDIR
 10
1.0
 20
0.0
 30
0.0
  9
$UCSYDIR
 10
0.0
 20
1.0
 30
0.0
  9
$UCSORTHOREF
  2

  9
$UCSORTHOVIEW
 70
     0
  9
$UCSORGTOP
 10
0.0
 20
0.0
 30
0.0
  9
$UCSORGBOTTOM
 10
0.0
 20
0.0
 30
0.0
  9
$UCSORGLEFT
 10
0.0
 20
0.0
 30
0.0
  9
$UCSORGRIGHT
 10
0.0
 20
0.0
 30
0.0
  9
$UCSORGFRONT
 10
0.0
 20
0.0
 30
0.0
  9
$UCSORGBACK
 10
0.0
 20
0.0
 30
0.0
  9
$PUCSBASE
  2

  9
$PUCSNAME
  2

  9
$PUCSORG
 10
0.0
 20
0.0
 30
0.0
  9
$PUCSXDIR
 10
1.0
 20
0.0
 30
0.0
  9
$PUCSYDIR
 10
0.0
 20
1.0
 30
0.0
  9
$PUCSORTHOREF
  2

  9
$PUCSORTHOVIEW
 70
     0
  9
$PUCSORGTOP
 10
0.0
 20
0.0
 30
0.0
  9
$PUCSORGBOTTOM
 10
0.0
 20
0.0
 30
0.0
  9
$PUCSORGLEFT
 10
0.0
 20
0.0
 30
0.0
  9
$PUCSORGRIGHT
 10
0.0
 20
0.0
 30
0.0
  9
$PUCSORGFRONT
 10
0.0
 20
0.0
 30
0.0
  9
$PUCSORGBACK
 10
0.0
 20
0.0
 30
0.0
  9
$USERI1
 70
     0
  9
$USERI2
 70
     0
  9
$USERI3
 70
     0
  9
$USERI4
 70
     0
  9
$USERI5
 70
     0
  9
$USERR1
 40
0.0
  9
$USERR2
 40
0.0
  9
$USERR3
 40
0.0
  9
$USERR4
 40
0.0
  9
$USERR5
 40
0.0
  9
$WORLDVIEW
 70
     1
  9
$SHADEDGE
 70
     3
  9
$SHADEDIF
 70
    70
  9
$TILEMODE
 70
     1
  9
$MAXACTVP
 70
    64
  9
$PINSBASE
 10
0.0
 20
0.0
 30
0.0
  9
$PLIMCHECK
 70
     0
  9
$PEXTMIN
 10
1.000000000000000E+20
 20
1.000000000000000E+20
 30
1.000000000000000E+20
  9
$PEXTMAX
 10
-1.000000000000000E+20
 20
-1.000000000000000E+20
 30
-1.000000000000000E+20
  9
$PLIMMIN
 10
0.0
 20
0.0
  9
$PLIMMAX
 10
0.0
 20
0.0
  9
$UNITMODE
 70
     0
  9
$VISRETAIN
 70
     1
  9
$PLINEGEN
 70
     0
  9
$PSLTSCALE
 70
     1
  9
$TREEDEPTH
 70
  3020
  9
$CMLSTYLE
  2
Standard
  9
$CMLJUST
 70
     0
  9
$CMLSCALE
 40
20.0
  9
$PROXYGRAPHICS
 70
     1
  9
$MEASUREMENT
 70
     1
  9
$CELWEIGHT
370
    -1
  9
$ENDCAPS
280
     0
  9
$JOINSTYLE
280
     0
  9
$LWDISPLAY
290
     1
  9
$INSUNITS
 70
     4
  9
$HYPERLINKBASE
  1

  9
$STYLESHEET
  1

  9
$XEDIT
290
     1
  9
$CEPSNTYPE
380
     0
  9
$PSTYLEMODE
290
     1
  9
$FINGERPRINTGUID
  2
{0E8E706C-FA4D-48E4-A951-D85649F46A16}
  9
$VERSIONGUID
  2
{FAEB1C32-E019-11D5-929B-00C0DF256EC4}
  9
$EXTNAMES
290
     1
  9
$PSVPSCALE
 40
0.0
  9
$OLESTARTUP
290
     0
  0
ENDSEC
  0
SECTION
  2
CLASSES
  0
CLASS
  1
ACDBDICTIONARYWDFLT
  2
AcDbDictionaryWithDefault
  3
ObjectDBX Classes
 90
        0
280
     0
281
     0
  0
CLASS
  1
VISUALSTYLE
  2
AcDbVisualStyle
  3
ObjectDBX Classes
 90
     4095
280
     0
281
     0
  0
CLASS
  1
MATERIAL
  2
AcDbMaterial
  3
ObjectDBX Classes
 90
     1153
280
     0
281
     0
  0
CLASS
  1
SCALE
  2
AcDbScale
  3
ObjectDBX Classes
 90
     1153
280
     0
281
     0
  0
CLASS
  1
SUN
  2
AcDbSun
  3
SCENEOE
 90
     1153
280
     0
281
     0
  0
CLASS
  1
ACDBPLACEHOLDER
  2
AcDbPlaceHolder
  3
ObjectDBX Classes
 90
        0
280
     0
281
     0
  0
CLASS
  1
LAYOUT
  2
AcDbLayout
  3
ObjectDBX Classes
 90
        0
280
     0
281
     0
  0
CLASS
  1
TABLESTYLE
  2
AcDbTableStyle
  3
ObjectDBX Classes
 90
     4095
280
     0
281
     0
  0
CLASS
  1
MLEADERSTYLE
  2
AcDbMLeaderStyle
  3
ACDB_MLEADERSTYLE_CLASS
 90
     4095
280
     0
281
     0
  0
CLASS
  1
RASTERVARIABLES
  2
AcDbRasterVariables
  3
ISM
 90
        0
280
     0
281
     0
  0
CLASS
  1
DIMASSOC
  2
AcDbDimAssoc
  3
"AcDbDimAssoc|Product Desc:     AcDim ARX App For Dimension|Company:          Autodesk, Inc.|WEB Address:      www.autodesk.com"
 90
        0
280
     0
281
     0
  0
ENDSEC
  0
SECTION
  2
TABLES
  0
TABLE
  2
VPORT
  5
8
330
0
100
AcDbSymbolTable
 70
     1
  0
VPORT
  5
29
330
8
100
AcDbSymbolTableRecord
100
AcDbViewportTableRecord
  2
*Active
 70
     0
 10
0.0
 20
0.0
 11
1.0
 21
1.0
 12
2.969389021932422
 22
-24.0138662294267
 13
0.0
 23
0.0
 14
10.0
 24
10.0
 15
10.0
 25
10.0
 16
0.0
 26
0.0
 36
1.0
 17
0.0
 27
0.0
 37
0.0
 40
99.89599896208556
 41
1.586073500967118
 42
50.0
 43
0.0
 44
0.0
 50
0.0
 51
0.0
 71
    16
 72
  2000
 73
     1
 74
     3
 75
     0
 76
     0
 77
     0
 78
     0
281
     0
 65
     1
110
0.0
120
0.0
130
0.0
111
1.0
121
0.0
131
0.0
112
0.0
122
1.0
132
0.0
 79
     0
146
0.0
  0
ENDTAB
  0
TABLE
  2
LTYPE
  5
5
330
0
100
AcDbSymbolTable
 70
     6
  0
LTYPE
  5
14
330
5
100
AcDbSymbolTableRecord
100
AcDbLinetypeTableRecord
  2
ByBlock
 70
     0
  3

 72
    65
 73
     0
 40
0.0
  0
LTYPE
  5
15
330
5
100
AcDbSymbolTableRecord
100
AcDbLinetypeTableRecord
  2
ByLayer
 70
     0
  3

 72
    65
 73
     0
 40
0.0
  0
LTYPE
  5
16
330
5
100
AcDbSymbolTableRecord
100
AcDbLinetypeTableRecord
  2
Continuous
 70
     0
  3
Solid line
 72
    65
 73
     0
 40
0.0
  0
LTYPE
  5
6A
330
5
100
AcDbSymbolTableRecord
100
AcDbLinetypeTableRecord
  2
HIDDEN
 70
     0
  3
Hidden __ __ __ __ __ __ __ __ __ __ __ __ __ __
 72
    65
 73
     2
 40
1.905
 49
1.27
 74
     0
 49
-0.635
 74
     0
  0
LTYPE
  5
6B
330
5
100
AcDbSymbolTableRecord
100
AcDbLinetypeTableRecord
  2
PHANTOM
 70
     0
  3
Phantom ______  __  __  ______  __  __  ______
 72
    65
 73
     6
 40
12.7
 49
6.35
 74
     0
 49
-1.27
 74
     0
 49
1.27
 74
     0
 49
-1.27
 74
     0
 49
1.27
 74
     0
 49
-1.27
 74
     0
  0
LTYPE
  5
6C
330
5
100
AcDbSymbolTableRecord
100
AcDbLinetypeTableRecord
  2
CENTER
 70
     0
  3
Center ____ _ ____ _ ____ _ ____ _ ____ _ ____
 72
    65
 73
     4
 40
10.16
 49
6.35
 74
     0
 49
-1.27
 74
     0
 49
1.27
 74
     0
 49
-1.27
 74
     0
  0
LTYPE
  5
6D
330
5
100
AcDbSymbolTableRecord
100
AcDbLinetypeTableRecord
  2
CENTERX2
 70
     0
  3
Center (2x) ________  __  ________  __  _____
 72
    65
 73
     4
 40
20.32
 49
12.7
 74
     0
 49
-2.54
 74
     0
 49
2.54
 74
     0
 49
-2.54
 74
     0
  0
LTYPE
  5
6E
330
5
100
AcDbSymbolTableRecord
100
AcDbLinetypeTableRecord
  2
DOT2
 70
     0
  3
Dot (.5x) ........................................
 72
    65
 73
     2
 40
0.635
 49
0.0
 74
     0
 49
-0.635
 74
     0
  0
ENDTAB
  0
TABLE
  2
LAYER
  5
2
102
{ACAD_XDICTIONARY
360
210
102
}
330
0
100
AcDbSymbolTable
 70
    18
  0
LAYER
  5
10
330
2
100
AcDbSymbolTableRecord
100
AcDbLayerTableRecord
  2
0
 70
     0
 62
     7
  6
Continuous
370
    -3
390
F
  0
LAYER
  5
6F
330
2
100
AcDbSymbolTableRecord
100
AcDbLayerTableRecord
  2
FORMAT
 70
     0
 62
     2
  6
Continuous
370
    -3
390
F
  0
LAYER
  5
70
330
2
100
AcDbSymbolTableRecord
100
AcDbLayerTableRecord
  2
외형선
 70
     0
 62
     4
  6
Continuous
370
    30
390
F
  0
LAYER
  5
71
330
2
100
AcDbSymbolTableRecord
100
AcDbLayerTableRecord
  2
숨은선
 70
     0
 62
     2
  6
HIDDEN
370
    15
390
F
  0
LAYER
  5
72
330
2
100
AcDbSymbolTableRecord
100
AcDbLayerTableRecord
  2
중심선
 70
     0
 62
     1
  6
CENTERX2
370
    -3
390
F
  0
LAYER
  5
73
330
2
100
AcDbSymbolTableRecord
100
AcDbLayerTableRecord
  2
파단선
 70
     0
 62
     4
  6
Continuous
370
    -3
390
F
  0
LAYER
  5
74
330
2
100
AcDbSymbolTableRecord
100
AcDbLayerTableRecord
  2
해칭선
 70
     0
 62
   100
  6
Continuous
370
    -3
390
F
  0
LAYER
  5
75
330
2
100
AcDbSymbolTableRecord
100
AcDbLayerTableRecord
  2
가는실선
 70
     0
 62
     4
  6
Continuous
370
    -3
390
F
  0
LAYER
  5
76
330
2
100
AcDbSymbolTableRecord
100
AcDbLayerTableRecord
  2
치수_보조선
 70
     0
 62
     4
  6
Continuous
370
    -3
390
F
  0
LAYER
  5
77
330
2
100
AcDbSymbolTableRecord
100
AcDbLayerTableRecord
  2
치수문자_일반주서
 70
     0
 62
     7
  6
Continuous
370
    15
390
F
  0
LAYER
  5
78
330
2
100
AcDbSymbolTableRecord
100
AcDbLayerTableRecord
  2
개별주서
 70
     0
 62
   100
  6
Continuous
370
    30
390
F
  0
LAYER
  5
79
330
2
100
AcDbSymbolTableRecord
100
AcDbLayerTableRecord
  2
중간선
 70
     0
 62
     2
  6
Continuous
370
    15
390
F
  0
LAYER
  5
7A
330
2
100
AcDbSymbolTableRecord
100
AcDbLayerTableRecord
  2
윤곽선
 70
     0
 62
     3
  6
Continuous
370
    40
390
F
  0
LAYER
  5
7B
330
2
100
AcDbSymbolTableRecord
100
AcDbLayerTableRecord
  2
중심마크
 70
     0
 62
   100
  6
Continuous
370
    30
390
F
  0
LAYER
  5
7C
330
2
100
AcDbSymbolTableRecord
100
AcDbLayerTableRecord
  2
가상선
 70
     0
 62
     4
  6
PHANTOM
370
    -3
390
F
  0
LAYER
  5
7D
330
2
100
AcDbSymbolTableRecord
100
AcDbLayerTableRecord
  2
특수지정선
 70
     0
 62
     5
  6
CENTERX2
370
    60
390
F
  0
LAYER
  5
7E
330
2
100
AcDbSymbolTableRecord
100
AcDbLayerTableRecord
  2
참조1
 70
     0
 62
    -4
  6
Continuous
370
    -3
390
F
  0
LAYER
  5
163
330
2
100
AcDbSymbolTableRecord
100
AcDbLayerTableRecord
  2
Defpoints
 70
     0
 62
     7
  6
Continuous
290
     0
370
    -3
390
F
  0
ENDTAB
  0
TABLE
  2
STYLE
  5
3
330
0
100
AcDbSymbolTable
 70
     2
  0
STYLE
  5
11
330
3
100
AcDbSymbolTableRecord
100
AcDbTextStyleTableRecord
  2
Standard
 70
     0
 40
0.0
 41
1.0
 50
0.0
 71
     0
 42
3.5
  3
txt
  4

  0
STYLE
  5
94
330
3
100
AcDbSymbolTableRecord
100
AcDbTextStyleTableRecord
  2
SLDTEXTSTYLE0
 70
     0
 40
0.0
 41
0.75
 50
0.0
 71
     0
 42
3.5
  3
TXT
  4

  0
ENDTAB
  0
TABLE
  2
VIEW
  5
6
330
0
100
AcDbSymbolTable
 70
     0
  0
ENDTAB
  0
TABLE
  2
UCS
  5
7
330
0
100
AcDbSymbolTable
 70
     0
  0
ENDTAB
  0
TABLE
  2
APPID
  5
9
330
0
100
AcDbSymbolTable
 70
     1
  0
APPID
  5
12
330
9
100
AcDbSymbolTableRecord
100
AcDbRegAppTableRecord
  2
ACAD
 70
     0
  0
ENDTAB
  0
TABLE
  2
DIMSTYLE
  5
A
330
0
100
AcDbSymbolTable
 70
     4
100
AcDbDimStyleTable
  0
DIMSTYLE
105
27
330
A
100
AcDbSymbolTableRecord
100
AcDbDimStyleTableRecord
  2
ISO-25
 70
     0
 41
2.5
 42
0.625
 43
3.75
 44
1.25
 73
     0
 74
     0
 77
     1
 78
     8
140
2.5
141
2.5
143
0.03937007874016
147
0.625
171
     3
172
     1
178
     0
271
     2
272
     2
274
     3
278
    44
283
     0
284
     8
340
11
  0
DIMSTYLE
105
DF
102
{ACAD_REACTORS
330
DE
330
11C
330
F3
330
108
330
37D
102
}
330
A
100
AcDbSymbolTableRecord
100
AcDbDimStyleTableRecord
  2
SLDDIMSTYLE0
 70
     0
 41
3.302
 44
0.0
 45
0.000000001
 73
     0
 74
     0
 77
     1
 78
    12
 79
     3
140
3.5
143
0.0393700787401575
147
0.875
148
0.000000001
170
     1
172
     1
173
     1
178
     0
271
     2
272
     2
276
     2
284
    12
289
     0
340
94
  0
DIMSTYLE
105
F4
330
A
100
AcDbSymbolTableRecord
100
AcDbDimStyleTableRecord
  2
SLDDIMSTYLE1
 70
     0
 41
3.302
 44
0.0
 45
0.000000001
 73
     0
 74
     0
 77
     1
 78
     4
 79
     1
140
3.5
143
0.0393700787401575
147
0.875
148
0.000000001
170
     1
173
     1
178
     0
271
     2
272
     2
276
     2
284
    12
340
94
  0
DIMSTYLE
105
109
330
A
100
AcDbSymbolTableRecord
100
AcDbDimStyleTableRecord
  2
SLDDIMSTYLE2
 70
     0
 41
3.302
 44
0.0
 45
0.000000001
 73
     0
 74
     0
 77
     1
 78
    12
 79
     3
140
3.5
143
0.0393700787401575
147
0.875
148
0.000000001
170
     1
173
     1
178
     0
271
     2
272
     2
276
     2
284
    12
340
94
  0
ENDTAB
  0
TABLE
  2
BLOCK_RECORD
  5
1
330
0
100
AcDbSymbolTable
 70
    16
  0
BLOCK_RECORD
  5
1F
330
1
100
AcDbSymbolTableRecord
100
AcDbBlockTableRecord
  2
*Model_Space
340
22
  0
BLOCK_RECORD
  5
1B
330
1
100
AcDbSymbolTableRecord
100
AcDbBlockTableRecord
  2
*Paper_Space
340
1E
  0
BLOCK_RECORD
  5
23
330
1
100
AcDbSymbolTableRecord
100
AcDbBlockTableRecord
  2
*Paper_Space0
340
26
  0
BLOCK_RECORD
  5
7F
330
1
100
AcDbSymbolTableRecord
100
AcDbBlockTableRecord
  2
블럭10
340
0
102
{BLKREFS
331
D7
102
}
  0
BLOCK_RECORD
  5
E0
330
1
100
AcDbSymbolTableRecord
100
AcDbBlockTableRecord
  2
_D
340
0
  0
BLOCK_RECORD
  5
F5
330
1
100
AcDbSymbolTableRecord
100
AcDbBlockTableRecord
  2
_D_1
340
0
  0
BLOCK_RECORD
  5
10A
330
1
100
AcDbSymbolTableRecord
100
AcDbBlockTableRecord
  2
_D_2
340
0
  0
BLOCK_RECORD
  5
11D
330
1
100
AcDbSymbolTableRecord
100
AcDbBlockTableRecord
  2
_D_3
340
0
  0
BLOCK_RECORD
  5
137
330
1
100
AcDbSymbolTableRecord
100
AcDbBlockTableRecord
  2
SW_DOWELSYMBOL_0
340
0
102
{BLKREFS
331
13D
102
}
  0
BLOCK_RECORD
  5
214
330
1
100
AcDbSymbolTableRecord
100
AcDbBlockTableRecord
  2
*D7
340
0
  0
BLOCK_RECORD
  5
220
330
1
100
AcDbSymbolTableRecord
100
AcDbBlockTableRecord
  2
*D8
340
0
  0
BLOCK_RECORD
  5
22F
330
1
100
AcDbSymbolTableRecord
100
AcDbBlockTableRecord
  2
*D9
340
0
  0
BLOCK_RECORD
  5
23B
330
1
100
AcDbSymbolTableRecord
100
AcDbBlockTableRecord
  2
*D10
340
0
  0
BLOCK_RECORD
  5
293
330
1
100
AcDbSymbolTableRecord
100
AcDbBlockTableRecord
  2
*D11
340
0
  0
BLOCK_RECORD
  5
29F
330
1
100
AcDbSymbolTableRecord
100
AcDbBlockTableRecord
  2
*D12
340
0
  0
BLOCK_RECORD
  5
2AE
330
1
100
AcDbSymbolTableRecord
100
AcDbBlockTableRecord
  2
*D13
340
0
  0
BLOCK_RECORD
  5
2BA
330
1
100
AcDbSymbolTableRecord
100
AcDbBlockTableRecord
  2
*D14
340
0
  0
BLOCK_RECORD
  5
380
330
1
100
AcDbSymbolTableRecord
100
AcDbBlockTableRecord
  2
*D15
340
0
  0
ENDTAB
  0
ENDSEC
  0
SECTION
  2
BLOCKS
  0
BLOCK
  5
20
330
1F
100
AcDbEntity
  8
0
100
AcDbBlockBegin
  2
*Model_Space
 70
     0
 10
0.0
 20
0.0
 30
0.0
  3
*Model_Space
  1
*Model_Space
  0
ENDBLK
  5
21
330
1F
100
AcDbEntity
  8
0
100
AcDbBlockEnd
  0
BLOCK
  5
1C
330
1B
100
AcDbEntity
 67
     1
  8
0
100
AcDbBlockBegin
  2
*Paper_Space
 70
     0
 10
0.0
 20
0.0
 30
0.0
  3
*Paper_Space
  1
*Paper_Space
  0
ENDBLK
  5
1D
330
1B
100
AcDbEntity
 67
     1
  8
0
100
AcDbBlockEnd
  0
BLOCK
  5
24
330
23
100
AcDbEntity
  8
0
100
AcDbBlockBegin
  2
*Paper_Space0
 70
     0
 10
0.0
 20
0.0
 30
0.0
  3
*Paper_Space0
  1
*Paper_Space0
  0
ENDBLK
  5
25
330
23
100
AcDbEntity
  8
0
100
AcDbBlockEnd
  0
BLOCK
  5
80
330
7F
100
AcDbEntity
  8
0
100
AcDbBlockBegin
  2
블럭10
 70
     2
 10
0.0
 20
0.0
 30
0.0
  3
블럭10
  1
블럭10
  0
ELLIPSE
  5
82
330
7F
100
AcDbEntity
  8
중심선
100
AcDbEllipse
 10
20.54032771741204
 20
12.0471743016438
 30
0.0
 11
6.600054785286829
 21
-1.261213355974178E-13
 31
0.0
210
0.0
220
0.0
230
1.0
 40
0.636358354079598
 41
0.9219305317359503
 42
6.513795318482858
  0
ELLIPSE
  5
83
330
7F
100
AcDbEntity
  8
중심선
100
AcDbEllipse
 10
20.54032771746488
 20
12.04717430159265
 30
0.0
 11
3.960054785062283
 21
1.540847449632565E-10
 31
0.0
210
0.0
220
0.0
230
1.0
 40
0.3939339440162632
 41
1.131841032648279
 42
5.62031148352944
  0
LINE
  5
84
330
7F
100
AcDbEntity
  8
중심선
100
AcDbLine
 10
2.268634060543552
 20
16.24717430164393
 30
0.0
 11
5.714909304380834
 21
16.24717430164393
 31
0.0
  0
LINE
  5
85
330
7F
100
AcDbEntity
  8
중심선
100
AcDbLine
 10
5.245725140726316
 20
7.84717430164391
 30
0.0
 11
8.692000384563599
 21
7.84717430164391
 31
0.0
  0
LINE
  5
86
330
7F
100
AcDbEntity
  8
중심선
100
AcDbLine
 10
15.74043728645272
 20
16.24717430164393
 30
0.0
 11
8.692000384563599
 21
7.84717430164391
 31
0.0
  0
LINE
  5
87
330
7F
100
AcDbEntity
  8
중심선
100
AcDbLine
 10
0.1404042013395286
 20
13.71084872107135
 30
0.0
 11
3.58671253028996
 21
13.71088815037384
 31
0.0
  0
LINE
  5
88
330
7F
100
AcDbEntity
  8
중심선
100
AcDbLine
 10
2.750260043222114
 20
10.84717430164391
 30
0.0
 11
6.196535287059397
 21
10.84717430164391
 31
0.0
  0
LINE
  5
89
330
7F
100
AcDbEntity
  8
중심선
100
AcDbLine
 10
12.29416204261559
 20
16.24717430164393
 30
0.0
 11
5.245725140726316
 21
7.84717430164391
 31
0.0
  0
LINE
  5
8A
330
7F
100
AcDbEntity
  8
중심선
100
AcDbLine
 10
10.72767329541681
 20
16.24717430164393
 30
0.0
 11
6.196535287059397
 21
10.84717430164391
 31
0.0
  0
LINE
  5
8B
330
7F
100
AcDbEntity
  8
중심선
100
AcDbLine
 10
7.28139805157953
 20
16.24717430164393
 30
0.0
 11
2.750260043222114
 21
10.84717430164391
 31
0.0
  0
LINE
  5
8C
330
7F
100
AcDbEntity
  8
중심선
100
AcDbLine
 10
5.714909304380834
 20
16.24717430164393
 30
0.0
 11
3.58671253028996
 21
13.71088815037384
 31
0.0
  0
LINE
  5
8D
330
7F
100
AcDbEntity
  8
중심선
100
AcDbLine
 10
2.268634060543552
 20
16.24717430164393
 30
0.0
 11
0.1404042013395286
 21
13.71084872107135
 31
0.0
  0
LINE
  5
8E
330
7F
100
AcDbEntity
  8
중심선
100
AcDbLine
 10
7.28139805157953
 20
16.24717430164393
 30
0.0
 11
10.72767329541681
 21
16.24717430164393
 31
0.0
  0
LINE
  5
8F
330
7F
100
AcDbEntity
  8
중심선
100
AcDbLine
 10
12.29416204261559
 20
16.24717430164393
 30
0.0
 11
15.74043728645272
 21
16.24717430164393
 31
0.0
  0
LINE
  5
90
330
7F
100
AcDbEntity
  8
중심선
100
AcDbLine
 10
19.22036997980202
 20
11.08717430171403
 30
0.0
 11
23.66174974927406
 21
11.08717430171406
 31
0.0
  0
LINE
  5
91
330
7F
100
AcDbEntity
  8
중심선
100
AcDbLine
 10
19.22039502424796
 20
13.00717430171391
 30
0.0
 11
19.22036997980202
 21
11.08717430171403
 31
0.0
  0
LINE
  5
92
330
7F
100
AcDbEntity
  8
중심선
100
AcDbLine
 10
19.22039502424796
 20
13.00717430171391
 30
0.0
 11
26.96566020931264
 21
13.00717430171391
 31
0.0
  0
LINE
  5
93
330
7F
100
AcDbEntity
  8
중심선
100
AcDbLine
 10
22.22332737316547
 20
13.45928029700563
 30
0.0
 11
24.52862924686651
 21
15.39360700705356
 31
0.0
  0
ATTDEF
  5
95
330
7F
100
AcDbEntity
  8
FORMAT
 62
     2
100
AcDbText
 10
4.408487351596664
 20
2.075366912832191
 30
0.0
 40
4.233333333333333
  1
E2033012
 41
0.75
  7
SLDTEXTSTYLE0
 11
4.408487351596664
 21
-0.0412997538344756
 31
0.0
100
AcDbAttributeDefinition
  3

  2
AUTOATTR0
 70
     0
 74
     1
  0
ENDBLK
  5
81
330
7F
100
AcDbEntity
  8
0
100
AcDbBlockEnd
  0
BLOCK
  5
E1
330
E0
100
AcDbEntity
  8
0
100
AcDbBlockBegin
  2
_D
 70
     0
 10
0.0
 20
0.0
 30
0.0
  3
_D
  1
_D
  0
LINE
  5
E3
330
E0
100
AcDbEntity
  8
치수문자_일반주서
 62
     0
370
    -2
100
AcDbLine
 10
-34.74821113484953
 20
4.762500000000105
 30
0.0
 11
-48.18571113484956
 21
4.762500000000054
 31
0.0
  0
LINE
  5
E4
330
E0
100
AcDbEntity
  8
치수문자_일반주서
 62
     0
370
    -2
100
AcDbLine
 10
-34.74821113484953
 20
-4.762499999999901
 30
0.0
 11
-48.18571113484952
 21
-4.762499999999951
 31
0.0
  0
LINE
  5
E5
330
E0
100
AcDbEntity
  8
치수문자_일반주서
 62
     0
370
    -2
100
AcDbLine
 10
-48.18571113484954
 20
1.460500000000054
 30
0.0
 11
-48.18571113484953
 21
-1.460499999999951
 31
0.0
  0
SOLID
  5
E6
330
E0
100
AcDbEntity
  8
치수문자_일반주서
 62
     0
100
AcDbTrace
 10
-47.63537780151621
 20
1.460500000000056
 30
0.0
 11
-48.73604446818288
 21
1.460500000000052
 31
0.0
 12
-48.18571113484956
 22
4.762500000000054
 32
0.0
 13
-48.18571113484956
 23
4.762500000000054
 33
0.0
  0
SOLID
  5
E7
330
E0
100
AcDbEntity
  8
치수문자_일반주서
 62
     0
100
AcDbTrace
 10
-48.73604446818287
 20
-1.460499999999953
 30
0.0
 11
-47.6353778015162
 21
-1.460499999999949
 31
0.0
 12
-48.18571113484952
 22
-4.762499999999951
 32
0.0
 13
-48.18571113484952
 23
-4.762499999999951
 33
0.0
  0
MTEXT
  5
E8
330
E0
100
AcDbEntity
  8
치수문자_일반주서
 62
     0
100
AcDbMText
 10
-52.56071113484954
 20
0.0000000000000917
 30
0.0
 40
3.5
 41
0.0
 71
     2
 72
     1
  1
\A1;%%c9.53 [3/8]
  7
SLDTEXTSTYLE0
 11
-3.729883127349605E-15
 21
1.0
 31
0.0
 73
     1
 44
1.0
  0
POINT
  5
E9
330
E0
100
AcDbEntity
  8
Defpoints
 62
     0
100
AcDbPoint
 10
-34.68571113484953
 20
4.762500000000105
 30
0.0
  0
POINT
  5
EA
330
E0
100
AcDbEntity
  8
Defpoints
 62
     0
100
AcDbPoint
 10
-34.68571113484953
 20
-4.762499999999901
 30
0.0
  0
POINT
  5
EB
330
E0
100
AcDbEntity
  8
Defpoints
 62
     0
100
AcDbPoint
 10
-48.18571113484953
 20
-4.762499999999951
 30
0.0
  0
ENDBLK
  5
E2
330
E0
100
AcDbEntity
  8
0
100
AcDbBlockEnd
  0
BLOCK
  5
F6
330
F5
100
AcDbEntity
  8
0
100
AcDbBlockBegin
  2
_D_1
 70
     0
 10
0.0
 20
0.0
 30
0.0
  3
_D_1
  1
_D_1
  0
LINE
  5
F8
330
F5
100
AcDbEntity
  8
치수문자_일반주서
 62
     0
370
    -2
100
AcDbLine
 10
32.76678886515049
 20
2.443750000000105
 30
0.0
 11
32.76678886515049
 21
19.26117188284344
 31
0.0
  0
LINE
  5
F9
330
F5
100
AcDbEntity
  8
치수문자_일반주서
 62
     0
370
    -2
100
AcDbLine
 10
20.06678886515049
 20
2.44320163923861
 30
0.0
 11
20.06678886515049
 21
19.26117188284344
 31
0.0
  0
LINE
  5
FA
330
F5
100
AcDbEntity
  8
치수문자_일반주서
 62
     0
370
    -2
100
AcDbLine
 10
29.46478886515049
 20
19.26117188284344
 30
0.0
 11
23.36878886515048
 21
19.26117188284344
 31
0.0
  0
SOLID
  5
FB
330
F5
100
AcDbEntity
  8
치수문자_일반주서
 62
     0
100
AcDbTrace
 10
29.46478886515049
 20
18.7108385495101
 30
0.0
 11
29.46478886515049
 21
19.81150521617677
 31
0.0
 12
32.76678886515049
 22
19.26117188284344
 32
0.0
 13
32.76678886515049
 23
19.26117188284344
 33
0.0
  0
SOLID
  5
FC
330
F5
100
AcDbEntity
  8
치수문자_일반주서
 62
     0
100
AcDbTrace
 10
23.36878886515048
 20
19.81150521617677
 30
0.0
 11
23.36878886515048
 21
18.7108385495101
 31
0.0
 12
20.06678886515049
 22
19.26117188284344
 32
0.0
 13
20.06678886515049
 23
19.26117188284344
 33
0.0
  0
MTEXT
  5
FD
330
F5
100
AcDbEntity
  8
치수문자_일반주서
 62
     0
100
AcDbMText
 10
26.41678886515049
 20
23.63617188284344
 30
0.0
 40
3.5
 41
0.0
 71
     2
 72
     1
  1
\A1;12.7 [1/2]
  7
SLDTEXTSTYLE0
 73
     1
 44
1.0
  0
POINT
  5
FE
330
F5
100
AcDbEntity
  8
Defpoints
 62
     0
100
AcDbPoint
 10
32.76678886515049
 20
2.381250000000105
 30
0.0
  0
POINT
  5
FF
330
F5
100
AcDbEntity
  8
Defpoints
 62
     0
100
AcDbPoint
 10
20.06678886515049
 20
2.38070163923861
 30
0.0
  0
POINT
  5
100
330
F5
100
AcDbEntity
  8
Defpoints
 62
     0
100
AcDbPoint
 10
20.06678886515049
 20
19.26117188284344
 30
0.0
  0
ENDBLK
  5
F7
330
F5
100
AcDbEntity
  8
0
100
AcDbBlockEnd
  0
BLOCK
  5
10B
330
10A
100
AcDbEntity
  8
0
100
AcDbBlockBegin
  2
_D_2
 70
     0
 10
0.0
 20
0.0
 30
0.0
  3
_D_2
  1
_D_2
  0
LINE
  5
10D
330
10A
100
AcDbEntity
  8
치수문자_일반주서
 62
     0
370
    -2
100
AcDbLine
 10
32.76678886515049
 20
2.443750000000105
 30
0.0
 11
32.76678886515049
 21
39.79105561538036
 31
0.0
  0
LINE
  5
10E
330
10A
100
AcDbEntity
  8
치수문자_일반주서
 62
     0
370
    -2
100
AcDbLine
 10
-35.49571113484954
 20
4.015000000000094
 30
0.0
 11
-35.49571113484954
 21
39.79105561538036
 31
0.0
  0
LINE
  5
10F
330
10A
100
AcDbEntity
  8
치수문자_일반주서
 62
     0
370
    -2
100
AcDbLine
 10
29.46478886515049
 20
39.79105561538036
 30
0.0
 11
-32.19371113484954
 21
39.79105561538036
 31
0.0
  0
SOLID
  5
110
330
10A
100
AcDbEntity
  8
치수문자_일반주서
 62
     0
100
AcDbTrace
 10
29.46478886515049
 20
39.24072228204702
 30
0.0
 11
29.46478886515049
 21
40.34138894871369
 31
0.0
 12
32.76678886515049
 22
39.79105561538036
 32
0.0
 13
32.76678886515049
 23
39.79105561538036
 33
0.0
  0
SOLID
  5
111
330
10A
100
AcDbEntity
  8
치수문자_일반주서
 62
     0
100
AcDbTrace
 10
-32.19371113484954
 20
40.34138894871369
 30
0.0
 11
-32.19371113484954
 21
39.24072228204702
 31
0.0
 12
-35.49571113484954
 22
39.79105561538036
 32
0.0
 13
-35.49571113484954
 23
39.79105561538036
 33
0.0
  0
MTEXT
  5
112
330
10A
100
AcDbEntity
  8
치수문자_일반주서
 62
     0
100
AcDbMText
 10
-1.364461134849559
 20
44.16605561538036
 30
0.0
 40
3.5
 41
0.0
 71
     2
 72
     1
  1
\A1;68.26 [2 11/16]
  7
SLDTEXTSTYLE0
 73
     1
 44
1.0
  0
POINT
  5
113
330
10A
100
AcDbEntity
  8
Defpoints
 62
     0
100
AcDbPoint
 10
32.76678886515049
 20
2.381250000000105
 30
0.0
  0
POINT
  5
114
330
10A
100
AcDbEntity
  8
Defpoints
 62
     0
100
AcDbPoint
 10
-35.49571113484954
 20
3.952500000000094
 30
0.0
  0
POINT
  5
115
330
10A
100
AcDbEntity
  8
Defpoints
 62
     0
100
AcDbPoint
 10
-35.49571113484954
 20
39.79105561538036
 30
0.0
  0
ENDBLK
  5
10C
330
10A
100
AcDbEntity
  8
0
100
AcDbBlockEnd
  0
BLOCK
  5
11E
330
11D
100
AcDbEntity
  8
0
100
AcDbBlockBegin
  2
_D_3
 70
     0
 10
0.0
 20
0.0
 30
0.0
  3
_D_3
  1
_D_3
  0
LINE
  5
120
330
11D
100
AcDbEntity
  8
치수문자_일반주서
 62
     0
370
    -2
100
AcDbLine
 10
32.82928886515049
 20
-2.381249999999894
 30
0.0
 11
49.80058314415958
 21
-2.381249999999831
 31
0.0
  0
LINE
  5
121
330
11D
100
AcDbEntity
  8
치수문자_일반주서
 62
     0
370
    -2
100
AcDbLine
 10
32.82928886515049
 20
2.381250000000105
 30
0.0
 11
49.80058314415957
 21
2.381250000000168
 31
0.0
  0
LINE
  5
122
330
11D
100
AcDbEntity
  8
치수문자_일반주서
 62
     0
370
    -2
100
AcDbLine
 10
49.80058314415957
 20
2.381250000000168
 30
0.0
 11
49.80058314415946
 21
36.98525000000016
 31
0.0
  0
LINE
  5
123
330
11D
100
AcDbEntity
  8
치수문자_일반주서
 62
     0
370
    -2
100
AcDbLine
 10
49.80058314415958
 20
-2.381249999999831
 30
0.0
 11
49.80058314415957
 21
2.381250000000168
 31
0.0
  0
LINE
  5
124
330
11D
100
AcDbEntity
  8
치수문자_일반주서
 62
     0
370
    -2
100
AcDbLine
 10
49.80058314415959
 20
-5.68324999999983
 30
0.0
 11
49.8005831441596
 21
-8.98524999999983
 31
0.0
  0
LINE
  5
125
330
11D
100
AcDbEntity
  8
치수문자_일반주서
 62
     0
370
    -2
100
AcDbLine
 10
49.80058314415956
 20
5.683250000000168
 30
0.0
 11
49.80058314415955
 21
8.985250000000168
 31
0.0
  0
SOLID
  5
126
330
11D
100
AcDbEntity
  8
치수문자_일반주서
 62
     0
100
AcDbTrace
 10
50.35091647749292
 20
-5.683249999999829
 30
0.0
 11
49.25024981082625
 21
-5.683249999999832
 31
0.0
 12
49.80058314415958
 22
-2.381249999999831
 32
0.0
 13
49.80058314415958
 23
-2.381249999999831
 33
0.0
  0
SOLID
  5
127
330
11D
100
AcDbEntity
  8
치수문자_일반주서
 62
     0
100
AcDbTrace
 10
49.25024981082623
 20
5.683250000000166
 30
0.0
 11
50.35091647749289
 21
5.68325000000017
 31
0.0
 12
49.80058314415957
 22
2.381250000000168
 32
0.0
 13
49.80058314415957
 23
2.381250000000168
 33
0.0
  0
MTEXT
  5
128
330
11D
100
AcDbEntity
  8
치수문자_일반주서
 62
     0
100
AcDbMText
 10
45.4255831441595
 20
22.98525000000015
 30
0.0
 40
3.5
 41
0.0
 71
     2
 72
     1
  1
\A1;%%c4.76 [3/16]
  7
SLDTEXTSTYLE0
 11
-2.983906501879687E-15
 21
1.0
 31
0.0
 73
     1
 44
1.0
  0
POINT
  5
129
330
11D
100
AcDbEntity
  8
Defpoints
 62
     0
100
AcDbPoint
 10
32.76678886515049
 20
-2.381249999999894
 30
0.0
  0
POINT
  5
12A
330
11D
100
AcDbEntity
  8
Defpoints
 62
     0
100
AcDbPoint
 10
32.76678886515049
 20
2.381250000000105
 30
0.0
  0
POINT
  5
12B
330
11D
100
AcDbEntity
  8
Defpoints
 62
     0
100
AcDbPoint
 10
49.80058314415957
 20
2.381250000000168
 30
0.0
  0
ENDBLK
  5
11F
330
11D
100
AcDbEntity
  8
0
100
AcDbBlockEnd
  0
BLOCK
  5
138
330
137
100
AcDbEntity
  8
0
100
AcDbBlockBegin
  2
SW_DOWELSYMBOL_0
 70
     0
 10
0.0
 20
0.0
 30
0.0
  3
SW_DOWELSYMBOL_0
  1
SW_DOWELSYMBOL_0
  0
CIRCLE
  5
13A
330
137
100
AcDbEntity
  8
해칭선
 62
     0
100
AcDbCircle
 10
0.0
 20
0.0
 30
0.0
 40
2.999999999999996
  0
HATCH
  5
13B
330
137
100
AcDbEntity
  8
0
  6
Continuous
 62
     0
370
     0
100
AcDbHatch
 10
0.0
 20
0.0
 30
0.0
210
0.0
220
0.0
230
1.0
  2
SOLID
 70
     1
 71
     0
 91
        1
 92
        0
 93
        3
 72
     2
 10
0.0
 20
0.0
 40
2.999999999999996
 50
0.0
 51
90.0
 73
     1
 72
     1
 10
0.0
 20
2.999999999999996
 11
0.0
 21
0.0
 72
     1
 10
0.0
 20
0.0
 11
2.999999999999996
 21
0.0
 97
        0
 75
     0
 76
     1
 98
        1
 10
0.0
 20
0.0
  0
HATCH
  5
13C
330
137
100
AcDbEntity
  8
0
  6
Continuous
 62
     0
370
     0
100
AcDbHatch
 10
0.0
 20
0.0
 30
0.0
210
0.0
220
0.0
230
1.0
  2
SOLID
 70
     1
 71
     0
 91
        1
 92
        0
 93
        3
 72
     2
 10
0.0
 20
0.0
 40
2.999999999999996
 50
180.0
 51
270.0000000000007
 73
     1
 72
     1
 10
0.0
 20
-2.999999999999996
 11
0.0
 21
0.0
 72
     1
 10
0.0
 20
0.0
 11
-2.999999999999996
 21
0.0
 97
        0
 75
     0
 76
     1
 98
        1
 10
0.0
 20
0.0
  0
ENDBLK
  5
139
330
137
100
AcDbEntity
  8
0
100
AcDbBlockEnd
  0
BLOCK
  5
215
330
214
100
AcDbEntity
  8
0
100
AcDbBlockBegin
  2
*D7
 70
     1
 10
0.0
 20
0.0
 30
0.0
  3
*D7
  1
*D8
  0
LINE
  5
217
330
214
100
AcDbEntity
  8
치수문자_일반주서
 62
     0
370
    -2
100
AcDbLine
 10
17.81250000000006
 20
17.01250000000002
 30
0.0
 11
4.375000000000027
 21
17.01249999999997
 31
0.0
  0
LINE
  5
218
330
214
100
AcDbEntity
  8
치수문자_일반주서
 62
     0
370
    -2
100
AcDbLine
 10
17.81250000000006
 20
7.487500000000016
 30
0.0
 11
4.37500000000006
 21
7.487499999999966
 31
0.0
  0
LINE
  5
219
330
214
100
AcDbEntity
  8
치수문자_일반주서
 62
     0
370
    -2
100
AcDbLine
 10
4.375000000000038
 20
13.71049999999997
 30
0.0
 11
4.375000000000048
 21
10.78949999999996
 31
0.0
  0
SOLID
  5
21A
330
214
100
AcDbEntity
  8
치수문자_일반주서
 62
     0
100
AcDbTrace
 10
4.925333333333372
 20
13.71049999999997
 30
0.0
 11
3.824666666666705
 21
13.71049999999997
 31
0.0
 12
4.375000000000027
 22
17.01249999999997
 32
0.0
 13
4.375000000000027
 23
17.01249999999997
 33
0.0
  0
SOLID
  5
21B
330
214
100
AcDbEntity
  8
치수문자_일반주서
 62
     0
100
AcDbTrace
 10
3.824666666666715
 20
10.78949999999996
 30
0.0
 11
4.925333333333382
 21
10.78949999999997
 31
0.0
 12
4.37500000000006
 22
7.487499999999966
 32
0.0
 13
4.37500000000006
 23
7.487499999999966
 33
0.0
  0
MTEXT
  5
21C
330
214
100
AcDbEntity
  8
치수문자_일반주서
 62
     0
100
AcDbMText
 10
0.0000000000000426
 20
12.25000000000001
 30
0.0
 40
3.5
 41
0.0
 71
     2
 72
     1
  1
\A1;%%c9.53 [3/8]
  7
SLDTEXTSTYLE0
 11
-3.450141892798385E-15
 21
1.0
 31
0.0
 73
     1
 44
1.0
  0
POINT
  5
21D
330
214
100
AcDbEntity
  8
Defpoints
 62
     0
100
AcDbPoint
 10
17.87500000000006
 20
17.01250000000002
 30
0.0
  0
POINT
  5
21E
330
214
100
AcDbEntity
  8
Defpoints
 62
     0
100
AcDbPoint
 10
17.87500000000006
 20
7.487500000000016
 30
0.0
  0
POINT
  5
21F
330
214
100
AcDbEntity
  8
Defpoints
 62
     0
100
AcDbPoint
 10
4.375000000000064
 20
7.487499999999965
 30
0.0
  0
ENDBLK
  5
216
330
214
100
AcDbEntity
  8
0
100
AcDbBlockEnd
  0
BLOCK
  5
221
330
220
100
AcDbEntity
  8
0
100
AcDbBlockBegin
  2
*D8
 70
     1
 10
0.0
 20
0.0
 30
0.0
  3
*D8
  1
*D9
  0
LINE
  5
223
330
220
100
AcDbEntity
  8
치수문자_일반주서
 62
     0
370
    -2
100
AcDbLine
 10
77.39000000000006
 20
13.90000000000002
 30
0.0
 11
77.39000000000006
 21
27.17223221432238
 31
0.0
  0
LINE
  5
224
330
220
100
AcDbEntity
  8
치수문자_일반주서
 62
     0
370
    -2
100
AcDbLine
 10
67.86500000000007
 20
13.37661596043879
 30
0.0
 11
67.86500000000007
 21
27.17223221432238
 31
0.0
  0
LINE
  5
225
330
220
100
AcDbEntity
  8
치수문자_일반주서
 62
     0
370
    -2
100
AcDbLine
 10
67.86500000000007
 20
27.17223221432238
 30
0.0
 11
37.63600000000007
 21
27.17223221432238
 31
0.0
  0
LINE
  5
226
330
220
100
AcDbEntity
  8
치수문자_일반주서
 62
     0
370
    -2
100
AcDbLine
 10
77.39000000000006
 20
27.17223221432238
 30
0.0
 11
67.86500000000007
 21
27.17223221432238
 31
0.0
  0
LINE
  5
227
330
220
100
AcDbEntity
  8
치수문자_일반주서
 62
     0
370
    -2
100
AcDbLine
 10
80.69200000000006
 20
27.17223221432238
 30
0.0
 11
83.99400000000006
 21
27.17223221432238
 31
0.0
  0
LINE
  5
228
330
220
100
AcDbEntity
  8
치수문자_일반주서
 62
     0
370
    -2
100
AcDbLine
 10
64.56300000000007
 20
27.17223221432238
 30
0.0
 11
61.26100000000007
 21
27.17223221432238
 31
0.0
  0
SOLID
  5
229
330
220
100
AcDbEntity
  8
치수문자_일반주서
 62
     0
100
AcDbTrace
 10
80.69200000000006
 20
27.72256554765571
 30
0.0
 11
80.69200000000006
 21
26.62189888098904
 31
0.0
 12
77.39000000000006
 22
27.17223221432238
 32
0.0
 13
77.39000000000006
 23
27.17223221432238
 33
0.0
  0
SOLID
  5
22A
330
220
100
AcDbEntity
  8
치수문자_일반주서
 62
     0
100
AcDbTrace
 10
64.56300000000007
 20
26.62189888098904
 30
0.0
 11
64.56300000000007
 21
27.72256554765571
 31
0.0
 12
67.86500000000007
 22
27.17223221432238
 32
0.0
 13
67.86500000000007
 23
27.17223221432238
 33
0.0
  0
MTEXT
  5
22B
330
220
100
AcDbEntity
  8
치수문자_일반주서
 62
     0
100
AcDbMText
 10
49.44850000000007
 20
31.54723221432238
 30
0.0
 40
3.5
 41
0.0
 71
     2
 72
     1
  1
\A1;9.53 [3/8]
  7
SLDTEXTSTYLE0
 73
     1
 44
1.0
  0
POINT
  5
22C
330
220
100
AcDbEntity
  8
Defpoints
 62
     0
100
AcDbPoint
 10
77.39000000000006
 20
13.83750000000002
 30
0.0
  0
POINT
  5
22D
330
220
100
AcDbEntity
  8
Defpoints
 62
     0
100
AcDbPoint
 10
67.86500000000007
 20
13.31411596043879
 30
0.0
  0
POINT
  5
22E
330
220
100
AcDbEntity
  8
Defpoints
 62
     0
100
AcDbPoint
 10
67.86500000000007
 20
27.17223221432238
 30
0.0
  0
ENDBLK
  5
222
330
220
100
AcDbEntity
  8
0
100
AcDbBlockEnd
  0
BLOCK
  5
230
330
22F
100
AcDbEntity
  8
0
100
AcDbBlockBegin
  2
*D9
 70
     1
 10
0.0
 20
0.0
 30
0.0
  3
*D9
  1
*D10
  0
LINE
  5
232
330
22F
100
AcDbEntity
  8
치수문자_일반주서
 62
     0
370
    -2
100
AcDbLine
 10
77.39000000000006
 20
13.90000000000002
 30
0.0
 11
77.39000000000006
 21
44.28197319528977
 31
0.0
  0
LINE
  5
233
330
22F
100
AcDbEntity
  8
치수문자_일반주서
 62
     0
370
    -2
100
AcDbLine
 10
17.06500000000005
 20
16.26500000000001
 30
0.0
 11
17.06500000000005
 21
44.28197319528977
 31
0.0
  0
LINE
  5
234
330
22F
100
AcDbEntity
  8
치수문자_일반주서
 62
     0
370
    -2
100
AcDbLine
 10
74.08800000000005
 20
44.28197319528977
 30
0.0
 11
20.36700000000005
 21
44.28197319528977
 31
0.0
  0
SOLID
  5
235
330
22F
100
AcDbEntity
  8
치수문자_일반주서
 62
     0
100
AcDbTrace
 10
74.08800000000005
 20
43.73163986195643
 30
0.0
 11
74.08800000000005
 21
44.8323065286231
 31
0.0
 12
77.39000000000006
 22
44.28197319528977
 32
0.0
 13
77.39000000000006
 23
44.28197319528977
 33
0.0
  0
SOLID
  5
236
330
22F
100
AcDbEntity
  8
치수문자_일반주서
 62
     0
100
AcDbTrace
 10
20.36700000000005
 20
44.8323065286231
 30
0.0
 11
20.36700000000005
 21
43.73163986195643
 31
0.0
 12
17.06500000000005
 22
44.28197319528977
 32
0.0
 13
17.06500000000005
 23
44.28197319528977
 33
0.0
  0
MTEXT
  5
237
330
22F
100
AcDbEntity
  8
치수문자_일반주서
 62
     0
100
AcDbMText
 10
47.22750000000006
 20
48.65697319528977
 30
0.0
 40
3.5
 41
0.0
 71
     2
 72
     1
  1
\A1;60.33 [2 3/8]
  7
SLDTEXTSTYLE0
 73
     1
 44
1.0
  0
POINT
  5
238
330
22F
100
AcDbEntity
  8
Defpoints
 62
     0
100
AcDbPoint
 10
77.39000000000006
 20
13.83750000000002
 30
0.0
  0
POINT
  5
239
330
22F
100
AcDbEntity
  8
Defpoints
 62
     0
100
AcDbPoint
 10
17.06500000000005
 20
16.20250000000001
 30
0.0
  0
POINT
  5
23A
330
22F
100
AcDbEntity
  8
Defpoints
 62
     0
100
AcDbPoint
 10
17.06500000000005
 20
44.28197319528977
 30
0.0
  0
ENDBLK
  5
231
330
22F
100
AcDbEntity
  8
0
100
AcDbBlockEnd
  0
BLOCK
  5
23C
330
23B
100
AcDbEntity
  8
0
100
AcDbBlockBegin
  2
*D10
 70
     1
 10
0.0
 20
0.0
 30
0.0
  3
*D10
  1
*D11
  0
LINE
  5
23E
330
23B
100
AcDbEntity
  8
치수문자_일반주서
 62
     0
370
    -2
100
AcDbLine
 10
77.45250000000006
 20
10.66250000000002
 30
0.0
 11
94.42379427900919
 21
10.66250000000009
 31
0.0
  0
LINE
  5
23F
330
23B
100
AcDbEntity
  8
치수문자_일반주서
 62
     0
370
    -2
100
AcDbLine
 10
77.45250000000006
 20
13.83750000000002
 30
0.0
 11
94.42379427900917
 21
13.83750000000008
 31
0.0
  0
LINE
  5
240
330
23B
100
AcDbEntity
  8
치수문자_일반주서
 62
     0
370
    -2
100
AcDbLine
 10
94.42379427900917
 20
13.83750000000008
 30
0.0
 11
94.42379427900903
 21
45.41650000000008
 31
0.0
  0
LINE
  5
241
330
23B
100
AcDbEntity
  8
치수문자_일반주서
 62
     0
370
    -2
100
AcDbLine
 10
94.42379427900919
 20
10.66250000000009
 30
0.0
 11
94.42379427900917
 21
13.83750000000008
 31
0.0
  0
LINE
  5
242
330
23B
100
AcDbEntity
  8
치수문자_일반주서
 62
     0
370
    -2
100
AcDbLine
 10
94.4237942790092
 20
7.360500000000087
 30
0.0
 11
94.42379427900921
 21
4.058500000000087
 31
0.0
  0
LINE
  5
243
330
23B
100
AcDbEntity
  8
치수문자_일반주서
 62
     0
370
    -2
100
AcDbLine
 10
94.42379427900916
 20
17.13950000000008
 30
0.0
 11
94.42379427900914
 21
20.44150000000008
 31
0.0
  0
SOLID
  5
244
330
23B
100
AcDbEntity
  8
치수문자_일반주서
 62
     0
100
AcDbTrace
 10
94.97412761234253
 20
7.36050000000009
 30
0.0
 11
93.87346094567587
 21
7.360500000000084
 31
0.0
 12
94.42379427900919
 22
10.66250000000009
 32
0.0
 13
94.42379427900919
 23
10.66250000000009
 33
0.0
  0
SOLID
  5
245
330
23B
100
AcDbEntity
  8
치수문자_일반주서
 62
     0
100
AcDbTrace
 10
93.87346094567583
 20
17.13950000000008
 30
0.0
 11
94.97412761234249
 21
17.13950000000009
 31
0.0
 12
94.42379427900917
 22
13.83750000000008
 32
0.0
 13
94.42379427900917
 23
13.83750000000008
 33
0.0
  0
MTEXT
  5
246
330
23B
100
AcDbEntity
  8
치수문자_일반주서
 62
     0
100
AcDbMText
 10
90.04879427900909
 20
33.16650000000006
 30
0.0
 40
3.5
 41
0.0
 71
     2
 72
     1
  1
\A1;%%c3.18 [1/8]
  7
SLDTEXTSTYLE0
 11
-4.475859752819528E-15
 21
1.0
 31
0.0
 73
     1
 44
1.0
  0
POINT
  5
247
330
23B
100
AcDbEntity
  8
Defpoints
 62
     0
100
AcDbPoint
 10
77.39000000000006
 20
10.66250000000002
 30
0.0
  0
POINT
  5
248
330
23B
100
AcDbEntity
  8
Defpoints
 62
     0
100
AcDbPoint
 10
77.39000000000006
 20
13.83750000000002
 30
0.0
  0
POINT
  5
249
330
23B
100
AcDbEntity
  8
Defpoints
 62
     0
100
AcDbPoint
 10
94.42379427900917
 20
13.83750000000009
 30
0.0
  0
ENDBLK
  5
23D
330
23B
100
AcDbEntity
  8
0
100
AcDbBlockEnd
  0
BLOCK
  5
294
330
293
100
AcDbEntity
  8
0
100
AcDbBlockBegin
  2
*D11
 70
     1
 10
0.0
 20
0.0
 30
0.0
  3
*D11
  1
*D12
  0
LINE
  5
296
330
293
100
AcDbEntity
  8
치수문자_일반주서
 62
     0
370
    -2
100
AcDbLine
 10
109.7844505108529
 20
-19.26002245064418
 30
0.0
 11
96.34695051085285
 21
-19.26002245064423
 31
0.0
  0
LINE
  5
297
330
293
100
AcDbEntity
  8
치수문자_일반주서
 62
     0
370
    -2
100
AcDbLine
 10
109.7844505108529
 20
-28.78502245064418
 30
0.0
 11
96.34695051085288
 21
-28.78502245064423
 31
0.0
  0
LINE
  5
298
330
293
100
AcDbEntity
  8
치수문자_일반주서
 62
     0
370
    -2
100
AcDbLine
 10
96.34695051085286
 20
-22.56202245064422
 30
0.0
 11
96.34695051085286
 21
-25.48302245064423
 31
0.0
  0
SOLID
  5
299
330
293
100
AcDbEntity
  8
치수문자_일반주서
 62
     0
100
AcDbTrace
 10
96.89728384418619
 20
-22.56202245064422
 30
0.0
 11
95.79661717751954
 21
-22.56202245064422
 31
0.0
 12
96.34695051085285
 22
-19.26002245064423
 32
0.0
 13
96.34695051085285
 23
-19.26002245064423
 33
0.0
  0
SOLID
  5
29A
330
293
100
AcDbEntity
  8
치수문자_일반주서
 62
     0
100
AcDbTrace
 10
95.79661717751954
 20
-25.48302245064423
 30
0.0
 11
96.89728384418619
 21
-25.48302245064423
 31
0.0
 12
96.34695051085288
 22
-28.78502245064423
 32
0.0
 13
96.34695051085288
 23
-28.78502245064423
 33
0.0
  0
MTEXT
  5
29B
330
293
100
AcDbEntity
  8
치수문자_일반주서
 62
     0
100
AcDbMText
 10
91.97195051085286
 20
-24.02252245064419
 30
0.0
 40
3.5
 41
0.0
 71
     2
 72
     1
  1
\A1;%%c9.53 [3/8]
  7
SLDTEXTSTYLE0
 11
-2.983906501879684E-15
 21
1.0
 31
0.0
 73
     1
 44
1.0
  0
POINT
  5
29C
330
293
100
AcDbEntity
  8
Defpoints
 62
     0
100
AcDbPoint
 10
109.8469505108529
 20
-19.26002245064418
 30
0.0
  0
POINT
  5
29D
330
293
100
AcDbEntity
  8
Defpoints
 62
     0
100
AcDbPoint
 10
109.8469505108529
 20
-28.78502245064418
 30
0.0
  0
POINT
  5
29E
330
293
100
AcDbEntity
  8
Defpoints
 62
     0
100
AcDbPoint
 10
96.34695051085288
 20
-28.78502245064423
 30
0.0
  0
ENDBLK
  5
295
330
293
100
AcDbEntity
  8
0
100
AcDbBlockEnd
  0
BLOCK
  5
2A0
330
29F
100
AcDbEntity
  8
0
100
AcDbBlockBegin
  2
*D12
 70
     1
 10
0.0
 20
0.0
 30
0.0
  3
*D12
  1
*D13
  0
LINE
  5
2A2
330
29F
100
AcDbEntity
  8
치수문자_일반주서
 62
     0
370
    -2
100
AcDbLine
 10
169.3619505108529
 20
-22.37252245064418
 30
0.0
 11
169.3619505108529
 21
-9.100290236321818
 31
0.0
  0
LINE
  5
2A3
330
29F
100
AcDbEntity
  8
치수문자_일반주서
 62
     0
370
    -2
100
AcDbLine
 10
159.8369505108529
 20
-22.89590649020541
 30
0.0
 11
159.8369505108529
 21
-9.100290236321818
 31
0.0
  0
LINE
  5
2A4
330
29F
100
AcDbEntity
  8
치수문자_일반주서
 62
     0
370
    -2
100
AcDbLine
 10
159.8369505108529
 20
-9.100290236321818
 30
0.0
 11
129.6079505108529
 21
-9.100290236321818
 31
0.0
  0
LINE
  5
2A5
330
29F
100
AcDbEntity
  8
치수문자_일반주서
 62
     0
370
    -2
100
AcDbLine
 10
169.3619505108529
 20
-9.100290236321818
 30
0.0
 11
159.8369505108529
 21
-9.100290236321818
 31
0.0
  0
LINE
  5
2A6
330
29F
100
AcDbEntity
  8
치수문자_일반주서
 62
     0
370
    -2
100
AcDbLine
 10
172.6639505108529
 20
-9.100290236321818
 30
0.0
 11
175.9659505108528
 21
-9.100290236321818
 31
0.0
  0
LINE
  5
2A7
330
29F
100
AcDbEntity
  8
치수문자_일반주서
 62
     0
370
    -2
100
AcDbLine
 10
156.5349505108529
 20
-9.100290236321818
 30
0.0
 11
153.2329505108529
 21
-9.100290236321818
 31
0.0
  0
SOLID
  5
2A8
330
29F
100
AcDbEntity
  8
치수문자_일반주서
 62
     0
100
AcDbTrace
 10
172.6639505108529
 20
-8.549956902988486
 30
0.0
 11
172.6639505108529
 21
-9.650623569655151
 31
0.0
 12
169.3619505108529
 22
-9.100290236321818
 32
0.0
 13
169.3619505108529
 23
-9.100290236321818
 33
0.0
  0
SOLID
  5
2A9
330
29F
100
AcDbEntity
  8
치수문자_일반주서
 62
     0
100
AcDbTrace
 10
156.5349505108529
 20
-9.650623569655151
 30
0.0
 11
156.5349505108529
 21
-8.549956902988486
 31
0.0
 12
159.8369505108529
 22
-9.100290236321818
 32
0.0
 13
159.8369505108529
 23
-9.100290236321818
 33
0.0
  0
MTEXT
  5
2AA
330
29F
100
AcDbEntity
  8
치수문자_일반주서
 62
     0
100
AcDbMText
 10
141.4204505108529
 20
-4.725290236321818
 30
0.0
 40
3.5
 41
0.0
 71
     2
 72
     1
  1
\A1;9.53 [3/8]
  7
SLDTEXTSTYLE0
 73
     1
 44
1.0
  0
POINT
  5
2AB
330
29F
100
AcDbEntity
  8
Defpoints
 62
     0
100
AcDbPoint
 10
169.3619505108529
 20
-22.43502245064418
 30
0.0
  0
POINT
  5
2AC
330
29F
100
AcDbEntity
  8
Defpoints
 62
     0
100
AcDbPoint
 10
159.8369505108529
 20
-22.95840649020541
 30
0.0
  0
POINT
  5
2AD
330
29F
100
AcDbEntity
  8
Defpoints
 62
     0
100
AcDbPoint
 10
159.8369505108529
 20
-9.100290236321818
 30
0.0
  0
ENDBLK
  5
2A1
330
29F
100
AcDbEntity
  8
0
100
AcDbBlockEnd
  0
BLOCK
  5
2AF
330
2AE
100
AcDbEntity
  8
0
100
AcDbBlockBegin
  2
*D13
 70
     1
 10
0.0
 20
0.0
 30
0.0
  3
*D13
  1
*D14
  0
LINE
  5
2B1
330
2AE
100
AcDbEntity
  8
치수문자_일반주서
 62
     0
370
    -2
100
AcDbLine
 10
169.3619505108529
 20
-22.37252245064418
 30
0.0
 11
169.3619505108529
 21
8.00945074464557
 31
0.0
  0
LINE
  5
2B2
330
2AE
100
AcDbEntity
  8
치수문자_일반주서
 62
     0
370
    -2
100
AcDbLine
 10
109.0369505108529
 20
-20.00752245064418
 30
0.0
 11
109.0369505108529
 21
8.00945074464557
 31
0.0
  0
LINE
  5
2B3
330
2AE
100
AcDbEntity
  8
치수문자_일반주서
 62
     0
370
    -2
100
AcDbLine
 10
166.0599505108529
 20
8.00945074464557
 30
0.0
 11
112.3389505108529
 21
8.00945074464557
 31
0.0
  0
SOLID
  5
2B4
330
2AE
100
AcDbEntity
  8
치수문자_일반주서
 62
     0
100
AcDbTrace
 10
166.0599505108529
 20
7.459117411312236
 30
0.0
 11
166.0599505108529
 21
8.559784077978902
 31
0.0
 12
169.3619505108529
 22
8.00945074464557
 32
0.0
 13
169.3619505108529
 23
8.00945074464557
 33
0.0
  0
SOLID
  5
2B5
330
2AE
100
AcDbEntity
  8
치수문자_일반주서
 62
     0
100
AcDbTrace
 10
112.3389505108529
 20
8.559784077978902
 30
0.0
 11
112.3389505108529
 21
7.459117411312236
 31
0.0
 12
109.0369505108529
 22
8.00945074464557
 32
0.0
 13
109.0369505108529
 23
8.00945074464557
 33
0.0
  0
MTEXT
  5
2B6
330
2AE
100
AcDbEntity
  8
치수문자_일반주서
 62
     0
100
AcDbMText
 10
139.1994505108529
 20
12.38445074464557
 30
0.0
 40
3.5
 41
0.0
 71
     2
 72
     1
  1
\A1;60.33 [2 3/8]
  7
SLDTEXTSTYLE0
 73
     1
 44
1.0
  0
POINT
  5
2B7
330
2AE
100
AcDbEntity
  8
Defpoints
 62
     0
100
AcDbPoint
 10
169.3619505108529
 20
-22.43502245064418
 30
0.0
  0
POINT
  5
2B8
330
2AE
100
AcDbEntity
  8
Defpoints
 62
     0
100
AcDbPoint
 10
109.0369505108529
 20
-20.07002245064418
 30
0.0
  0
POINT
  5
2B9
330
2AE
100
AcDbEntity
  8
Defpoints
 62
     0
100
AcDbPoint
 10
109.0369505108529
 20
8.00945074464557
 30
0.0
  0
ENDBLK
  5
2B0
330
2AE
100
AcDbEntity
  8
0
100
AcDbBlockEnd
  0
BLOCK
  5
2BB
330
2BA
100
AcDbEntity
  8
0
100
AcDbBlockBegin
  2
*D14
 70
     1
 10
0.0
 20
0.0
 30
0.0
  3
*D14
  1
*D15
  0
LINE
  5
2BD
330
2BA
100
AcDbEntity
  8
치수문자_일반주서
 62
     0
370
    -2
100
AcDbLine
 10
169.4244505108529
 20
-25.61002245064417
 30
0.0
 11
186.3957447898619
 21
-25.61002245064411
 31
0.0
  0
LINE
  5
2BE
330
2BA
100
AcDbEntity
  8
치수문자_일반주서
 62
     0
370
    -2
100
AcDbLine
 10
169.4244505108529
 20
-22.43502245064418
 30
0.0
 11
186.3957447898619
 21
-22.43502245064411
 31
0.0
  0
LINE
  5
2BF
330
2BA
100
AcDbEntity
  8
치수문자_일반주서
 62
     0
370
    -2
100
AcDbLine
 10
186.3957447898619
 20
-22.43502245064411
 30
0.0
 11
186.3957447898619
 21
9.143977549355888
 31
0.0
  0
LINE
  5
2C0
330
2BA
100
AcDbEntity
  8
치수문자_일반주서
 62
     0
370
    -2
100
AcDbLine
 10
186.3957447898619
 20
-25.61002245064411
 30
0.0
 11
186.3957447898619
 21
-22.43502245064411
 31
0.0
  0
LINE
  5
2C1
330
2BA
100
AcDbEntity
  8
치수문자_일반주서
 62
     0
370
    -2
100
AcDbLine
 10
186.3957447898619
 20
-28.91202245064411
 30
0.0
 11
186.3957447898619
 21
-32.21402245064411
 31
0.0
  0
LINE
  5
2C2
330
2BA
100
AcDbEntity
  8
치수문자_일반주서
 62
     0
370
    -2
100
AcDbLine
 10
186.3957447898619
 20
-19.13302245064411
 30
0.0
 11
186.3957447898619
 21
-15.83102245064411
 31
0.0
  0
SOLID
  5
2C3
330
2BA
100
AcDbEntity
  8
치수문자_일반주서
 62
     0
100
AcDbTrace
 10
186.9460781231952
 20
-28.91202245064411
 30
0.0
 11
185.8454114565286
 21
-28.91202245064411
 31
0.0
 12
186.3957447898619
 22
-25.61002245064411
 32
0.0
 13
186.3957447898619
 23
-25.61002245064411
 33
0.0
  0
SOLID
  5
2C4
330
2BA
100
AcDbEntity
  8
치수문자_일반주서
 62
     0
100
AcDbTrace
 10
185.8454114565286
 20
-19.13302245064411
 30
0.0
 11
186.9460781231952
 21
-19.13302245064411
 31
0.0
 12
186.3957447898619
 22
-22.43502245064411
 32
0.0
 13
186.3957447898619
 23
-22.43502245064411
 33
0.0
  0
MTEXT
  5
2C5
330
2BA
100
AcDbEntity
  8
치수문자_일반주서
 62
     0
100
AcDbMText
 10
182.0207447898619
 20
-3.106022450644112
 30
0.0
 40
3.5
 41
0.0
 71
     2
 72
     1
  1
\A1;%%c3.18 [1/8]
  7
SLDTEXTSTYLE0
 11
0.0
 21
1.0
 31
0.0
 73
     1
 44
1.0
  0
POINT
  5
2C6
330
2BA
100
AcDbEntity
  8
Defpoints
 62
     0
100
AcDbPoint
 10
169.3619505108529
 20
-25.61002245064417
 30
0.0
  0
POINT
  5
2C7
330
2BA
100
AcDbEntity
  8
Defpoints
 62
     0
100
AcDbPoint
 10
169.3619505108529
 20
-22.43502245064418
 30
0.0
  0
POINT
  5
2C8
330
2BA
100
AcDbEntity
  8
Defpoints
 62
     0
100
AcDbPoint
 10
186.395744789862
 20
-22.43502245064411
 30
0.0
  0
ENDBLK
  5
2BC
330
2BA
100
AcDbEntity
  8
0
100
AcDbBlockEnd
  0
BLOCK
  5
381
330
380
100
AcDbEntity
  8
0
100
AcDbBlockBegin
  2
*D15
 70
     1
 10
0.0
 20
0.0
 30
0.0
  3
*D15
  1
*D15
  0
LINE
  5
383
330
380
100
AcDbEntity
  8
치수문자_일반주서
 62
     0
370
    -2
100
AcDbLine
 10
32.76678886515049
 20
2.443750000000105
 30
0.0
 11
32.76678886515049
 21
28.26380394664501
 31
0.0
  0
LINE
  5
384
330
380
100
AcDbEntity
  8
치수문자_일반주서
 62
     0
370
    -2
100
AcDbLine
 10
4.191788865150479
 20
2.323099999999885
 30
0.0
 11
4.191788865150478
 21
28.26380394664501
 31
0.0
  0
LINE
  5
385
330
380
100
AcDbEntity
  8
치수문자_일반주서
 62
     0
370
    -2
100
AcDbLine
 10
29.46478886515049
 20
28.26380394664501
 30
0.0
 11
7.493788865150478
 21
28.26380394664501
 31
0.0
  0
SOLID
  5
386
330
380
100
AcDbEntity
  8
치수문자_일반주서
 62
     0
100
AcDbTrace
 10
29.46478886515049
 20
27.71347061331167
 30
0.0
 11
29.46478886515049
 21
28.81413727997834
 31
0.0
 12
32.76678886515049
 22
28.26380394664501
 32
0.0
 13
32.76678886515049
 23
28.26380394664501
 33
0.0
  0
SOLID
  5
387
330
380
100
AcDbEntity
  8
치수문자_일반주서
 62
     0
100
AcDbTrace
 10
7.493788865150478
 20
28.81413727997834
 30
0.0
 11
7.493788865150478
 21
27.71347061331167
 31
0.0
 12
4.191788865150478
 22
28.26380394664501
 32
0.0
 13
4.191788865150478
 23
28.26380394664501
 33
0.0
  0
MTEXT
  5
388
330
380
100
AcDbEntity
  8
치수문자_일반주서
 62
     0
100
AcDbMText
 10
18.47928886515049
 20
30.88880394664501
 30
0.0
 40
3.5
 41
0.0
 71
     5
 72
     1
  1
\A1;28.58 [1 1/8]
  7
SLDTEXTSTYLE0
 73
     1
 44
1.0
  0
POINT
  5
389
330
380
100
AcDbEntity
  8
Defpoints
 62
     0
100
AcDbPoint
 10
32.76678886515049
 20
2.381250000000105
 30
0.0
  0
POINT
  5
38A
330
380
100
AcDbEntity
  8
Defpoints
 62
     0
100
AcDbPoint
 10
4.191788865150479
 20
2.260599999999885
 30
0.0
  0
POINT
  5
38B
330
380
100
AcDbEntity
  8
Defpoints
 62
     0
100
AcDbPoint
 10
4.191788865150479
 20
28.26380394664501
 30
0.0
  0
ENDBLK
  5
382
330
380
100
AcDbEntity
  8
0
100
AcDbBlockEnd
  0
ENDSEC
  0
SECTION
  2
ENTITIES
  0
LINE
  5
96
330
1F
100
AcDbEntity
  8
외형선
  6
Continuous
370
    15
100
AcDbLine
 10
0.0
 20
4.762500000000099
 30
0.0
 11
-10.81326113484942
 21
4.762500000000098
 31
0.0
  0
LINE
  5
97
330
1F
100
AcDbEntity
  8
외형선
  6
Continuous
370
    15
100
AcDbLine
 10
-34.68571113484953
 20
-4.762499999999899
 30
0.0
 11
0.0
 21
-4.762499999999896
 31
0.0
  0
LINE
  5
9A
330
1F
100
AcDbEntity
  8
외형선
  6
Continuous
370
    15
100
AcDbLine
 10
-34.68571113484953
 20
4.762500000000094
 30
0.0
 11
-35.49571113484954
 21
3.952500000000093
 31
0.0
  0
LINE
  5
9B
330
1F
100
AcDbEntity
  8
외형선
  6
Continuous
370
    15
100
AcDbLine
 10
-35.49571113484954
 20
-3.952499999999898
 30
0.0
 11
-34.68571113484953
 21
-4.762499999999897
 31
0.0
  0
LINE
  5
A0
330
1F
100
AcDbEntity
  8
0
  6
Continuous
 62
     1
370
    15
100
AcDbLine
 10
25.96072277121773
 20
0.9279586100240002
 30
0.0
 11
25.93606226390359
 21
0.9406815904728276
 31
0.0
  0
SPLINE
  5
A1
330
1F
100
AcDbEntity
  8
0
  6
Continuous
 62
     1
370
    15
100
AcDbSpline
210
0.0
220
0.0
230
1.0
 70
     8
 71
     3
 72
     9
 73
     5
 74
     0
 42
0.000000001
 43
0.00000001
 40
0.0
 40
0.0
 40
0.0
 40
0.0
 40
0.5575146093790128
 40
1.0
 40
1.0
 40
1.0
 40
1.0
 10
26.59862386235385
 20
0.610023938949186
 30
0.0
 10
26.48004204933366
 20
0.666440073516797
 30
0.0
 10
26.26734481947582
 20
0.7676322819693255
 30
0.0
 10
26.0547797215887
 20
0.8787781757836501
 30
0.0
 10
25.96072277121773
 20
0.9279586100240002
 30
0.0
  0
LINE
  5
A2
330
1F
100
AcDbEntity
  8
0
  6
Continuous
 62
     1
370
    15
100
AcDbLine
 10
21.13266853420973
 20
2.381250000000103
 30
0.0
 11
20.06678886515049
 21
2.381250000000103
 31
0.0
  0
SPLINE
  5
A3
330
1F
100
AcDbEntity
  8
0
  6
Continuous
 62
     1
370
    15
100
AcDbSpline
210
0.0
220
0.0
230
1.0
 70
     8
 71
     3
 72
    10
 73
     6
 74
     0
 42
0.000000001
 43
0.00000001
 40
0.0
 40
0.0
 40
0.0
 40
0.0
 40
0.4292492141940147
 40
0.9924914594504276
 40
1.0
 40
1.0
 40
1.0
 40
1.0
 10
25.80959344450806
 20
1.892222128356508
 30
0.0
 10
25.52665443911637
 20
1.88131636398756
 30
0.0
 10
24.87245511361745
 20
1.856100527505988
 30
0.0
 10
24.21390277421098
 20
1.847271250051207
 30
0.0
 10
23.83774592065743
 20
1.872817938866899
 30
0.0
 10
23.83279737033013
 20
1.873154019611158
 30
0.0
  0
SPLINE
  5
A4
330
1F
100
AcDbEntity
  8
0
  6
Continuous
 62
     1
370
    15
100
AcDbSpline
210
0.0
220
0.0
230
1.0
 70
     8
 71
     3
 72
    21
 73
    17
 74
     0
 42
0.000000001
 43
0.00000001
 40
0.0
 40
0.0
 40
0.0
 40
0.0
 40
0.0928827724231685
 40
0.1593890740235988
 40
0.2054464433977611
 40
0.2501786683405908
 40
0.295844752418943
 40
0.3955207404687841
 40
0.5074179401648699
 40
0.6062969281267674
 40
0.6974144855886252
 40
0.7709727317411097
 40
0.8118624837984882
 40
0.8538211236912067
 40
0.9148422604844885
 40
1.0
 40
1.0
 40
1.0
 40
1.0
 10
31.89642685230605
 20
1.629960712340702
 30
0.0
 10
31.76666606299984
 20
1.619484401432307
 30
0.0
 10
31.54399342401076
 20
1.601506799652023
 30
0.0
 10
31.25783838374802
 20
1.585924069116676
 30
0.0
 10
31.03902497402067
 20
1.576881197500479
 30
0.0
 10
30.84936865181754
 20
1.571283378338196
 30
0.0
 10
30.58537102467693
 20
1.566499238220131
 30
0.0
 10
30.22762643375896
 20
1.566738012936182
 30
0.0
 10
29.79572273660086
 20
1.578826310699115
 30
0.0
 10
29.37603353828273
 20
1.601714320307459
 30
0.0
 10
29.00990830161845
 20
1.630660779257811
 30
0.0
 10
28.72395899845772
 20
1.658707188640608
 30
0.0
 10
28.50608133100739
 20
1.682972212675757
 30
0.0
 10
28.30533008683649
 20
1.707290568552294
 30
0.0
 10
28.04429947388487
 20
1.741894596704477
 30
0.0
 10
27.84123945354195
 20
1.772921093447069
 30
0.0
 10
27.72294512295859
 20
1.790995841279329
 30
0.0
  0
SPLINE
  5
A5
330
1F
100
AcDbEntity
  8
0
  6
Continuous
 62
     1
370
    15
100
AcDbSpline
210
0.0
220
0.0
230
1.0
 70
     8
 71
     3
 72
    11
 73
     7
 74
     0
 42
0.000000001
 43
0.00000001
 40
0.0
 40
0.0
 40
0.0
 40
0.0
 40
0.4521041008416338
 40
0.6475521842149828
 40
0.7630462512332378
 40
1.0
 40
1.0
 40
1.0
 40
1.0
 10
22.22834552573558
 20
-1.981548618334003
 30
0.0
 10
22.76816526095049
 20
-1.936524504932707
 30
0.0
 10
23.54135322356801
 20
-1.87203612068431
 30
0.0
 10
24.45205196407456
 20
-1.858112197008327
 30
0.0
 10
25.10576753542088
 20
-1.861646842130934
 30
0.0
 10
25.52663832923923
 20
-1.879930120451256
 30
0.0
 10
25.80959344450806
 20
-1.892222128356304
 30
0.0
  0
SPLINE
  5
A6
330
1F
100
AcDbEntity
  8
0
  6
Continuous
 62
     1
370
    15
100
AcDbSpline
210
0.0
220
0.0
230
1.0
 70
     8
 71
     3
 72
    14
 73
    10
 74
     0
 42
0.000000001
 43
0.00000001
 40
0.0
 40
0.0
 40
0.0
 40
0.0
 40
0.2026632014270771
 40
0.3467250566244202
 40
0.4461023058771376
 40
0.5437582160228528
 40
0.6436542964038002
 40
0.881636497743747
 40
1.0
 40
1.0
 40
1.0
 40
1.0
 10
27.72294512295859
 20
-1.790995841279125
 30
0.0
 10
27.84306723223387
 20
-1.772648902273793
 30
0.0
 10
28.04857738329752
 20
-1.741260157693057
 30
0.0
 10
28.31270861007352
 20
-1.706342113389703
 30
0.0
 10
28.51581672540739
 20
-1.68184260259856
 30
0.0
 10
28.69229801985949
 20
-1.66225816569098
 30
0.0
 10
28.9508628784597
 20
-1.636353173818062
 30
0.0
 10
29.22134871414028
 20
-1.612002021369241
 30
0.0
 10
29.4327292076241
 20
-1.600852204342987
 30
0.0
 10
29.50294118230179
 20
-1.59714869008864
 30
0.0
  0
LINE
  5
A7
330
1F
100
AcDbEntity
  8
0
  6
Continuous
 62
     1
370
    15
100
AcDbLine
 10
20.06678886515049
 20
-2.3812499999999
 30
0.0
 11
21.13266853420975
 21
-2.3812499999999
 31
0.0
  0
LINE
  5
A9
330
1F
100
AcDbEntity
  8
외형선
  6
Continuous
370
    15
100
AcDbLine
 10
-34.68571113484953
 20
4.762500000000094
 30
0.0
 11
-34.68571113484953
 21
-4.762499999999902
 31
0.0
  0
LINE
  5
AB
330
1F
100
AcDbEntity
  8
외형선
  6
Continuous
370
    15
100
AcDbLine
 10
-35.49571113484954
 20
3.952500000000094
 30
0.0
 11
-35.49571113484954
 21
-3.952499999999898
 31
0.0
  0
LINE
  5
AC
330
1F
100
AcDbEntity
  8
외형선
  6
Continuous
370
    15
100
AcDbLine
 10
20.06678886515048
 20
2.381250000000102
 30
0.0
 11
20.06678886515048
 21
2.380701639237352
 31
0.0
  0
LINE
  5
B0
330
1F
100
AcDbEntity
  8
외형선
  6
Continuous
370
    15
100
AcDbLine
 10
20.06678886515048
 20
-2.302218924271474
 30
0.0
 11
20.06678886515048
 21
-2.381249999999898
 31
0.0
  0
SPLINE
  5
B5
330
1F
100
AcDbEntity
  8
외형선
  6
Continuous
370
    15
100
AcDbSpline
210
0.0
220
0.0
230
1.0
 70
    24
 71
     3
 72
    10
 73
     6
 74
     0
 42
0.000000001
 43
0.00000001
 40
0.0
 40
0.0
 40
0.0
 40
0.0
 40
0.5000000000000001
 40
0.5000000000000001
 40
1.0
 40
1.0
 40
1.0
 40
1.0
 10
20.06678886515046
 20
-0.1191336825509791
 30
0.0
 10
20.06678886515046
 20
-0.4805957990353355
 30
0.0
 10
20.06678886515046
 20
-0.8452655779803203
 30
0.0
 10
20.06678886515046
 20
-1.475512580317842
 30
0.0
 10
20.06678886515046
 20
-1.73837697423147
 30
0.0
 10
20.06678886515046
 20
-1.922159885161963
 30
0.0
  0
SPLINE
  5
B7
330
1F
100
AcDbEntity
  8
외형선
  6
Continuous
370
    15
100
AcDbSpline
210
0.0
220
0.0
230
1.0
 70
    24
 71
     3
 72
    14
 73
    10
 74
     0
 42
0.000000001
 43
0.00000001
 40
0.0
 40
0.0
 40
0.0
 40
0.0
 40
0.25
 40
0.25
 40
0.5
 40
0.5
 40
0.75
 40
0.75
 40
1.0
 40
1.0
 40
1.0
 40
1.0
 10
20.06678886515048
 20
1.663612297637427
 30
0.0
 10
20.06678886515048
 20
1.605902335790805
 30
0.0
 10
20.06678886515048
 20
1.521469288296133
 30
0.0
 10
20.06678886515048
 20
1.299588685479093
 30
0.0
 10
20.06678886515048
 20
1.162145905288996
 30
0.0
 10
20.06678886515048
 20
0.845300546063904
 30
0.0
 10
20.06678886515048
 20
0.6660667954830443
 30
0.0
 10
20.06678886515048
 20
0.2849490925446111
 30
0.0
 10
20.06678886515048
 20
0.0832935724184647
 30
0.0
 10
20.06678886515048
 20
-0.1191336825509908
 30
0.0
  0
SPLINE
  5
B8
330
1F
100
AcDbEntity
  8
외형선
  6
Continuous
370
    15
100
AcDbSpline
210
0.0
220
0.0
230
1.0
 70
    24
 71
     3
 72
     8
 73
     4
 74
     0
 42
0.000000001
 43
0.00000001
 40
0.0
 40
0.0
 40
0.0
 40
0.0
 40
1.0
 40
1.0
 40
1.0
 40
1.0
 10
20.06678886515049
 20
-1.922159885161968
 30
0.0
 10
20.06678886515049
 20
-2.04884601942113
 30
0.0
 10
20.06678886515049
 20
-2.176346581891274
 30
0.0
 10
20.06678886515049
 20
-2.302218924270977
 30
0.0
  0
SPLINE
  5
B9
330
1F
100
AcDbEntity
  8
외형선
  6
Continuous
370
    15
100
AcDbSpline
210
0.0
220
0.0
230
1.0
 70
    24
 71
     3
 72
    10
 73
     6
 74
     0
 42
0.000000001
 43
0.00000001
 40
0.0
 40
0.0
 40
0.0
 40
0.0
 40
0.5000000000000004
 40
0.5000000000000004
 40
1.0
 40
1.0
 40
1.0
 40
1.0
 10
20.06678886515048
 20
2.380701639230345
 30
0.0
 10
20.06678886515048
 20
2.263587078921329
 30
0.0
 10
20.06678886515048
 20
2.135993208562014
 30
0.0
 10
20.06678886515048
 20
1.887929322593888
 30
0.0
 10
20.06678886515048
 20
1.768104544396349
 30
0.0
 10
20.06678886515048
 20
1.663612297637427
 30
0.0
  0
SPLINE
  5
BA
330
1F
100
AcDbEntity
  8
0
  6
Continuous
 62
     1
370
    15
100
AcDbSpline
210
0.0
220
0.0
230
1.0
 70
     8
 71
     3
 72
    19
 73
    15
 74
     0
 42
0.000000001
 43
0.00000001
 40
0.0
 40
0.0
 40
0.0
 40
0.0
 40
0.0874013294355998
 40
0.1747319099555777
 40
0.2620183632824332
 40
0.3492876325683827
 40
0.4365667865207545
 40
0.5238828215983348
 40
0.6112624653182708
 40
0.70734988168544
 40
0.8034312411595914
 40
0.8995008386549184
 40
0.9955600348648171
 40
1.0
 40
1.0
 40
1.0
 40
1.0
 10
32.76678886515047
 20
-2.259665444858361
 30
0.0
 10
32.42779602471201
 20
-2.18471756183085
 30
0.0
 10
31.75008474899593
 20
-2.034882463977178
 30
0.0
 10
30.7340507228602
 20
-1.650630696150338
 30
0.0
 10
29.71861543521289
 20
-1.176611982585224
 30
0.0
 10
28.70342447986748
 20
-0.6290061665578043
 30
0.0
 10
27.68809266914945
 20
-0.0441037532037116
 30
0.0
 10
26.67225436354403
 20
0.5436992938574087
 30
0.0
 10
25.6220801547457
 20
1.117225322450329
 30
0.0
 10
24.53779070865537
 20
1.633932836767391
 30
0.0
 10
23.41984285669849
 20
2.052647894351807
 30
0.0
 10
22.30202925123578
 20
2.301926645567717
 30
0.0
 10
21.53965538351802
 20
2.407400394303722
 30
0.0
 10
21.14988811171162
 20
2.378685319026434
 30
0.0
 10
21.13266853420973
 20
2.377416712091023
 30
0.0
  0
SPLINE
  5
BB
330
1F
100
AcDbEntity
  8
0
  6
Continuous
 62
     1
370
    15
100
AcDbSpline
210
0.0
220
0.0
230
1.0
 70
     8
 71
     3
 72
    13
 73
     9
 74
     0
 42
0.000000001
 43
0.00000001
 40
0.0
 40
0.0
 40
0.0
 40
0.0
 40
0.1833987599628107
 40
0.3667836410595626
 40
0.5501557754003003
 40
0.7335163025113972
 40
0.9168663686882671
 40
1.0
 40
1.0
 40
1.0
 40
1.0
 10
32.76678886515047
 20
-1.878740204526712
 30
0.0
 10
32.38915599967208
 20
-1.796077889443069
 30
0.0
 10
31.6339188464219
 20
-1.6307595148208
 30
0.0
 10
30.50112004621549
 20
-1.223028380155429
 30
0.0
 10
29.36841052670146
 20
-0.733067178434322
 30
0.0
 10
28.23578404025062
 20
-0.1881238645667606
 30
0.0
 10
27.309556135117
 20
0.276530137460762
 30
0.0
 10
26.76087225759626
 20
0.5288814915885204
 30
0.0
 10
26.58970199986426
 20
0.60760632403712
 30
0.0
  0
LINE
  5
BC
330
1F
100
AcDbEntity
  8
0
  6
Continuous
 62
     1
370
    15
100
AcDbLine
 10
32.7667888651504
 20
-2.259665444858361
 30
0.0
 11
32.76678886515047
 21
-1.878740204526712
 31
0.0
  0
SPLINE
  5
BD
330
1F
100
AcDbEntity
  8
0
  6
Continuous
 62
     1
370
    15
100
AcDbSpline
210
0.0
220
0.0
230
1.0
 70
     8
 71
     3
 72
    38
 73
    34
 74
     0
 42
0.000000001
 43
0.00000001
 40
0.0
 40
0.0
 40
0.0
 40
0.0
 40
0.0625000000000001
 40
0.0625000000000001
 40
0.1250000000000001
 40
0.1250000000000001
 40
0.1875000000000001
 40
0.1875000000000001
 40
0.2500000000000001
 40
0.2500000000000001
 40
0.3125
 40
0.3125
 40
0.375
 40
0.375
 40
0.4375
 40
0.4375
 40
0.5
 40
0.5
 40
0.5625
 40
0.5625
 40
0.625
 40
0.625
 40
0.6875
 40
0.6875
 40
0.75
 40
0.75
 40
0.8125
 40
0.8125
 40
0.875
 40
0.875
 40
0.9375
 40
0.9375
 40
1.0
 40
1.0
 40
1.0
 40
1.0
 10
20.06678886515018
 20
2.380701639236182
 30
0.0
 10
20.33142001664978
 20
2.377423533460157
 30
0.0
 10
20.5991221523497
 20
2.359301427850828
 30
0.0
 10
21.12592594260771
 20
2.294501722498728
 30
0.0
 10
21.38985791789096
 20
2.247732940518803
 30
0.0
 10
21.92153644574375
 20
2.126763431365784
 30
0.0
 10
22.18301952879126
 20
2.053113138073209
 30
0.0
 10
22.71265626388437
 20
1.880878693859016
 30
0.0
 10
22.98031062704201
 20
1.782200549498297
 30
0.0
 10
23.50655748415383
 20
1.565300278378127
 30
0.0
 10
23.77106448409126
 20
1.446334681326396
 30
0.0
 10
24.30263473894259
 20
1.191598529485153
 30
0.0
 10
24.56391313107411
 20
1.056817619041068
 30
0.0
 10
25.09389493051807
 20
0.7746698197095037
 30
0.0
 10
25.36148631102021
 20
0.6274351893536508
 30
0.0
 10
25.8871474942123
 20
0.3288214173117492
 30
0.0
 10
26.15228005986171
 20
0.1761287222977747
 30
0.0
 10
26.68371231415006
 20
-0.1297883149042881
 30
0.0
 10
26.94483715481318
 20
-0.2820074839475481
 30
0.0
 10
27.47513458676771
 20
-0.582640545282092
 30
0.0
 10
27.74264778653314
 20
-0.730695216033702
 30
0.0
 10
28.26769466285497
 20
-1.014210388039236
 30
0.0
 10
28.53350321962912
 20
-1.151166976085883
 30
0.0
 10
29.06476777152734
 20
-1.409103336420757
 30
0.0
 10
29.32579022869283
 20
-1.529437580597278
 30
0.0
 10
29.85637380264282
 20
-1.751097364103358
 30
0.0
 10
30.12379363852083
 20
-1.851979257511598
 30
0.0
 10
30.64819768795811
 20
-2.028552407932417
 30
0.0
 10
30.91473253641125
 20
-2.105327814154956
 30
0.0
 10
31.44579971535435
 20
-2.231695742090222
 30
0.0
 10
31.70677097601471
 20
-2.281161503072234
 30
0.0
 10
32.23761114821542
 20
-2.351959701647389
 30
0.0
 10
32.5049224548782
 20
-2.372980141663742
 30
0.0
 10
32.76678886515049
 20
-2.381249999999894
 30
0.0
  0
SPLINE
  5
BE
330
1F
100
AcDbEntity
  8
0
  6
Continuous
 62
     1
370
    15
100
AcDbSpline
210
0.0
220
0.0
230
1.0
 70
     8
 71
     3
 72
    13
 73
     9
 74
     0
 42
0.000000001
 43
0.00000001
 40
0.0
 40
0.0
 40
0.0
 40
0.0
 40
0.1295614678201222
 40
0.2965264734939178
 40
0.4634848532394962
 40
0.6304377133562804
 40
0.8152274280314545
 40
1.0
 40
1.0
 40
1.0
 40
1.0
 10
26.84948031017679
 20
-0.2255421767468458
 30
0.0
 10
26.55656543554349
 20
-0.1076285140937032
 30
0.0
 10
25.88617310153939
 20
0.1622397048418151
 30
0.0
 10
24.83832896890452
 20
0.5810780927873933
 30
0.0
 10
23.70593682348774
 20
0.9892012765834826
 30
0.0
 10
22.53331846618931
 20
1.332988184803558
 30
0.0
 10
21.32015447833636
 20
1.587264356631078
 30
0.0
 10
20.4845644828431
 20
1.63816377098413
 30
0.0
 10
20.06678886515049
 20
1.663612297637427
 30
0.0
  0
SPLINE
  5
BF
330
1F
100
AcDbEntity
  8
외형선
  6
Continuous
370
    15
100
AcDbSpline
210
0.0
220
0.0
230
1.0
 70
    24
 71
     3
 72
    10
 73
     6
 74
     0
 42
0.000000001
 43
0.00000001
 40
0.0
 40
0.0
 40
0.0
 40
0.0
 40
0.5000000000000004
 40
0.5000000000000004
 40
1.0
 40
1.0
 40
1.0
 40
1.0
 10
20.06678886515049
 20
2.380701639230345
 30
0.0
 10
20.06678886515049
 20
2.263587078921329
 30
0.0
 10
20.06678886515049
 20
2.135993208562014
 30
0.0
 10
20.06678886515049
 20
1.887929322593888
 30
0.0
 10
20.06678886515049
 20
1.768104544396349
 30
0.0
 10
20.06678886515049
 20
1.663612297637427
 30
0.0
  0
LINE
  5
C0
330
1F
100
AcDbEntity
  8
0
  6
Continuous
 62
     1
370
    15
100
AcDbLine
 10
32.76678886515049
 20
-2.381249999999894
 30
0.0
 11
32.76678886515047
 21
-2.259665444858356
 31
0.0
  0
SPLINE
  5
C1
330
1F
100
AcDbEntity
  8
0
  6
Continuous
 62
     1
370
    15
100
AcDbSpline
210
0.0
220
0.0
230
1.0
 70
     8
 71
     3
 72
     8
 73
     4
 74
     0
 42
0.000000001
 43
0.00000001
 40
0.0
 40
0.0
 40
0.0
 40
0.0
 40
1.0
 40
1.0
 40
1.0
 40
1.0
 10
31.29272018366591
 20
0.6667656290397478
 30
0.0
 10
31.20836425945461
 20
0.7667237491415769
 30
0.0
 10
31.13305732662596
 20
0.862955878720736
 30
0.0
 10
31.06894604084946
 20
0.954578116097816
 30
0.0
  0
LINE
  5
C2
330
1F
100
AcDbEntity
  8
0
  6
Continuous
 62
     1
370
    15
100
AcDbLine
 10
31.09907203655798
 20
0.9798568279855793
 30
0.0
 11
32.76678886515047
 21
0.0000000000001036
 31
0.0
  0
LINE
  5
C3
330
1F
100
AcDbEntity
  8
0
  6
Continuous
 62
     1
370
    15
100
AcDbLine
 10
32.76678886515047
 20
0.0000000000001036
 30
0.0
 11
32.76678886515047
 21
-0.6363722652329884
 31
0.0
  0
SPLINE
  5
C4
330
1F
100
AcDbEntity
  8
0
  6
Continuous
 62
     1
370
    15
100
AcDbSpline
210
0.0
220
0.0
230
1.0
 70
     8
 71
     3
 72
    10
 73
     6
 74
     0
 42
0.000000001
 43
0.00000001
 40
0.0
 40
0.0
 40
0.0
 40
0.0
 40
0.5
 40
0.5
 40
1.0
 40
1.0
 40
1.0
 40
1.0
 10
32.76678886515047
 20
-0.6363722652329892
 30
0.0
 10
32.51161394223584
 20
-0.4357598858606685
 30
0.0
 10
32.26070520642885
 20
-0.2269170311292169
 30
0.0
 10
31.76762895199174
 20
0.2076325360987686
 30
0.0
 10
31.52316892088283
 20
0.4356364190386555
 30
0.0
 10
31.2927201836659
 20
0.6667656290397521
 30
0.0
  0
SPLINE
  5
C5
330
1F
100
AcDbEntity
  8
0
  6
Continuous
 62
     1
370
    15
100
AcDbSpline
210
0.0
220
0.0
230
1.0
 70
     8
 71
     3
 72
    12
 73
     8
 74
     0
 42
0.000000001
 43
0.00000001
 40
0.0
 40
0.0
 40
0.0
 40
0.0
 40
0.2292018336979091
 40
0.4584226696096355
 40
0.6876554527747459
 40
0.9168931066963694
 40
1.0
 40
1.0
 40
1.0
 40
1.0
 10
31.29272018366591
 20
0.6667656290397493
 30
0.0
 10
30.8736451181767
 20
0.8418937441160407
 30
0.0
 10
30.03546024334885
 20
1.19216449344517
 30
0.0
 10
28.77812475926208
 20
1.594018988771974
 30
0.0
 10
27.52071670752082
 20
1.84198731993428
 30
0.0
 10
26.53046662726679
 20
1.936152487307017
 30
0.0
 10
25.95936015485782
 20
1.88539182827781
 30
0.0
 10
25.80740333317118
 20
1.871885715520478
 30
0.0
  0
SPLINE
  5
C6
330
1F
100
AcDbEntity
  8
0
  6
Continuous
 62
     1
370
    15
100
AcDbSpline
210
0.0
220
0.0
230
1.0
 70
    24
 71
     3
 72
    10
 73
     6
 74
     0
 42
0.000000001
 43
0.00000001
 40
0.0
 40
0.0
 40
0.0
 40
0.0
 40
0.5
 40
0.5
 40
1.0
 40
1.0
 40
1.0
 40
1.0
 10
32.76678886515047
 20
-1.878740204526711
 30
0.0
 10
32.76678886515047
 20
-1.734720120065208
 30
0.0
 10
32.76678886515047
 20
-1.552745221052175
 30
0.0
 10
32.76678886515047
 20
-1.129671093977454
 30
0.0
 10
32.76678886515047
 20
-0.888938348765829
 30
0.0
 10
32.76678886515047
 20
-0.6363722652330653
 30
0.0
  0
SPLINE
  5
C7
330
1F
100
AcDbEntity
  8
0
  6
Continuous
 62
     1
370
    15
100
AcDbSpline
210
0.0
220
0.0
230
1.0
 70
    24
 71
     3
 72
     8
 73
     4
 74
     0
 42
0.000000001
 43
0.00000001
 40
0.0
 40
0.0
 40
0.0
 40
0.0
 40
1.0
 40
1.0
 40
1.0
 40
1.0
 10
31.31761655242947
 20
1.163237450645922
 30
0.0
 10
31.23900592764101
 20
1.097275304379319
 30
0.0
 10
31.15585577016294
 20
1.027504037910365
 30
0.0
 10
31.06894604084956
 20
0.954578116097789
 30
0.0
  0
LINE
  5
C8
330
1F
100
AcDbEntity
  8
0
  6
Continuous
 62
     1
370
    15
100
AcDbLine
 10
32.76678886515047
 20
1.666875000000102
 30
0.0
 11
31.89356842585023
 21
1.618734094709523
 31
0.0
  0
SPLINE
  5
C9
330
1F
100
AcDbEntity
  8
0
  6
Continuous
 62
     1
370
    15
100
AcDbSpline
210
0.0
220
0.0
230
1.0
 70
     8
 71
     3
 72
     8
 73
     4
 74
     0
 42
0.000000001
 43
0.00000001
 40
0.0
 40
0.0
 40
0.0
 40
0.0
 40
1.0
 40
1.0
 40
1.0
 40
1.0
 10
32.76678886515047
 20
1.666875000000103
 30
0.0
 10
32.27700235304161
 20
1.53390065065839
 30
0.0
 10
31.79188235370421
 20
1.370671989946431
 30
0.0
 10
31.31761655244241
 20
1.163237450653885
 30
0.0
  0
SPLINE
  5
CA
330
1F
100
AcDbEntity
  8
0
  6
Continuous
 62
     1
370
    15
100
AcDbSpline
210
0.0
220
0.0
230
1.0
 70
     8
 71
     3
 72
     9
 73
     5
 74
     0
 42
0.000000001
 43
0.00000001
 40
0.0
 40
0.0
 40
0.0
 40
0.0
 40
0.421256101293474
 40
1.0
 40
1.0
 40
1.0
 40
1.0
 10
22.23241521596172
 20
-1.962879137637343
 30
0.0
 10
21.92831760496936
 20
-1.992676067266275
 30
0.0
 10
21.20643462200809
 20
-2.063409593825152
 30
0.0
 10
20.48456595300404
 20
-1.973939915570875
 30
0.0
 10
20.06678886515054
 20
-1.922159885161976
 30
0.0
  0
SPLINE
  5
CB
330
1F
100
AcDbEntity
  8
0
  6
Continuous
 62
     1
370
    15
100
AcDbSpline
210
0.0
220
0.0
230
1.0
 70
     8
 71
     3
 72
    14
 73
    10
 74
     0
 42
0.000000001
 43
0.00000001
 40
0.0
 40
0.0
 40
0.0
 40
0.0
 40
0.0270838241617125
 40
0.1912060564004216
 40
0.3553267031525582
 40
0.5165047915394991
 40
0.6776776058276734
 40
0.8388432913461711
 40
1.0
 40
1.0
 40
1.0
 40
1.0
 10
27.72823162163503
 20
-1.778962546199645
 30
0.0
 10
27.6590626842393
 20
-1.793411514958012
 30
0.0
 10
27.17074465108866
 20
-1.895418170991687
 30
0.0
 10
26.26328072099819
 20
-1.92534439310209
 30
0.0
 10
25.01333887141679
 20
-1.845023163369835
 30
0.0
 10
23.77100582363417
 20
-1.584118147329484
 30
0.0
 10
22.53620542037149
 20
-1.187554352439873
 30
0.0
 10
21.30147118771064
 20
-0.6851052179651115
 30
0.0
 10
20.47834199779624
 20
-0.3077873581823245
 30
0.0
 10
20.06678886515049
 20
-0.1191336825509911
 30
0.0
  0
SPLINE
  5
CC
330
1F
100
AcDbEntity
  8
외형선
  6
Continuous
370
    15
100
AcDbSpline
210
0.0
220
0.0
230
1.0
 70
    24
 71
     3
 72
    10
 73
     6
 74
     0
 42
0.000000001
 43
0.00000001
 40
0.0
 40
0.0
 40
0.0
 40
0.0
 40
0.4999999999999999
 40
0.4999999999999999
 40
1.0
 40
1.0
 40
1.0
 40
1.0
 10
20.06678886515046
 20
-0.1191336825509784
 30
0.0
 10
20.06678886515046
 20
-0.4805957990353349
 30
0.0
 10
20.06678886515046
 20
-0.8452655779803196
 30
0.0
 10
20.06678886515046
 20
-1.475512580317841
 30
0.0
 10
20.06678886515046
 20
-1.738376974231469
 30
0.0
 10
20.06678886515046
 20
-1.922159885161963
 30
0.0
  0
SPLINE
  5
CD
330
1F
100
AcDbEntity
  8
외형선
  6
Continuous
370
    15
100
AcDbSpline
210
0.0
220
0.0
230
1.0
 70
    24
 71
     3
 72
    14
 73
    10
 74
     0
 42
0.000000001
 43
0.00000001
 40
0.0
 40
0.0
 40
0.0
 40
0.0
 40
0.25
 40
0.25
 40
0.5
 40
0.5
 40
0.75
 40
0.75
 40
1.0
 40
1.0
 40
1.0
 40
1.0
 10
20.06678886515049
 20
1.663612297637426
 30
0.0
 10
20.06678886515049
 20
1.605902335790805
 30
0.0
 10
20.06678886515049
 20
1.521469288296133
 30
0.0
 10
20.06678886515049
 20
1.299588685479092
 30
0.0
 10
20.06678886515049
 20
1.162145905288995
 30
0.0
 10
20.06678886515049
 20
0.8453005460639034
 30
0.0
 10
20.06678886515049
 20
0.6660667954830436
 30
0.0
 10
20.06678886515049
 20
0.2849490925446105
 30
0.0
 10
20.06678886515049
 20
0.083293572418464
 30
0.0
 10
20.06678886515049
 20
-0.1191336825509915
 30
0.0
  0
LINE
  5
CE
330
1F
100
AcDbEntity
  8
0
  6
Continuous
 62
     1
370
    15
100
AcDbLine
 10
32.76678886515047
 20
0.0000000000001036
 30
0.0
 11
32.76678886515047
 21
1.666875000000104
 31
0.0
  0
SPLINE
  5
CF
330
1F
100
AcDbEntity
  8
0
  6
Continuous
 62
     1
370
    15
100
AcDbSpline
210
0.0
220
0.0
230
1.0
 70
     8
 71
     3
 72
    11
 73
     7
 74
     0
 42
0.000000001
 43
0.00000001
 40
0.0
 40
0.0
 40
0.0
 40
0.0
 40
0.109659718811919
 40
0.4064705355115486
 40
0.7032492170289442
 40
0.9999999999999999
 40
0.9999999999999999
 40
0.9999999999999999
 40
0.9999999999999999
 10
23.83279737033013
 20
-1.873154019610954
 30
0.0
 10
23.6951316277153
 20
-1.925691400887228
 30
0.0
 10
23.18485247755424
 20
-2.120429247501335
 30
0.0
 10
22.30202944494495
 20
-2.306674044551429
 30
0.0
 10
21.18435772299267
 20
-2.4193677172243
 30
0.0
 10
20.43930014408216
 20
-2.341267298232449
 30
0.0
 10
20.06678886515051
 20
-2.30221892427148
 30
0.0
  0
SPLINE
  5
D0
330
1F
100
AcDbEntity
  8
외형선
  6
Continuous
370
    15
100
AcDbSpline
210
0.0
220
0.0
230
1.0
 70
    24
 71
     3
 72
     8
 73
     4
 74
     0
 42
0.000000001
 43
0.00000001
 40
0.0
 40
0.0
 40
0.0
 40
0.0
 40
1.0
 40
1.0
 40
1.0
 40
1.0
 10
20.06678886515049
 20
-1.922159885161968
 30
0.0
 10
20.06678886515049
 20
-2.048846019421131
 30
0.0
 10
20.06678886515049
 20
-2.176346581891275
 30
0.0
 10
20.06678886515049
 20
-2.302218924270978
 30
0.0
  0
SPLINE
  5
D1
330
1F
100
AcDbEntity
  8
0
  6
Continuous
 62
     1
370
    15
100
AcDbSpline
210
0.0
220
0.0
230
1.0
 70
     8
 71
     3
 72
    16
 73
    12
 74
     0
 42
0.000000001
 43
0.00000001
 40
0.0
 40
0.0
 40
0.0
 40
0.0
 40
0.0977091411981429
 40
0.2081839318726275
 40
0.319084386545925
 40
0.4302008029866218
 40
0.5417468931971605
 40
0.6557209752172963
 40
0.7699294416678042
 40
0.8848449706340057
 40
1.0
 40
1.0
 40
1.0
 40
1.0
 10
29.49022601321493
 20
1.597227879204798
 30
0.0
 10
29.59697897994725
 20
1.642074555182449
 30
0.0
 10
29.82443213408287
 20
1.73762710248723
 30
0.0
 10
30.17333211620032
 20
1.868299840239075
 30
0.0
 10
30.53579373754825
 20
1.99217252145256
 30
0.0
 10
30.90023709442604
 20
2.099771370315964
 30
0.0
 10
31.26836038555121
 20
2.191762831201185
 30
0.0
 10
31.63890989821493
 20
2.267685703811893
 30
0.0
 10
32.01352764846666
 20
2.324957715353038
 30
0.0
 10
32.39004946099855
 20
2.364472545918551
 30
0.0
 10
32.64112194272526
 20
2.374312370107817
 30
0.0
 10
32.76678886515049
 20
2.381250000000105
 30
0.0
  0
SPLINE
  5
D2
330
1F
100
AcDbEntity
  8
0
  6
Continuous
 62
     1
370
    15
100
AcDbSpline
210
0.0
220
0.0
230
1.0
 70
    24
 71
     3
 72
    10
 73
     6
 74
     0
 42
0.000000001
 43
0.00000001
 40
0.0
 40
0.0
 40
0.0
 40
0.0
 40
0.5
 40
0.5
 40
1.0
 40
1.0
 40
1.0
 40
1.0
 10
32.76678886515047
 20
1.666875000000102
 30
0.0
 10
32.76678886515047
 20
1.767916811522518
 30
0.0
 10
32.76678886515047
 20
1.885336753989925
 30
0.0
 10
32.76678886515047
 20
2.131683477038139
 30
0.0
 10
32.76678886515047
 20
2.259981119002359
 30
0.0
 10
32.76678886515049
 20
2.381250000000105
 30
0.0
  0
LINE
  5
D3
330
1F
100
AcDbEntity
  8
중심선
 48
0.8
100
AcDbLine
 10
-38.49571113484954
 20
0.0000000000000967
 30
0.0
 11
35.76678886515047
 21
0.0000000000001058
 31
0.0
  0
LINE
  5
D4
330
1F
100
AcDbEntity
  8
참조1
100
AcDbLine
 10
1.597854193658269
 20
0.0000000000000971
 30
0.0
 11
1.597854193658274
 21
-39.9999999999999
 31
0.0
  0
LINE
  5
D5
330
1F
100
AcDbEntity
  8
참조1
100
AcDbLine
 10
1.597854193658274
 20
-39.9999999999999
 30
0.0
 11
-11.97095834164135
 21
-39.99999999999989
 31
0.0
  0
CIRCLE
  5
D6
330
1F
100
AcDbEntity
  8
해칭선
100
AcDbCircle
 10
0.0
 20
0.0
 30
0.0
 40
2.999999999999996
  0
INSERT
  5
D7
330
1F
100
AcDbEntity
  8
0
  6
Continuous
 62
     7
100
AcDbBlockReference
 66
     1
  2
블럭10
 10
-12.34241873846694
 20
-52.04717430164384
 30
0.0
  0
ATTRIB
  5
D8
330
D7
100
AcDbEntity
  8
FORMAT
 62
     2
100
AcDbText
 10
-21.52371402720821
 20
-49.97180738881164
 30
0.0
 40
4.233333333333333
  1
E2033012 [ 2 FLUTE ]
 41
0.75
  7
SLDTEXTSTYLE0
 11
-21.52371402720821
 21
-52.08847405547831
 31
0.0
100
AcDbAttribute
  2
AUTOATTR0
 70
     0
 74
     1
  0
SEQEND
  5
D9
330
D7
100
AcDbEntity
  8
0
  6
Continuous
 62
     7
  0
HATCH
  5
DA
330
1F
100
AcDbEntity
  8
중심선
100
AcDbHatch
 10
0.0
 20
0.0
 30
0.0
210
0.0
220
0.0
230
1.0
  2
SOLID
 70
     1
 71
     0
 91
        1
 92
        0
 93
        4
 72
     1
 10
-6.627509434086104
 20
-35.7999999999999
 11
-10.07378467792338
 21
-35.7999999999999
 72
     1
 10
-10.07378467792338
 20
-35.7999999999999
 11
-12.2020145371274
 21
-38.33632558057246
 72
     1
 10
-12.2020145371274
 20
-38.33632558057246
 11
-8.755706208176974
 21
-38.33628615126999
 72
     1
 10
-8.755706208176974
 20
-38.33628615126999
 11
-6.627509434086104
 21
-35.7999999999999
 97
        0
 75
     0
 76
     1
 98
        1
 10
8.179842879627117
 20
-0.0010749287237921
  0
HATCH
  5
DB
330
1F
100
AcDbEntity
  8
중심선
100
AcDbHatch
 10
0.0
 20
0.0
 30
0.0
210
0.0
220
0.0
230
1.0
  2
SOLID
 70
     1
 71
     0
 91
        1
 92
        0
 93
        4
 72
     1
 10
-1.614745443050094
 20
-35.79999999999987
 11
-5.061020686887403
 21
-35.79999999999992
 72
     1
 10
-5.061020686887403
 20
-35.79999999999993
 11
-9.592158695244823
 21
-41.19999999999992
 72
     1
 10
-9.592158695244823
 20
-41.19999999999992
 11
-6.145883451407544
 21
-41.19999999999992
 72
     1
 10
-6.145883451407544
 20
-41.19999999999992
 11
-1.614745443050094
 21
-35.79999999999988
 97
        0
 75
     0
 76
     1
 98
        1
 10
8.179842879627117
 20
-0.0010749287237921
  0
HATCH
  5
DC
330
1F
100
AcDbEntity
  8
중심선
100
AcDbHatch
 10
0.0
 20
0.0
 30
0.0
210
0.0
220
0.0
230
1.0
  2
SOLID
 70
     1
 71
     0
 91
        1
 92
        0
 93
        4
 72
     1
 10
3.398018547985746
 20
-35.7999999999999
 11
-0.0482566958513697
 21
-35.79999999999993
 72
     1
 10
-0.0482566958513697
 20
-35.79999999999993
 11
-7.096693597740623
 21
-44.19999999999992
 72
     1
 10
-7.096693597740623
 20
-44.19999999999992
 11
-3.650418353903333
 21
-44.19999999999992
 72
     1
 10
-3.650418353903333
 20
-44.19999999999992
 11
3.398018547985747
 21
-35.7999999999999
 97
        0
 75
     0
 76
     1
 98
        1
 10
8.179842879627117
 20
-0.0010749287237921
  0
HATCH
  5
DD
330
1F
100
AcDbEntity
  8
중심선
100
AcDbHatch
 10
0.0
 20
0.0
 30
0.0
210
0.0
220
0.0
230
1.0
  2
SOLID
 70
     1
 71
     0
 91
        1
 92
        0
 93
        6
 72
     3
 10
8.197908978997944
 20
-40.00000000005117
 11
3.960054785062285
 21
1.540882976769353E-10
 40
0.3939339440162626
 50
17.09539180608436
 51
320.0019657685073
 73
     0
 72
     1
 10
9.88090863469854
 20
-38.58789400463817
 11
12.18621050839958
 21
-36.65356729459025
 72
     3
 10
8.197908978945097
 20
-40.00000000000004
 11
6.600054785286829
 21
-1.278976924368180E-13
 40
0.636358354079598
 50
39.99873849337429
 51
368.4976242363724
 73
     1
 72
     1
 10
14.62324147084571
 20
-39.03999999992992
 11
6.87797628578102
 21
-39.03999999992989
 72
     1
 10
6.87797628578102
 20
-39.03999999992989
 11
6.877951241335087
 21
-40.95999999992981
 72
     1
 10
6.877951241335087
 20
-40.95999999992981
 11
11.31933101080712
 21
-40.95999999992978
 97
        0
 75
     0
 76
     1
 98
        1
 10
8.179842879627117
 20
-0.0010749287237921
  0
DIMENSION
  5
DE
330
1F
100
AcDbEntity
  8
치수문자_일반주서
100
AcDbDimension
  2
_D
 10
-48.18571113484952
 20
-4.762499999999951
 30
0.0
 11
-48.18571113484954
 21
0.000000000000108
 31
0.0
 70
   160
  1
%%c<>
 71
     2
 42
9.525000000000006
 52
-270.0
  3
SLDDIMSTYLE0
100
AcDbAlignedDimension
 13
-34.68571113484953
 23
4.762500000000105
 33
0.0
 14
-34.68571113484953
 24
-4.762499999999901
 34
0.0
 50
90.0000000000002
100
AcDbRotatedDimension
1001
ACAD
1000
DSTYLE
1002
{
1070
   171
1070
     6
1070
   273
1070
     7
1002
}
  0
DIMENSION
  5
F3
330
1F
100
AcDbEntity
  8
치수문자_일반주서
100
AcDbDimension
  2
_D_1
 10
20.06678886515049
 20
19.26117188284344
 30
0.0
 11
26.41678886515049
 21
19.26117188284344
 31
0.0
 70
   160
  1
<>
 71
     2
 42
12.7
  3
SLDDIMSTYLE0
100
AcDbAlignedDimension
 13
32.76678886515049
 23
2.381250000000105
 33
0.0
 14
20.06678886515049
 24
2.38070163923861
 34
0.0
 50
0.000000000000008
100
AcDbRotatedDimension
1001
ACAD
1000
DSTYLE
1002
{
1070
   171
1070
     6
1070
   273
1070
     7
1002
}
  0
DIMENSION
  5
108
330
1F
100
AcDbEntity
  8
치수문자_일반주서
100
AcDbDimension
  2
_D_2
 10
-35.49571113484954
 20
39.79105561538036
 30
0.0
 11
-1.364461134849559
 21
39.79105561538036
 31
0.0
 70
   160
  1
<>
 71
     2
 42
68.26250000000002
  3
SLDDIMSTYLE0
100
AcDbAlignedDimension
 13
32.76678886515049
 23
2.381250000000105
 33
0.0
 14
-35.49571113484954
 24
3.952500000000094
 34
0.0
100
AcDbRotatedDimension
1001
ACAD
1000
DSTYLE
1002
{
1070
   171
1070
     6
1070
   273
1070
     7
1002
}
  0
DIMENSION
  5
11C
330
1F
100
AcDbEntity
  8
치수문자_일반주서
100
AcDbDimension
  2
_D_3
 10
49.80058314415957
 20
2.381250000000168
 30
0.0
 11
49.8005831441595
 21
22.98525000000017
 31
0.0
 70
   160
  1
%%c<>
 71
     2
 42
4.762499999999999
 52
-270.0
  3
SLDDIMSTYLE0
100
AcDbAlignedDimension
 13
32.76678886515049
 23
-2.381249999999894
 33
0.0
 14
32.76678886515049
 24
2.381250000000105
 34
0.0
 50
90.0000000000002
100
AcDbRotatedDimension
1001
ACAD
1000
DSTYLE
1002
{
1070
   171
1070
     6
1070
   273
1070
     7
1002
}
  0
LINE
  5
130
330
1F
100
AcDbEntity
  8
참조1
100
AcDbLine
 10
86.0013822880129
 20
7.440000000000104
 30
0.0
 11
86.0013822880129
 21
-7.439999999999901
 31
0.0
  0
LINE
  5
131
330
1F
100
AcDbEntity
  8
참조1
100
AcDbLine
 10
98.70138228801291
 20
5.440000000000104
 30
0.0
 11
86.0013822880129
 21
5.440000000000104
 31
0.0
  0
SOLID
  5
132
330
1F
100
AcDbEntity
  8
참조1
100
AcDbTrace
 10
86.0013822880129
 20
5.440000000000104
 30
0.0
 11
92.3513822880129
 21
4.424000000000104
 31
0.0
 12
92.3513822880129
 22
6.456000000000104
 32
0.0
 13
92.3513822880129
 23
6.456000000000104
 33
0.0
  0
LINE
  5
133
330
1F
100
AcDbEntity
  8
참조1
100
AcDbLine
 10
98.70138228801291
 20
-5.439999999999901
 30
0.0
 11
86.0013822880129
 21
-5.439999999999901
 31
0.0
  0
SOLID
  5
134
330
1F
100
AcDbEntity
  8
참조1
100
AcDbTrace
 10
86.0013822880129
 20
-5.439999999999901
 30
0.0
 11
92.3513822880129
 21
-6.455999999999901
 31
0.0
 12
92.3513822880129
 22
-4.423999999999901
 32
0.0
 13
92.3513822880129
 23
-4.423999999999901
 33
0.0
  0
MTEXT
  5
135
330
1F
100
AcDbEntity
  8
참조1
100
AcDbMText
 10
95.3857324206389
 20
11.01029177718843
 30
0.0
 40
3.5
 41
0.0
 71
     1
 72
     1
  1
A
  7
SLDTEXTSTYLE0
 73
     1
 44
1.0
  0
MTEXT
  5
136
330
1F
100
AcDbEntity
  8
참조1
100
AcDbMText
 10
95.3857324206389
 20
0.1302917771884271
 30
0.0
 40
3.5
 41
0.0
 71
     1
 72
     1
  1
A
  7
SLDTEXTSTYLE0
 73
     1
 44
1.0
  0
INSERT
  5
13D
330
1F
100
AcDbEntity
  8
해칭선
100
AcDbBlockReference
  2
SW_DOWELSYMBOL_0
 10
0.0
 20
0.0
 30
0.0
  0
LINE
  5
291
330
1F
100
AcDbEntity
  8
외형선
  6
Continuous
370
    15
100
AcDbLine
 10
-34.62321113484954
 20
4.762500000000092
 30
0.0
 11
-20.49066113484964
 21
4.762500000000092
 31
0.0
  0
LINE
  5
326
330
1F
100
AcDbEntity
  8
외형선
  6
Continuous
370
    15
100
AcDbLine
 10
-19.22066113484965
 20
3.492500000000103
 30
0.0
 11
-12.08326113484953
 21
3.492500000000103
 31
0.0
  0
LINE
  5
327
330
1F
100
AcDbEntity
  8
외형선
  6
Continuous
370
    15
100
AcDbLine
 10
-19.22066113484965
 20
3.492500000000103
 30
0.0
 11
-20.49066113484964
 21
4.762500000000085
 31
0.0
  0
LINE
  5
328
330
1F
100
AcDbEntity
  8
외형선
  6
Continuous
370
    15
100
AcDbLine
 10
-12.08326113484953
 20
3.492500000000103
 30
0.0
 11
-10.81326113484943
 21
4.762500000000085
 31
0.0
  0
LINE
  5
36F
330
1F
100
AcDbEntity
  8
외형선
  6
Continuous
370
    15
100
AcDbLine
 10
0.0
 20
-4.762499999999998
 30
0.0
 11
0.0
 21
4.762499999999998
 31
0.0
  0
LINE
  5
370
330
1F
100
AcDbEntity
  8
외형선
  6
Continuous
370
    15
100
AcDbLine
 10
0.0
 20
2.2606
 30
0.0
 11
0.0
 21
-2.2606
 31
0.0
  0
LINE
  5
371
330
1F
100
AcDbEntity
  8
외형선
  6
Continuous
370
    15
100
AcDbLine
 10
4.191788865150479
 20
2.260599999999885
 30
0.0
 11
19.0015964752496
 21
2.260599999999743
 31
0.0
  0
ARC
  5
372
330
1F
100
AcDbEntity
  8
외형선
  6
Continuous
370
    15
100
AcDbCircle
 10
4.191788865150594
 20
7.023099999999885
 30
0.0
 40
4.7625
100
AcDbArc
 50
208.3376489488639
 51
269.9999999999986
  0
LINE
  5
375
330
1F
100
AcDbEntity
  8
외형선
  6
Continuous
370
    15
100
AcDbLine
 10
20.06678886515049
 20
2.381250000000103
 30
0.0
 11
20.06678886515048
 21
2.260599999999717
 31
0.0
  0
ARC
  5
376
330
1F
100
AcDbEntity
  8
외형선
  6
Continuous
370
    15
100
AcDbCircle
 10
19.00159647524971
 20
7.023099999999833
 30
0.0
 40
4.762500000000001
100
AcDbArc
 50
269.9999999999986
 51
282.9242375292666
  0
ARC
  5
378
330
1F
100
AcDbEntity
  8
외형선
  6
Continuous
370
    15
100
AcDbCircle
 10
4.191788865150594
 20
-7.023099999999885
 30
0.0
 40
4.7625
100
AcDbArc
 50
90.00000000000138
 51
151.6623510511361
  0
LINE
  5
379
330
1F
100
AcDbEntity
  8
외형선
  6
Continuous
370
    15
100
AcDbLine
 10
4.191788865150478
 20
-2.260599999999885
 30
0.0
 11
19.0015964752496
 21
-2.260599999999541
 31
0.0
  0
ARC
  5
37A
330
1F
100
AcDbEntity
  8
외형선
  6
Continuous
370
    15
100
AcDbCircle
 10
19.00159647524971
 20
-7.023099999999631
 30
0.0
 40
4.762500000000001
100
AcDbArc
 50
77.07576247073352
 51
90.00000000000138
  0
LINE
  5
37B
330
1F
100
AcDbEntity
  8
외형선
  6
Continuous
370
    15
100
AcDbLine
 10
4.191788865150478
 20
2.260599999999885
 30
0.0
 11
4.191788865150478
 21
-2.260599999999899
 31
0.0
  0
LINE
  5
37C
330
1F
100
AcDbEntity
  8
외형선
  6
Continuous
370
    15
100
AcDbLine
 10
19.0015964752496
 20
2.260599999999832
 30
0.0
 11
19.0015964752496
 21
-2.260599999999541
 31
0.0
  0
DIMENSION
  5
37D
330
1F
100
AcDbEntity
  8
치수문자_일반주서
100
AcDbDimension
  2
*D15
 10
4.191788865150478
 20
28.26380394664501
 30
0.0
 11
18.47928886515049
 21
28.26380394664501
 31
0.0
 70
   160
 71
     5
 42
28.57500000000001
  3
SLDDIMSTYLE0
100
AcDbAlignedDimension
 13
32.76678886515049
 23
2.381250000000105
 33
0.0
 14
4.191788865150479
 24
2.260599999999885
 34
0.0
100
AcDbRotatedDimension
1001
ACAD
1000
DSTYLE
1002
{
1070
   171
1070
     6
1070
   273
1070
     7
1002
}
  0
ENDSEC
  0
SECTION
  2
OBJECTS
  0
DICTIONARY
  5
C
330
0
100
AcDbDictionary
281
     1
  3
ACAD_GROUP
350
D
  3
ACAD_IMAGE_VARS
350
161
  3
ACAD_LAYOUT
350
1A
  3
ACAD_MLINESTYLE
350
17
  3
ACAD_PLOTSETTINGS
350
19
  3
ACAD_PLOTSTYLENAME
350
E
  3
ACAD_SCALELIST
350
47
  3
APPDATA
350
15F
  3
DWGPROPS
350
3B3
  0
DICTIONARY
  5
210
330
2
100
AcDbDictionary
280
     1
281
     1
  3
ACAD_LAYERSTATES
360
211
  0
DICTIONARY
  5
D
102
{ACAD_REACTORS
330
C
102
}
330
C
100
AcDbDictionary
281
     1
  0
RASTERVARIABLES
  5
161
102
{ACAD_REACTORS
330
C
102
}
330
C
100
AcDbRasterVariables
 90
        0
 70
     1
 71
     1
 72
     1
  0
DICTIONARY
  5
1A
102
{ACAD_REACTORS
330
C
102
}
330
C
100
AcDbDictionary
281
     1
  3
Layout1
350
1E
  3
Layout2
350
26
  3
Model
350
22
  0
DICTIONARY
  5
17
102
{ACAD_REACTORS
330
C
102
}
330
C
100
AcDbDictionary
281
     1
  3
Standard
350
18
  0
DICTIONARY
  5
19
102
{ACAD_REACTORS
330
C
102
}
330
C
100
AcDbDictionary
281
     1
  0
ACDBDICTIONARYWDFLT
  5
E
102
{ACAD_REACTORS
330
C
102
}
330
C
100
AcDbDictionary
281
     1
  3
Normal
350
F
100
AcDbDictionaryWithDefault
340
F
  0
DICTIONARY
  5
47
102
{ACAD_REACTORS
330
C
102
}
330
C
100
AcDbDictionary
281
     1
  3
A0
350
48
  3
A1
350
49
  3
A2
350
4A
  3
A3
350
4B
  3
A4
350
4C
  3
A5
350
4D
  3
A6
350
4E
  3
A7
350
4F
  3
A8
350
50
  3
A9
350
51
  3
B0
350
52
  3
B1
350
53
  3
B2
350
54
  3
B3
350
55
  3
B4
350
56
  3
B5
350
57
  3
B6
350
58
  3
B7
350
59
  3
B8
350
5A
  3
B9
350
5B
  3
C0
350
5C
  3
C1
350
5D
  3
C2
350
5E
  3
C3
350
5F
  3
C4
350
60
  3
C5
350
61
  3
C6
350
62
  3
C7
350
63
  3
C8
350
64
  3
C9
350
65
  3
D0
350
66
  3
D1
350
67
  3
D2
350
68
  0
DICTIONARY
  5
15F
102
{ACAD_REACTORS
330
C
102
}
330
C
100
AcDbDictionary
281
     1
  0
XRECORD
  5
3B3
102
{ACAD_REACTORS
330
C
102
}
330
C
100
AcDbXrecord
280
     1
  1
DWGPROPS COOKIE
  2

  3

  4

  6

  7

  8
12016016
  9

300
=
301
=
302
=
303
=
304
=
305
=
306
=
307
=
308
=
309
=
 40
0.0
 41
2458311.103087049
 42
2458323.059867003
  1

 90
        0
  0
DICTIONARY
  5
211
102
{ACAD_REACTORS
330
210
102
}
330
210
100
AcDbDictionary
281
     1
  0
LAYOUT
  5
1E
102
{ACAD_REACTORS
330
1A
102
}
330
1A
100
AcDbPlotSettings
  1

  2
none_device
  4

  6

 40
0.0
 41
0.0
 42
0.0
 43
0.0
 44
0.0
 45
0.0
 46
0.0
 47
0.0
 48
0.0
 49
0.0
140
0.0
141
0.0
142
1.0
143
1.0
 70
   688
 72
     1
 73
     0
 74
     5
  7

 75
    16
147
1.0
148
0.0
149
0.0
100
AcDbLayout
  1
Layout1
 70
     1
 71
     1
 10
0.0
 20
0.0
 11
420.0
 21
297.0
 12
0.0
 22
0.0
 32
0.0
 14
1.000000000000000E+20
 24
1.000000000000000E+20
 34
1.000000000000000E+20
 15
-1.000000000000000E+20
 25
-1.000000000000000E+20
 35
-1.000000000000000E+20
146
0.0
 13
0.0
 23
0.0
 33
0.0
 16
1.0
 26
0.0
 36
0.0
 17
0.0
 27
1.0
 37
0.0
 76
     0
330
1B
  0
LAYOUT
  5
26
102
{ACAD_REACTORS
330
1A
102
}
330
1A
100
AcDbPlotSettings
  1

  2
none_device
  4

  6

 40
0.0
 41
0.0
 42
0.0
 43
0.0
 44
0.0
 45
0.0
 46
0.0
 47
0.0
 48
0.0
 49
0.0
140
0.0
141
0.0
142
1.0
143
1.0
 70
   688
 72
     1
 73
     0
 74
     5
  7

 75
    16
147
1.0
148
0.0
149
0.0
100
AcDbLayout
  1
Layout2
 70
     1
 71
     2
 10
0.0
 20
0.0
 11
0.0
 21
0.0
 12
0.0
 22
0.0
 32
0.0
 14
0.0
 24
0.0
 34
0.0
 15
0.0
 25
0.0
 35
0.0
146
0.0
 13
0.0
 23
0.0
 33
0.0
 16
1.0
 26
0.0
 36
0.0
 17
0.0
 27
1.0
 37
0.0
 76
     0
330
23
  0
LAYOUT
  5
22
102
{ACAD_REACTORS
330
1A
102
}
330
1A
100
AcDbPlotSettings
  1

  2
none_device
  4
ANSI_A_(11.00_x_8.50_Inches)
  6

 40
6.35
 41
19.05
 42
6.35000508
 43
19.05000254
 44
279.4
 45
215.9
 46
109.8175550141901
 47
95.27850454982286
 48
0.0
 49
0.0
140
0.0
141
0.0
142
0.0703862766108628
143
1.0
 70
  1696
 72
     0
 73
     0
 74
     0
  7

 75
     0
147
0.0235690232323232
148
0.0
149
0.0
100
AcDbLayout
  1
Model
 70
     1
 71
     0
 10
0.0
 20
0.0
 11
420.0
 21
297.0
 12
0.0
 22
0.0
 32
0.0
 14
-52.56071113484959
 24
-49.97180738881165
 34
0.0
 15
98.70138228801291
 25
44.16605561538036
 35
0.0
146
0.0
 13
0.0
 23
0.0
 33
0.0
 16
1.0
 26
0.0
 36
0.0
 17
0.0
 27
1.0
 37
0.0
 76
     0
330
1F
331
29
  0
MLINESTYLE
  5
18
102
{ACAD_REACTORS
330
17
102
}
330
17
100
AcDbMlineStyle
  2
Standard
 70
     0
  3

 62
   256
 51
90.0
 52
90.0
 71
     2
 49
0.5
 62
   256
  6
BYLAYER
 49
-0.5
 62
   256
  6
BYLAYER
  0
ACDBPLACEHOLDER
  5
F
102
{ACAD_REACTORS
330
E
102
}
330
E
  0
SCALE
  5
48
102
{ACAD_REACTORS
330
47
102
}
330
47
100
AcDbScale
 70
     0
300
1:1
140
1.0
141
1.0
290
     1
  0
SCALE
  5
49
102
{ACAD_REACTORS
330
47
102
}
330
47
100
AcDbScale
 70
     0
300
1:2
140
1.0
141
2.0
290
     0
  0
SCALE
  5
4A
102
{ACAD_REACTORS
330
47
102
}
330
47
100
AcDbScale
 70
     0
300
1:4
140
1.0
141
4.0
290
     0
  0
SCALE
  5
4B
102
{ACAD_REACTORS
330
47
102
}
330
47
100
AcDbScale
 70
     0
300
1:5
140
1.0
141
5.0
290
     0
  0
SCALE
  5
4C
102
{ACAD_REACTORS
330
47
102
}
330
47
100
AcDbScale
 70
     0
300
1:8
140
1.0
141
8.0
290
     0
  0
SCALE
  5
4D
102
{ACAD_REACTORS
330
47
102
}
330
47
100
AcDbScale
 70
     0
300
1:10
140
1.0
141
10.0
290
     0
  0
SCALE
  5
4E
102
{ACAD_REACTORS
330
47
102
}
330
47
100
AcDbScale
 70
     0
300
1:16
140
1.0
141
16.0
290
     0
  0
SCALE
  5
4F
102
{ACAD_REACTORS
330
47
102
}
330
47
100
AcDbScale
 70
     0
300
1:20
140
1.0
141
20.0
290
     0
  0
SCALE
  5
50
102
{ACAD_REACTORS
330
47
102
}
330
47
100
AcDbScale
 70
     0
300
1:30
140
1.0
141
30.0
290
     0
  0
SCALE
  5
51
102
{ACAD_REACTORS
330
47
102
}
330
47
100
AcDbScale
 70
     0
300
1:40
140
1.0
141
40.0
290
     0
  0
SCALE
  5
52
102
{ACAD_REACTORS
330
47
102
}
330
47
100
AcDbScale
 70
     0
300
1:50
140
1.0
141
50.0
290
     0
  0
SCALE
  5
53
102
{ACAD_REACTORS
330
47
102
}
330
47
100
AcDbScale
 70
     0
300
1:100
140
1.0
141
100.0
290
     0
  0
SCALE
  5
54
102
{ACAD_REACTORS
330
47
102
}
330
47
100
AcDbScale
 70
     0
300
2:1
140
2.0
141
1.0
290
     0
  0
SCALE
  5
55
102
{ACAD_REACTORS
330
47
102
}
330
47
100
AcDbScale
 70
     0
300
4:1
140
4.0
141
1.0
290
     0
  0
SCALE
  5
56
102
{ACAD_REACTORS
330
47
102
}
330
47
100
AcDbScale
 70
     0
300
8:1
140
8.0
141
1.0
290
     0
  0
SCALE
  5
57
102
{ACAD_REACTORS
330
47
102
}
330
47
100
AcDbScale
 70
     0
300
10:1
140
10.0
141
1.0
290
     0
  0
SCALE
  5
58
102
{ACAD_REACTORS
330
47
102
}
330
47
100
AcDbScale
 70
     0
300
100:1
140
100.0
141
1.0
290
     0
  0
SCALE
  5
59
102
{ACAD_REACTORS
330
47
102
}
330
47
100
AcDbScale
 70
     0
300
1/128" = 1'-0"
140
0.0078125
141
12.0
290
     0
  0
SCALE
  5
5A
102
{ACAD_REACTORS
330
47
102
}
330
47
100
AcDbScale
 70
     0
300
1/64" = 1'-0"
140
0.015625
141
12.0
290
     0
  0
SCALE
  5
5B
102
{ACAD_REACTORS
330
47
102
}
330
47
100
AcDbScale
 70
     0
300
1/32" = 1'-0"
140
0.03125
141
12.0
290
     0
  0
SCALE
  5
5C
102
{ACAD_REACTORS
330
47
102
}
330
47
100
AcDbScale
 70
     0
300
1/16" = 1'-0"
140
0.0625
141
12.0
290
     0
  0
SCALE
  5
5D
102
{ACAD_REACTORS
330
47
102
}
330
47
100
AcDbScale
 70
     0
300
3/32" = 1'-0"
140
0.09375
141
12.0
290
     0
  0
SCALE
  5
5E
102
{ACAD_REACTORS
330
47
102
}
330
47
100
AcDbScale
 70
     0
300
1/8" = 1'-0"
140
0.125
141
12.0
290
     0
  0
SCALE
  5
5F
102
{ACAD_REACTORS
330
47
102
}
330
47
100
AcDbScale
 70
     0
300
3/16" = 1'-0"
140
0.1875
141
12.0
290
     0
  0
SCALE
  5
60
102
{ACAD_REACTORS
330
47
102
}
330
47
100
AcDbScale
 70
     0
300
1/4" = 1'-0"
140
0.25
141
12.0
290
     0
  0
SCALE
  5
61
102
{ACAD_REACTORS
330
47
102
}
330
47
100
AcDbScale
 70
     0
300
3/8" = 1'-0"
140
0.375
141
12.0
290
     0
  0
SCALE
  5
62
102
{ACAD_REACTORS
330
47
102
}
330
47
100
AcDbScale
 70
     0
300
1/2" = 1'-0"
140
0.5
141
12.0
290
     0
  0
SCALE
  5
63
102
{ACAD_REACTORS
330
47
102
}
330
47
100
AcDbScale
 70
     0
300
3/4" = 1'-0"
140
0.75
141
12.0
290
     0
  0
SCALE
  5
64
102
{ACAD_REACTORS
330
47
102
}
330
47
100
AcDbScale
 70
     0
300
1" = 1'-0"
140
1.0
141
12.0
290
     0
  0
SCALE
  5
65
102
{ACAD_REACTORS
330
47
102
}
330
47
100
AcDbScale
 70
     0
300
1-1/2" = 1'-0"
140
1.5
141
12.0
290
     0
  0
SCALE
  5
66
102
{ACAD_REACTORS
330
47
102
}
330
47
100
AcDbScale
 70
     0
300
3" = 1'-0"
140
3.0
141
12.0
290
     0
  0
SCALE
  5
67
102
{ACAD_REACTORS
330
47
102
}
330
47
100
AcDbScale
 70
     0
300
6" = 1'-0"
140
6.0
141
12.0
290
     0
  0
SCALE
  5
68
102
{ACAD_REACTORS
330
47
102
}
330
47
100
AcDbScale
 70
     0
300
1'-0" = 1'-0"
140
12.0
141
12.0
290
     0
  0
ENDSEC
  0
EOF
