  0
SECTION
  2
HEADER
  9
$ACADVER
  1
AC1015
  9
$ACADMAINTVER
 70
     6
  9
$DWGCODEPAGE
  3
ANSI_949
  9
$INSBASE
 10
0.0
 20
0.0
 30
0.0
  9
$EXTMIN
 10
-53.0931144983072
 20
-49.97180738881175
 30
0.0
  9
$EXTMAX
 10
107.4812942530631
 20
44.59437398837127
 30
0.0
  9
$LIMMIN
 10
0.0
 20
0.0
  9
$LIMMAX
 10
420.0
 20
297.0
  9
$ORTHOMODE
 70
     1
  9
$REGENMODE
 70
     1
  9
$FILLMODE
 70
     1
  9
$QTEXTMODE
 70
     0
  9
$MIRRTEXT
 70
     1
  9
$LTSCALE
 40
1.0
  9
$ATTMODE
 70
     1
  9
$TEXTSIZE
 40
3.5
  9
$TRACEWID
 40
1.0
  9
$TEXTSTYLE
  7
Standard
  9
$CLAYER
  8
0
  9
$CELTYPE
  6
ByLayer
  9
$CECOLOR
 62
   256
  9
$CELTSCALE
 40
1.0
  9
$DISPSILH
 70
     0
  9
$DIMSCALE
 40
1.0
  9
$DIMASZ
 40
3.302
  9
$DIMEXO
 40
1.0
  9
$DIMDLI
 40
3.75
  9
$DIMRND
 40
0.0
  9
$DIMDLE
 40
0.0
  9
$DIMEXE
 40
1.0
  9
$DIMTP
 40
0.0
  9
$DIMTM
 40
0.0
  9
$DIMTXT
 40
3.5
  9
$DIMCEN
 40
2.5
  9
$DIMTSZ
 40
0.0
  9
$DIMTOL
 70
     0
  9
$DIMLIM
 70
     0
  9
$DIMTIH
 70
     1
  9
$DIMTOH
 70
     1
  9
$DIMSE1
 70
     0
  9
$DIMSE2
 70
     0
  9
$DIMTAD
 70
     1
  9
$DIMZIN
 70
     0
  9
$DIMBLK
  1

  9
$DIMASO
 70
     1
  9
$DIMSHO
 70
     1
  9
$DIMPOST
  1

  9
$DIMAPOST
  1

  9
$DIMALT
 70
     0
  9
$DIMALTD
 70
     3
  9
$DIMALTF
 40
0.0393700787401575
  9
$DIMLFAC
 40
1.0
  9
$DIMTOFL
 70
     1
  9
$DIMTVP
 40
0.0
  9
$DIMTIX
 70
     0
  9
$DIMSOXD
 70
     0
  9
$DIMSAH
 70
     0
  9
$DIMBLK1
  1

  9
$DIMBLK2
  1

  9
$DIMSTYLE
  2
ISO-25
  9
$DIMCLRD
 70
     0
  9
$DIMCLRE
 70
     0
  9
$DIMCLRT
 70
     0
  9
$DIMTFAC
 40
1.0
  9
$DIMGAP
 40
1.524
  9
$DIMJUST
 70
     0
  9
$DIMSD1
 70
     0
  9
$DIMSD2
 70
     0
  9
$DIMTOLJ
 70
     0
  9
$DIMTZIN
 70
     0
  9
$DIMALTZ
 70
     0
  9
$DIMALTTZ
 70
     0
  9
$DIMUPT
 70
     0
  9
$DIMDEC
 70
     2
  9
$DIMTDEC
 70
     2
  9
$DIMALTU
 70
     2
  9
$DIMALTTD
 70
     3
  9
$DIMTXSTY
  7
Standard
  9
$DIMAUNIT
 70
     0
  9
$DIMADEC
 70
     2
  9
$DIMALTRND
 40
0.0
  9
$DIMAZIN
 70
     0
  9
$DIMDSEP
 70
    44
  9
$DIMATFIT
 70
     3
  9
$DIMFRAC
 70
     0
  9
$DIMLDRBLK
  1

  9
$DIMLUNIT
 70
     2
  9
$DIMLWD
 70
    -2
  9
$DIMLWE
 70
    -2
  9
$DIMTMOVE
 70
     0
  9
$LUNITS
 70
     2
  9
$LUPREC
 70
     2
  9
$SKETCHINC
 40
1.0
  9
$FILLETRAD
 40
10.0
  9
$AUNITS
 70
     0
  9
$AUPREC
 70
     2
  9
$MENU
  1
.
  9
$ELEVATION
 40
0.0
  9
$PELEVATION
 40
0.0
  9
$THICKNESS
 40
0.0
  9
$LIMCHECK
 70
     0
  9
$CHAMFERA
 40
0.0
  9
$CHAMFERB
 40
0.0
  9
$CHAMFERC
 40
0.0
  9
$CHAMFERD
 40
0.0
  9
$SKPOLY
 70
     0
  9
$TDCREATE
 40
2458311.47829882
  9
$TDUCREATE
 40
2458311.10329882
  9
$TDUPDATE
 40
2458323.434806586
  9
$TDUUPDATE
 40
2458323.059806586
  9
$TDINDWG
 40
0.0023012153
  9
$TDUSRTIMER
 40
2458323.05974772
  9
$USRTIMER
 70
     1
  9
$ANGBASE
 50
0.0
  9
$ANGDIR
 70
     0
  9
$PDMODE
 70
     0
  9
$PDSIZE
 40
-1.0
  9
$PLINEWID
 40
0.0
  9
$SPLFRAME
 70
     0
  9
$SPLINETYPE
 70
     6
  9
$SPLINESEGS
 70
     8
  9
$HANDSEED
  5
3B3
  9
$SURFTAB1
 70
     6
  9
$SURFTAB2
 70
     6
  9
$SURFTYPE
 70
     6
  9
$SURFU
 70
     6
  9
$SURFV
 70
     6
  9
$UCSBASE
  2

  9
$UCSNAME
  2

  9
$UCSORG
 10
0.0
 20
0.0
 30
0.0
  9
$UCSXDIR
 10
1.0
 20
0.0
 30
0.0
  9
$UCSYDIR
 10
0.0
 20
1.0
 30
0.0
  9
$UCSORTHOREF
  2

  9
$UCSORTHOVIEW
 70
     0
  9
$UCSORGTOP
 10
0.0
 20
0.0
 30
0.0
  9
$UCSORGBOTTOM
 10
0.0
 20
0.0
 30
0.0
  9
$UCSORGLEFT
 10
0.0
 20
0.0
 30
0.0
  9
$UCSORGRIGHT
 10
0.0
 20
0.0
 30
0.0
  9
$UCSORGFRONT
 10
0.0
 20
0.0
 30
0.0
  9
$UCSORGBACK
 10
0.0
 20
0.0
 30
0.0
  9
$PUCSBASE
  2

  9
$PUCSNAME
  2

  9
$PUCSORG
 10
0.0
 20
0.0
 30
0.0
  9
$PUCSXDIR
 10
1.0
 20
0.0
 30
0.0
  9
$PUCSYDIR
 10
0.0
 20
1.0
 30
0.0
  9
$PUCSORTHOREF
  2

  9
$PUCSORTHOVIEW
 70
     0
  9
$PUCSORGTOP
 10
0.0
 20
0.0
 30
0.0
  9
$PUCSORGBOTTOM
 10
0.0
 20
0.0
 30
0.0
  9
$PUCSORGLEFT
 10
0.0
 20
0.0
 30
0.0
  9
$PUCSORGRIGHT
 10
0.0
 20
0.0
 30
0.0
  9
$PUCSORGFRONT
 10
0.0
 20
0.0
 30
0.0
  9
$PUCSORGBACK
 10
0.0
 20
0.0
 30
0.0
  9
$USERI1
 70
     0
  9
$USERI2
 70
     0
  9
$USERI3
 70
     0
  9
$USERI4
 70
     0
  9
$USERI5
 70
     0
  9
$USERR1
 40
0.0
  9
$USERR2
 40
0.0
  9
$USERR3
 40
0.0
  9
$USERR4
 40
0.0
  9
$USERR5
 40
0.0
  9
$WORLDVIEW
 70
     1
  9
$SHADEDGE
 70
     3
  9
$SHADEDIF
 70
    70
  9
$TILEMODE
 70
     1
  9
$MAXACTVP
 70
    64
  9
$PINSBASE
 10
0.0
 20
0.0
 30
0.0
  9
$PLIMCHECK
 70
     0
  9
$PEXTMIN
 10
1.000000000000000E+20
 20
1.000000000000000E+20
 30
1.000000000000000E+20
  9
$PEXTMAX
 10
-1.000000000000000E+20
 20
-1.000000000000000E+20
 30
-1.000000000000000E+20
  9
$PLIMMIN
 10
0.0
 20
0.0
  9
$PLIMMAX
 10
0.0
 20
0.0
  9
$UNITMODE
 70
     0
  9
$VISRETAIN
 70
     1
  9
$PLINEGEN
 70
     0
  9
$PSLTSCALE
 70
     1
  9
$TREEDEPTH
 70
  3020
  9
$CMLSTYLE
  2
Standard
  9
$CMLJUST
 70
     0
  9
$CMLSCALE
 40
20.0
  9
$PROXYGRAPHICS
 70
     1
  9
$MEASUREMENT
 70
     1
  9
$CELWEIGHT
370
    -1
  9
$ENDCAPS
280
     0
  9
$JOINSTYLE
280
     0
  9
$LWDISPLAY
290
     1
  9
$INSUNITS
 70
     4
  9
$HYPERLINKBASE
  1

  9
$STYLESHEET
  1

  9
$XEDIT
290
     1
  9
$CEPSNTYPE
380
     0
  9
$PSTYLEMODE
290
     1
  9
$FINGERPRINTGUID
  2
{EB576464-9757-4D4F-9C29-9A2285CC2801}
  9
$VERSIONGUID
  2
{FAEB1C32-E019-11D5-929B-00C0DF256EC4}
  9
$EXTNAMES
290
     1
  9
$PSVPSCALE
 40
0.0
  9
$OLESTARTUP
290
     0
  0
ENDSEC
  0
SECTION
  2
CLASSES
  0
CLASS
  1
ACDBDICTIONARYWDFLT
  2
AcDbDictionaryWithDefault
  3
ObjectDBX Classes
 90
        0
280
     0
281
     0
  0
CLASS
  1
VISUALSTYLE
  2
AcDbVisualStyle
  3
ObjectDBX Classes
 90
     4095
280
     0
281
     0
  0
CLASS
  1
MATERIAL
  2
AcDbMaterial
  3
ObjectDBX Classes
 90
     1153
280
     0
281
     0
  0
CLASS
  1
SCALE
  2
AcDbScale
  3
ObjectDBX Classes
 90
     1153
280
     0
281
     0
  0
CLASS
  1
SUN
  2
AcDbSun
  3
SCENEOE
 90
     1153
280
     0
281
     0
  0
CLASS
  1
ACDBPLACEHOLDER
  2
AcDbPlaceHolder
  3
ObjectDBX Classes
 90
        0
280
     0
281
     0
  0
CLASS
  1
LAYOUT
  2
AcDbLayout
  3
ObjectDBX Classes
 90
        0
280
     0
281
     0
  0
CLASS
  1
TABLESTYLE
  2
AcDbTableStyle
  3
ObjectDBX Classes
 90
     4095
280
     0
281
     0
  0
CLASS
  1
MLEADERSTYLE
  2
AcDbMLeaderStyle
  3
ACDB_MLEADERSTYLE_CLASS
 90
     4095
280
     0
281
     0
  0
CLASS
  1
RASTERVARIABLES
  2
AcDbRasterVariables
  3
ISM
 90
        0
280
     0
281
     0
  0
CLASS
  1
DIMASSOC
  2
AcDbDimAssoc
  3
"AcDbDimAssoc|Product Desc:     AcDim ARX App For Dimension|Company:          Autodesk, Inc.|WEB Address:      www.autodesk.com"
 90
        0
280
     0
281
     0
  0
ENDSEC
  0
SECTION
  2
TABLES
  0
TABLE
  2
VPORT
  5
8
330
0
100
AcDbSymbolTable
 70
     1
  0
VPORT
  5
29
330
8
100
AcDbSymbolTableRecord
100
AcDbViewportTableRecord
  2
*Active
 70
     0
 10
0.0
 20
0.0
 11
1.0
 21
1.0
 12
7.148296081562115
 22
0.892856815180977
 13
0.0
 23
0.0
 14
10.0
 24
10.0
 15
10.0
 25
10.0
 16
0.0
 26
0.0
 36
1.0
 17
0.0
 27
0.0
 37
0.0
 40
132.1105222777088
 41
1.586073500967118
 42
50.0
 43
0.0
 44
0.0
 50
0.0
 51
0.0
 71
    16
 72
  2000
 73
     1
 74
     3
 75
     0
 76
     0
 77
     0
 78
     0
281
     0
 65
     1
110
0.0
120
0.0
130
0.0
111
1.0
121
0.0
131
0.0
112
0.0
122
1.0
132
0.0
 79
     0
146
0.0
  0
ENDTAB
  0
TABLE
  2
LTYPE
  5
5
330
0
100
AcDbSymbolTable
 70
     6
  0
LTYPE
  5
14
330
5
100
AcDbSymbolTableRecord
100
AcDbLinetypeTableRecord
  2
ByBlock
 70
     0
  3

 72
    65
 73
     0
 40
0.0
  0
LTYPE
  5
15
330
5
100
AcDbSymbolTableRecord
100
AcDbLinetypeTableRecord
  2
ByLayer
 70
     0
  3

 72
    65
 73
     0
 40
0.0
  0
LTYPE
  5
16
330
5
100
AcDbSymbolTableRecord
100
AcDbLinetypeTableRecord
  2
Continuous
 70
     0
  3
Solid line
 72
    65
 73
     0
 40
0.0
  0
LTYPE
  5
6A
330
5
100
AcDbSymbolTableRecord
100
AcDbLinetypeTableRecord
  2
HIDDEN
 70
     0
  3
Hidden __ __ __ __ __ __ __ __ __ __ __ __ __ __
 72
    65
 73
     2
 40
1.905
 49
1.27
 74
     0
 49
-0.635
 74
     0
  0
LTYPE
  5
6B
330
5
100
AcDbSymbolTableRecord
100
AcDbLinetypeTableRecord
  2
PHANTOM
 70
     0
  3
Phantom ______  __  __  ______  __  __  ______
 72
    65
 73
     6
 40
12.7
 49
6.35
 74
     0
 49
-1.27
 74
     0
 49
1.27
 74
     0
 49
-1.27
 74
     0
 49
1.27
 74
     0
 49
-1.27
 74
     0
  0
LTYPE
  5
6C
330
5
100
AcDbSymbolTableRecord
100
AcDbLinetypeTableRecord
  2
CENTER
 70
     0
  3
Center ____ _ ____ _ ____ _ ____ _ ____ _ ____
 72
    65
 73
     4
 40
10.16
 49
6.35
 74
     0
 49
-1.27
 74
     0
 49
1.27
 74
     0
 49
-1.27
 74
     0
  0
LTYPE
  5
6D
330
5
100
AcDbSymbolTableRecord
100
AcDbLinetypeTableRecord
  2
CENTERX2
 70
     0
  3
Center (2x) ________  __  ________  __  _____
 72
    65
 73
     4
 40
20.32
 49
12.7
 74
     0
 49
-2.54
 74
     0
 49
2.54
 74
     0
 49
-2.54
 74
     0
  0
LTYPE
  5
6E
330
5
100
AcDbSymbolTableRecord
100
AcDbLinetypeTableRecord
  2
DOT2
 70
     0
  3
Dot (.5x) ........................................
 72
    65
 73
     2
 40
0.635
 49
0.0
 74
     0
 49
-0.635
 74
     0
  0
ENDTAB
  0
TABLE
  2
LAYER
  5
2
102
{ACAD_XDICTIONARY
360
212
102
}
330
0
100
AcDbSymbolTable
 70
    18
  0
LAYER
  5
10
330
2
100
AcDbSymbolTableRecord
100
AcDbLayerTableRecord
  2
0
 70
     0
 62
     7
  6
Continuous
370
    -3
390
F
  0
LAYER
  5
6F
330
2
100
AcDbSymbolTableRecord
100
AcDbLayerTableRecord
  2
FORMAT
 70
     0
 62
     2
  6
Continuous
370
    -3
390
F
  0
LAYER
  5
70
330
2
100
AcDbSymbolTableRecord
100
AcDbLayerTableRecord
  2
외형선
 70
     0
 62
     4
  6
Continuous
370
    30
390
F
  0
LAYER
  5
71
330
2
100
AcDbSymbolTableRecord
100
AcDbLayerTableRecord
  2
숨은선
 70
     0
 62
     2
  6
HIDDEN
370
    15
390
F
  0
LAYER
  5
72
330
2
100
AcDbSymbolTableRecord
100
AcDbLayerTableRecord
  2
중심선
 70
     0
 62
     1
  6
CENTERX2
370
    -3
390
F
  0
LAYER
  5
73
330
2
100
AcDbSymbolTableRecord
100
AcDbLayerTableRecord
  2
파단선
 70
     0
 62
     4
  6
Continuous
370
    -3
390
F
  0
LAYER
  5
74
330
2
100
AcDbSymbolTableRecord
100
AcDbLayerTableRecord
  2
해칭선
 70
     0
 62
   100
  6
Continuous
370
    -3
390
F
  0
LAYER
  5
75
330
2
100
AcDbSymbolTableRecord
100
AcDbLayerTableRecord
  2
가는실선
 70
     0
 62
     4
  6
Continuous
370
    -3
390
F
  0
LAYER
  5
76
330
2
100
AcDbSymbolTableRecord
100
AcDbLayerTableRecord
  2
치수_보조선
 70
     0
 62
     4
  6
Continuous
370
    -3
390
F
  0
LAYER
  5
77
330
2
100
AcDbSymbolTableRecord
100
AcDbLayerTableRecord
  2
치수문자_일반주서
 70
     0
 62
     7
  6
Continuous
370
    15
390
F
  0
LAYER
  5
78
330
2
100
AcDbSymbolTableRecord
100
AcDbLayerTableRecord
  2
개별주서
 70
     0
 62
   100
  6
Continuous
370
    30
390
F
  0
LAYER
  5
79
330
2
100
AcDbSymbolTableRecord
100
AcDbLayerTableRecord
  2
중간선
 70
     0
 62
     2
  6
Continuous
370
    15
390
F
  0
LAYER
  5
7A
330
2
100
AcDbSymbolTableRecord
100
AcDbLayerTableRecord
  2
윤곽선
 70
     0
 62
     3
  6
Continuous
370
    40
390
F
  0
LAYER
  5
7B
330
2
100
AcDbSymbolTableRecord
100
AcDbLayerTableRecord
  2
중심마크
 70
     0
 62
   100
  6
Continuous
370
    30
390
F
  0
LAYER
  5
7C
330
2
100
AcDbSymbolTableRecord
100
AcDbLayerTableRecord
  2
가상선
 70
     0
 62
     4
  6
PHANTOM
370
    -3
390
F
  0
LAYER
  5
7D
330
2
100
AcDbSymbolTableRecord
100
AcDbLayerTableRecord
  2
특수지정선
 70
     0
 62
     5
  6
CENTERX2
370
    60
390
F
  0
LAYER
  5
7E
330
2
100
AcDbSymbolTableRecord
100
AcDbLayerTableRecord
  2
참조1
 70
     0
 62
    -4
  6
Continuous
370
    -3
390
F
  0
LAYER
  5
165
330
2
100
AcDbSymbolTableRecord
100
AcDbLayerTableRecord
  2
Defpoints
 70
     0
 62
     7
  6
Continuous
290
     0
370
    -3
390
F
  0
ENDTAB
  0
TABLE
  2
STYLE
  5
3
330
0
100
AcDbSymbolTable
 70
     2
  0
STYLE
  5
11
330
3
100
AcDbSymbolTableRecord
100
AcDbTextStyleTableRecord
  2
Standard
 70
     0
 40
0.0
 41
1.0
 50
0.0
 71
     0
 42
3.5
  3
txt
  4

  0
STYLE
  5
94
330
3
100
AcDbSymbolTableRecord
100
AcDbTextStyleTableRecord
  2
SLDTEXTSTYLE0
 70
     0
 40
0.0
 41
0.75
 50
0.0
 71
     0
 42
3.5
  3
TXT
  4

  0
ENDTAB
  0
TABLE
  2
VIEW
  5
6
330
0
100
AcDbSymbolTable
 70
     0
  0
ENDTAB
  0
TABLE
  2
UCS
  5
7
330
0
100
AcDbSymbolTable
 70
     0
  0
ENDTAB
  0
TABLE
  2
APPID
  5
9
330
0
100
AcDbSymbolTable
 70
     1
  0
APPID
  5
12
330
9
100
AcDbSymbolTableRecord
100
AcDbRegAppTableRecord
  2
ACAD
 70
     0
  0
ENDTAB
  0
TABLE
  2
DIMSTYLE
  5
A
330
0
100
AcDbSymbolTable
 70
     3
100
AcDbDimStyleTable
  0
DIMSTYLE
105
27
330
A
100
AcDbSymbolTableRecord
100
AcDbDimStyleTableRecord
  2
ISO-25
 70
     0
 41
2.5
 42
0.625
 43
3.75
 44
1.25
 73
     0
 74
     0
 77
     1
 78
     8
140
2.5
141
2.5
143
0.03937007874016
147
0.625
171
     3
172
     1
178
     0
271
     2
272
     2
274
     3
278
    44
283
     0
284
     8
340
11
  0
DIMSTYLE
105
E2
102
{ACAD_REACTORS
330
E1
330
11E
330
F6
330
10B
330
37F
102
}
330
A
100
AcDbSymbolTableRecord
100
AcDbDimStyleTableRecord
  2
SLDDIMSTYLE0
 70
     0
 41
3.302
 44
0.0
 45
0.000000001
 73
     0
 74
     0
 77
     1
 78
    12
 79
     3
140
3.5
143
0.0393700787401575
147
0.875
148
0.000000001
170
     1
172
     1
173
     1
178
     0
271
     2
272
     2
276
     2
284
    12
289
     0
340
94
  0
DIMSTYLE
105
F7
330
A
100
AcDbSymbolTableRecord
100
AcDbDimStyleTableRecord
  2
SLDDIMSTYLE1
 70
     0
 41
3.302
 44
0.0
 45
0.000000001
 73
     0
 74
     0
 77
     1
 78
    12
 79
     3
140
3.5
143
0.0393700787401575
147
0.875
148
0.000000001
170
     1
173
     1
178
     0
271
     2
272
     2
276
     2
284
    12
340
94
  0
ENDTAB
  0
TABLE
  2
BLOCK_RECORD
  5
1
330
0
100
AcDbSymbolTable
 70
    16
  0
BLOCK_RECORD
  5
1F
330
1
100
AcDbSymbolTableRecord
100
AcDbBlockTableRecord
  2
*Model_Space
340
22
  0
BLOCK_RECORD
  5
1B
330
1
100
AcDbSymbolTableRecord
100
AcDbBlockTableRecord
  2
*Paper_Space
340
1E
  0
BLOCK_RECORD
  5
23
330
1
100
AcDbSymbolTableRecord
100
AcDbBlockTableRecord
  2
*Paper_Space0
340
26
  0
BLOCK_RECORD
  5
7F
330
1
100
AcDbSymbolTableRecord
100
AcDbBlockTableRecord
  2
블럭10
340
0
102
{BLKREFS
331
DA
102
}
  0
BLOCK_RECORD
  5
E3
330
1
100
AcDbSymbolTableRecord
100
AcDbBlockTableRecord
  2
_D
340
0
  0
BLOCK_RECORD
  5
F8
330
1
100
AcDbSymbolTableRecord
100
AcDbBlockTableRecord
  2
_D_1
340
0
  0
BLOCK_RECORD
  5
10C
330
1
100
AcDbSymbolTableRecord
100
AcDbBlockTableRecord
  2
_D_2
340
0
  0
BLOCK_RECORD
  5
11F
330
1
100
AcDbSymbolTableRecord
100
AcDbBlockTableRecord
  2
_D_3
340
0
  0
BLOCK_RECORD
  5
139
330
1
100
AcDbSymbolTableRecord
100
AcDbBlockTableRecord
  2
SW_DOWELSYMBOL_0
340
0
102
{BLKREFS
331
13F
102
}
  0
BLOCK_RECORD
  5
216
330
1
100
AcDbSymbolTableRecord
100
AcDbBlockTableRecord
  2
*D7
340
0
  0
BLOCK_RECORD
  5
222
330
1
100
AcDbSymbolTableRecord
100
AcDbBlockTableRecord
  2
*D8
340
0
  0
BLOCK_RECORD
  5
231
330
1
100
AcDbSymbolTableRecord
100
AcDbBlockTableRecord
  2
*D9
340
0
  0
BLOCK_RECORD
  5
23D
330
1
100
AcDbSymbolTableRecord
100
AcDbBlockTableRecord
  2
*D10
340
0
  0
BLOCK_RECORD
  5
295
330
1
100
AcDbSymbolTableRecord
100
AcDbBlockTableRecord
  2
*D11
340
0
  0
BLOCK_RECORD
  5
2A1
330
1
100
AcDbSymbolTableRecord
100
AcDbBlockTableRecord
  2
*D12
340
0
  0
BLOCK_RECORD
  5
2B0
330
1
100
AcDbSymbolTableRecord
100
AcDbBlockTableRecord
  2
*D13
340
0
  0
BLOCK_RECORD
  5
2BC
330
1
100
AcDbSymbolTableRecord
100
AcDbBlockTableRecord
  2
*D14
340
0
  0
BLOCK_RECORD
  5
382
330
1
100
AcDbSymbolTableRecord
100
AcDbBlockTableRecord
  2
*D15
340
0
  0
ENDTAB
  0
ENDSEC
  0
SECTION
  2
BLOCKS
  0
BLOCK
  5
20
330
1F
100
AcDbEntity
  8
0
100
AcDbBlockBegin
  2
*Model_Space
 70
     0
 10
0.0
 20
0.0
 30
0.0
  3
*Model_Space
  1
*Model_Space
  0
ENDBLK
  5
21
330
1F
100
AcDbEntity
  8
0
100
AcDbBlockEnd
  0
BLOCK
  5
1C
330
1B
100
AcDbEntity
 67
     1
  8
0
100
AcDbBlockBegin
  2
*Paper_Space
 70
     0
 10
0.0
 20
0.0
 30
0.0
  3
*Paper_Space
  1
*Paper_Space
  0
ENDBLK
  5
1D
330
1B
100
AcDbEntity
 67
     1
  8
0
100
AcDbBlockEnd
  0
BLOCK
  5
24
330
23
100
AcDbEntity
  8
0
100
AcDbBlockBegin
  2
*Paper_Space0
 70
     0
 10
0.0
 20
0.0
 30
0.0
  3
*Paper_Space0
  1
*Paper_Space0
  0
ENDBLK
  5
25
330
23
100
AcDbEntity
  8
0
100
AcDbBlockEnd
  0
BLOCK
  5
80
330
7F
100
AcDbEntity
  8
0
100
AcDbBlockBegin
  2
블럭10
 70
     2
 10
0.0
 20
0.0
 30
0.0
  3
블럭10
  1
블럭10
  0
ELLIPSE
  5
82
330
7F
100
AcDbEntity
  8
중심선
100
AcDbEllipse
 10
20.54032771741204
 20
12.0471743016438
 30
0.0
 11
6.600054785286829
 21
-1.261213355974178E-13
 31
0.0
210
0.0
220
0.0
230
1.0
 40
0.636358354079598
 41
0.9219305317359503
 42
6.513795318482858
  0
ELLIPSE
  5
83
330
7F
100
AcDbEntity
  8
중심선
100
AcDbEllipse
 10
20.54032771746488
 20
12.04717430159265
 30
0.0
 11
3.960054785062283
 21
1.540847449632565E-10
 31
0.0
210
0.0
220
0.0
230
1.0
 40
0.3939339440162632
 41
1.131841032648279
 42
5.62031148352944
  0
LINE
  5
84
330
7F
100
AcDbEntity
  8
중심선
100
AcDbLine
 10
2.268634060543552
 20
16.24717430164393
 30
0.0
 11
5.714909304380834
 21
16.24717430164393
 31
0.0
  0
LINE
  5
85
330
7F
100
AcDbEntity
  8
중심선
100
AcDbLine
 10
5.245725140726316
 20
7.84717430164391
 30
0.0
 11
8.692000384563599
 21
7.84717430164391
 31
0.0
  0
LINE
  5
86
330
7F
100
AcDbEntity
  8
중심선
100
AcDbLine
 10
15.74043728645272
 20
16.24717430164393
 30
0.0
 11
8.692000384563599
 21
7.84717430164391
 31
0.0
  0
LINE
  5
87
330
7F
100
AcDbEntity
  8
중심선
100
AcDbLine
 10
0.1404042013395286
 20
13.71084872107135
 30
0.0
 11
3.58671253028996
 21
13.71088815037384
 31
0.0
  0
LINE
  5
88
330
7F
100
AcDbEntity
  8
중심선
100
AcDbLine
 10
2.750260043222114
 20
10.84717430164391
 30
0.0
 11
6.196535287059397
 21
10.84717430164391
 31
0.0
  0
LINE
  5
89
330
7F
100
AcDbEntity
  8
중심선
100
AcDbLine
 10
12.29416204261559
 20
16.24717430164393
 30
0.0
 11
5.245725140726316
 21
7.84717430164391
 31
0.0
  0
LINE
  5
8A
330
7F
100
AcDbEntity
  8
중심선
100
AcDbLine
 10
10.72767329541681
 20
16.24717430164393
 30
0.0
 11
6.196535287059397
 21
10.84717430164391
 31
0.0
  0
LINE
  5
8B
330
7F
100
AcDbEntity
  8
중심선
100
AcDbLine
 10
7.28139805157953
 20
16.24717430164393
 30
0.0
 11
2.750260043222114
 21
10.84717430164391
 31
0.0
  0
LINE
  5
8C
330
7F
100
AcDbEntity
  8
중심선
100
AcDbLine
 10
5.714909304380834
 20
16.24717430164393
 30
0.0
 11
3.58671253028996
 21
13.71088815037384
 31
0.0
  0
LINE
  5
8D
330
7F
100
AcDbEntity
  8
중심선
100
AcDbLine
 10
2.268634060543552
 20
16.24717430164393
 30
0.0
 11
0.1404042013395286
 21
13.71084872107135
 31
0.0
  0
LINE
  5
8E
330
7F
100
AcDbEntity
  8
중심선
100
AcDbLine
 10
7.28139805157953
 20
16.24717430164393
 30
0.0
 11
10.72767329541681
 21
16.24717430164393
 31
0.0
  0
LINE
  5
8F
330
7F
100
AcDbEntity
  8
중심선
100
AcDbLine
 10
12.29416204261559
 20
16.24717430164393
 30
0.0
 11
15.74043728645272
 21
16.24717430164393
 31
0.0
  0
LINE
  5
90
330
7F
100
AcDbEntity
  8
중심선
100
AcDbLine
 10
19.22036997980202
 20
11.08717430171403
 30
0.0
 11
23.66174974927406
 21
11.08717430171406
 31
0.0
  0
LINE
  5
91
330
7F
100
AcDbEntity
  8
중심선
100
AcDbLine
 10
19.22039502424796
 20
13.00717430171391
 30
0.0
 11
19.22036997980202
 21
11.08717430171403
 31
0.0
  0
LINE
  5
92
330
7F
100
AcDbEntity
  8
중심선
100
AcDbLine
 10
19.22039502424796
 20
13.00717430171391
 30
0.0
 11
26.96566020931264
 21
13.00717430171391
 31
0.0
  0
LINE
  5
93
330
7F
100
AcDbEntity
  8
중심선
100
AcDbLine
 10
22.22332737316547
 20
13.45928029700563
 30
0.0
 11
24.52862924686651
 21
15.39360700705356
 31
0.0
  0
ATTDEF
  5
95
330
7F
100
AcDbEntity
  8
FORMAT
 62
     2
100
AcDbText
 10
4.408487351596664
 20
2.075366912832191
 30
0.0
 40
4.233333333333333
  1
E2033016
 41
0.75
  7
SLDTEXTSTYLE0
 11
4.408487351596664
 21
-0.0412997538344756
 31
0.0
100
AcDbAttributeDefinition
  3

  2
AUTOATTR0
 70
     0
 74
     1
  0
ENDBLK
  5
81
330
7F
100
AcDbEntity
  8
0
100
AcDbBlockEnd
  0
BLOCK
  5
E4
330
E3
100
AcDbEntity
  8
0
100
AcDbBlockBegin
  2
_D
 70
     0
 10
0.0
 20
0.0
 30
0.0
  3
_D
  1
_D
  0
LINE
  5
E6
330
E3
100
AcDbEntity
  8
치수문자_일반주서
 62
     0
370
    -2
100
AcDbLine
 10
-35.28061449830714
 20
4.762500000000004
 30
0.0
 11
-48.71811449830717
 21
4.762499999999953
 31
0.0
  0
LINE
  5
E7
330
E3
100
AcDbEntity
  8
치수문자_일반주서
 62
     0
370
    -2
100
AcDbLine
 10
-35.28061449830714
 20
-4.762500000000002
 30
0.0
 11
-48.71811449830714
 21
-4.762500000000053
 31
0.0
  0
LINE
  5
E8
330
E3
100
AcDbEntity
  8
치수문자_일반주서
 62
     0
370
    -2
100
AcDbLine
 10
-48.71811449830716
 20
1.460499999999953
 30
0.0
 11
-48.71811449830715
 21
-1.460500000000053
 31
0.0
  0
SOLID
  5
E9
330
E3
100
AcDbEntity
  8
치수문자_일반주서
 62
     0
100
AcDbTrace
 10
-48.16778116497382
 20
1.460499999999955
 30
0.0
 11
-49.26844783164049
 21
1.460499999999951
 31
0.0
 12
-48.71811449830717
 22
4.762499999999953
 32
0.0
 13
-48.71811449830717
 23
4.762499999999953
 33
0.0
  0
SOLID
  5
EA
330
E3
100
AcDbEntity
  8
치수문자_일반주서
 62
     0
100
AcDbTrace
 10
-49.26844783164049
 20
-1.460500000000055
 30
0.0
 11
-48.16778116497382
 21
-1.460500000000051
 31
0.0
 12
-48.71811449830714
 22
-4.762500000000053
 32
0.0
 13
-48.71811449830714
 23
-4.762500000000053
 33
0.0
  0
MTEXT
  5
EB
330
E3
100
AcDbEntity
  8
치수문자_일반주서
 62
     0
100
AcDbMText
 10
-53.09311449830716
 20
-0.0000000000000104
 30
0.0
 40
3.5
 41
0.0
 71
     2
 72
     1
  1
\A1;%%c9.53 [3/8]
  7
SLDTEXTSTYLE0
 11
-3.729883127349605E-15
 21
1.0
 31
0.0
 73
     1
 44
1.0
  0
POINT
  5
EC
330
E3
100
AcDbEntity
  8
Defpoints
 62
     0
100
AcDbPoint
 10
-35.21811449830714
 20
4.762500000000004
 30
0.0
  0
POINT
  5
ED
330
E3
100
AcDbEntity
  8
Defpoints
 62
     0
100
AcDbPoint
 10
-35.21811449830714
 20
-4.762500000000002
 30
0.0
  0
POINT
  5
EE
330
E3
100
AcDbEntity
  8
Defpoints
 62
     0
100
AcDbPoint
 10
-48.71811449830714
 20
-4.762500000000053
 30
0.0
  0
ENDBLK
  5
E5
330
E3
100
AcDbEntity
  8
0
100
AcDbBlockEnd
  0
BLOCK
  5
F9
330
F8
100
AcDbEntity
  8
0
100
AcDbBlockBegin
  2
_D_1
 70
     0
 10
0.0
 20
0.0
 30
0.0
  3
_D_1
  1
_D_1
  0
LINE
  5
FB
330
F8
100
AcDbEntity
  8
치수문자_일반주서
 62
     0
370
    -2
100
AcDbLine
 10
41.75938550169288
 20
3.237500000000006
 30
0.0
 11
41.75938550169288
 21
16.34865826917706
 31
0.0
  0
LINE
  5
FC
330
F8
100
AcDbEntity
  8
치수문자_일반주서
 62
     0
370
    -2
100
AcDbLine
 10
25.88438550169286
 20
3.165286468436729
 30
0.0
 11
25.88438550169286
 21
16.34865826917706
 31
0.0
  0
LINE
  5
FD
330
F8
100
AcDbEntity
  8
치수문자_일반주서
 62
     0
370
    -2
100
AcDbLine
 10
38.45738550169288
 20
16.34865826917706
 30
0.0
 11
29.18638550169286
 21
16.34865826917706
 31
0.0
  0
SOLID
  5
FE
330
F8
100
AcDbEntity
  8
치수문자_일반주서
 62
     0
100
AcDbTrace
 10
38.45738550169288
 20
15.79832493584373
 30
0.0
 11
38.45738550169288
 21
16.89899160251039
 31
0.0
 12
41.75938550169288
 22
16.34865826917706
 32
0.0
 13
41.75938550169288
 23
16.34865826917706
 33
0.0
  0
SOLID
  5
FF
330
F8
100
AcDbEntity
  8
치수문자_일반주서
 62
     0
100
AcDbTrace
 10
29.18638550169286
 20
16.89899160251039
 30
0.0
 11
29.18638550169286
 21
15.79832493584373
 31
0.0
 12
25.88438550169286
 22
16.34865826917706
 32
0.0
 13
25.88438550169286
 23
16.34865826917706
 33
0.0
  0
MTEXT
  5
100
330
F8
100
AcDbEntity
  8
치수문자_일반주서
 62
     0
100
AcDbMText
 10
33.82188550169287
 20
20.72365826917706
 30
0.0
 40
3.5
 41
0.0
 71
     2
 72
     1
  1
\A1;15.88 [5/8]
  7
SLDTEXTSTYLE0
 73
     1
 44
1.0
  0
POINT
  5
101
330
F8
100
AcDbEntity
  8
Defpoints
 62
     0
100
AcDbPoint
 10
41.75938550169288
 20
3.175000000000006
 30
0.0
  0
POINT
  5
102
330
F8
100
AcDbEntity
  8
Defpoints
 62
     0
100
AcDbPoint
 10
25.88438550169286
 20
3.102786468436729
 30
0.0
  0
POINT
  5
103
330
F8
100
AcDbEntity
  8
Defpoints
 62
     0
100
AcDbPoint
 10
25.88438550169286
 20
16.34865826917706
 30
0.0
  0
ENDBLK
  5
FA
330
F8
100
AcDbEntity
  8
0
100
AcDbBlockEnd
  0
BLOCK
  5
10D
330
10C
100
AcDbEntity
  8
0
100
AcDbBlockBegin
  2
_D_2
 70
     0
 10
0.0
 20
0.0
 30
0.0
  3
_D_2
  1
_D_2
  0
LINE
  5
10F
330
10C
100
AcDbEntity
  8
치수문자_일반주서
 62
     0
370
    -2
100
AcDbLine
 10
41.75938550169287
 20
3.237500000000004
 30
0.0
 11
41.75938550169286
 21
40.21937398837127
 31
0.0
  0
LINE
  5
110
330
10C
100
AcDbEntity
  8
치수문자_일반주서
 62
     0
370
    -2
100
AcDbLine
 10
-36.02811449830713
 20
4.014999999999995
 30
0.0
 11
-36.02811449830713
 21
40.21937398837127
 31
0.0
  0
LINE
  5
111
330
10C
100
AcDbEntity
  8
치수문자_일반주서
 62
     0
370
    -2
100
AcDbLine
 10
38.45738550169286
 20
40.21937398837127
 30
0.0
 11
-32.72611449830713
 21
40.21937398837127
 31
0.0
  0
SOLID
  5
112
330
10C
100
AcDbEntity
  8
치수문자_일반주서
 62
     0
100
AcDbTrace
 10
38.45738550169286
 20
39.66904065503794
 30
0.0
 11
38.45738550169286
 21
40.76970732170461
 31
0.0
 12
41.75938550169286
 22
40.21937398837127
 32
0.0
 13
41.75938550169286
 23
40.21937398837127
 33
0.0
  0
SOLID
  5
113
330
10C
100
AcDbEntity
  8
치수문자_일반주서
 62
     0
100
AcDbTrace
 10
-32.72611449830713
 20
40.76970732170461
 30
0.0
 11
-32.72611449830713
 21
39.66904065503794
 31
0.0
 12
-36.02811449830713
 22
40.21937398837127
 32
0.0
 13
-36.02811449830713
 23
40.21937398837127
 33
0.0
  0
MTEXT
  5
114
330
10C
100
AcDbEntity
  8
치수문자_일반주서
 62
     0
100
AcDbMText
 10
2.865635501692868
 20
44.59437398837127
 30
0.0
 40
3.5
 41
0.0
 71
     2
 72
     1
  1
\A1;77.79 [3 1/16]
  7
SLDTEXTSTYLE0
 73
     1
 44
1.0
  0
POINT
  5
115
330
10C
100
AcDbEntity
  8
Defpoints
 62
     0
100
AcDbPoint
 10
41.75938550169287
 20
3.175000000000004
 30
0.0
  0
POINT
  5
116
330
10C
100
AcDbEntity
  8
Defpoints
 62
     0
100
AcDbPoint
 10
-36.02811449830713
 20
3.952499999999995
 30
0.0
  0
POINT
  5
117
330
10C
100
AcDbEntity
  8
Defpoints
 62
     0
100
AcDbPoint
 10
-36.02811449830713
 20
40.21937398837127
 30
0.0
  0
ENDBLK
  5
10E
330
10C
100
AcDbEntity
  8
0
100
AcDbBlockEnd
  0
BLOCK
  5
120
330
11F
100
AcDbEntity
  8
0
100
AcDbBlockBegin
  2
_D_3
 70
     0
 10
0.0
 20
0.0
 30
0.0
  3
_D_3
  1
_D_3
  0
LINE
  5
122
330
11F
100
AcDbEntity
  8
치수문자_일반주서
 62
     0
370
    -2
100
AcDbLine
 10
41.82188550169288
 20
-3.174999999999994
 30
0.0
 11
57.34751214681
 21
-3.17499999999994
 31
0.0
  0
LINE
  5
123
330
11F
100
AcDbEntity
  8
치수문자_일반주서
 62
     0
370
    -2
100
AcDbLine
 10
41.82188550169288
 20
3.175000000000006
 30
0.0
 11
57.34751214680998
 21
3.175000000000061
 31
0.0
  0
LINE
  5
124
330
11F
100
AcDbEntity
  8
치수문자_일반주서
 62
     0
370
    -2
100
AcDbLine
 10
57.34751214680998
 20
3.175000000000061
 30
0.0
 11
57.34751214680985
 21
42.21249999999995
 31
0.0
  0
LINE
  5
125
330
11F
100
AcDbEntity
  8
치수문자_일반주서
 62
     0
370
    -2
100
AcDbLine
 10
57.34751214681
 20
-3.17499999999994
 30
0.0
 11
57.34751214680998
 21
3.175000000000061
 31
0.0
  0
LINE
  5
126
330
11F
100
AcDbEntity
  8
치수문자_일반주서
 62
     0
370
    -2
100
AcDbLine
 10
57.34751214681001
 20
-6.47699999999994
 30
0.0
 11
57.34751214681003
 21
-9.77899999999994
 31
0.0
  0
LINE
  5
127
330
11F
100
AcDbEntity
  8
치수문자_일반주서
 62
     0
370
    -2
100
AcDbLine
 10
57.34751214680996
 20
6.477000000000061
 30
0.0
 11
57.34751214680995
 21
9.77900000000006
 31
0.0
  0
SOLID
  5
128
330
11F
100
AcDbEntity
  8
치수문자_일반주서
 62
     0
100
AcDbTrace
 10
57.89784548014335
 20
-6.476999999999938
 30
0.0
 11
56.79717881347668
 21
-6.476999999999942
 31
0.0
 12
57.34751214681
 22
-3.17499999999994
 32
0.0
 13
57.34751214681
 23
-3.17499999999994
 33
0.0
  0
SOLID
  5
129
330
11F
100
AcDbEntity
  8
치수문자_일반주서
 62
     0
100
AcDbTrace
 10
56.79717881347663
 20
6.477000000000059
 30
0.0
 11
57.8978454801433
 21
6.477000000000062
 31
0.0
 12
57.34751214680998
 22
3.175000000000061
 32
0.0
 13
57.34751214680998
 23
3.175000000000061
 33
0.0
  0
MTEXT
  5
12A
330
11F
100
AcDbEntity
  8
치수문자_일반주서
 62
     0
100
AcDbMText
 10
52.97251214680989
 20
29.52499999999993
 30
0.0
 40
3.5
 41
0.0
 71
     2
 72
     1
  1
\A1;%%c6.35 [1/4]
  7
SLDTEXTSTYLE0
 11
-3.356894814614647E-15
 21
1.0
 31
0.0
 73
     1
 44
1.0
  0
POINT
  5
12B
330
11F
100
AcDbEntity
  8
Defpoints
 62
     0
100
AcDbPoint
 10
41.75938550169288
 20
-3.174999999999994
 30
0.0
  0
POINT
  5
12C
330
11F
100
AcDbEntity
  8
Defpoints
 62
     0
100
AcDbPoint
 10
41.75938550169288
 20
3.175000000000006
 30
0.0
  0
POINT
  5
12D
330
11F
100
AcDbEntity
  8
Defpoints
 62
     0
100
AcDbPoint
 10
57.34751214680998
 20
3.175000000000064
 30
0.0
  0
ENDBLK
  5
121
330
11F
100
AcDbEntity
  8
0
100
AcDbBlockEnd
  0
BLOCK
  5
13A
330
139
100
AcDbEntity
  8
0
100
AcDbBlockBegin
  2
SW_DOWELSYMBOL_0
 70
     0
 10
0.0
 20
0.0
 30
0.0
  3
SW_DOWELSYMBOL_0
  1
SW_DOWELSYMBOL_0
  0
CIRCLE
  5
13C
330
139
100
AcDbEntity
  8
해칭선
 62
     0
100
AcDbCircle
 10
0.0
 20
0.0
 30
0.0
 40
2.999999999999996
  0
HATCH
  5
13D
330
139
100
AcDbEntity
  8
0
  6
Continuous
 62
     0
370
     0
100
AcDbHatch
 10
0.0
 20
0.0
 30
0.0
210
0.0
220
0.0
230
1.0
  2
SOLID
 70
     1
 71
     0
 91
        1
 92
        0
 93
        3
 72
     2
 10
0.0
 20
0.0
 40
2.999999999999996
 50
0.0
 51
90.0
 73
     1
 72
     1
 10
0.0
 20
2.999999999999996
 11
0.0
 21
0.0
 72
     1
 10
0.0
 20
0.0
 11
2.999999999999996
 21
0.0
 97
        0
 75
     0
 76
     1
 98
        1
 10
0.0
 20
0.0
  0
HATCH
  5
13E
330
139
100
AcDbEntity
  8
0
  6
Continuous
 62
     0
370
     0
100
AcDbHatch
 10
0.0
 20
0.0
 30
0.0
210
0.0
220
0.0
230
1.0
  2
SOLID
 70
     1
 71
     0
 91
        1
 92
        0
 93
        3
 72
     2
 10
0.0
 20
0.0
 40
2.999999999999996
 50
180.0
 51
270.0000000000007
 73
     1
 72
     1
 10
0.0
 20
-2.999999999999996
 11
0.0
 21
0.0
 72
     1
 10
0.0
 20
0.0
 11
-2.999999999999996
 21
0.0
 97
        0
 75
     0
 76
     1
 98
        1
 10
0.0
 20
0.0
  0
ENDBLK
  5
13B
330
139
100
AcDbEntity
  8
0
100
AcDbBlockEnd
  0
BLOCK
  5
217
330
216
100
AcDbEntity
  8
0
100
AcDbBlockBegin
  2
*D7
 70
     1
 10
0.0
 20
0.0
 30
0.0
  3
*D7
  1
*D8
  0
LINE
  5
219
330
216
100
AcDbEntity
  8
치수문자_일반주서
 62
     0
370
    -2
100
AcDbLine
 10
17.81250000000006
 20
17.01250000000001
 30
0.0
 11
4.375000000000027
 21
17.01249999999996
 31
0.0
  0
LINE
  5
21A
330
216
100
AcDbEntity
  8
치수문자_일반주서
 62
     0
370
    -2
100
AcDbLine
 10
17.81250000000006
 20
7.487500000000009
 30
0.0
 11
4.37500000000006
 21
7.487499999999959
 31
0.0
  0
LINE
  5
21B
330
216
100
AcDbEntity
  8
치수문자_일반주서
 62
     0
370
    -2
100
AcDbLine
 10
4.375000000000038
 20
13.71049999999996
 30
0.0
 11
4.375000000000048
 21
10.78949999999996
 31
0.0
  0
SOLID
  5
21C
330
216
100
AcDbEntity
  8
치수문자_일반주서
 62
     0
100
AcDbTrace
 10
4.925333333333372
 20
13.71049999999997
 30
0.0
 11
3.824666666666705
 21
13.71049999999996
 31
0.0
 12
4.375000000000027
 22
17.01249999999996
 32
0.0
 13
4.375000000000027
 23
17.01249999999996
 33
0.0
  0
SOLID
  5
21D
330
216
100
AcDbEntity
  8
치수문자_일반주서
 62
     0
100
AcDbTrace
 10
3.824666666666715
 20
10.78949999999996
 30
0.0
 11
4.925333333333382
 21
10.78949999999996
 31
0.0
 12
4.37500000000006
 22
7.487499999999959
 32
0.0
 13
4.37500000000006
 23
7.487499999999959
 33
0.0
  0
MTEXT
  5
21E
330
216
100
AcDbEntity
  8
치수문자_일반주서
 62
     0
100
AcDbMText
 10
0.0000000000000426
 20
12.25
 30
0.0
 40
3.5
 41
0.0
 71
     2
 72
     1
  1
\A1;%%c9.53 [3/8]
  7
SLDTEXTSTYLE0
 11
-3.450141892798385E-15
 21
1.0
 31
0.0
 73
     1
 44
1.0
  0
POINT
  5
21F
330
216
100
AcDbEntity
  8
Defpoints
 62
     0
100
AcDbPoint
 10
17.87500000000006
 20
17.01250000000001
 30
0.0
  0
POINT
  5
220
330
216
100
AcDbEntity
  8
Defpoints
 62
     0
100
AcDbPoint
 10
17.87500000000006
 20
7.487500000000009
 30
0.0
  0
POINT
  5
221
330
216
100
AcDbEntity
  8
Defpoints
 62
     0
100
AcDbPoint
 10
4.375000000000064
 20
7.487499999999958
 30
0.0
  0
ENDBLK
  5
218
330
216
100
AcDbEntity
  8
0
100
AcDbBlockEnd
  0
BLOCK
  5
223
330
222
100
AcDbEntity
  8
0
100
AcDbBlockBegin
  2
*D8
 70
     1
 10
0.0
 20
0.0
 30
0.0
  3
*D8
  1
*D9
  0
LINE
  5
225
330
222
100
AcDbEntity
  8
치수문자_일반주서
 62
     0
370
    -2
100
AcDbLine
 10
85.32750000000007
 20
14.69375000000001
 30
0.0
 11
85.32750000000007
 21
29.63299962740933
 31
0.0
  0
LINE
  5
226
330
222
100
AcDbEntity
  8
치수문자_일반주서
 62
     0
370
    -2
100
AcDbLine
 10
72.62750000000007
 20
14.69320163923852
 30
0.0
 11
72.62750000000007
 21
29.63299962740933
 31
0.0
  0
LINE
  5
227
330
222
100
AcDbEntity
  8
치수문자_일반주서
 62
     0
370
    -2
100
AcDbLine
 10
72.62750000000007
 20
29.63299962740933
 30
0.0
 11
44.14850000000007
 21
29.63299962740933
 31
0.0
  0
LINE
  5
228
330
222
100
AcDbEntity
  8
치수문자_일반주서
 62
     0
370
    -2
100
AcDbLine
 10
85.32750000000007
 20
29.63299962740933
 30
0.0
 11
72.62750000000007
 21
29.63299962740933
 31
0.0
  0
LINE
  5
229
330
222
100
AcDbEntity
  8
치수문자_일반주서
 62
     0
370
    -2
100
AcDbLine
 10
88.62950000000006
 20
29.63299962740933
 30
0.0
 11
91.93150000000006
 21
29.63299962740933
 31
0.0
  0
LINE
  5
22A
330
222
100
AcDbEntity
  8
치수문자_일반주서
 62
     0
370
    -2
100
AcDbLine
 10
69.32550000000006
 20
29.63299962740933
 30
0.0
 11
66.02350000000007
 21
29.63299962740933
 31
0.0
  0
SOLID
  5
22B
330
222
100
AcDbEntity
  8
치수문자_일반주서
 62
     0
100
AcDbTrace
 10
88.62950000000006
 20
30.18333296074267
 30
0.0
 11
88.62950000000006
 21
29.082666294076
 31
0.0
 12
85.32750000000007
 22
29.63299962740933
 32
0.0
 13
85.32750000000007
 23
29.63299962740933
 33
0.0
  0
SOLID
  5
22C
330
222
100
AcDbEntity
  8
치수문자_일반주서
 62
     0
100
AcDbTrace
 10
69.32550000000006
 20
29.082666294076
 30
0.0
 11
69.32550000000006
 21
30.18333296074267
 31
0.0
 12
72.62750000000007
 22
29.63299962740933
 32
0.0
 13
72.62750000000007
 23
29.63299962740933
 33
0.0
  0
MTEXT
  5
22D
330
222
100
AcDbEntity
  8
치수문자_일반주서
 62
     0
100
AcDbMText
 10
55.08600000000007
 20
34.00799962740933
 30
0.0
 40
3.5
 41
0.0
 71
     2
 72
     1
  1
\A1;12.7 [1/2]
  7
SLDTEXTSTYLE0
 73
     1
 44
1.0
  0
POINT
  5
22E
330
222
100
AcDbEntity
  8
Defpoints
 62
     0
100
AcDbPoint
 10
85.32750000000007
 20
14.63125000000001
 30
0.0
  0
POINT
  5
22F
330
222
100
AcDbEntity
  8
Defpoints
 62
     0
100
AcDbPoint
 10
72.62750000000007
 20
14.63070163923852
 30
0.0
  0
POINT
  5
230
330
222
100
AcDbEntity
  8
Defpoints
 62
     0
100
AcDbPoint
 10
72.62750000000007
 20
29.63299962740933
 30
0.0
  0
ENDBLK
  5
224
330
222
100
AcDbEntity
  8
0
100
AcDbBlockEnd
  0
BLOCK
  5
232
330
231
100
AcDbEntity
  8
0
100
AcDbBlockBegin
  2
*D9
 70
     1
 10
0.0
 20
0.0
 30
0.0
  3
*D9
  1
*D10
  0
LINE
  5
234
330
231
100
AcDbEntity
  8
치수문자_일반주서
 62
     0
370
    -2
100
AcDbLine
 10
85.32750000000007
 20
14.69375000000001
 30
0.0
 11
85.32750000000007
 21
45.03519501024258
 31
0.0
  0
LINE
  5
235
330
231
100
AcDbEntity
  8
치수문자_일반주서
 62
     0
370
    -2
100
AcDbLine
 10
17.06500000000005
 20
16.265
 30
0.0
 11
17.06500000000005
 21
45.03519501024258
 31
0.0
  0
LINE
  5
236
330
231
100
AcDbEntity
  8
치수문자_일반주서
 62
     0
370
    -2
100
AcDbLine
 10
82.02550000000008
 20
45.03519501024258
 30
0.0
 11
20.36700000000005
 21
45.03519501024258
 31
0.0
  0
SOLID
  5
237
330
231
100
AcDbEntity
  8
치수문자_일반주서
 62
     0
100
AcDbTrace
 10
82.02550000000008
 20
44.48486167690925
 30
0.0
 11
82.02550000000008
 21
45.58552834357592
 31
0.0
 12
85.32750000000007
 22
45.03519501024258
 32
0.0
 13
85.32750000000007
 23
45.03519501024258
 33
0.0
  0
SOLID
  5
238
330
231
100
AcDbEntity
  8
치수문자_일반주서
 62
     0
100
AcDbTrace
 10
20.36700000000005
 20
45.58552834357592
 30
0.0
 11
20.36700000000005
 21
44.48486167690925
 31
0.0
 12
17.06500000000005
 22
45.03519501024258
 32
0.0
 13
17.06500000000005
 23
45.03519501024258
 33
0.0
  0
MTEXT
  5
239
330
231
100
AcDbEntity
  8
치수문자_일반주서
 62
     0
100
AcDbMText
 10
51.19625000000002
 20
49.41019501024258
 30
0.0
 40
3.5
 41
0.0
 71
     2
 72
     1
  1
\A1;68.26 [2 11/16]
  7
SLDTEXTSTYLE0
 73
     1
 44
1.0
  0
POINT
  5
23A
330
231
100
AcDbEntity
  8
Defpoints
 62
     0
100
AcDbPoint
 10
85.32750000000007
 20
14.63125000000001
 30
0.0
  0
POINT
  5
23B
330
231
100
AcDbEntity
  8
Defpoints
 62
     0
100
AcDbPoint
 10
17.06500000000005
 20
16.2025
 30
0.0
  0
POINT
  5
23C
330
231
100
AcDbEntity
  8
Defpoints
 62
     0
100
AcDbPoint
 10
17.06500000000005
 20
45.03519501024258
 30
0.0
  0
ENDBLK
  5
233
330
231
100
AcDbEntity
  8
0
100
AcDbBlockEnd
  0
BLOCK
  5
23E
330
23D
100
AcDbEntity
  8
0
100
AcDbBlockBegin
  2
*D10
 70
     1
 10
0.0
 20
0.0
 30
0.0
  3
*D10
  1
*D11
  0
LINE
  5
240
330
23D
100
AcDbEntity
  8
치수문자_일반주서
 62
     0
370
    -2
100
AcDbLine
 10
85.39000000000007
 20
9.868750000000015
 30
0.0
 11
102.3612942790092
 21
9.868750000000077
 31
0.0
  0
LINE
  5
241
330
23D
100
AcDbEntity
  8
치수문자_일반주서
 62
     0
370
    -2
100
AcDbLine
 10
85.39000000000007
 20
14.63125000000001
 30
0.0
 11
102.3612942790091
 21
14.63125000000008
 31
0.0
  0
LINE
  5
242
330
23D
100
AcDbEntity
  8
치수문자_일반주서
 62
     0
370
    -2
100
AcDbLine
 10
102.3612942790091
 20
14.63125000000008
 30
0.0
 11
102.361294279009
 21
49.23525000000008
 31
0.0
  0
LINE
  5
243
330
23D
100
AcDbEntity
  8
치수문자_일반주서
 62
     0
370
    -2
100
AcDbLine
 10
102.3612942790092
 20
9.868750000000077
 30
0.0
 11
102.3612942790091
 21
14.63125000000008
 31
0.0
  0
LINE
  5
244
330
23D
100
AcDbEntity
  8
치수문자_일반주서
 62
     0
370
    -2
100
AcDbLine
 10
102.3612942790092
 20
6.566750000000077
 30
0.0
 11
102.3612942790092
 21
3.264750000000078
 31
0.0
  0
LINE
  5
245
330
23D
100
AcDbEntity
  8
치수문자_일반주서
 62
     0
370
    -2
100
AcDbLine
 10
102.3612942790091
 20
17.93325000000008
 30
0.0
 11
102.3612942790091
 21
21.23525000000008
 31
0.0
  0
SOLID
  5
246
330
23D
100
AcDbEntity
  8
치수문자_일반주서
 62
     0
100
AcDbTrace
 10
102.9116276123425
 20
6.566750000000079
 30
0.0
 11
101.8109609456758
 21
6.566750000000075
 31
0.0
 12
102.3612942790092
 22
9.868750000000077
 32
0.0
 13
102.3612942790092
 23
9.868750000000077
 33
0.0
  0
SOLID
  5
247
330
23D
100
AcDbEntity
  8
치수문자_일반주서
 62
     0
100
AcDbTrace
 10
101.8109609456758
 20
17.93325000000008
 30
0.0
 11
102.9116276123425
 21
17.93325000000008
 31
0.0
 12
102.3612942790091
 22
14.63125000000008
 32
0.0
 13
102.3612942790091
 23
14.63125000000008
 33
0.0
  0
MTEXT
  5
248
330
23D
100
AcDbEntity
  8
치수문자_일반주서
 62
     0
100
AcDbMText
 10
97.98629427900909
 20
35.23525000000006
 30
0.0
 40
3.5
 41
0.0
 71
     2
 72
     1
  1
\A1;%%c4.76 [3/16]
  7
SLDTEXTSTYLE0
 11
-2.983906501879686E-15
 21
1.0
 31
0.0
 73
     1
 44
1.0
  0
POINT
  5
249
330
23D
100
AcDbEntity
  8
Defpoints
 62
     0
100
AcDbPoint
 10
85.32750000000007
 20
9.868750000000015
 30
0.0
  0
POINT
  5
24A
330
23D
100
AcDbEntity
  8
Defpoints
 62
     0
100
AcDbPoint
 10
85.32750000000007
 20
14.63125000000001
 30
0.0
  0
POINT
  5
24B
330
23D
100
AcDbEntity
  8
Defpoints
 62
     0
100
AcDbPoint
 10
102.3612942790091
 20
14.63125000000008
 30
0.0
  0
ENDBLK
  5
23F
330
23D
100
AcDbEntity
  8
0
100
AcDbBlockEnd
  0
BLOCK
  5
296
330
295
100
AcDbEntity
  8
0
100
AcDbBlockBegin
  2
*D11
 70
     1
 10
0.0
 20
0.0
 30
0.0
  3
*D11
  1
*D12
  0
LINE
  5
298
330
295
100
AcDbEntity
  8
치수문자_일반주서
 62
     0
370
    -2
100
AcDbLine
 10
88.42364325952146
 20
-42.218984836617
 30
0.0
 11
74.98614325952143
 21
-42.21898483661705
 31
0.0
  0
LINE
  5
299
330
295
100
AcDbEntity
  8
치수문자_일반주서
 62
     0
370
    -2
100
AcDbLine
 10
88.42364325952146
 20
-51.743984836617
 30
0.0
 11
74.98614325952146
 21
-51.74398483661705
 31
0.0
  0
LINE
  5
29A
330
295
100
AcDbEntity
  8
치수문자_일반주서
 62
     0
370
    -2
100
AcDbLine
 10
74.98614325952144
 20
-45.52098483661705
 30
0.0
 11
74.98614325952144
 21
-48.44198483661705
 31
0.0
  0
SOLID
  5
29B
330
295
100
AcDbEntity
  8
치수문자_일반주서
 62
     0
100
AcDbTrace
 10
75.53647659285477
 20
-45.52098483661705
 30
0.0
 11
74.43580992618811
 21
-45.52098483661705
 31
0.0
 12
74.98614325952143
 22
-42.21898483661705
 32
0.0
 13
74.98614325952143
 23
-42.21898483661705
 33
0.0
  0
SOLID
  5
29C
330
295
100
AcDbEntity
  8
치수문자_일반주서
 62
     0
100
AcDbTrace
 10
74.43580992618811
 20
-48.44198483661705
 30
0.0
 11
75.53647659285477
 21
-48.44198483661705
 31
0.0
 12
74.98614325952146
 22
-51.74398483661705
 32
0.0
 13
74.98614325952146
 23
-51.74398483661705
 33
0.0
  0
MTEXT
  5
29D
330
295
100
AcDbEntity
  8
치수문자_일반주서
 62
     0
100
AcDbMText
 10
70.61114325952144
 20
-46.98148483661701
 30
0.0
 40
3.5
 41
0.0
 71
     2
 72
     1
  1
\A1;%%c9.53 [3/8]
  7
SLDTEXTSTYLE0
 11
-2.983906501879684E-15
 21
1.0
 31
0.0
 73
     1
 44
1.0
  0
POINT
  5
29E
330
295
100
AcDbEntity
  8
Defpoints
 62
     0
100
AcDbPoint
 10
88.48614325952146
 20
-42.218984836617
 30
0.0
  0
POINT
  5
29F
330
295
100
AcDbEntity
  8
Defpoints
 62
     0
100
AcDbPoint
 10
88.48614325952146
 20
-51.743984836617
 30
0.0
  0
POINT
  5
2A0
330
295
100
AcDbEntity
  8
Defpoints
 62
     0
100
AcDbPoint
 10
74.98614325952146
 20
-51.74398483661705
 30
0.0
  0
ENDBLK
  5
297
330
295
100
AcDbEntity
  8
0
100
AcDbBlockEnd
  0
BLOCK
  5
2A2
330
2A1
100
AcDbEntity
  8
0
100
AcDbBlockBegin
  2
*D12
 70
     1
 10
0.0
 20
0.0
 30
0.0
  3
*D12
  1
*D13
  0
LINE
  5
2A4
330
2A1
100
AcDbEntity
  8
치수문자_일반주서
 62
     0
370
    -2
100
AcDbLine
 10
155.9386432595215
 20
-44.537734836617
 30
0.0
 11
155.9386432595215
 21
-29.59848520920768
 31
0.0
  0
LINE
  5
2A5
330
2A1
100
AcDbEntity
  8
치수문자_일반주서
 62
     0
370
    -2
100
AcDbLine
 10
143.2386432595215
 20
-44.53828319737849
 30
0.0
 11
143.2386432595215
 21
-29.59848520920768
 31
0.0
  0
LINE
  5
2A6
330
2A1
100
AcDbEntity
  8
치수문자_일반주서
 62
     0
370
    -2
100
AcDbLine
 10
143.2386432595215
 20
-29.59848520920768
 30
0.0
 11
114.7596432595215
 21
-29.59848520920768
 31
0.0
  0
LINE
  5
2A7
330
2A1
100
AcDbEntity
  8
치수문자_일반주서
 62
     0
370
    -2
100
AcDbLine
 10
155.9386432595215
 20
-29.59848520920768
 30
0.0
 11
143.2386432595215
 21
-29.59848520920768
 31
0.0
  0
LINE
  5
2A8
330
2A1
100
AcDbEntity
  8
치수문자_일반주서
 62
     0
370
    -2
100
AcDbLine
 10
159.2406432595215
 20
-29.59848520920768
 30
0.0
 11
162.5426432595215
 21
-29.59848520920768
 31
0.0
  0
LINE
  5
2A9
330
2A1
100
AcDbEntity
  8
치수문자_일반주서
 62
     0
370
    -2
100
AcDbLine
 10
139.9366432595215
 20
-29.59848520920768
 30
0.0
 11
136.6346432595215
 21
-29.59848520920768
 31
0.0
  0
SOLID
  5
2AA
330
2A1
100
AcDbEntity
  8
치수문자_일반주서
 62
     0
100
AcDbTrace
 10
159.2406432595215
 20
-29.04815187587435
 30
0.0
 11
159.2406432595215
 21
-30.14881854254102
 31
0.0
 12
155.9386432595215
 22
-29.59848520920768
 32
0.0
 13
155.9386432595215
 23
-29.59848520920768
 33
0.0
  0
SOLID
  5
2AB
330
2A1
100
AcDbEntity
  8
치수문자_일반주서
 62
     0
100
AcDbTrace
 10
139.9366432595215
 20
-30.14881854254102
 30
0.0
 11
139.9366432595215
 21
-29.04815187587435
 31
0.0
 12
143.2386432595215
 22
-29.59848520920768
 32
0.0
 13
143.2386432595215
 23
-29.59848520920768
 33
0.0
  0
MTEXT
  5
2AC
330
2A1
100
AcDbEntity
  8
치수문자_일반주서
 62
     0
100
AcDbMText
 10
125.6971432595215
 20
-25.22348520920768
 30
0.0
 40
3.5
 41
0.0
 71
     2
 72
     1
  1
\A1;12.7 [1/2]
  7
SLDTEXTSTYLE0
 73
     1
 44
1.0
  0
POINT
  5
2AD
330
2A1
100
AcDbEntity
  8
Defpoints
 62
     0
100
AcDbPoint
 10
155.9386432595215
 20
-44.600234836617
 30
0.0
  0
POINT
  5
2AE
330
2A1
100
AcDbEntity
  8
Defpoints
 62
     0
100
AcDbPoint
 10
143.2386432595215
 20
-44.60078319737849
 30
0.0
  0
POINT
  5
2AF
330
2A1
100
AcDbEntity
  8
Defpoints
 62
     0
100
AcDbPoint
 10
143.2386432595215
 20
-29.59848520920768
 30
0.0
  0
ENDBLK
  5
2A3
330
2A1
100
AcDbEntity
  8
0
100
AcDbBlockEnd
  0
BLOCK
  5
2B1
330
2B0
100
AcDbEntity
  8
0
100
AcDbBlockBegin
  2
*D13
 70
     1
 10
0.0
 20
0.0
 30
0.0
  3
*D13
  1
*D14
  0
LINE
  5
2B3
330
2B0
100
AcDbEntity
  8
치수문자_일반주서
 62
     0
370
    -2
100
AcDbLine
 10
155.9386432595215
 20
-44.537734836617
 30
0.0
 11
155.9386432595215
 21
-14.19628982637443
 31
0.0
  0
LINE
  5
2B4
330
2B0
100
AcDbEntity
  8
치수문자_일반주서
 62
     0
370
    -2
100
AcDbLine
 10
87.67614325952145
 20
-42.96648483661701
 30
0.0
 11
87.67614325952145
 21
-14.19628982637443
 31
0.0
  0
LINE
  5
2B5
330
2B0
100
AcDbEntity
  8
치수문자_일반주서
 62
     0
370
    -2
100
AcDbLine
 10
152.6366432595215
 20
-14.19628982637443
 30
0.0
 11
90.97814325952146
 21
-14.19628982637443
 31
0.0
  0
SOLID
  5
2B6
330
2B0
100
AcDbEntity
  8
치수문자_일반주서
 62
     0
100
AcDbTrace
 10
152.6366432595215
 20
-14.74662315970776
 30
0.0
 11
152.6366432595215
 21
-13.6459564930411
 31
0.0
 12
155.9386432595215
 22
-14.19628982637443
 32
0.0
 13
155.9386432595215
 23
-14.19628982637443
 33
0.0
  0
SOLID
  5
2B7
330
2B0
100
AcDbEntity
  8
치수문자_일반주서
 62
     0
100
AcDbTrace
 10
90.97814325952146
 20
-13.6459564930411
 30
0.0
 11
90.97814325952146
 21
-14.74662315970776
 31
0.0
 12
87.67614325952145
 22
-14.19628982637443
 32
0.0
 13
87.67614325952145
 23
-14.19628982637443
 33
0.0
  0
MTEXT
  5
2B8
330
2B0
100
AcDbEntity
  8
치수문자_일반주서
 62
     0
100
AcDbMText
 10
121.8073932595214
 20
-9.821289826374432
 30
0.0
 40
3.5
 41
0.0
 71
     2
 72
     1
  1
\A1;68.26 [2 11/16]
  7
SLDTEXTSTYLE0
 73
     1
 44
1.0
  0
POINT
  5
2B9
330
2B0
100
AcDbEntity
  8
Defpoints
 62
     0
100
AcDbPoint
 10
155.9386432595215
 20
-44.600234836617
 30
0.0
  0
POINT
  5
2BA
330
2B0
100
AcDbEntity
  8
Defpoints
 62
     0
100
AcDbPoint
 10
87.67614325952145
 20
-43.02898483661701
 30
0.0
  0
POINT
  5
2BB
330
2B0
100
AcDbEntity
  8
Defpoints
 62
     0
100
AcDbPoint
 10
87.67614325952145
 20
-14.19628982637443
 30
0.0
  0
ENDBLK
  5
2B2
330
2B0
100
AcDbEntity
  8
0
100
AcDbBlockEnd
  0
BLOCK
  5
2BD
330
2BC
100
AcDbEntity
  8
0
100
AcDbBlockBegin
  2
*D14
 70
     1
 10
0.0
 20
0.0
 30
0.0
  3
*D14
  1
*D15
  0
LINE
  5
2BF
330
2BC
100
AcDbEntity
  8
치수문자_일반주서
 62
     0
370
    -2
100
AcDbLine
 10
156.0011432595215
 20
-49.362734836617
 30
0.0
 11
172.9724375385306
 21
-49.36273483661694
 31
0.0
  0
LINE
  5
2C0
330
2BC
100
AcDbEntity
  8
치수문자_일반주서
 62
     0
370
    -2
100
AcDbLine
 10
156.0011432595215
 20
-44.600234836617
 30
0.0
 11
172.9724375385306
 21
-44.60023483661693
 31
0.0
  0
LINE
  5
2C1
330
2BC
100
AcDbEntity
  8
치수문자_일반주서
 62
     0
370
    -2
100
AcDbLine
 10
172.9724375385306
 20
-44.60023483661693
 30
0.0
 11
172.9724375385304
 21
-9.996234836616935
 31
0.0
  0
LINE
  5
2C2
330
2BC
100
AcDbEntity
  8
치수문자_일반주서
 62
     0
370
    -2
100
AcDbLine
 10
172.9724375385306
 20
-49.36273483661694
 30
0.0
 11
172.9724375385306
 21
-44.60023483661693
 31
0.0
  0
LINE
  5
2C3
330
2BC
100
AcDbEntity
  8
치수문자_일반주서
 62
     0
370
    -2
100
AcDbLine
 10
172.9724375385306
 20
-52.66473483661694
 30
0.0
 11
172.9724375385307
 21
-55.96673483661694
 31
0.0
  0
LINE
  5
2C4
330
2BC
100
AcDbEntity
  8
치수문자_일반주서
 62
     0
370
    -2
100
AcDbLine
 10
172.9724375385306
 20
-41.29823483661693
 30
0.0
 11
172.9724375385305
 21
-37.99623483661694
 31
0.0
  0
SOLID
  5
2C5
330
2BC
100
AcDbEntity
  8
치수문자_일반주서
 62
     0
100
AcDbTrace
 10
173.522770871864
 20
-52.66473483661694
 30
0.0
 11
172.4221042051973
 21
-52.66473483661694
 31
0.0
 12
172.9724375385306
 22
-49.36273483661694
 32
0.0
 13
172.9724375385306
 23
-49.36273483661694
 33
0.0
  0
SOLID
  5
2C6
330
2BC
100
AcDbEntity
  8
치수문자_일반주서
 62
     0
100
AcDbTrace
 10
172.4221042051972
 20
-41.29823483661693
 30
0.0
 11
173.5227708718639
 21
-41.29823483661693
 31
0.0
 12
172.9724375385306
 22
-44.60023483661693
 32
0.0
 13
172.9724375385306
 23
-44.60023483661693
 33
0.0
  0
MTEXT
  5
2C7
330
2BC
100
AcDbEntity
  8
치수문자_일반주서
 62
     0
100
AcDbMText
 10
168.5974375385305
 20
-23.99623483661696
 30
0.0
 40
3.5
 41
0.0
 71
     2
 72
     1
  1
\A1;%%c4.76 [3/16]
  7
SLDTEXTSTYLE0
 11
-5.967813003759368E-15
 21
1.0
 31
0.0
 73
     1
 44
1.0
  0
POINT
  5
2C8
330
2BC
100
AcDbEntity
  8
Defpoints
 62
     0
100
AcDbPoint
 10
155.9386432595215
 20
-49.362734836617
 30
0.0
  0
POINT
  5
2C9
330
2BC
100
AcDbEntity
  8
Defpoints
 62
     0
100
AcDbPoint
 10
155.9386432595215
 20
-44.600234836617
 30
0.0
  0
POINT
  5
2CA
330
2BC
100
AcDbEntity
  8
Defpoints
 62
     0
100
AcDbPoint
 10
172.9724375385305
 20
-44.60023483661693
 30
0.0
  0
ENDBLK
  5
2BE
330
2BC
100
AcDbEntity
  8
0
100
AcDbBlockEnd
  0
BLOCK
  5
383
330
382
100
AcDbEntity
  8
0
100
AcDbBlockBegin
  2
*D15
 70
     1
 10
0.0
 20
0.0
 30
0.0
  3
*D15
  1
*D15
  0
LINE
  5
385
330
382
100
AcDbEntity
  8
치수문자_일반주서
 62
     0
370
    -2
100
AcDbLine
 10
3.659385501692866
 20
3.1105
 30
0.0
 11
3.659385501692867
 21
27.5123984822542
 31
0.0
  0
LINE
  5
386
330
382
100
AcDbEntity
  8
치수문자_일반주서
 62
     0
370
    -2
100
AcDbLine
 10
41.75938550169288
 20
3.300000000000006
 30
0.0
 11
41.75938550169288
 21
27.5123984822542
 31
0.0
  0
LINE
  5
387
330
382
100
AcDbEntity
  8
치수문자_일반주서
 62
     0
370
    -2
100
AcDbLine
 10
6.961385501692867
 20
27.5123984822542
 30
0.0
 11
38.45738550169288
 21
27.5123984822542
 31
0.0
  0
SOLID
  5
388
330
382
100
AcDbEntity
  8
치수문자_일반주서
 62
     0
100
AcDbTrace
 10
6.961385501692867
 20
28.06273181558754
 30
0.0
 11
6.961385501692867
 21
26.96206514892087
 31
0.0
 12
3.659385501692867
 22
27.5123984822542
 32
0.0
 13
3.659385501692867
 23
27.5123984822542
 33
0.0
  0
SOLID
  5
389
330
382
100
AcDbEntity
  8
치수문자_일반주서
 62
     0
100
AcDbTrace
 10
38.45738550169288
 20
26.96206514892087
 30
0.0
 11
38.45738550169288
 21
28.06273181558754
 31
0.0
 12
41.75938550169288
 22
27.5123984822542
 32
0.0
 13
41.75938550169288
 23
27.5123984822542
 33
0.0
  0
MTEXT
  5
38A
330
382
100
AcDbEntity
  8
치수문자_일반주서
 62
     0
100
AcDbMText
 10
22.70938550169287
 20
30.1373984822542
 30
0.0
 40
3.5
 41
0.0
 71
     5
 72
     1
  1
\A1;38.1 [1 1/2]
  7
SLDTEXTSTYLE0
 73
     1
 44
1.0
  0
POINT
  5
38B
330
382
100
AcDbEntity
  8
Defpoints
 62
     0
100
AcDbPoint
 10
3.659385501692866
 20
3.048
 30
0.0
  0
POINT
  5
38C
330
382
100
AcDbEntity
  8
Defpoints
 62
     0
100
AcDbPoint
 10
41.75938550169288
 20
3.237500000000006
 30
0.0
  0
POINT
  5
38D
330
382
100
AcDbEntity
  8
Defpoints
 62
     0
100
AcDbPoint
 10
41.75938550169288
 20
27.5123984822542
 30
0.0
  0
ENDBLK
  5
384
330
382
100
AcDbEntity
  8
0
100
AcDbBlockEnd
  0
ENDSEC
  0
SECTION
  2
ENTITIES
  0
LINE
  5
96
330
1F
100
AcDbEntity
  8
외형선
  6
Continuous
370
    15
100
AcDbLine
 10
0.0
 20
4.762499999999998
 30
0.0
 11
-11.345664498307
 21
4.762499999999998
 31
0.0
  0
LINE
  5
97
330
1F
100
AcDbEntity
  8
외형선
  6
Continuous
370
    15
100
AcDbLine
 10
-35.21811449830713
 20
-4.762500000000001
 30
0.0
 11
0.0
 21
-4.762499999999998
 31
0.0
  0
LINE
  5
9C
330
1F
100
AcDbEntity
  8
외형선
  6
Continuous
370
    15
100
AcDbLine
 10
-35.21811449830713
 20
4.762499999999994
 30
0.0
 11
-36.02811449830713
 21
3.952499999999993
 31
0.0
  0
LINE
  5
9D
330
1F
100
AcDbEntity
  8
외형선
  6
Continuous
370
    15
100
AcDbLine
 10
-36.02811449830713
 20
-3.952500000000001
 30
0.0
 11
-35.21811449830713
 21
-4.762499999999999
 31
0.0
  0
SPLINE
  5
A0
330
1F
100
AcDbEntity
  8
0
  6
Continuous
 62
     1
370
    15
100
AcDbSpline
210
0.0
220
0.0
230
1.0
 70
     8
 71
     3
 72
     9
 73
     5
 74
     0
 42
0.000000001
 43
0.00000001
 40
0.0
 40
0.0
 40
0.0
 40
0.0
 40
0.5085916439077376
 40
1.0
 40
1.0
 40
1.0
 40
1.0
 10
33.53277591830543
 20
0.8136707046875408
 30
0.0
 10
33.38376419644018
 20
0.8849053336401845
 30
0.0
 10
33.0907752658311
 20
1.024967856896203
 30
0.0
 10
32.79769079188372
 20
1.178606564379342
 30
0.0
 10
32.65366663234509
 20
1.254105909055771
 30
0.0
  0
LINE
  5
A1
330
1F
100
AcDbEntity
  8
0
  6
Continuous
 62
     1
370
    15
100
AcDbLine
 10
31.81090174383618
 20
0.8756693630358132
 30
0.0
 11
31.74340553992112
 21
0.9127527791646364
 31
0.0
  0
LINE
  5
A2
330
1F
100
AcDbEntity
  8
0
  6
Continuous
 62
     1
370
    15
100
AcDbLine
 10
26.24740826968961
 20
3.175000000000002
 30
0.0
 11
25.88438550169286
 21
3.175000000000002
 31
0.0
  0
SPLINE
  5
A3
330
1F
100
AcDbEntity
  8
0
  6
Continuous
 62
     1
370
    15
100
AcDbSpline
210
0.0
220
0.0
230
1.0
 70
     8
 71
     3
 72
    10
 73
     6
 74
     0
 42
0.000000001
 43
0.00000001
 40
0.0
 40
0.0
 40
0.0
 40
0.0
 40
0.3807511376260097
 40
0.9136434500710067
 40
1.0
 40
1.0
 40
1.0
 40
1.0
 10
32.48450742215856
 20
2.522984596433782
 30
0.0
 10
32.15334183329135
 20
2.508843332970317
 30
0.0
 10
31.35868295703966
 20
2.474910216395322
 30
0.0
 10
30.489492048583
 20
2.472077062326512
 30
0.0
 10
29.95103505131124
 20
2.49533796541693
 30
0.0
 10
29.87594522653344
 20
2.498581784600417
 30
0.0
  0
SPLINE
  5
A4
330
1F
100
AcDbEntity
  8
0
  6
Continuous
 62
     1
370
    15
100
AcDbSpline
210
0.0
220
0.0
230
1.0
 70
     8
 71
     3
 72
    21
 73
    17
 74
     0
 42
0.000000001
 43
0.00000001
 40
0.0
 40
0.0
 40
0.0
 40
0.0
 40
0.0822848559684982
 40
0.1399622661817338
 40
0.1832946304873286
 40
0.2327536456085212
 40
0.2876054607669329
 40
0.3997598543582422
 40
0.5043900916651494
 40
0.6212671683608356
 40
0.72943862842026
 40
0.758830277047177
 40
0.7917739340311836
 40
0.842458644093527
 40
0.9118624804926893
 40
1.0
 40
1.0
 40
1.0
 40
1.0
 10
40.59614558469366
 20
2.173030704247328
 30
0.0
 10
40.44442151843395
 20
2.160646592847649
 30
0.0
 10
40.18634676217326
 20
2.139581862579305
 30
0.0
 10
39.84612794394483
 20
2.119713545258727
 30
0.0
 10
39.56340129819549
 20
2.106584989603897
 30
0.0
 10
39.28872276750591
 20
2.097104440517834
 30
0.0
 10
38.88738011397565
 20
2.088555408622414
 30
0.0
 10
38.38646985166676
 20
2.088683480300916
 30
0.0
 10
37.75685366214607
 20
2.106262112737538
 30
0.0
 10
37.15411382172616
 20
2.14090935964544
 30
0.0
 10
36.68339150898157
 20
2.180378458590237
 30
0.0
 10
36.36724994092296
 20
2.212178783880132
 30
0.0
 10
36.15797830574735
 20
2.234778240295797
 30
0.0
 10
35.87489742624156
 20
2.268385724240707
 30
0.0
 10
35.48897356138981
 20
2.318712785888319
 30
0.0
 10
35.19619576815134
 20
2.363169166624706
 30
0.0
 10
35.03239935853949
 20
2.388040573258427
 30
0.0
  0
SPLINE
  5
A5
330
1F
100
AcDbEntity
  8
0
  6
Continuous
 62
     1
370
    15
100
AcDbSpline
210
0.0
220
0.0
230
1.0
 70
     8
 71
     3
 72
    12
 73
     8
 74
     0
 42
0.000000001
 43
0.00000001
 40
0.0
 40
0.0
 40
0.0
 40
0.0
 40
0.2089034467979611
 40
0.5010305859617319
 40
0.6985130299400157
 40
0.7920667428594548
 40
0.9999999999999999
 40
0.9999999999999999
 40
0.9999999999999999
 40
0.9999999999999999
 10
27.70788901121805
 20
-2.642059176267974
 30
0.0
 10
28.04063963879628
 20
-2.611564560111046
 30
0.0
 10
28.83870326326051
 20
-2.538426774995608
 30
0.0
 10
29.95046559954764
 20
-2.486130821195424
 30
0.0
 10
30.87899472073175
 20
-2.476904840289488
 30
0.0
 10
31.67309731621296
 20
-2.486779272326753
 30
0.0
 10
32.1533090574348
 20
-2.508206441650303
 30
0.0
 10
32.48450742215856
 20
-2.522984596433781
 30
0.0
  0
SPLINE
  5
A6
330
1F
100
AcDbEntity
  8
0
  6
Continuous
 62
     1
370
    15
100
AcDbSpline
210
0.0
220
0.0
230
1.0
 70
     8
 71
     3
 72
    14
 73
    10
 74
     0
 42
0.000000001
 43
0.00000001
 40
0.0
 40
0.0
 40
0.0
 40
0.0
 40
0.198536278838402
 40
0.3333841021777332
 40
0.4510004536601683
 40
0.5919969969257795
 40
0.7436632302217715
 40
0.8960709434066826
 40
1.0
 40
1.0
 40
1.0
 40
1.0
 10
35.03239935853949
 20
-2.388040573258425
 30
0.0
 10
35.18719858623625
 20
-2.364443310915257
 30
0.0
 10
35.4471389953415
 20
-2.32481855232626
 30
0.0
 10
35.80491950978244
 20
-2.277350308388332
 30
0.0
 10
36.11947827720743
 20
-2.238901676748807
 30
0.0
 10
36.44368434933069
 20
-2.203644513488266
 30
0.0
 10
36.79520123442303
 20
-2.170870123794356
 30
0.0
 10
37.11754975744178
 20
-2.145183279840787
 30
0.0
 10
37.31983847659659
 20
-2.133021974832823
 30
0.0
 10
37.40185431755229
 20
-2.12809130118224
 30
0.0
  0
LINE
  5
A7
330
1F
100
AcDbEntity
  8
0
  6
Continuous
 62
     1
370
    15
100
AcDbLine
 10
25.88438550169286
 20
-3.175000000000001
 30
0.0
 11
26.24740826968962
 21
-3.175000000000001
 31
0.0
  0
LINE
  5
A9
330
1F
100
AcDbEntity
  8
외형선
  6
Continuous
370
    15
100
AcDbLine
 10
-35.21811449830713
 20
4.762499999999994
 30
0.0
 11
-35.21811449830713
 21
-4.762500000000001
 31
0.0
  0
LINE
  5
B1
330
1F
100
AcDbEntity
  8
외형선
  6
Continuous
370
    15
100
AcDbLine
 10
-36.02811449830713
 20
3.952499999999995
 30
0.0
 11
-36.02811449830713
 21
-3.952500000000001
 31
0.0
  0
SPLINE
  5
B4
330
1F
100
AcDbEntity
  8
외형선
  6
Continuous
370
    15
100
AcDbSpline
210
0.0
220
0.0
230
1.0
 70
    24
 71
     3
 72
    10
 73
     6
 74
     0
 42
0.000000001
 43
0.00000001
 40
0.0
 40
0.0
 40
0.0
 40
0.0
 40
0.5
 40
0.5
 40
1.0
 40
1.0
 40
1.0
 40
1.0
 10
25.88438550169286
 20
-0.6402227037686667
 30
0.0
 10
25.88438550169286
 20
-1.096691596031373
 30
0.0
 10
25.88438550169286
 20
-1.536242632288704
 30
0.0
 10
25.88438550169286
 20
-2.248269399683275
 30
0.0
 10
25.88438550169286
 20
-2.517680289262844
 30
0.0
 10
25.88438550169286
 20
-2.677206479671312
 30
0.0
  0
SPLINE
  5
B6
330
1F
100
AcDbEntity
  8
외형선
  6
Continuous
370
    15
100
AcDbSpline
210
0.0
220
0.0
230
1.0
 70
    24
 71
     3
 72
    14
 73
    10
 74
     0
 42
0.000000001
 43
0.00000001
 40
0.0
 40
0.0
 40
0.0
 40
0.0
 40
0.25
 40
0.25
 40
0.4999999999999999
 40
0.4999999999999999
 40
0.75
 40
0.75
 40
1.0
 40
1.0
 40
1.0
 40
1.0
 10
25.88438550169286
 20
2.15074125880684
 30
0.0
 10
25.88438550169286
 20
2.023529428059545
 30
0.0
 10
25.88438550169286
 20
1.861485353442216
 30
0.0
 10
25.88438550169286
 20
1.473558773208722
 30
0.0
 10
25.88438550169286
 20
1.247740716390288
 30
0.0
 10
25.88438550169286
 20
0.7517059536513702
 30
0.0
 10
25.88438550169286
 20
0.4817535557908038
 30
0.0
 10
25.88438550169286
 20
-0.0743391239039993
 30
0.0
 10
25.88438550169286
 20
-0.3601787585799925
 30
0.0
 10
25.88438550169286
 20
-0.640222703768666
 30
0.0
  0
SPLINE
  5
B8
330
1F
100
AcDbEntity
  8
외형선
  6
Continuous
370
    15
100
AcDbSpline
210
0.0
220
0.0
230
1.0
 70
    24
 71
     3
 72
     8
 73
     4
 74
     0
 42
0.000000001
 43
0.00000001
 40
0.0
 40
0.0
 40
0.0
 40
0.0
 40
1.0
 40
1.0
 40
1.0
 40
1.0
 10
25.88438550169286
 20
-2.677206479671312
 30
0.0
 10
25.88438550169286
 20
-2.843411305754069
 30
0.0
 10
25.88438550169286
 20
-3.008092197900333
 30
0.0
 10
25.88438550169286
 20
-3.168059987617329
 30
0.0
  0
LINE
  5
B9
330
1F
100
AcDbEntity
  8
외형선
  6
Continuous
370
    15
100
AcDbLine
 10
25.88438550169286
 20
-3.168059987628822
 30
0.0
 11
25.88438550169286
 21
-3.174999999999999
 31
0.0
  0
SPLINE
  5
BB
330
1F
100
AcDbEntity
  8
외형선
  6
Continuous
370
    15
100
AcDbSpline
210
0.0
220
0.0
230
1.0
 70
    24
 71
     3
 72
    10
 73
     6
 74
     0
 42
0.000000001
 43
0.00000001
 40
0.0
 40
0.0
 40
0.0
 40
0.0
 40
0.5
 40
0.5
 40
1.0
 40
1.0
 40
1.0
 40
1.0
 10
25.88438550169286
 20
3.102786468436727
 30
0.0
 10
25.88438550169286
 20
2.959167205395458
 30
0.0
 10
25.88438550169286
 20
2.796059385328087
 30
0.0
 10
25.88438550169286
 20
2.466382971634256
 30
0.0
 10
25.88438550169286
 20
2.30071927771265
 30
0.0
 10
25.88438550169286
 20
2.15074125880684
 30
0.0
  0
SPLINE
  5
BC
330
1F
100
AcDbEntity
  8
0
  6
Continuous
 62
     1
370
    15
100
AcDbSpline
210
0.0
220
0.0
230
1.0
 70
     8
 71
     3
 72
    19
 73
    15
 74
     0
 42
0.000000001
 43
0.00000001
 40
0.0
 40
0.0
 40
0.0
 40
0.0
 40
0.0819302101384166
 40
0.1638182645508764
 40
0.2456770438397765
 40
0.3275195604142049
 40
0.4093589001183955
 40
0.4912081631598174
 40
0.5730804049000566
 40
0.6631390223399096
 40
0.7532001179458256
 40
0.8432638956370476
 40
0.9333305585643269
 40
0.9999999999999999
 40
0.9999999999999999
 40
0.9999999999999999
 40
0.9999999999999999
 10
41.75938550169287
 20
-3.012887259811281
 30
0.0
 10
41.33570746495506
 20
-2.920237902019934
 30
0.0
 10
40.48856938744434
 20
-2.734986857509125
 30
0.0
 10
39.21829857707463
 20
-2.268922278033632
 30
0.0
 10
37.9485600994843
 20
-1.693931883877884
 30
0.0
 10
36.67912652044057
 20
-1.02598375458439
 30
0.0
 10
35.40975396977568
 20
-0.3044014318095686
 30
0.0
 10
34.14018658346283
 20
0.4335838965518372
 30
0.0
 10
32.82809177526452
 20
1.172347463607318
 30
0.0
 10
31.47325088770271
 20
1.866331586185992
 30
0.0
 10
30.07612330300269
 20
2.463993500518741
 30
0.0
 10
28.6789235343665
 20
2.896630130688832
 30
0.0
 10
27.40268380807887
 20
3.145373845155197
 30
0.0
 10
26.59216951799871
 20
3.152366069288908
 30
0.0
 10
26.24740826968961
 20
3.155340289423333
 30
0.0
  0
SPLINE
  5
BD
330
1F
100
AcDbEntity
  8
0
  6
Continuous
 62
     1
370
    15
100
AcDbSpline
210
0.0
220
0.0
230
1.0
 70
     8
 71
     3
 72
    13
 73
     9
 74
     0
 42
0.000000001
 43
0.00000001
 40
0.0
 40
0.0
 40
0.0
 40
0.0
 40
0.1759705863233724
 40
0.3519415374974414
 40
0.5279128485521902
 40
0.7038845145119685
 40
0.8798565303955707
 40
1.0
 40
1.0
 40
1.0
 40
1.0
 10
41.75938550169287
 20
-2.504986939369085
 30
0.0
 10
41.27620129535901
 20
-2.399905299175765
 30
0.0
 10
40.30983188087561
 20
-2.189741800916865
 30
0.0
 10
38.86027570300922
 20
-1.676984321392182
 30
0.0
 10
37.41071615815657
 20
-1.060265149479912
 30
0.0
 10
35.96115323224495
 20
-0.3689684707664337
 30
0.0
 10
34.66488354038782
 20
0.277894265705296
 30
0.0
 10
33.85180131404168
 20
0.6590461158184779
 30
0.0
 10
33.52190799695994
 20
0.8136915428999872
 30
0.0
  0
LINE
  5
BE
330
1F
100
AcDbEntity
  8
0
  6
Continuous
 62
     1
370
    15
100
AcDbLine
 10
41.75938550169287
 20
-3.012887259811283
 30
0.0
 11
41.75938550169287
 21
-2.504986939369085
 31
0.0
  0
SPLINE
  5
BF
330
1F
100
AcDbEntity
  8
0
  6
Continuous
 62
     1
370
    15
100
AcDbSpline
210
0.0
220
0.0
230
1.0
 70
     8
 71
     3
 72
    46
 73
    42
 74
     0
 42
0.000000001
 43
0.00000001
 40
0.0
 40
0.0
 40
0.0
 40
0.0
 40
0.0625000000000001
 40
0.0625000000000001
 40
0.125
 40
0.125
 40
0.1874999999999999
 40
0.1874999999999999
 40
0.2499999999999998
 40
0.2499999999999998
 40
0.3124999999999997
 40
0.3124999999999997
 40
0.3437499999999997
 40
0.3437499999999997
 40
0.3749999999999996
 40
0.3749999999999996
 40
0.4374999999999997
 40
0.4374999999999997
 40
0.4687499999999997
 40
0.4687499999999997
 40
0.4999999999999997
 40
0.4999999999999997
 40
0.5312499999999997
 40
0.5312499999999997
 40
0.5624999999999996
 40
0.5624999999999996
 40
0.6249999999999994
 40
0.6249999999999994
 40
0.6562499999999994
 40
0.6562499999999994
 40
0.6874999999999994
 40
0.6874999999999994
 40
0.7499999999999996
 40
0.7499999999999996
 40
0.8124999999999997
 40
0.8124999999999997
 40
0.8749999999999998
 40
0.8749999999999998
 40
0.9375
 40
0.9375
 40
1.0
 40
1.0
 40
1.0
 40
1.0
 10
41.75938550169287
 20
-3.174999999999993
 30
0.0
 10
41.43147948873168
 20
-3.164489845880617
 30
0.0
 10
41.09772124591892
 20
-3.139363548905477
 30
0.0
 10
40.43463291197379
 20
-3.055355796205546
 30
0.0
 10
40.10758320058413
 20
-2.996768958191459
 30
0.0
 10
39.44377715195688
 20
-2.847197420352299
 30
0.0
 10
39.1124082572942
 20
-2.756502253234169
 30
0.0
 10
38.4544667425437
 20
-2.546834171873273
 30
0.0
 10
38.12042177718997
 20
-2.427013036266633
 30
0.0
 10
37.45836148231512
 20
-2.163036323777598
 30
0.0
 10
37.13078998254512
 20
-2.019079811191336
 30
0.0
 10
36.63263074524117
 20
-1.786911333248949
 30
0.0
 10
36.46641884079251
 20
-1.706956674230655
 30
0.0
 10
36.13570364748252
 20
-1.542912534386128
 30
0.0
 10
35.97214088694582
 20
-1.458991188594725
 30
0.0
 10
35.47731437289202
 20
-1.200952506208955
 30
0.0
 10
35.14314174259908
 20
-1.020692588090995
 30
0.0
 10
34.64759909007488
 20
-0.744492067535357
 30
0.0
 10
34.48412621495584
 20
-0.6516127446832739
 30
0.0
 10
34.15384221603895
 20
-0.4637162991815519
 30
0.0
 10
33.98772731843475
 20
-0.3688265709142102
 30
0.0
 10
33.65557406782843
 20
-0.1783149693425122
 30
0.0
 10
33.48953846910503
 20
-0.0826946767935907
 30
0.0
 10
33.15956845893407
 20
0.1081069795879493
 30
0.0
 10
32.99603646883308
 20
0.2032112744168189
 30
0.0
 10
32.50006844057716
 20
0.488344465061085
 30
0.0
 10
32.16592740717581
 20
0.6774618545581907
 30
0.0
 10
31.67161730051806
 20
0.9528216677060005
 30
0.0
 10
31.50787721795338
 20
1.043256320366662
 30
0.0
 10
31.1769089561534
 20
1.221688793932369
 30
0.0
 10
31.01064877859086
 20
1.30950433141441
 30
0.0
 10
30.51258243694889
 20
1.567124328372634
 30
0.0
 10
30.18528035965484
 20
1.730484804018351
 30
0.0
 10
29.52277515576097
 20
2.038021302680899
 30
0.0
 10
29.18882493052663
 20
2.181880967106303
 30
0.0
 10
28.53169226561272
 20
2.442998228583497
 30
0.0
 10
28.19943686730991
 20
2.561482364416233
 30
0.0
 10
27.53587834647675
 20
2.769221137247907
 30
0.0
 10
27.20889109504718
 20
2.858152189114942
 30
0.0
 10
26.54548080505778
 20
3.004953776477106
 30
0.0
 10
26.21273193082676
 20
3.062390145566602
 30
0.0
 10
25.88438550169286
 20
3.102786468436732
 30
0.0
  0
SPLINE
  5
C0
330
1F
100
AcDbEntity
  8
0
  6
Continuous
 62
     1
370
    15
100
AcDbSpline
210
0.0
220
0.0
230
1.0
 70
     8
 71
     3
 72
    13
 73
     9
 74
     0
 42
0.000000001
 43
0.00000001
 40
0.0
 40
0.0
 40
0.0
 40
0.0
 40
0.1009492666014958
 40
0.2825198208352473
 40
0.4640907351822582
 40
0.6456620042621638
 40
0.8228298127368786
 40
1.0
 40
1.0
 40
1.0
 40
1.0
 10
33.86792268913191
 20
-0.2983712871065344
 30
0.0
 10
33.59927826056661
 20
-0.1910944898400338
 30
0.0
 10
32.84744143815296
 20
0.109133759099635
 30
0.0
 10
31.61241068344098
 20
0.6097412959098133
 30
0.0
 10
30.16283088196881
 20
1.152475675318137
 30
0.0
 10
28.72496303894082
 20
1.609981571402165
 30
0.0
 10
27.29882160580491
 20
1.965360316692109
 30
0.0
 10
26.35586631318731
 20
2.088947334875061
 30
0.0
 10
25.88438550169281
 20
2.150741258806846
 30
0.0
  0
SPLINE
  5
C1
330
1F
100
AcDbEntity
  8
외형선
  6
Continuous
370
    15
100
AcDbSpline
210
0.0
220
0.0
230
1.0
 70
    24
 71
     3
 72
    10
 73
     6
 74
     0
 42
0.000000001
 43
0.00000001
 40
0.0
 40
0.0
 40
0.0
 40
0.0
 40
0.5
 40
0.5
 40
1.0
 40
1.0
 40
1.0
 40
1.0
 10
25.88438550169286
 20
3.102786468436725
 30
0.0
 10
25.88438550169286
 20
2.959167205395456
 30
0.0
 10
25.88438550169286
 20
2.796059385328086
 30
0.0
 10
25.88438550169286
 20
2.466382971634256
 30
0.0
 10
25.88438550169286
 20
2.300719277712651
 30
0.0
 10
25.88438550169286
 20
2.15074125880684
 30
0.0
  0
LINE
  5
C2
330
1F
100
AcDbEntity
  8
외형선
  6
Continuous
370
    15
100
AcDbLine
 10
25.88438550169286
 20
3.102786468436729
 30
0.0
 11
25.88438550169286
 21
3.175000000000002
 31
0.0
  0
LINE
  5
C3
330
1F
100
AcDbEntity
  8
0
  6
Continuous
 62
     1
370
    15
100
AcDbLine
 10
41.75938550169288
 20
-3.174999999999994
 30
0.0
 11
41.75938550169286
 21
-3.012887259811283
 31
0.0
  0
SPLINE
  5
C4
330
1F
100
AcDbEntity
  8
0
  6
Continuous
 62
     1
370
    15
100
AcDbSpline
210
0.0
220
0.0
230
1.0
 70
     8
 71
     3
 72
     8
 73
     4
 74
     0
 42
0.000000001
 43
0.00000001
 40
0.0
 40
0.0
 40
0.0
 40
0.0
 40
1.0
 40
1.0
 40
1.0
 40
1.0
 10
39.79431023471405
 20
0.8886594965445294
 30
0.0
 10
39.68165448646819
 20
1.022151308112283
 30
0.0
 10
39.58114593086023
 20
1.150592603090892
 30
0.0
 10
39.49563014823857
 20
1.272800256195025
 30
0.0
  0
LINE
  5
C5
330
1F
100
AcDbEntity
  8
0
  6
Continuous
 62
     1
370
    15
100
AcDbLine
 10
39.53576306356953
 20
1.306475770647303
 30
0.0
 11
41.75938550169287
 21
0.0000000000000027
 31
0.0
  0
LINE
  5
C6
330
1F
100
AcDbEntity
  8
0
  6
Continuous
 62
     1
370
    15
100
AcDbLine
 10
41.75938550169287
 20
0.0000000000000027
 30
0.0
 11
41.75938550169287
 21
-0.8484963536441199
 31
0.0
  0
SPLINE
  5
C7
330
1F
100
AcDbEntity
  8
0
  6
Continuous
 62
     1
370
    15
100
AcDbSpline
210
0.0
220
0.0
230
1.0
 70
     8
 71
     3
 72
    10
 73
     6
 74
     0
 42
0.000000001
 43
0.00000001
 40
0.0
 40
0.0
 40
0.0
 40
0.0
 40
0.5
 40
0.5
 40
1.0
 40
1.0
 40
1.0
 40
1.0
 10
41.75938550169286
 20
-0.8484963536441172
 30
0.0
 10
41.4192170874232
 20
-0.5810651575656094
 30
0.0
 10
41.08473411600335
 20
-0.30266508048194
 30
0.0
 10
40.42742265926617
 20
0.2766199837640534
 30
0.0
 10
40.10153409083918
 20
0.5805576266506013
 30
0.0
 10
39.79431023471405
 20
0.8886594965445281
 30
0.0
  0
SPLINE
  5
C8
330
1F
100
AcDbEntity
  8
0
  6
Continuous
 62
     1
370
    15
100
AcDbSpline
210
0.0
220
0.0
230
1.0
 70
     8
 71
     3
 72
    13
 73
     9
 74
     0
 42
0.000000001
 43
0.00000001
 40
0.0
 40
0.0
 40
0.0
 40
0.0
 40
0.1629159013847825
 40
0.3259949482182639
 40
0.5242193999244081
 40
0.7224442516230625
 40
0.9206694976119897
 40
1.0
 40
1.0
 40
1.0
 40
1.0
 10
39.79431023471405
 20
0.8886594965445243
 30
0.0
 10
39.39728016801642
 20
1.056515530043474
 30
0.0
 10
38.60282244514202
 20
1.392395689582797
 30
0.0
 10
37.32504898289846
 20
1.849716744936268
 30
0.0
 10
35.96113300804541
 20
2.236577219167089
 30
0.0
 10
34.51156786211564
 20
2.481090324168387
 30
0.0
 10
33.3518103454298
 20
2.572000762446518
 30
0.0
 10
32.67524407680337
 20
2.517463954072565
 30
0.0
 10
32.48186907987833
 20
2.501876338135068
 30
0.0
  0
SPLINE
  5
C9
330
1F
100
AcDbEntity
  8
0
  6
Continuous
 62
     1
370
    15
100
AcDbSpline
210
0.0
220
0.0
230
1.0
 70
    24
 71
     3
 72
    10
 73
     6
 74
     0
 42
0.000000001
 43
0.00000001
 40
0.0
 40
0.0
 40
0.0
 40
0.0
 40
0.5
 40
0.5
 40
1.0
 40
1.0
 40
1.0
 40
1.0
 10
41.75938550169287
 20
-2.504986939369084
 30
0.0
 10
41.75938550169287
 20
-2.31296016008708
 30
0.0
 10
41.75938550169287
 20
-2.070326961403036
 30
0.0
 10
41.75938550169286
 20
-1.506228125303406
 30
0.0
 10
41.75938550169287
 20
-1.185251131687905
 30
0.0
 10
41.75938550169287
 20
-0.8484963536442198
 30
0.0
  0
SPLINE
  5
CA
330
1F
100
AcDbEntity
  8
0
  6
Continuous
 62
     1
370
    15
100
AcDbSpline
210
0.0
220
0.0
230
1.0
 70
    24
 71
     3
 72
     8
 73
     4
 74
     0
 42
0.000000001
 43
0.00000001
 40
0.0
 40
0.0
 40
0.0
 40
0.0
 40
1.0
 40
1.0
 40
1.0
 40
1.0
 10
39.82703503166347
 20
1.550881971644895
 30
0.0
 10
39.7222418615613
 20
1.462950061262264
 30
0.0
 10
39.6114232905589
 20
1.369962239208865
 30
0.0
 10
39.49563014823862
 20
1.272800256195065
 30
0.0
  0
LINE
  5
CB
330
1F
100
AcDbEntity
  8
0
  6
Continuous
 62
     1
370
    15
100
AcDbLine
 10
41.75938550169287
 20
2.222500000000001
 30
0.0
 11
40.5933821636598
 21
2.160747386556713
 31
0.0
  0
SPLINE
  5
CC
330
1F
100
AcDbEntity
  8
0
  6
Continuous
 62
     1
370
    15
100
AcDbSpline
210
0.0
220
0.0
230
1.0
 70
     8
 71
     3
 72
     8
 73
     4
 74
     0
 42
0.000000001
 43
0.00000001
 40
0.0
 40
0.0
 40
0.0
 40
0.0
 40
1.0
 40
1.0
 40
1.0
 40
1.0
 10
41.75938550169287
 20
2.222500000000003
 30
0.0
 10
41.10628032326444
 20
2.045248916505813
 30
0.0
 10
40.45940009855128
 20
1.827618470580126
 30
0.0
 10
39.82703503166844
 20
1.550881971648714
 30
0.0
  0
SPLINE
  5
CD
330
1F
100
AcDbEntity
  8
0
  6
Continuous
 62
     1
370
    15
100
AcDbSpline
210
0.0
220
0.0
230
1.0
 70
     8
 71
     3
 72
     9
 73
     5
 74
     0
 42
0.000000001
 43
0.00000001
 40
0.0
 40
0.0
 40
0.0
 40
0.0
 40
0.2266737857103456
 40
1.0
 40
1.0
 40
1.0
 40
1.0
 10
27.71344867348809
 20
-2.623684547307645
 30
0.0
 10
27.57524868274362
 20
-2.642977039993698
 30
0.0
 10
26.96556198998651
 20
-2.728088305178575
 30
0.0
 10
26.35587355275369
 20
-2.699395431246362
 30
0.0
 10
25.88438550169225
 20
-2.677206479671273
 30
0.0
  0
SPLINE
  5
CE
330
1F
100
AcDbEntity
  8
0
  6
Continuous
 62
     1
370
    15
100
AcDbSpline
210
0.0
220
0.0
230
1.0
 70
     8
 71
     3
 72
    14
 73
    10
 74
     0
 42
0.000000001
 43
0.00000001
 40
0.0
 40
0.0
 40
0.0
 40
0.0
 40
0.057896844916799
 40
0.2161925220040778
 40
0.3744885093990785
 40
0.5327848025383586
 40
0.6910813968536612
 40
0.8455396887236568
 40
1.0
 40
1.0
 40
1.0
 40
1.0
 10
35.04175089335186
 20
-2.367664816936364
 30
0.0
 10
34.86502315527289
 20
-2.400602521085546
 30
0.0
 10
34.20510437285436
 20
-2.523595152882131
 30
0.0
 10
33.06199328097027
 20
-2.562696424021673
 30
0.0
 10
31.61241624006495
 20
-2.47521074376584
 30
0.0
 10
30.16283744124206
 20
-2.206230375682027
 30
0.0
 10
28.72496738248093
 20
-1.790228313611408
 30
0.0
 10
27.29882562012165
 20
-1.260039910684877
 30
0.0
 10
26.35586759588019
 20
-0.8468293397956613
 30
0.0
 10
25.88438550169285
 20
-0.6402227037686647
 30
0.0
  0
SPLINE
  5
CF
330
1F
100
AcDbEntity
  8
외형선
  6
Continuous
370
    15
100
AcDbSpline
210
0.0
220
0.0
230
1.0
 70
    24
 71
     3
 72
    10
 73
     6
 74
     0
 42
0.000000001
 43
0.00000001
 40
0.0
 40
0.0
 40
0.0
 40
0.0
 40
0.5
 40
0.5
 40
1.0
 40
1.0
 40
1.0
 40
1.0
 10
25.88438550169286
 20
-0.6402227037686667
 30
0.0
 10
25.88438550169286
 20
-1.096691596031373
 30
0.0
 10
25.88438550169286
 20
-1.536242632288704
 30
0.0
 10
25.88438550169286
 20
-2.248269399683275
 30
0.0
 10
25.88438550169286
 20
-2.517680289262844
 30
0.0
 10
25.88438550169286
 20
-2.677206479671312
 30
0.0
  0
SPLINE
  5
D0
330
1F
100
AcDbEntity
  8
외형선
  6
Continuous
370
    15
100
AcDbSpline
210
0.0
220
0.0
230
1.0
 70
    24
 71
     3
 72
    14
 73
    10
 74
     0
 42
0.000000001
 43
0.00000001
 40
0.0
 40
0.0
 40
0.0
 40
0.0
 40
0.25
 40
0.25
 40
0.4999999999999999
 40
0.4999999999999999
 40
0.75
 40
0.75
 40
1.0
 40
1.0
 40
1.0
 40
1.0
 10
25.88438550169286
 20
2.15074125880684
 30
0.0
 10
25.88438550169286
 20
2.023529428059545
 30
0.0
 10
25.88438550169286
 20
1.861485353442215
 30
0.0
 10
25.88438550169286
 20
1.473558773208722
 30
0.0
 10
25.88438550169286
 20
1.247740716390288
 30
0.0
 10
25.88438550169286
 20
0.7517059536513695
 30
0.0
 10
25.88438550169286
 20
0.481753555790803
 30
0.0
 10
25.88438550169286
 20
-0.0743391239040001
 30
0.0
 10
25.88438550169286
 20
-0.3601787585799935
 30
0.0
 10
25.88438550169286
 20
-0.6402227037686667
 30
0.0
  0
LINE
  5
D1
330
1F
100
AcDbEntity
  8
0
  6
Continuous
 62
     1
370
    15
100
AcDbLine
 10
41.75938550169287
 20
0.0000000000000027
 30
0.0
 11
41.75938550169287
 21
2.222500000000001
 31
0.0
  0
SPLINE
  5
D2
330
1F
100
AcDbEntity
  8
0
  6
Continuous
 62
     1
370
    15
100
AcDbSpline
210
0.0
220
0.0
230
1.0
 70
     8
 71
     3
 72
    10
 73
     6
 74
     0
 42
0.000000001
 43
0.00000001
 40
0.0
 40
0.0
 40
0.0
 40
0.0
 40
0.2987846917330747
 40
0.6493863364061749
 40
1.0
 40
1.0
 40
1.0
 40
1.0
 10
29.86967281089188
 20
-2.500527556464034
 30
0.0
 10
29.472761719447
 20
-2.633057586201379
 30
0.0
 10
28.61010494122547
 20
-2.921101762680884
 30
0.0
 10
27.28167650522942
 20
-3.159450992829429
 30
0.0
 10
26.35015449167235
 20
-3.165190289904859
 30
0.0
 10
25.88438550169014
 20
-3.168059987628719
 30
0.0
  0
SPLINE
  5
D3
330
1F
100
AcDbEntity
  8
외형선
  6
Continuous
370
    15
100
AcDbSpline
210
0.0
220
0.0
230
1.0
 70
    24
 71
     3
 72
     8
 73
     4
 74
     0
 42
0.000000001
 43
0.00000001
 40
0.0
 40
0.0
 40
0.0
 40
0.0
 40
1.0
 40
1.0
 40
1.0
 40
1.0
 10
25.88438550169286
 20
-2.677206479671312
 30
0.0
 10
25.88438550169286
 20
-2.84341130575407
 30
0.0
 10
25.88438550169286
 20
-3.008092197900335
 30
0.0
 10
25.88438550169286
 20
-3.168059987617331
 30
0.0
  0
SPLINE
  5
D4
330
1F
100
AcDbEntity
  8
0
  6
Continuous
 62
     1
370
    15
100
AcDbSpline
210
0.0
220
0.0
230
1.0
 70
     8
 71
     3
 72
    11
 73
     7
 74
     0
 42
0.000000001
 43
0.00000001
 40
0.0
 40
0.0
 40
0.0
 40
0.0
 40
0.0372710931460954
 40
0.3581695579720336
 40
0.679078954244742
 40
1.0
 40
1.0
 40
1.0
 40
1.0
 10
37.40520051235541
 20
2.129636045905972
 30
0.0
 10
37.45929488232249
 20
2.154855762188548
 30
0.0
 10
37.97913358155088
 20
2.397213414476964
 30
0.0
 10
38.96474090234902
 20
2.726729445438788
 30
0.0
 10
40.36203991082078
 20
3.081770382655121
 30
0.0
 10
41.29359800201658
 20
3.142134121245683
 30
0.0
 10
41.75938550169287
 20
3.175000000000004
 30
0.0
  0
SPLINE
  5
D5
330
1F
100
AcDbEntity
  8
0
  6
Continuous
 62
     1
370
    15
100
AcDbSpline
210
0.0
220
0.0
230
1.0
 70
    24
 71
     3
 72
    10
 73
     6
 74
     0
 42
0.000000001
 43
0.00000001
 40
0.0
 40
0.0
 40
0.0
 40
0.0
 40
0.5
 40
0.5
 40
1.0
 40
1.0
 40
1.0
 40
1.0
 10
41.75938550169287
 20
2.222500000000001
 30
0.0
 10
41.75938550169287
 20
2.357222415363222
 30
0.0
 10
41.75938550169286
 20
2.513782338653097
 30
0.0
 10
41.75938550169287
 20
2.842244636050717
 30
0.0
 10
41.75938550169287
 20
3.013308158669677
 30
0.0
 10
41.75938550169288
 20
3.175000000000006
 30
0.0
  0
LINE
  5
D6
330
1F
100
AcDbEntity
  8
중심선
 48
0.8
100
AcDbLine
 10
-39.02811449830713
 20
-0.0000000000000046
 30
0.0
 11
44.75938550169286
 21
0.0000000000000057
 31
0.0
  0
LINE
  5
D7
330
1F
100
AcDbEntity
  8
참조1
100
AcDbLine
 10
8.790266158708445
 20
-0.0000000000000042
 30
0.0
 11
8.79026615870845
 21
-40.00000000000001
 31
0.0
  0
LINE
  5
D8
330
1F
100
AcDbEntity
  8
참조1
100
AcDbLine
 10
8.79026615870845
 20
-40.00000000000001
 30
0.0
 11
-3.191046376591192
 21
-39.99999999999999
 31
0.0
  0
CIRCLE
  5
D9
330
1F
100
AcDbEntity
  8
해칭선
100
AcDbCircle
 10
0.0
 20
0.0
 30
0.0
 40
2.999999999999996
  0
INSERT
  5
DA
330
1F
100
AcDbEntity
  8
0
  6
Continuous
 62
     7
100
AcDbBlockReference
 66
     1
  2
블럭10
 10
-11.07463743043234
 20
-52.04717430164393
 30
0.0
  0
ATTRIB
  5
DB
330
DA
100
AcDbEntity
  8
FORMAT
 62
     2
100
AcDbText
 10
-20.25593271917362
 20
-49.97180738881174
 30
0.0
 40
4.233333333333333
  1
E2033016 [ 2 FLUTE ]
 41
0.75
  7
SLDTEXTSTYLE0
 11
-20.25593271917362
 21
-52.08847405547841
 31
0.0
100
AcDbAttribute
  2
AUTOATTR0
 70
     0
 74
     1
  0
SEQEND
  5
DC
330
DA
100
AcDbEntity
  8
0
  6
Continuous
 62
     7
  0
HATCH
  5
DD
330
1F
100
AcDbEntity
  8
중심선
100
AcDbHatch
 10
0.0
 20
0.0
 30
0.0
210
0.0
220
0.0
230
1.0
  2
SOLID
 70
     1
 71
     0
 91
        1
 92
        0
 93
        4
 72
     1
 10
-5.359728126051511
 20
-35.8
 11
-8.806003369888803
 21
-35.8
 72
     1
 10
-8.806003369888803
 20
-35.8
 11
-10.93423322909282
 21
-38.3363255805726
 72
     1
 10
-10.93423322909282
 20
-38.3363255805726
 11
-7.487924900142364
 21
-38.3362861512701
 72
     1
 10
-7.487924900142364
 20
-38.3362861512701
 11
-5.359728126051511
 21
-35.8
 97
        0
 75
     0
 76
     1
 98
        1
 10
11.03512418766169
 20
-0.0010749287238934
  0
HATCH
  5
DE
330
1F
100
AcDbEntity
  8
중심선
100
AcDbHatch
 10
0.0
 20
0.0
 30
0.0
210
0.0
220
0.0
230
1.0
  2
SOLID
 70
     1
 71
     0
 91
        1
 92
        0
 93
        4
 72
     1
 10
-0.3469641350155612
 20
-35.8
 11
-3.793239378852792
 21
-35.8
 72
     1
 10
-3.793239378852792
 20
-35.8
 11
-8.324377387210234
 21
-41.20000000000002
 72
     1
 10
-8.324377387210234
 20
-41.20000000000002
 11
-4.878102143372953
 21
-41.20000000000002
 72
     1
 10
-4.878102143372953
 20
-41.20000000000002
 11
-0.3469641350155612
 21
-35.8
 97
        0
 75
     0
 76
     1
 98
        1
 10
11.03512418766169
 20
-0.0010749287238934
  0
HATCH
  5
DF
330
1F
100
AcDbEntity
  8
중심선
100
AcDbHatch
 10
0.0
 20
0.0
 30
0.0
210
0.0
220
0.0
230
1.0
  2
SOLID
 70
     1
 71
     0
 91
        1
 92
        0
 93
        4
 72
     1
 10
4.665799856020328
 20
-35.79999999999998
 11
1.219524612183218
 21
-35.8
 72
     1
 10
1.219524612183218
 20
-35.8
 11
-5.828912289706032
 21
-44.20000000000002
 72
     1
 10
-5.828912289706032
 20
-44.20000000000002
 11
-2.382637045868751
 21
-44.20000000000002
 72
     1
 10
-2.382637045868751
 20
-44.20000000000002
 11
4.665799856020328
 21
-35.79999999999998
 97
        0
 75
     0
 76
     1
 98
        1
 10
11.03512418766169
 20
-0.0010749287238934
  0
HATCH
  5
E0
330
1F
100
AcDbEntity
  8
중심선
100
AcDbHatch
 10
0.0
 20
0.0
 30
0.0
210
0.0
220
0.0
230
1.0
  2
SOLID
 70
     1
 71
     0
 91
        1
 92
        0
 93
        6
 72
     3
 10
9.465690287032531
 20
-40.00000000005127
 11
3.960054785062283
 21
1.540882976769353E-10
 40
0.3939339440162628
 50
17.09539180608439
 51
320.0019657685078
 73
     0
 72
     1
 10
11.14868994273313
 20
-38.58789400463831
 11
13.45399181643419
 21
-36.65356729459035
 72
     3
 10
9.465690286979685
 20
-40.00000000000014
 11
6.600054785286831
 21
-1.278976924368180E-13
 40
0.6363583540795978
 50
39.99873849337411
 51
368.4976242363724
 73
     1
 72
     1
 10
15.89102277888029
 20
-39.03999999993002
 11
8.145757593815606
 21
-39.03999999993002
 72
     1
 10
8.145757593815606
 20
-39.03999999993002
 11
8.145732549369672
 21
-40.95999999992991
 72
     1
 10
8.145732549369672
 20
-40.95999999992991
 11
12.58711231884171
 21
-40.95999999992988
 97
        0
 75
     0
 76
     1
 98
        1
 10
11.03512418766169
 20
-0.0010749287238934
  0
DIMENSION
  5
E1
330
1F
100
AcDbEntity
  8
치수문자_일반주서
100
AcDbDimension
  2
_D
 10
-48.71811449830714
 20
-4.762500000000053
 30
0.0
 11
-48.71811449830716
 21
0.0000000000000059
 31
0.0
 70
   160
  1
%%c<>
 71
     2
 42
9.525000000000006
 52
-270.0
  3
SLDDIMSTYLE0
100
AcDbAlignedDimension
 13
-35.21811449830714
 23
4.762500000000004
 33
0.0
 14
-35.21811449830714
 24
-4.762500000000002
 34
0.0
 50
90.0000000000002
100
AcDbRotatedDimension
1001
ACAD
1000
DSTYLE
1002
{
1070
   171
1070
     6
1070
   273
1070
     7
1002
}
  0
DIMENSION
  5
F6
330
1F
100
AcDbEntity
  8
치수문자_일반주서
100
AcDbDimension
  2
_D_1
 10
25.88438550169286
 20
16.34865826917706
 30
0.0
 11
33.82188550169287
 21
16.34865826917706
 31
0.0
 70
   160
  1
<>
 71
     2
 42
15.87500000000001
  3
SLDDIMSTYLE0
100
AcDbAlignedDimension
 13
41.75938550169288
 23
3.175000000000006
 33
0.0
 14
25.88438550169286
 24
3.102786468436729
 34
0.0
 50
-0.0000000000000128
100
AcDbRotatedDimension
1001
ACAD
1000
DSTYLE
1002
{
1070
   171
1070
     6
1070
   273
1070
     7
1002
}
  0
DIMENSION
  5
10B
330
1F
100
AcDbEntity
  8
치수문자_일반주서
100
AcDbDimension
  2
_D_2
 10
-36.02811449830713
 20
40.21937398837127
 30
0.0
 11
2.865635501692868
 21
40.21937398837127
 31
0.0
 70
   160
  1
<>
 71
     2
 42
77.7875
  3
SLDDIMSTYLE0
100
AcDbAlignedDimension
 13
41.75938550169287
 23
3.175000000000004
 33
0.0
 14
-36.02811449830713
 24
3.952499999999995
 34
0.0
 50
0.0000000000000052
100
AcDbRotatedDimension
1001
ACAD
1000
DSTYLE
1002
{
1070
   171
1070
     6
1070
   273
1070
     7
1002
}
  0
DIMENSION
  5
11E
330
1F
100
AcDbEntity
  8
치수문자_일반주서
100
AcDbDimension
  2
_D_3
 10
57.34751214680998
 20
3.175000000000061
 30
0.0
 11
57.34751214680989
 21
29.52499999999995
 31
0.0
 70
   160
  1
%%c<>
 71
     2
 42
6.35
 52
-270.0
  3
SLDDIMSTYLE0
100
AcDbAlignedDimension
 13
41.75938550169288
 23
-3.174999999999994
 33
0.0
 14
41.75938550169288
 24
3.175000000000006
 34
0.0
 50
90.0000000000002
100
AcDbRotatedDimension
1001
ACAD
1000
DSTYLE
1002
{
1070
   171
1070
     6
1070
   273
1070
     7
1002
}
  0
LINE
  5
132
330
1F
100
AcDbEntity
  8
참조1
100
AcDbLine
 10
94.78129425306307
 20
7.440000000000003
 30
0.0
 11
94.78129425306307
 21
-7.440000000000002
 31
0.0
  0
LINE
  5
133
330
1F
100
AcDbEntity
  8
참조1
100
AcDbLine
 10
107.4812942530631
 20
5.440000000000003
 30
0.0
 11
94.78129425306307
 21
5.440000000000003
 31
0.0
  0
SOLID
  5
134
330
1F
100
AcDbEntity
  8
참조1
100
AcDbTrace
 10
94.78129425306307
 20
5.440000000000003
 30
0.0
 11
101.1312942530631
 21
4.424000000000003
 31
0.0
 12
101.1312942530631
 22
6.456000000000003
 32
0.0
 13
101.1312942530631
 23
6.456000000000003
 33
0.0
  0
LINE
  5
135
330
1F
100
AcDbEntity
  8
참조1
100
AcDbLine
 10
107.4812942530631
 20
-5.440000000000002
 30
0.0
 11
94.78129425306307
 21
-5.440000000000002
 31
0.0
  0
SOLID
  5
136
330
1F
100
AcDbEntity
  8
참조1
100
AcDbTrace
 10
94.78129425306307
 20
-5.440000000000002
 30
0.0
 11
101.1312942530631
 21
-6.456000000000002
 31
0.0
 12
101.1312942530631
 22
-4.424000000000002
 32
0.0
 13
101.1312942530631
 23
-4.424000000000002
 33
0.0
  0
MTEXT
  5
137
330
1F
100
AcDbEntity
  8
참조1
100
AcDbMText
 10
104.1656443856891
 20
11.01029177718833
 30
0.0
 40
3.5
 41
0.0
 71
     1
 72
     1
  1
A
  7
SLDTEXTSTYLE0
 73
     1
 44
1.0
  0
MTEXT
  5
138
330
1F
100
AcDbEntity
  8
참조1
100
AcDbMText
 10
104.1656443856891
 20
0.1302917771883258
 30
0.0
 40
3.5
 41
0.0
 71
     1
 72
     1
  1
A
  7
SLDTEXTSTYLE0
 73
     1
 44
1.0
  0
INSERT
  5
13F
330
1F
100
AcDbEntity
  8
해칭선
100
AcDbBlockReference
  2
SW_DOWELSYMBOL_0
 10
0.0
 20
0.0
 30
0.0
  0
LINE
  5
293
330
1F
100
AcDbEntity
  8
외형선
  6
Continuous
370
    15
100
AcDbLine
 10
-35.09311449830713
 20
4.762499999999976
 30
0.0
 11
-21.02306449830722
 21
4.762499999999976
 31
0.0
  0
LINE
  5
327
330
1F
100
AcDbEntity
  8
외형선
  6
Continuous
370
    15
100
AcDbLine
 10
-19.75306449830724
 20
3.492500000000005
 30
0.0
 11
-12.61566449830712
 21
3.492500000000005
 31
0.0
  0
LINE
  5
328
330
1F
100
AcDbEntity
  8
외형선
  6
Continuous
370
    15
100
AcDbLine
 10
-19.75306449830724
 20
3.492500000000005
 30
0.0
 11
-21.02306449830724
 21
4.762499999999987
 31
0.0
  0
LINE
  5
329
330
1F
100
AcDbEntity
  8
외형선
  6
Continuous
370
    15
100
AcDbLine
 10
-12.61566449830712
 20
3.492500000000005
 30
0.0
 11
-11.34566449830702
 21
4.762499999999987
 31
0.0
  0
LINE
  5
370
330
1F
100
AcDbEntity
  8
외형선
  6
Continuous
370
    15
100
AcDbLine
 10
3.659385501692867
 20
-3.048
 30
0.0
 11
3.659385501692867
 21
3.048
 31
0.0
  0
LINE
  5
371
330
1F
100
AcDbEntity
  8
외형선
  6
Continuous
370
    15
100
AcDbLine
 10
3.659385501692867
 20
3.048
 30
0.0
 11
3.659385501692867
 21
-3.048
 31
0.0
  0
LINE
  5
372
330
1F
100
AcDbEntity
  8
외형선
  6
Continuous
370
    15
100
AcDbLine
 10
3.659385501692867
 20
3.048
 30
0.0
 11
24.79189019277844
 21
3.048
 31
0.0
  0
ARC
  5
373
330
1F
100
AcDbEntity
  8
외형선
  6
Continuous
370
    15
100
AcDbCircle
 10
3.659385501692867
 20
7.810499999999998
 30
0.0
 40
4.762499999999998
100
AcDbArc
 50
219.7918194995573
 51
270.0
  0
ARC
  5
377
330
1F
100
AcDbEntity
  8
외형선
  6
Continuous
370
    15
100
AcDbCircle
 10
24.79189019277844
 20
7.810499999999998
 30
0.0
 40
4.762499999999998
100
AcDbArc
 50
270.0
 51
283.2614755361574
  0
ARC
  5
379
330
1F
100
AcDbEntity
  8
외형선
  6
Continuous
370
    15
100
AcDbCircle
 10
24.79189019277844
 20
-7.810499999999998
 30
0.0
 40
4.762499999999998
100
AcDbArc
 50
76.73852446384261
 51
90.0
  0
LINE
  5
37A
330
1F
100
AcDbEntity
  8
외형선
  6
Continuous
370
    15
100
AcDbLine
 10
3.659385501692867
 20
-3.048
 30
0.0
 11
24.79189019277844
 21
-3.048
 31
0.0
  0
ARC
  5
37B
330
1F
100
AcDbEntity
  8
외형선
  6
Continuous
370
    15
100
AcDbCircle
 10
3.659385501692867
 20
-7.810499999999998
 30
0.0
 40
4.762499999999998
100
AcDbArc
 50
90.0
 51
140.2081805004427
  0
LINE
  5
37C
330
1F
100
AcDbEntity
  8
외형선
  6
Continuous
370
    15
100
AcDbLine
 10
0.0
 20
4.762499999999996
 30
0.0
 11
0.0
 21
-4.762499999999995
 31
0.0
  0
LINE
  5
37D
330
1F
100
AcDbEntity
  8
외형선
  6
Continuous
370
    15
100
AcDbLine
 10
24.79189019277844
 20
3.048
 30
0.0
 11
24.79189019277844
 21
-3.048
 31
0.0
  0
DIMENSION
  5
37F
330
1F
100
AcDbEntity
  8
치수문자_일반주서
100
AcDbDimension
  2
*D15
 10
41.75938550169288
 20
27.5123984822542
 30
0.0
 11
22.70938550169287
 21
27.5123984822542
 31
0.0
 70
   160
 71
     5
 42
38.10000000000001
  3
SLDDIMSTYLE0
100
AcDbAlignedDimension
 13
3.659385501692866
 23
3.048
 33
0.0
 14
41.75938550169288
 24
3.237500000000006
 34
0.0
100
AcDbRotatedDimension
1001
ACAD
1000
DSTYLE
1002
{
1070
   171
1070
     6
1070
   273
1070
     7
1002
}
  0
ENDSEC
  0
SECTION
  2
OBJECTS
  0
DICTIONARY
  5
C
330
0
100
AcDbDictionary
281
     1
  3
ACAD_GROUP
350
D
  3
ACAD_IMAGE_VARS
350
163
  3
ACAD_LAYOUT
350
1A
  3
ACAD_MLINESTYLE
350
17
  3
ACAD_PLOTSETTINGS
350
19
  3
ACAD_PLOTSTYLENAME
350
E
  3
ACAD_SCALELIST
350
47
  3
APPDATA
350
161
  3
DWGPROPS
350
3B2
  0
DICTIONARY
  5
212
330
2
100
AcDbDictionary
280
     1
281
     1
  3
ACAD_LAYERSTATES
360
213
  0
DICTIONARY
  5
D
102
{ACAD_REACTORS
330
C
102
}
330
C
100
AcDbDictionary
281
     1
  0
RASTERVARIABLES
  5
163
102
{ACAD_REACTORS
330
C
102
}
330
C
100
AcDbRasterVariables
 90
        0
 70
     1
 71
     1
 72
     1
  0
DICTIONARY
  5
1A
102
{ACAD_REACTORS
330
C
102
}
330
C
100
AcDbDictionary
281
     1
  3
Layout1
350
1E
  3
Layout2
350
26
  3
Model
350
22
  0
DICTIONARY
  5
17
102
{ACAD_REACTORS
330
C
102
}
330
C
100
AcDbDictionary
281
     1
  3
Standard
350
18
  0
DICTIONARY
  5
19
102
{ACAD_REACTORS
330
C
102
}
330
C
100
AcDbDictionary
281
     1
  0
ACDBDICTIONARYWDFLT
  5
E
102
{ACAD_REACTORS
330
C
102
}
330
C
100
AcDbDictionary
281
     1
  3
Normal
350
F
100
AcDbDictionaryWithDefault
340
F
  0
DICTIONARY
  5
47
102
{ACAD_REACTORS
330
C
102
}
330
C
100
AcDbDictionary
281
     1
  3
A0
350
48
  3
A1
350
49
  3
A2
350
4A
  3
A3
350
4B
  3
A4
350
4C
  3
A5
350
4D
  3
A6
350
4E
  3
A7
350
4F
  3
A8
350
50
  3
A9
350
51
  3
B0
350
52
  3
B1
350
53
  3
B2
350
54
  3
B3
350
55
  3
B4
350
56
  3
B5
350
57
  3
B6
350
58
  3
B7
350
59
  3
B8
350
5A
  3
B9
350
5B
  3
C0
350
5C
  3
C1
350
5D
  3
C2
350
5E
  3
C3
350
5F
  3
C4
350
60
  3
C5
350
61
  3
C6
350
62
  3
C7
350
63
  3
C8
350
64
  3
C9
350
65
  3
D0
350
66
  3
D1
350
67
  3
D2
350
68
  0
DICTIONARY
  5
161
102
{ACAD_REACTORS
330
C
102
}
330
C
100
AcDbDictionary
281
     1
  0
XRECORD
  5
3B2
102
{ACAD_REACTORS
330
C
102
}
330
C
100
AcDbXrecord
280
     1
  1
DWGPROPS COOKIE
  2

  3

  4

  6

  7

  8
12016016
  9

300
=
301
=
302
=
303
=
304
=
305
=
306
=
307
=
308
=
309
=
 40
0.0
 41
2458311.10329882
 42
2458323.059806586
  1

 90
        0
  0
DICTIONARY
  5
213
102
{ACAD_REACTORS
330
212
102
}
330
212
100
AcDbDictionary
281
     1
  0
LAYOUT
  5
1E
102
{ACAD_REACTORS
330
1A
102
}
330
1A
100
AcDbPlotSettings
  1

  2
none_device
  4

  6

 40
0.0
 41
0.0
 42
0.0
 43
0.0
 44
0.0
 45
0.0
 46
0.0
 47
0.0
 48
0.0
 49
0.0
140
0.0
141
0.0
142
1.0
143
1.0
 70
   688
 72
     1
 73
     0
 74
     5
  7

 75
    16
147
1.0
148
0.0
149
0.0
100
AcDbLayout
  1
Layout1
 70
     1
 71
     1
 10
0.0
 20
0.0
 11
420.0
 21
297.0
 12
0.0
 22
0.0
 32
0.0
 14
1.000000000000000E+20
 24
1.000000000000000E+20
 34
1.000000000000000E+20
 15
-1.000000000000000E+20
 25
-1.000000000000000E+20
 35
-1.000000000000000E+20
146
0.0
 13
0.0
 23
0.0
 33
0.0
 16
1.0
 26
0.0
 36
0.0
 17
0.0
 27
1.0
 37
0.0
 76
     0
330
1B
  0
LAYOUT
  5
26
102
{ACAD_REACTORS
330
1A
102
}
330
1A
100
AcDbPlotSettings
  1

  2
none_device
  4

  6

 40
0.0
 41
0.0
 42
0.0
 43
0.0
 44
0.0
 45
0.0
 46
0.0
 47
0.0
 48
0.0
 49
0.0
140
0.0
141
0.0
142
1.0
143
1.0
 70
   688
 72
     1
 73
     0
 74
     5
  7

 75
    16
147
1.0
148
0.0
149
0.0
100
AcDbLayout
  1
Layout2
 70
     1
 71
     2
 10
0.0
 20
0.0
 11
0.0
 21
0.0
 12
0.0
 22
0.0
 32
0.0
 14
0.0
 24
0.0
 34
0.0
 15
0.0
 25
0.0
 35
0.0
146
0.0
 13
0.0
 23
0.0
 33
0.0
 16
1.0
 26
0.0
 36
0.0
 17
0.0
 27
1.0
 37
0.0
 76
     0
330
23
  0
LAYOUT
  5
22
102
{ACAD_REACTORS
330
1A
102
}
330
1A
100
AcDbPlotSettings
  1

  2
none_device
  4
ANSI_A_(11.00_x_8.50_Inches)
  6

 40
6.35
 41
19.05
 42
6.35000508
 43
19.05000254
 44
279.4
 45
215.9
 46
116.1978244037163
 47
94.38027116889708
 48
0.0
 49
0.0
140
0.0
141
0.0
142
0.0676113380725794
143
1.0
 70
  1696
 72
     0
 73
     0
 74
     0
  7

 75
     0
147
0.0235690232323232
148
0.0
149
0.0
100
AcDbLayout
  1
Model
 70
     1
 71
     0
 10
0.0
 20
0.0
 11
420.0
 21
297.0
 12
0.0
 22
0.0
 32
0.0
 14
-53.0931144983072
 24
-49.97180738881175
 34
0.0
 15
107.4812942530631
 25
44.59437398837127
 35
0.0
146
0.0
 13
0.0
 23
0.0
 33
0.0
 16
1.0
 26
0.0
 36
0.0
 17
0.0
 27
1.0
 37
0.0
 76
     0
330
1F
331
29
  0
MLINESTYLE
  5
18
102
{ACAD_REACTORS
330
17
102
}
330
17
100
AcDbMlineStyle
  2
Standard
 70
     0
  3

 62
   256
 51
90.0
 52
90.0
 71
     2
 49
0.5
 62
   256
  6
BYLAYER
 49
-0.5
 62
   256
  6
BYLAYER
  0
ACDBPLACEHOLDER
  5
F
102
{ACAD_REACTORS
330
E
102
}
330
E
  0
SCALE
  5
48
102
{ACAD_REACTORS
330
47
102
}
330
47
100
AcDbScale
 70
     0
300
1:1
140
1.0
141
1.0
290
     1
  0
SCALE
  5
49
102
{ACAD_REACTORS
330
47
102
}
330
47
100
AcDbScale
 70
     0
300
1:2
140
1.0
141
2.0
290
     0
  0
SCALE
  5
4A
102
{ACAD_REACTORS
330
47
102
}
330
47
100
AcDbScale
 70
     0
300
1:4
140
1.0
141
4.0
290
     0
  0
SCALE
  5
4B
102
{ACAD_REACTORS
330
47
102
}
330
47
100
AcDbScale
 70
     0
300
1:5
140
1.0
141
5.0
290
     0
  0
SCALE
  5
4C
102
{ACAD_REACTORS
330
47
102
}
330
47
100
AcDbScale
 70
     0
300
1:8
140
1.0
141
8.0
290
     0
  0
SCALE
  5
4D
102
{ACAD_REACTORS
330
47
102
}
330
47
100
AcDbScale
 70
     0
300
1:10
140
1.0
141
10.0
290
     0
  0
SCALE
  5
4E
102
{ACAD_REACTORS
330
47
102
}
330
47
100
AcDbScale
 70
     0
300
1:16
140
1.0
141
16.0
290
     0
  0
SCALE
  5
4F
102
{ACAD_REACTORS
330
47
102
}
330
47
100
AcDbScale
 70
     0
300
1:20
140
1.0
141
20.0
290
     0
  0
SCALE
  5
50
102
{ACAD_REACTORS
330
47
102
}
330
47
100
AcDbScale
 70
     0
300
1:30
140
1.0
141
30.0
290
     0
  0
SCALE
  5
51
102
{ACAD_REACTORS
330
47
102
}
330
47
100
AcDbScale
 70
     0
300
1:40
140
1.0
141
40.0
290
     0
  0
SCALE
  5
52
102
{ACAD_REACTORS
330
47
102
}
330
47
100
AcDbScale
 70
     0
300
1:50
140
1.0
141
50.0
290
     0
  0
SCALE
  5
53
102
{ACAD_REACTORS
330
47
102
}
330
47
100
AcDbScale
 70
     0
300
1:100
140
1.0
141
100.0
290
     0
  0
SCALE
  5
54
102
{ACAD_REACTORS
330
47
102
}
330
47
100
AcDbScale
 70
     0
300
2:1
140
2.0
141
1.0
290
     0
  0
SCALE
  5
55
102
{ACAD_REACTORS
330
47
102
}
330
47
100
AcDbScale
 70
     0
300
4:1
140
4.0
141
1.0
290
     0
  0
SCALE
  5
56
102
{ACAD_REACTORS
330
47
102
}
330
47
100
AcDbScale
 70
     0
300
8:1
140
8.0
141
1.0
290
     0
  0
SCALE
  5
57
102
{ACAD_REACTORS
330
47
102
}
330
47
100
AcDbScale
 70
     0
300
10:1
140
10.0
141
1.0
290
     0
  0
SCALE
  5
58
102
{ACAD_REACTORS
330
47
102
}
330
47
100
AcDbScale
 70
     0
300
100:1
140
100.0
141
1.0
290
     0
  0
SCALE
  5
59
102
{ACAD_REACTORS
330
47
102
}
330
47
100
AcDbScale
 70
     0
300
1/128" = 1'-0"
140
0.0078125
141
12.0
290
     0
  0
SCALE
  5
5A
102
{ACAD_REACTORS
330
47
102
}
330
47
100
AcDbScale
 70
     0
300
1/64" = 1'-0"
140
0.015625
141
12.0
290
     0
  0
SCALE
  5
5B
102
{ACAD_REACTORS
330
47
102
}
330
47
100
AcDbScale
 70
     0
300
1/32" = 1'-0"
140
0.03125
141
12.0
290
     0
  0
SCALE
  5
5C
102
{ACAD_REACTORS
330
47
102
}
330
47
100
AcDbScale
 70
     0
300
1/16" = 1'-0"
140
0.0625
141
12.0
290
     0
  0
SCALE
  5
5D
102
{ACAD_REACTORS
330
47
102
}
330
47
100
AcDbScale
 70
     0
300
3/32" = 1'-0"
140
0.09375
141
12.0
290
     0
  0
SCALE
  5
5E
102
{ACAD_REACTORS
330
47
102
}
330
47
100
AcDbScale
 70
     0
300
1/8" = 1'-0"
140
0.125
141
12.0
290
     0
  0
SCALE
  5
5F
102
{ACAD_REACTORS
330
47
102
}
330
47
100
AcDbScale
 70
     0
300
3/16" = 1'-0"
140
0.1875
141
12.0
290
     0
  0
SCALE
  5
60
102
{ACAD_REACTORS
330
47
102
}
330
47
100
AcDbScale
 70
     0
300
1/4" = 1'-0"
140
0.25
141
12.0
290
     0
  0
SCALE
  5
61
102
{ACAD_REACTORS
330
47
102
}
330
47
100
AcDbScale
 70
     0
300
3/8" = 1'-0"
140
0.375
141
12.0
290
     0
  0
SCALE
  5
62
102
{ACAD_REACTORS
330
47
102
}
330
47
100
AcDbScale
 70
     0
300
1/2" = 1'-0"
140
0.5
141
12.0
290
     0
  0
SCALE
  5
63
102
{ACAD_REACTORS
330
47
102
}
330
47
100
AcDbScale
 70
     0
300
3/4" = 1'-0"
140
0.75
141
12.0
290
     0
  0
SCALE
  5
64
102
{ACAD_REACTORS
330
47
102
}
330
47
100
AcDbScale
 70
     0
300
1" = 1'-0"
140
1.0
141
12.0
290
     0
  0
SCALE
  5
65
102
{ACAD_REACTORS
330
47
102
}
330
47
100
AcDbScale
 70
     0
300
1-1/2" = 1'-0"
140
1.5
141
12.0
290
     0
  0
SCALE
  5
66
102
{ACAD_REACTORS
330
47
102
}
330
47
100
AcDbScale
 70
     0
300
3" = 1'-0"
140
3.0
141
12.0
290
     0
  0
SCALE
  5
67
102
{ACAD_REACTORS
330
47
102
}
330
47
100
AcDbScale
 70
     0
300
6" = 1'-0"
140
6.0
141
12.0
290
     0
  0
SCALE
  5
68
102
{ACAD_REACTORS
330
47
102
}
330
47
100
AcDbScale
 70
     0
300
1'-0" = 1'-0"
140
12.0
141
12.0
290
     0
  0
ENDSEC
  0
EOF
