  0
SECTION
  2
HEADER
  9
$ACADVER
  1
AC1015
  9
$ACADMAINTVER
 70
     6
  9
$DWGCODEPAGE
  3
ANSI_949
  9
$INSBASE
 10
0.0
 20
0.0
 30
0.0
  9
$EXTMIN
 10
-53.03738238544195
 20
-49.97180738881174
 30
0.0
  9
$EXTMAX
 10
113.6743416944361
 20
38.66663864014821
 30
0.0
  9
$LIMMIN
 10
0.0
 20
0.0
  9
$LIMMAX
 10
420.0
 20
297.0
  9
$ORTHOMODE
 70
     1
  9
$REGENMODE
 70
     1
  9
$FILLMODE
 70
     1
  9
$QTEXTMODE
 70
     0
  9
$MIRRTEXT
 70
     1
  9
$LTSCALE
 40
1.0
  9
$ATTMODE
 70
     1
  9
$TEXTSIZE
 40
3.5
  9
$TRACEWID
 40
1.0
  9
$TEXTSTYLE
  7
Standard
  9
$CLAYER
  8
0
  9
$CELTYPE
  6
ByLayer
  9
$CECOLOR
 62
   256
  9
$CELTSCALE
 40
1.0
  9
$DISPSILH
 70
     0
  9
$DIMSCALE
 40
1.0
  9
$DIMASZ
 40
3.302
  9
$DIMEXO
 40
1.0
  9
$DIMDLI
 40
3.75
  9
$DIMRND
 40
0.0
  9
$DIMDLE
 40
0.0
  9
$DIMEXE
 40
1.0
  9
$DIMTP
 40
0.0
  9
$DIMTM
 40
0.0
  9
$DIMTXT
 40
3.5
  9
$DIMCEN
 40
2.5
  9
$DIMTSZ
 40
0.0
  9
$DIMTOL
 70
     0
  9
$DIMLIM
 70
     0
  9
$DIMTIH
 70
     1
  9
$DIMTOH
 70
     1
  9
$DIMSE1
 70
     0
  9
$DIMSE2
 70
     0
  9
$DIMTAD
 70
     1
  9
$DIMZIN
 70
     0
  9
$DIMBLK
  1

  9
$DIMASO
 70
     1
  9
$DIMSHO
 70
     1
  9
$DIMPOST
  1

  9
$DIMAPOST
  1

  9
$DIMALT
 70
     0
  9
$DIMALTD
 70
     3
  9
$DIMALTF
 40
0.0393700787401575
  9
$DIMLFAC
 40
1.0
  9
$DIMTOFL
 70
     1
  9
$DIMTVP
 40
0.0
  9
$DIMTIX
 70
     0
  9
$DIMSOXD
 70
     0
  9
$DIMSAH
 70
     0
  9
$DIMBLK1
  1

  9
$DIMBLK2
  1

  9
$DIMSTYLE
  2
ISO-25
  9
$DIMCLRD
 70
     0
  9
$DIMCLRE
 70
     0
  9
$DIMCLRT
 70
     0
  9
$DIMTFAC
 40
1.0
  9
$DIMGAP
 40
1.524
  9
$DIMJUST
 70
     0
  9
$DIMSD1
 70
     0
  9
$DIMSD2
 70
     0
  9
$DIMTOLJ
 70
     0
  9
$DIMTZIN
 70
     0
  9
$DIMALTZ
 70
     0
  9
$DIMALTTZ
 70
     0
  9
$DIMUPT
 70
     0
  9
$DIMDEC
 70
     2
  9
$DIMTDEC
 70
     2
  9
$DIMALTU
 70
     2
  9
$DIMALTTD
 70
     3
  9
$DIMTXSTY
  7
Standard
  9
$DIMAUNIT
 70
     0
  9
$DIMADEC
 70
     2
  9
$DIMALTRND
 40
0.0
  9
$DIMAZIN
 70
     0
  9
$DIMDSEP
 70
    44
  9
$DIMATFIT
 70
     3
  9
$DIMFRAC
 70
     0
  9
$DIMLDRBLK
  1

  9
$DIMLUNIT
 70
     2
  9
$DIMLWD
 70
    -2
  9
$DIMLWE
 70
    -2
  9
$DIMTMOVE
 70
     0
  9
$LUNITS
 70
     2
  9
$LUPREC
 70
     2
  9
$SKETCHINC
 40
1.0
  9
$FILLETRAD
 40
10.0
  9
$AUNITS
 70
     0
  9
$AUPREC
 70
     2
  9
$MENU
  1
.
  9
$ELEVATION
 40
0.0
  9
$PELEVATION
 40
0.0
  9
$THICKNESS
 40
0.0
  9
$LIMCHECK
 70
     0
  9
$CHAMFERA
 40
0.0
  9
$CHAMFERB
 40
0.0
  9
$CHAMFERC
 40
0.0
  9
$CHAMFERD
 40
0.0
  9
$SKPOLY
 70
     0
  9
$TDCREATE
 40
2458311.478510625
  9
$TDUCREATE
 40
2458311.103510625
  9
$TDUPDATE
 40
2458323.435389838
  9
$TDUUPDATE
 40
2458323.060389838
  9
$TDINDWG
 40
0.0032976389
  9
$TDUSRTIMER
 40
2458323.060348148
  9
$USRTIMER
 70
     1
  9
$ANGBASE
 50
0.0
  9
$ANGDIR
 70
     0
  9
$PDMODE
 70
     0
  9
$PDSIZE
 40
-1.0
  9
$PLINEWID
 40
0.0
  9
$SPLFRAME
 70
     0
  9
$SPLINETYPE
 70
     6
  9
$SPLINESEGS
 70
     8
  9
$HANDSEED
  5
3B1
  9
$SURFTAB1
 70
     6
  9
$SURFTAB2
 70
     6
  9
$SURFTYPE
 70
     6
  9
$SURFU
 70
     6
  9
$SURFV
 70
     6
  9
$UCSBASE
  2

  9
$UCSNAME
  2

  9
$UCSORG
 10
0.0
 20
0.0
 30
0.0
  9
$UCSXDIR
 10
1.0
 20
0.0
 30
0.0
  9
$UCSYDIR
 10
0.0
 20
1.0
 30
0.0
  9
$UCSORTHOREF
  2

  9
$UCSORTHOVIEW
 70
     0
  9
$UCSORGTOP
 10
0.0
 20
0.0
 30
0.0
  9
$UCSORGBOTTOM
 10
0.0
 20
0.0
 30
0.0
  9
$UCSORGLEFT
 10
0.0
 20
0.0
 30
0.0
  9
$UCSORGRIGHT
 10
0.0
 20
0.0
 30
0.0
  9
$UCSORGFRONT
 10
0.0
 20
0.0
 30
0.0
  9
$UCSORGBACK
 10
0.0
 20
0.0
 30
0.0
  9
$PUCSBASE
  2

  9
$PUCSNAME
  2

  9
$PUCSORG
 10
0.0
 20
0.0
 30
0.0
  9
$PUCSXDIR
 10
1.0
 20
0.0
 30
0.0
  9
$PUCSYDIR
 10
0.0
 20
1.0
 30
0.0
  9
$PUCSORTHOREF
  2

  9
$PUCSORTHOVIEW
 70
     0
  9
$PUCSORGTOP
 10
0.0
 20
0.0
 30
0.0
  9
$PUCSORGBOTTOM
 10
0.0
 20
0.0
 30
0.0
  9
$PUCSORGLEFT
 10
0.0
 20
0.0
 30
0.0
  9
$PUCSORGRIGHT
 10
0.0
 20
0.0
 30
0.0
  9
$PUCSORGFRONT
 10
0.0
 20
0.0
 30
0.0
  9
$PUCSORGBACK
 10
0.0
 20
0.0
 30
0.0
  9
$USERI1
 70
     0
  9
$USERI2
 70
     0
  9
$USERI3
 70
     0
  9
$USERI4
 70
     0
  9
$USERI5
 70
     0
  9
$USERR1
 40
0.0
  9
$USERR2
 40
0.0
  9
$USERR3
 40
0.0
  9
$USERR4
 40
0.0
  9
$USERR5
 40
0.0
  9
$WORLDVIEW
 70
     1
  9
$SHADEDGE
 70
     3
  9
$SHADEDIF
 70
    70
  9
$TILEMODE
 70
     1
  9
$MAXACTVP
 70
    64
  9
$PINSBASE
 10
0.0
 20
0.0
 30
0.0
  9
$PLIMCHECK
 70
     0
  9
$PEXTMIN
 10
1.000000000000000E+20
 20
1.000000000000000E+20
 30
1.000000000000000E+20
  9
$PEXTMAX
 10
-1.000000000000000E+20
 20
-1.000000000000000E+20
 30
-1.000000000000000E+20
  9
$PLIMMIN
 10
0.0
 20
0.0
  9
$PLIMMAX
 10
0.0
 20
0.0
  9
$UNITMODE
 70
     0
  9
$VISRETAIN
 70
     1
  9
$PLINEGEN
 70
     0
  9
$PSLTSCALE
 70
     1
  9
$TREEDEPTH
 70
  3020
  9
$CMLSTYLE
  2
Standard
  9
$CMLJUST
 70
     0
  9
$CMLSCALE
 40
20.0
  9
$PROXYGRAPHICS
 70
     1
  9
$MEASUREMENT
 70
     1
  9
$CELWEIGHT
370
    -1
  9
$ENDCAPS
280
     0
  9
$JOINSTYLE
280
     0
  9
$LWDISPLAY
290
     1
  9
$INSUNITS
 70
     4
  9
$HYPERLINKBASE
  1

  9
$STYLESHEET
  1

  9
$XEDIT
290
     1
  9
$CEPSNTYPE
380
     0
  9
$PSTYLEMODE
290
     1
  9
$FINGERPRINTGUID
  2
{2A2DA392-8291-4F2C-A4B9-521516EAE03A}
  9
$VERSIONGUID
  2
{FAEB1C32-E019-11D5-929B-00C0DF256EC4}
  9
$EXTNAMES
290
     1
  9
$PSVPSCALE
 40
0.0
  9
$OLESTARTUP
290
     0
  0
ENDSEC
  0
SECTION
  2
CLASSES
  0
CLASS
  1
ACDBDICTIONARYWDFLT
  2
AcDbDictionaryWithDefault
  3
ObjectDBX Classes
 90
        0
280
     0
281
     0
  0
CLASS
  1
VISUALSTYLE
  2
AcDbVisualStyle
  3
ObjectDBX Classes
 90
     4095
280
     0
281
     0
  0
CLASS
  1
MATERIAL
  2
AcDbMaterial
  3
ObjectDBX Classes
 90
     1153
280
     0
281
     0
  0
CLASS
  1
SCALE
  2
AcDbScale
  3
ObjectDBX Classes
 90
     1153
280
     0
281
     0
  0
CLASS
  1
SUN
  2
AcDbSun
  3
SCENEOE
 90
     1153
280
     0
281
     0
  0
CLASS
  1
ACDBPLACEHOLDER
  2
AcDbPlaceHolder
  3
ObjectDBX Classes
 90
        0
280
     0
281
     0
  0
CLASS
  1
LAYOUT
  2
AcDbLayout
  3
ObjectDBX Classes
 90
        0
280
     0
281
     0
  0
CLASS
  1
TABLESTYLE
  2
AcDbTableStyle
  3
ObjectDBX Classes
 90
     4095
280
     0
281
     0
  0
CLASS
  1
MLEADERSTYLE
  2
AcDbMLeaderStyle
  3
ACDB_MLEADERSTYLE_CLASS
 90
     4095
280
     0
281
     0
  0
CLASS
  1
RASTERVARIABLES
  2
AcDbRasterVariables
  3
ISM
 90
        0
280
     0
281
     0
  0
CLASS
  1
DIMASSOC
  2
AcDbDimAssoc
  3
"AcDbDimAssoc|Product Desc:     AcDim ARX App For Dimension|Company:          Autodesk, Inc.|WEB Address:      www.autodesk.com"
 90
        0
280
     0
281
     0
  0
ENDSEC
  0
SECTION
  2
TABLES
  0
TABLE
  2
VPORT
  5
8
330
0
100
AcDbSymbolTable
 70
     1
  0
VPORT
  5
29
330
8
100
AcDbSymbolTableRecord
100
AcDbViewportTableRecord
  2
*Active
 70
     0
 10
0.0
 20
0.0
 11
1.0
 21
1.0
 12
3.669081278604477
 22
-24.66821294603051
 13
0.0
 23
0.0
 14
10.0
 24
10.0
 15
10.0
 25
10.0
 16
0.0
 26
0.0
 36
1.0
 17
0.0
 27
0.0
 37
0.0
 40
107.2119031418082
 41
1.586073500967118
 42
50.0
 43
0.0
 44
0.0
 50
0.0
 51
0.0
 71
    16
 72
  2000
 73
     1
 74
     3
 75
     0
 76
     0
 77
     0
 78
     0
281
     0
 65
     1
110
0.0
120
0.0
130
0.0
111
1.0
121
0.0
131
0.0
112
0.0
122
1.0
132
0.0
 79
     0
146
0.0
  0
ENDTAB
  0
TABLE
  2
LTYPE
  5
5
330
0
100
AcDbSymbolTable
 70
     6
  0
LTYPE
  5
14
330
5
100
AcDbSymbolTableRecord
100
AcDbLinetypeTableRecord
  2
ByBlock
 70
     0
  3

 72
    65
 73
     0
 40
0.0
  0
LTYPE
  5
15
330
5
100
AcDbSymbolTableRecord
100
AcDbLinetypeTableRecord
  2
ByLayer
 70
     0
  3

 72
    65
 73
     0
 40
0.0
  0
LTYPE
  5
16
330
5
100
AcDbSymbolTableRecord
100
AcDbLinetypeTableRecord
  2
Continuous
 70
     0
  3
Solid line
 72
    65
 73
     0
 40
0.0
  0
LTYPE
  5
6A
330
5
100
AcDbSymbolTableRecord
100
AcDbLinetypeTableRecord
  2
HIDDEN
 70
     0
  3
Hidden __ __ __ __ __ __ __ __ __ __ __ __ __ __
 72
    65
 73
     2
 40
1.905
 49
1.27
 74
     0
 49
-0.635
 74
     0
  0
LTYPE
  5
6B
330
5
100
AcDbSymbolTableRecord
100
AcDbLinetypeTableRecord
  2
PHANTOM
 70
     0
  3
Phantom ______  __  __  ______  __  __  ______
 72
    65
 73
     6
 40
12.7
 49
6.35
 74
     0
 49
-1.27
 74
     0
 49
1.27
 74
     0
 49
-1.27
 74
     0
 49
1.27
 74
     0
 49
-1.27
 74
     0
  0
LTYPE
  5
6C
330
5
100
AcDbSymbolTableRecord
100
AcDbLinetypeTableRecord
  2
CENTER
 70
     0
  3
Center ____ _ ____ _ ____ _ ____ _ ____ _ ____
 72
    65
 73
     4
 40
10.16
 49
6.35
 74
     0
 49
-1.27
 74
     0
 49
1.27
 74
     0
 49
-1.27
 74
     0
  0
LTYPE
  5
6D
330
5
100
AcDbSymbolTableRecord
100
AcDbLinetypeTableRecord
  2
CENTERX2
 70
     0
  3
Center (2x) ________  __  ________  __  _____
 72
    65
 73
     4
 40
20.32
 49
12.7
 74
     0
 49
-2.54
 74
     0
 49
2.54
 74
     0
 49
-2.54
 74
     0
  0
LTYPE
  5
6E
330
5
100
AcDbSymbolTableRecord
100
AcDbLinetypeTableRecord
  2
DOT2
 70
     0
  3
Dot (.5x) ........................................
 72
    65
 73
     2
 40
0.635
 49
0.0
 74
     0
 49
-0.635
 74
     0
  0
ENDTAB
  0
TABLE
  2
LAYER
  5
2
102
{ACAD_XDICTIONARY
360
20E
102
}
330
0
100
AcDbSymbolTable
 70
    18
  0
LAYER
  5
10
330
2
100
AcDbSymbolTableRecord
100
AcDbLayerTableRecord
  2
0
 70
     0
 62
     7
  6
Continuous
370
    -3
390
F
  0
LAYER
  5
6F
330
2
100
AcDbSymbolTableRecord
100
AcDbLayerTableRecord
  2
FORMAT
 70
     0
 62
     2
  6
Continuous
370
    -3
390
F
  0
LAYER
  5
70
330
2
100
AcDbSymbolTableRecord
100
AcDbLayerTableRecord
  2
외형선
 70
     0
 62
     4
  6
Continuous
370
    30
390
F
  0
LAYER
  5
71
330
2
100
AcDbSymbolTableRecord
100
AcDbLayerTableRecord
  2
숨은선
 70
     0
 62
     2
  6
HIDDEN
370
    15
390
F
  0
LAYER
  5
72
330
2
100
AcDbSymbolTableRecord
100
AcDbLayerTableRecord
  2
중심선
 70
     0
 62
     1
  6
CENTERX2
370
    -3
390
F
  0
LAYER
  5
73
330
2
100
AcDbSymbolTableRecord
100
AcDbLayerTableRecord
  2
파단선
 70
     0
 62
     4
  6
Continuous
370
    -3
390
F
  0
LAYER
  5
74
330
2
100
AcDbSymbolTableRecord
100
AcDbLayerTableRecord
  2
해칭선
 70
     0
 62
   100
  6
Continuous
370
    -3
390
F
  0
LAYER
  5
75
330
2
100
AcDbSymbolTableRecord
100
AcDbLayerTableRecord
  2
가는실선
 70
     0
 62
     4
  6
Continuous
370
    -3
390
F
  0
LAYER
  5
76
330
2
100
AcDbSymbolTableRecord
100
AcDbLayerTableRecord
  2
치수_보조선
 70
     0
 62
     4
  6
Continuous
370
    -3
390
F
  0
LAYER
  5
77
330
2
100
AcDbSymbolTableRecord
100
AcDbLayerTableRecord
  2
치수문자_일반주서
 70
     0
 62
     7
  6
Continuous
370
    15
390
F
  0
LAYER
  5
78
330
2
100
AcDbSymbolTableRecord
100
AcDbLayerTableRecord
  2
개별주서
 70
     0
 62
   100
  6
Continuous
370
    30
390
F
  0
LAYER
  5
79
330
2
100
AcDbSymbolTableRecord
100
AcDbLayerTableRecord
  2
중간선
 70
     0
 62
     2
  6
Continuous
370
    15
390
F
  0
LAYER
  5
7A
330
2
100
AcDbSymbolTableRecord
100
AcDbLayerTableRecord
  2
윤곽선
 70
     0
 62
     3
  6
Continuous
370
    40
390
F
  0
LAYER
  5
7B
330
2
100
AcDbSymbolTableRecord
100
AcDbLayerTableRecord
  2
중심마크
 70
     0
 62
   100
  6
Continuous
370
    30
390
F
  0
LAYER
  5
7C
330
2
100
AcDbSymbolTableRecord
100
AcDbLayerTableRecord
  2
가상선
 70
     0
 62
     4
  6
PHANTOM
370
    -3
390
F
  0
LAYER
  5
7D
330
2
100
AcDbSymbolTableRecord
100
AcDbLayerTableRecord
  2
특수지정선
 70
     0
 62
     5
  6
CENTERX2
370
    60
390
F
  0
LAYER
  5
7E
330
2
100
AcDbSymbolTableRecord
100
AcDbLayerTableRecord
  2
참조1
 70
     0
 62
    -4
  6
Continuous
370
    -3
390
F
  0
LAYER
  5
15E
330
2
100
AcDbSymbolTableRecord
100
AcDbLayerTableRecord
  2
Defpoints
 70
     0
 62
     7
  6
Continuous
290
     0
370
    -3
390
F
  0
ENDTAB
  0
TABLE
  2
STYLE
  5
3
330
0
100
AcDbSymbolTable
 70
     2
  0
STYLE
  5
11
330
3
100
AcDbSymbolTableRecord
100
AcDbTextStyleTableRecord
  2
Standard
 70
     0
 40
0.0
 41
1.0
 50
0.0
 71
     0
 42
3.5
  3
txt
  4

  0
STYLE
  5
94
330
3
100
AcDbSymbolTableRecord
100
AcDbTextStyleTableRecord
  2
SLDTEXTSTYLE0
 70
     0
 40
0.0
 41
0.75
 50
0.0
 71
     0
 42
3.5
  3
TXT
  4

  0
ENDTAB
  0
TABLE
  2
VIEW
  5
6
330
0
100
AcDbSymbolTable
 70
     0
  0
ENDTAB
  0
TABLE
  2
UCS
  5
7
330
0
100
AcDbSymbolTable
 70
     0
  0
ENDTAB
  0
TABLE
  2
APPID
  5
9
330
0
100
AcDbSymbolTable
 70
     1
  0
APPID
  5
12
330
9
100
AcDbSymbolTableRecord
100
AcDbRegAppTableRecord
  2
ACAD
 70
     0
  0
ENDTAB
  0
TABLE
  2
DIMSTYLE
  5
A
330
0
100
AcDbSymbolTable
 70
     3
100
AcDbDimStyleTable
  0
DIMSTYLE
105
27
330
A
100
AcDbSymbolTableRecord
100
AcDbDimStyleTableRecord
  2
ISO-25
 70
     0
 41
2.5
 42
0.625
 43
3.75
 44
1.25
 73
     0
 74
     0
 77
     1
 78
     8
140
2.5
141
2.5
143
0.03937007874016
147
0.625
171
     3
172
     1
178
     0
271
     2
272
     2
274
     3
278
    44
283
     0
284
     8
340
11
  0
DIMSTYLE
105
DC
102
{ACAD_REACTORS
330
DB
330
F0
330
105
330
118
330
37E
102
}
330
A
100
AcDbSymbolTableRecord
100
AcDbDimStyleTableRecord
  2
SLDDIMSTYLE0
 70
     0
 41
3.302
 44
0.0
 45
0.000000001
 73
     0
 74
     0
 77
     1
 78
    12
 79
     3
140
3.5
143
0.0393700787401575
147
0.875
148
0.000000001
170
     1
172
     1
173
     1
178
     0
271
     2
272
     2
276
     2
284
    12
289
     0
340
94
  0
DIMSTYLE
105
F1
330
A
100
AcDbSymbolTableRecord
100
AcDbDimStyleTableRecord
  2
SLDDIMSTYLE1
 70
     0
 41
3.302
 44
0.0
 45
0.000000001
 73
     0
 74
     0
 77
     1
 78
    12
 79
     3
140
3.5
143
0.0393700787401575
147
0.875
148
0.000000001
170
     1
173
     1
178
     0
271
     2
272
     2
276
     2
284
    12
340
94
  0
ENDTAB
  0
TABLE
  2
BLOCK_RECORD
  5
1
330
0
100
AcDbSymbolTable
 70
    16
  0
BLOCK_RECORD
  5
1F
330
1
100
AcDbSymbolTableRecord
100
AcDbBlockTableRecord
  2
*Model_Space
340
22
  0
BLOCK_RECORD
  5
1B
330
1
100
AcDbSymbolTableRecord
100
AcDbBlockTableRecord
  2
*Paper_Space
340
1E
  0
BLOCK_RECORD
  5
23
330
1
100
AcDbSymbolTableRecord
100
AcDbBlockTableRecord
  2
*Paper_Space0
340
26
  0
BLOCK_RECORD
  5
7F
330
1
100
AcDbSymbolTableRecord
100
AcDbBlockTableRecord
  2
블럭10
340
0
102
{BLKREFS
331
D4
102
}
  0
BLOCK_RECORD
  5
DD
330
1
100
AcDbSymbolTableRecord
100
AcDbBlockTableRecord
  2
_D
340
0
  0
BLOCK_RECORD
  5
F2
330
1
100
AcDbSymbolTableRecord
100
AcDbBlockTableRecord
  2
_D_1
340
0
  0
BLOCK_RECORD
  5
106
330
1
100
AcDbSymbolTableRecord
100
AcDbBlockTableRecord
  2
_D_2
340
0
  0
BLOCK_RECORD
  5
119
330
1
100
AcDbSymbolTableRecord
100
AcDbBlockTableRecord
  2
_D_3
340
0
  0
BLOCK_RECORD
  5
132
330
1
100
AcDbSymbolTableRecord
100
AcDbBlockTableRecord
  2
SW_DOWELSYMBOL_0
340
0
102
{BLKREFS
331
138
102
}
  0
BLOCK_RECORD
  5
212
330
1
100
AcDbSymbolTableRecord
100
AcDbBlockTableRecord
  2
*D7
340
0
  0
BLOCK_RECORD
  5
21E
330
1
100
AcDbSymbolTableRecord
100
AcDbBlockTableRecord
  2
*D8
340
0
  0
BLOCK_RECORD
  5
22D
330
1
100
AcDbSymbolTableRecord
100
AcDbBlockTableRecord
  2
*D9
340
0
  0
BLOCK_RECORD
  5
239
330
1
100
AcDbSymbolTableRecord
100
AcDbBlockTableRecord
  2
*D10
340
0
  0
BLOCK_RECORD
  5
294
330
1
100
AcDbSymbolTableRecord
100
AcDbBlockTableRecord
  2
*D11
340
0
  0
BLOCK_RECORD
  5
2A0
330
1
100
AcDbSymbolTableRecord
100
AcDbBlockTableRecord
  2
*D12
340
0
  0
BLOCK_RECORD
  5
2AF
330
1
100
AcDbSymbolTableRecord
100
AcDbBlockTableRecord
  2
*D13
340
0
  0
BLOCK_RECORD
  5
2BB
330
1
100
AcDbSymbolTableRecord
100
AcDbBlockTableRecord
  2
*D14
340
0
  0
BLOCK_RECORD
  5
381
330
1
100
AcDbSymbolTableRecord
100
AcDbBlockTableRecord
  2
*D15
340
0
  0
ENDTAB
  0
ENDSEC
  0
SECTION
  2
BLOCKS
  0
BLOCK
  5
20
330
1F
100
AcDbEntity
  8
0
100
AcDbBlockBegin
  2
*Model_Space
 70
     0
 10
0.0
 20
0.0
 30
0.0
  3
*Model_Space
  1
*Model_Space
  0
ENDBLK
  5
21
330
1F
100
AcDbEntity
  8
0
100
AcDbBlockEnd
  0
BLOCK
  5
1C
330
1B
100
AcDbEntity
 67
     1
  8
0
100
AcDbBlockBegin
  2
*Paper_Space
 70
     0
 10
0.0
 20
0.0
 30
0.0
  3
*Paper_Space
  1
*Paper_Space
  0
ENDBLK
  5
1D
330
1B
100
AcDbEntity
 67
     1
  8
0
100
AcDbBlockEnd
  0
BLOCK
  5
24
330
23
100
AcDbEntity
  8
0
100
AcDbBlockBegin
  2
*Paper_Space0
 70
     0
 10
0.0
 20
0.0
 30
0.0
  3
*Paper_Space0
  1
*Paper_Space0
  0
ENDBLK
  5
25
330
23
100
AcDbEntity
  8
0
100
AcDbBlockEnd
  0
BLOCK
  5
80
330
7F
100
AcDbEntity
  8
0
100
AcDbBlockBegin
  2
블럭10
 70
     2
 10
0.0
 20
0.0
 30
0.0
  3
블럭10
  1
블럭10
  0
ELLIPSE
  5
82
330
7F
100
AcDbEntity
  8
중심선
100
AcDbEllipse
 10
20.54032771741204
 20
12.0471743016438
 30
0.0
 11
6.600054785286829
 21
-1.261213355974178E-13
 31
0.0
210
0.0
220
0.0
230
1.0
 40
0.636358354079598
 41
0.9219305317359503
 42
6.513795318482858
  0
ELLIPSE
  5
83
330
7F
100
AcDbEntity
  8
중심선
100
AcDbEllipse
 10
20.54032771746488
 20
12.04717430159265
 30
0.0
 11
3.960054785062283
 21
1.540847449632565E-10
 31
0.0
210
0.0
220
0.0
230
1.0
 40
0.3939339440162632
 41
1.131841032648279
 42
5.62031148352944
  0
LINE
  5
84
330
7F
100
AcDbEntity
  8
중심선
100
AcDbLine
 10
2.268634060543552
 20
16.24717430164393
 30
0.0
 11
5.714909304380834
 21
16.24717430164393
 31
0.0
  0
LINE
  5
85
330
7F
100
AcDbEntity
  8
중심선
100
AcDbLine
 10
5.245725140726316
 20
7.84717430164391
 30
0.0
 11
8.692000384563599
 21
7.84717430164391
 31
0.0
  0
LINE
  5
86
330
7F
100
AcDbEntity
  8
중심선
100
AcDbLine
 10
15.74043728645272
 20
16.24717430164393
 30
0.0
 11
8.692000384563599
 21
7.84717430164391
 31
0.0
  0
LINE
  5
87
330
7F
100
AcDbEntity
  8
중심선
100
AcDbLine
 10
0.1404042013395286
 20
13.71084872107135
 30
0.0
 11
3.58671253028996
 21
13.71088815037384
 31
0.0
  0
LINE
  5
88
330
7F
100
AcDbEntity
  8
중심선
100
AcDbLine
 10
2.750260043222114
 20
10.84717430164391
 30
0.0
 11
6.196535287059397
 21
10.84717430164391
 31
0.0
  0
LINE
  5
89
330
7F
100
AcDbEntity
  8
중심선
100
AcDbLine
 10
12.29416204261559
 20
16.24717430164393
 30
0.0
 11
5.245725140726316
 21
7.84717430164391
 31
0.0
  0
LINE
  5
8A
330
7F
100
AcDbEntity
  8
중심선
100
AcDbLine
 10
10.72767329541681
 20
16.24717430164393
 30
0.0
 11
6.196535287059397
 21
10.84717430164391
 31
0.0
  0
LINE
  5
8B
330
7F
100
AcDbEntity
  8
중심선
100
AcDbLine
 10
7.28139805157953
 20
16.24717430164393
 30
0.0
 11
2.750260043222114
 21
10.84717430164391
 31
0.0
  0
LINE
  5
8C
330
7F
100
AcDbEntity
  8
중심선
100
AcDbLine
 10
5.714909304380834
 20
16.24717430164393
 30
0.0
 11
3.58671253028996
 21
13.71088815037384
 31
0.0
  0
LINE
  5
8D
330
7F
100
AcDbEntity
  8
중심선
100
AcDbLine
 10
2.268634060543552
 20
16.24717430164393
 30
0.0
 11
0.1404042013395286
 21
13.71084872107135
 31
0.0
  0
LINE
  5
8E
330
7F
100
AcDbEntity
  8
중심선
100
AcDbLine
 10
7.28139805157953
 20
16.24717430164393
 30
0.0
 11
10.72767329541681
 21
16.24717430164393
 31
0.0
  0
LINE
  5
8F
330
7F
100
AcDbEntity
  8
중심선
100
AcDbLine
 10
12.29416204261559
 20
16.24717430164393
 30
0.0
 11
15.74043728645272
 21
16.24717430164393
 31
0.0
  0
LINE
  5
90
330
7F
100
AcDbEntity
  8
중심선
100
AcDbLine
 10
19.22036997980202
 20
11.08717430171403
 30
0.0
 11
23.66174974927406
 21
11.08717430171406
 31
0.0
  0
LINE
  5
91
330
7F
100
AcDbEntity
  8
중심선
100
AcDbLine
 10
19.22039502424796
 20
13.00717430171391
 30
0.0
 11
19.22036997980202
 21
11.08717430171403
 31
0.0
  0
LINE
  5
92
330
7F
100
AcDbEntity
  8
중심선
100
AcDbLine
 10
19.22039502424796
 20
13.00717430171391
 30
0.0
 11
26.96566020931264
 21
13.00717430171391
 31
0.0
  0
LINE
  5
93
330
7F
100
AcDbEntity
  8
중심선
100
AcDbLine
 10
22.22332737316547
 20
13.45928029700563
 30
0.0
 11
24.52862924686651
 21
15.39360700705356
 31
0.0
  0
ATTDEF
  5
95
330
7F
100
AcDbEntity
  8
FORMAT
 62
     2
100
AcDbText
 10
4.408487351596664
 20
2.075366912832191
 30
0.0
 40
4.233333333333333
  1
E2033020
 41
0.75
  7
SLDTEXTSTYLE0
 11
4.408487351596664
 21
-0.0412997538344756
 31
0.0
100
AcDbAttributeDefinition
  3

  2
AUTOATTR0
 70
     0
 74
     1
  0
ENDBLK
  5
81
330
7F
100
AcDbEntity
  8
0
100
AcDbBlockEnd
  0
BLOCK
  5
DE
330
DD
100
AcDbEntity
  8
0
100
AcDbBlockBegin
  2
_D
 70
     0
 10
0.0
 20
0.0
 30
0.0
  3
_D
  1
_D
  0
LINE
  5
E0
330
DD
100
AcDbEntity
  8
치수문자_일반주서
 62
     0
370
    -2
100
AcDbLine
 10
-35.22488238544189
 20
4.762500000000006
 30
0.0
 11
-48.66238238544192
 21
4.762499999999956
 31
0.0
  0
LINE
  5
E1
330
DD
100
AcDbEntity
  8
치수문자_일반주서
 62
     0
370
    -2
100
AcDbLine
 10
-35.22488238544189
 20
-4.762499999999999
 30
0.0
 11
-48.66238238544189
 21
-4.76250000000005
 31
0.0
  0
LINE
  5
E2
330
DD
100
AcDbEntity
  8
치수문자_일반주서
 62
     0
370
    -2
100
AcDbLine
 10
-48.66238238544191
 20
1.460499999999956
 30
0.0
 11
-48.6623823854419
 21
-1.46050000000005
 31
0.0
  0
SOLID
  5
E3
330
DD
100
AcDbEntity
  8
치수문자_일반주서
 62
     0
100
AcDbTrace
 10
-48.11204905210857
 20
1.460499999999958
 30
0.0
 11
-49.21271571877524
 21
1.460499999999954
 31
0.0
 12
-48.66238238544192
 22
4.762499999999956
 32
0.0
 13
-48.66238238544192
 23
4.762499999999956
 33
0.0
  0
SOLID
  5
E4
330
DD
100
AcDbEntity
  8
치수문자_일반주서
 62
     0
100
AcDbTrace
 10
-49.21271571877524
 20
-1.460500000000052
 30
0.0
 11
-48.11204905210857
 21
-1.460500000000048
 31
0.0
 12
-48.66238238544189
 22
-4.76250000000005
 32
0.0
 13
-48.66238238544189
 23
-4.76250000000005
 33
0.0
  0
MTEXT
  5
E5
330
DD
100
AcDbEntity
  8
치수문자_일반주서
 62
     0
100
AcDbMText
 10
-53.03738238544191
 20
-0.0000000000000043
 30
0.0
 40
3.5
 41
0.0
 71
     2
 72
     1
  1
\A1;%%c9.53 [3/8]
  7
SLDTEXTSTYLE0
 11
-3.729883127349605E-15
 21
1.0
 31
0.0
 73
     1
 44
1.0
  0
POINT
  5
E6
330
DD
100
AcDbEntity
  8
Defpoints
 62
     0
100
AcDbPoint
 10
-35.16238238544189
 20
4.762500000000006
 30
0.0
  0
POINT
  5
E7
330
DD
100
AcDbEntity
  8
Defpoints
 62
     0
100
AcDbPoint
 10
-35.16238238544189
 20
-4.762499999999999
 30
0.0
  0
POINT
  5
E8
330
DD
100
AcDbEntity
  8
Defpoints
 62
     0
100
AcDbPoint
 10
-48.66238238544189
 20
-4.76250000000005
 30
0.0
  0
ENDBLK
  5
DF
330
DD
100
AcDbEntity
  8
0
100
AcDbBlockEnd
  0
BLOCK
  5
F3
330
F2
100
AcDbEntity
  8
0
100
AcDbBlockBegin
  2
_D_1
 70
     0
 10
0.0
 20
0.0
 30
0.0
  3
_D_1
  1
_D_1
  0
LINE
  5
F5
330
F2
100
AcDbEntity
  8
치수문자_일반주서
 62
     0
370
    -2
100
AcDbLine
 10
48.16511761455811
 20
4.031250000000009
 30
0.0
 11
48.16511761455811
 21
16.90712142862929
 31
0.0
  0
LINE
  5
F6
330
F2
100
AcDbEntity
  8
치수문자_일반주서
 62
     0
370
    -2
100
AcDbLine
 10
29.11511761455809
 20
4.026416744088767
 30
0.0
 11
29.11511761455809
 21
16.90712142862929
 31
0.0
  0
LINE
  5
F7
330
F2
100
AcDbEntity
  8
치수문자_일반주서
 62
     0
370
    -2
100
AcDbLine
 10
29.11511761455809
 20
16.90712142862929
 30
0.0
 11
-2.426382385441904
 21
16.90712142862929
 31
0.0
  0
LINE
  5
F8
330
F2
100
AcDbEntity
  8
치수문자_일반주서
 62
     0
370
    -2
100
AcDbLine
 10
48.16511761455811
 20
16.90712142862929
 30
0.0
 11
29.11511761455809
 21
16.90712142862929
 31
0.0
  0
LINE
  5
F9
330
F2
100
AcDbEntity
  8
치수문자_일반주서
 62
     0
370
    -2
100
AcDbLine
 10
51.46711761455811
 20
16.90712142862929
 30
0.0
 11
54.76911761455811
 21
16.90712142862929
 31
0.0
  0
LINE
  5
FA
330
F2
100
AcDbEntity
  8
치수문자_일반주서
 62
     0
370
    -2
100
AcDbLine
 10
25.8131176145581
 20
16.90712142862929
 30
0.0
 11
22.5111176145581
 21
16.90712142862929
 31
0.0
  0
SOLID
  5
FB
330
F2
100
AcDbEntity
  8
치수문자_일반주서
 62
     0
100
AcDbTrace
 10
51.46711761455811
 20
17.45745476196262
 30
0.0
 11
51.46711761455811
 21
16.35678809529595
 31
0.0
 12
48.16511761455811
 22
16.90712142862929
 32
0.0
 13
48.16511761455811
 23
16.90712142862929
 33
0.0
  0
SOLID
  5
FC
330
F2
100
AcDbEntity
  8
치수문자_일반주서
 62
     0
100
AcDbTrace
 10
25.8131176145581
 20
16.35678809529595
 30
0.0
 11
25.8131176145581
 21
17.45745476196262
 31
0.0
 12
29.11511761455809
 22
16.90712142862929
 32
0.0
 13
29.11511761455809
 23
16.90712142862929
 33
0.0
  0
MTEXT
  5
FD
330
F2
100
AcDbEntity
  8
치수문자_일반주서
 62
     0
100
AcDbMText
 10
10.0423676145581
 20
21.28212142862929
 30
0.0
 40
3.5
 41
0.0
 71
     2
 72
     1
  1
\A1;19.05 [3/4]
  7
SLDTEXTSTYLE0
 73
     1
 44
1.0
  0
POINT
  5
FE
330
F2
100
AcDbEntity
  8
Defpoints
 62
     0
100
AcDbPoint
 10
48.16511761455811
 20
3.968750000000008
 30
0.0
  0
POINT
  5
2CA
330
F2
100
AcDbEntity
  8
Defpoints
 62
     0
100
AcDbPoint
 10
29.11511761455809
 20
3.963916744088767
 30
0.0
  0
POINT
  5
2CB
330
F2
100
AcDbEntity
  8
Defpoints
 62
     0
100
AcDbPoint
 10
29.11511761455809
 20
16.90712142862929
 30
0.0
  0
ENDBLK
  5
F4
330
F2
100
AcDbEntity
  8
0
100
AcDbBlockEnd
  0
BLOCK
  5
107
330
106
100
AcDbEntity
  8
0
100
AcDbBlockBegin
  2
_D_2
 70
     0
 10
0.0
 20
0.0
 30
0.0
  3
_D_2
  1
_D_2
  0
LINE
  5
109
330
106
100
AcDbEntity
  8
치수문자_일반주서
 62
     0
370
    -2
100
AcDbLine
 10
48.16511761455811
 20
4.031250000000009
 30
0.0
 11
48.16511761455811
 21
34.29163864014821
 31
0.0
  0
LINE
  5
10A
330
106
100
AcDbEntity
  8
치수문자_일반주서
 62
     0
370
    -2
100
AcDbLine
 10
-35.97238238544192
 20
4.014999999999994
 30
0.0
 11
-35.97238238544192
 21
34.29163864014821
 31
0.0
  0
LINE
  5
10B
330
106
100
AcDbEntity
  8
치수문자_일반주서
 62
     0
370
    -2
100
AcDbLine
 10
44.86311761455811
 20
34.29163864014821
 30
0.0
 11
-32.67038238544192
 21
34.29163864014821
 31
0.0
  0
SOLID
  5
10C
330
106
100
AcDbEntity
  8
치수문자_일반주서
 62
     0
100
AcDbTrace
 10
44.86311761455811
 20
33.74130530681488
 30
0.0
 11
44.86311761455811
 21
34.84197197348155
 31
0.0
 12
48.16511761455811
 22
34.29163864014821
 32
0.0
 13
48.16511761455811
 23
34.29163864014821
 33
0.0
  0
SOLID
  5
10D
330
106
100
AcDbEntity
  8
치수문자_일반주서
 62
     0
100
AcDbTrace
 10
-32.67038238544192
 20
34.84197197348155
 30
0.0
 11
-32.67038238544192
 21
33.74130530681488
 31
0.0
 12
-35.97238238544192
 22
34.29163864014821
 32
0.0
 13
-35.97238238544192
 23
34.29163864014821
 33
0.0
  0
MTEXT
  5
10E
330
106
100
AcDbEntity
  8
치수문자_일반주서
 62
     0
100
AcDbMText
 10
6.096367614558091
 20
38.66663864014821
 30
0.0
 40
3.5
 41
0.0
 71
     2
 72
     1
  1
\A1;84.14 [3 5/16]
  7
SLDTEXTSTYLE0
 73
     1
 44
1.0
  0
POINT
  5
10F
330
106
100
AcDbEntity
  8
Defpoints
 62
     0
100
AcDbPoint
 10
48.16511761455811
 20
3.968750000000008
 30
0.0
  0
POINT
  5
110
330
106
100
AcDbEntity
  8
Defpoints
 62
     0
100
AcDbPoint
 10
-35.97238238544192
 20
3.952499999999994
 30
0.0
  0
POINT
  5
111
330
106
100
AcDbEntity
  8
Defpoints
 62
     0
100
AcDbPoint
 10
-35.97238238544192
 20
34.29163864014821
 30
0.0
  0
ENDBLK
  5
108
330
106
100
AcDbEntity
  8
0
100
AcDbBlockEnd
  0
BLOCK
  5
11A
330
119
100
AcDbEntity
  8
0
100
AcDbBlockBegin
  2
_D_3
 70
     0
 10
0.0
 20
0.0
 30
0.0
  3
_D_3
  1
_D_3
  0
LINE
  5
11C
330
119
100
AcDbEntity
  8
치수문자_일반주서
 62
     0
370
    -2
100
AcDbLine
 10
48.22761761455811
 20
-3.968749999999991
 30
0.0
 11
64.31978448869678
 21
-3.968749999999932
 31
0.0
  0
LINE
  5
11D
330
119
100
AcDbEntity
  8
치수문자_일반주서
 62
     0
370
    -2
100
AcDbLine
 10
48.22761761455811
 20
3.968750000000009
 30
0.0
 11
64.31978448869675
 21
3.968750000000068
 31
0.0
  0
LINE
  5
11E
330
119
100
AcDbEntity
  8
치수문자_일반주서
 62
     0
370
    -2
100
AcDbLine
 10
64.31978448869675
 20
3.968750000000068
 30
0.0
 11
64.31978448869663
 21
38.57275000000007
 31
0.0
  0
LINE
  5
11F
330
119
100
AcDbEntity
  8
치수문자_일반주서
 62
     0
370
    -2
100
AcDbLine
 10
64.31978448869678
 20
-3.968749999999932
 30
0.0
 11
64.31978448869675
 21
3.968750000000068
 31
0.0
  0
LINE
  5
120
330
119
100
AcDbEntity
  8
치수문자_일반주서
 62
     0
370
    -2
100
AcDbLine
 10
64.3197844886968
 20
-7.270749999999932
 30
0.0
 11
64.31978448869681
 21
-10.57274999999993
 31
0.0
  0
LINE
  5
121
330
119
100
AcDbEntity
  8
치수문자_일반주서
 62
     0
370
    -2
100
AcDbLine
 10
64.31978448869674
 20
7.270750000000067
 30
0.0
 11
64.31978448869673
 21
10.57275000000007
 31
0.0
  0
SOLID
  5
122
330
119
100
AcDbEntity
  8
치수문자_일반주서
 62
     0
100
AcDbTrace
 10
64.87011782203012
 20
-7.27074999999993
 30
0.0
 11
63.76945115536346
 21
-7.270749999999934
 31
0.0
 12
64.31978448869678
 22
-3.968749999999932
 32
0.0
 13
64.31978448869678
 23
-3.968749999999932
 33
0.0
  0
SOLID
  5
123
330
119
100
AcDbEntity
  8
치수문자_일반주서
 62
     0
100
AcDbTrace
 10
63.76945115536341
 20
7.270750000000065
 30
0.0
 11
64.87011782203007
 21
7.270750000000069
 31
0.0
 12
64.31978448869675
 22
3.968750000000068
 32
0.0
 13
64.31978448869675
 23
3.968750000000068
 33
0.0
  0
MTEXT
  5
124
330
119
100
AcDbEntity
  8
치수문자_일반주서
 62
     0
100
AcDbMText
 10
59.94478448869668
 20
24.57275000000005
 30
0.0
 40
3.5
 41
0.0
 71
     2
 72
     1
  1
\A1;%%c7.94 [5/16]
  7
SLDTEXTSTYLE0
 11
-3.580687802255623E-15
 21
1.0
 31
0.0
 73
     1
 44
1.0
  0
POINT
  5
125
330
119
100
AcDbEntity
  8
Defpoints
 62
     0
100
AcDbPoint
 10
48.16511761455811
 20
-3.968749999999992
 30
0.0
  0
POINT
  5
126
330
119
100
AcDbEntity
  8
Defpoints
 62
     0
100
AcDbPoint
 10
48.16511761455811
 20
3.968750000000008
 30
0.0
  0
POINT
  5
2CC
330
119
100
AcDbEntity
  8
Defpoints
 62
     0
100
AcDbPoint
 10
64.31978448869674
 20
3.968750000000069
 30
0.0
  0
ENDBLK
  5
11B
330
119
100
AcDbEntity
  8
0
100
AcDbBlockEnd
  0
BLOCK
  5
133
330
132
100
AcDbEntity
  8
0
100
AcDbBlockBegin
  2
SW_DOWELSYMBOL_0
 70
     0
 10
0.0
 20
0.0
 30
0.0
  3
SW_DOWELSYMBOL_0
  1
SW_DOWELSYMBOL_0
  0
CIRCLE
  5
135
330
132
100
AcDbEntity
  8
해칭선
 62
     0
100
AcDbCircle
 10
0.0
 20
0.0
 30
0.0
 40
2.999999999999996
  0
HATCH
  5
136
330
132
100
AcDbEntity
  8
0
  6
Continuous
 62
     0
370
     0
100
AcDbHatch
 10
0.0
 20
0.0
 30
0.0
210
0.0
220
0.0
230
1.0
  2
SOLID
 70
     1
 71
     0
 91
        1
 92
        0
 93
        3
 72
     2
 10
0.0
 20
0.0
 40
2.999999999999996
 50
0.0
 51
90.0
 73
     1
 72
     1
 10
0.0
 20
2.999999999999996
 11
0.0
 21
0.0
 72
     1
 10
0.0
 20
0.0
 11
2.999999999999996
 21
0.0
 97
        0
 75
     0
 76
     1
 98
        1
 10
0.0
 20
0.0
  0
HATCH
  5
137
330
132
100
AcDbEntity
  8
0
  6
Continuous
 62
     0
370
     0
100
AcDbHatch
 10
0.0
 20
0.0
 30
0.0
210
0.0
220
0.0
230
1.0
  2
SOLID
 70
     1
 71
     0
 91
        1
 92
        0
 93
        3
 72
     2
 10
0.0
 20
0.0
 40
2.999999999999996
 50
180.0
 51
270.0000000000007
 73
     1
 72
     1
 10
0.0
 20
-2.999999999999996
 11
0.0
 21
0.0
 72
     1
 10
0.0
 20
0.0
 11
-2.999999999999996
 21
0.0
 97
        0
 75
     0
 76
     1
 98
        1
 10
0.0
 20
0.0
  0
ENDBLK
  5
134
330
132
100
AcDbEntity
  8
0
100
AcDbBlockEnd
  0
BLOCK
  5
213
330
212
100
AcDbEntity
  8
0
100
AcDbBlockBegin
  2
*D7
 70
     1
 10
0.0
 20
0.0
 30
0.0
  3
*D7
  1
*D8
  0
LINE
  5
215
330
212
100
AcDbEntity
  8
치수문자_일반주서
 62
     0
370
    -2
100
AcDbLine
 10
17.81250000000004
 20
17.01250000000001
 30
0.0
 11
4.375000000000012
 21
17.01249999999996
 31
0.0
  0
LINE
  5
216
330
212
100
AcDbEntity
  8
치수문자_일반주서
 62
     0
370
    -2
100
AcDbLine
 10
17.81250000000004
 20
7.487500000000007
 30
0.0
 11
4.375000000000045
 21
7.487499999999957
 31
0.0
  0
LINE
  5
217
330
212
100
AcDbEntity
  8
치수문자_일반주서
 62
     0
370
    -2
100
AcDbLine
 10
4.375000000000024
 20
13.71049999999996
 30
0.0
 11
4.375000000000034
 21
10.78949999999996
 31
0.0
  0
SOLID
  5
218
330
212
100
AcDbEntity
  8
치수문자_일반주서
 62
     0
100
AcDbTrace
 10
4.925333333333358
 20
13.71049999999997
 30
0.0
 11
3.824666666666691
 21
13.71049999999996
 31
0.0
 12
4.375000000000012
 22
17.01249999999996
 32
0.0
 13
4.375000000000012
 23
17.01249999999996
 33
0.0
  0
SOLID
  5
219
330
212
100
AcDbEntity
  8
치수문자_일반주서
 62
     0
100
AcDbTrace
 10
3.824666666666701
 20
10.78949999999996
 30
0.0
 11
4.925333333333367
 21
10.78949999999996
 31
0.0
 12
4.375000000000045
 22
7.487499999999957
 32
0.0
 13
4.375000000000045
 23
7.487499999999957
 33
0.0
  0
MTEXT
  5
21A
330
212
100
AcDbEntity
  8
치수문자_일반주서
 62
     0
100
AcDbMText
 10
0.0000000000000284
 20
12.25
 30
0.0
 40
3.5
 41
0.0
 71
     2
 72
     1
  1
\A1;%%c9.53 [3/8]
  7
SLDTEXTSTYLE0
 11
-3.450141892798384E-15
 21
1.0
 31
0.0
 73
     1
 44
1.0
  0
POINT
  5
21B
330
212
100
AcDbEntity
  8
Defpoints
 62
     0
100
AcDbPoint
 10
17.87500000000004
 20
17.01250000000001
 30
0.0
  0
POINT
  5
21C
330
212
100
AcDbEntity
  8
Defpoints
 62
     0
100
AcDbPoint
 10
17.87500000000004
 20
7.487500000000007
 30
0.0
  0
POINT
  5
21D
330
212
100
AcDbEntity
  8
Defpoints
 62
     0
100
AcDbPoint
 10
4.375000000000043
 20
7.487499999999956
 30
0.0
  0
ENDBLK
  5
214
330
212
100
AcDbEntity
  8
0
100
AcDbBlockEnd
  0
BLOCK
  5
21F
330
21E
100
AcDbEntity
  8
0
100
AcDbBlockBegin
  2
*D8
 70
     1
 10
0.0
 20
0.0
 30
0.0
  3
*D8
  1
*D9
  0
LINE
  5
221
330
21E
100
AcDbEntity
  8
치수문자_일반주서
 62
     0
370
    -2
100
AcDbLine
 10
94.85250000000006
 20
15.48750000000001
 30
0.0
 11
94.85250000000006
 21
28.59865826917706
 31
0.0
  0
LINE
  5
222
330
21E
100
AcDbEntity
  8
치수문자_일반주서
 62
     0
370
    -2
100
AcDbLine
 10
78.97750000000005
 20
15.41528646843674
 30
0.0
 11
78.97750000000005
 21
28.59865826917706
 31
0.0
  0
LINE
  5
223
330
21E
100
AcDbEntity
  8
치수문자_일반주서
 62
     0
370
    -2
100
AcDbLine
 10
78.97750000000005
 20
28.59865826917706
 30
0.0
 11
46.99850000000005
 21
28.59865826917706
 31
0.0
  0
LINE
  5
224
330
21E
100
AcDbEntity
  8
치수문자_일반주서
 62
     0
370
    -2
100
AcDbLine
 10
94.85250000000006
 20
28.59865826917706
 30
0.0
 11
78.97750000000005
 21
28.59865826917706
 31
0.0
  0
LINE
  5
225
330
21E
100
AcDbEntity
  8
치수문자_일반주서
 62
     0
370
    -2
100
AcDbLine
 10
98.15450000000007
 20
28.59865826917706
 30
0.0
 11
101.4565000000001
 21
28.59865826917706
 31
0.0
  0
LINE
  5
226
330
21E
100
AcDbEntity
  8
치수문자_일반주서
 62
     0
370
    -2
100
AcDbLine
 10
75.67550000000006
 20
28.59865826917706
 30
0.0
 11
72.37350000000006
 21
28.59865826917706
 31
0.0
  0
SOLID
  5
227
330
21E
100
AcDbEntity
  8
치수문자_일반주서
 62
     0
100
AcDbTrace
 10
98.15450000000007
 20
29.1489916025104
 30
0.0
 11
98.15450000000007
 21
28.04832493584373
 31
0.0
 12
94.85250000000006
 22
28.59865826917706
 32
0.0
 13
94.85250000000006
 23
28.59865826917706
 33
0.0
  0
SOLID
  5
228
330
21E
100
AcDbEntity
  8
치수문자_일반주서
 62
     0
100
AcDbTrace
 10
75.67550000000006
 20
28.04832493584373
 30
0.0
 11
75.67550000000006
 21
29.1489916025104
 31
0.0
 12
78.97750000000005
 22
28.59865826917706
 32
0.0
 13
78.97750000000005
 23
28.59865826917706
 33
0.0
  0
MTEXT
  5
229
330
21E
100
AcDbEntity
  8
치수문자_일반주서
 62
     0
100
AcDbMText
 10
59.68600000000005
 20
32.97365826917706
 30
0.0
 40
3.5
 41
0.0
 71
     2
 72
     1
  1
\A1;15.88 [5/8]
  7
SLDTEXTSTYLE0
 73
     1
 44
1.0
  0
POINT
  5
22A
330
21E
100
AcDbEntity
  8
Defpoints
 62
     0
100
AcDbPoint
 10
94.85250000000006
 20
15.42500000000001
 30
0.0
  0
POINT
  5
22B
330
21E
100
AcDbEntity
  8
Defpoints
 62
     0
100
AcDbPoint
 10
78.97750000000005
 20
15.35278646843674
 30
0.0
  0
POINT
  5
22C
330
21E
100
AcDbEntity
  8
Defpoints
 62
     0
100
AcDbPoint
 10
78.97750000000005
 20
28.59865826917706
 30
0.0
  0
ENDBLK
  5
220
330
21E
100
AcDbEntity
  8
0
100
AcDbBlockEnd
  0
BLOCK
  5
22E
330
22D
100
AcDbEntity
  8
0
100
AcDbBlockBegin
  2
*D9
 70
     1
 10
0.0
 20
0.0
 30
0.0
  3
*D9
  1
*D10
  0
LINE
  5
230
330
22D
100
AcDbEntity
  8
치수문자_일반주서
 62
     0
370
    -2
100
AcDbLine
 10
94.85250000000005
 20
15.48750000000001
 30
0.0
 11
94.85250000000005
 21
45.7884168251954
 31
0.0
  0
LINE
  5
231
330
22D
100
AcDbEntity
  8
치수문자_일반주서
 62
     0
370
    -2
100
AcDbLine
 10
17.06500000000006
 20
16.265
 30
0.0
 11
17.06500000000006
 21
45.7884168251954
 31
0.0
  0
LINE
  5
232
330
22D
100
AcDbEntity
  8
치수문자_일반주서
 62
     0
370
    -2
100
AcDbLine
 10
91.55050000000006
 20
45.7884168251954
 30
0.0
 11
20.36700000000006
 21
45.7884168251954
 31
0.0
  0
SOLID
  5
233
330
22D
100
AcDbEntity
  8
치수문자_일반주서
 62
     0
100
AcDbTrace
 10
91.55050000000006
 20
45.23808349186206
 30
0.0
 11
91.55050000000006
 21
46.33875015852873
 31
0.0
 12
94.85250000000005
 22
45.7884168251954
 32
0.0
 13
94.85250000000005
 23
45.7884168251954
 33
0.0
  0
SOLID
  5
234
330
22D
100
AcDbEntity
  8
치수문자_일반주서
 62
     0
100
AcDbTrace
 10
20.36700000000006
 20
46.33875015852873
 30
0.0
 11
20.36700000000006
 21
45.23808349186206
 31
0.0
 12
17.06500000000006
 22
45.7884168251954
 32
0.0
 13
17.06500000000006
 23
45.7884168251954
 33
0.0
  0
MTEXT
  5
235
330
22D
100
AcDbEntity
  8
치수문자_일반주서
 62
     0
100
AcDbMText
 10
55.95875000000005
 20
50.1634168251954
 30
0.0
 40
3.5
 41
0.0
 71
     2
 72
     1
  1
\A1;77.79 [3 1/16]
  7
SLDTEXTSTYLE0
 73
     1
 44
1.0
  0
POINT
  5
236
330
22D
100
AcDbEntity
  8
Defpoints
 62
     0
100
AcDbPoint
 10
94.85250000000005
 20
15.42500000000001
 30
0.0
  0
POINT
  5
237
330
22D
100
AcDbEntity
  8
Defpoints
 62
     0
100
AcDbPoint
 10
17.06500000000006
 20
16.2025
 30
0.0
  0
POINT
  5
238
330
22D
100
AcDbEntity
  8
Defpoints
 62
     0
100
AcDbPoint
 10
17.06500000000006
 20
45.7884168251954
 30
0.0
  0
ENDBLK
  5
22F
330
22D
100
AcDbEntity
  8
0
100
AcDbBlockEnd
  0
BLOCK
  5
23A
330
239
100
AcDbEntity
  8
0
100
AcDbBlockBegin
  2
*D10
 70
     1
 10
0.0
 20
0.0
 30
0.0
  3
*D10
  1
*D11
  0
LINE
  5
23C
330
239
100
AcDbEntity
  8
치수문자_일반주서
 62
     0
370
    -2
100
AcDbLine
 10
94.91500000000006
 20
9.075000000000014
 30
0.0
 11
110.4406266451172
 21
9.075000000000074
 31
0.0
  0
LINE
  5
23D
330
239
100
AcDbEntity
  8
치수문자_일반주서
 62
     0
370
    -2
100
AcDbLine
 10
94.91500000000006
 20
15.42500000000001
 30
0.0
 11
110.4406266451172
 21
15.42500000000007
 31
0.0
  0
LINE
  5
23E
330
239
100
AcDbEntity
  8
치수문자_일반주서
 62
     0
370
    -2
100
AcDbLine
 10
110.4406266451172
 20
15.42500000000007
 30
0.0
 11
110.440626645117
 21
54.46249999999995
 31
0.0
  0
LINE
  5
23F
330
239
100
AcDbEntity
  8
치수문자_일반주서
 62
     0
370
    -2
100
AcDbLine
 10
110.4406266451172
 20
9.075000000000074
 30
0.0
 11
110.4406266451172
 21
15.42500000000007
 31
0.0
  0
LINE
  5
240
330
239
100
AcDbEntity
  8
치수문자_일반주서
 62
     0
370
    -2
100
AcDbLine
 10
110.4406266451172
 20
5.773000000000074
 30
0.0
 11
110.4406266451172
 21
2.471000000000075
 31
0.0
  0
LINE
  5
241
330
239
100
AcDbEntity
  8
치수문자_일반주서
 62
     0
370
    -2
100
AcDbLine
 10
110.4406266451172
 20
18.72700000000007
 30
0.0
 11
110.4406266451172
 21
22.02900000000007
 31
0.0
  0
SOLID
  5
242
330
239
100
AcDbEntity
  8
치수문자_일반주서
 62
     0
100
AcDbTrace
 10
110.9909599784506
 20
5.773000000000077
 30
0.0
 11
109.8902933117839
 21
5.773000000000072
 31
0.0
 12
110.4406266451172
 22
9.075000000000074
 32
0.0
 13
110.4406266451172
 23
9.075000000000074
 33
0.0
  0
SOLID
  5
243
330
239
100
AcDbEntity
  8
치수문자_일반주서
 62
     0
100
AcDbTrace
 10
109.8902933117839
 20
18.72700000000007
 30
0.0
 11
110.9909599784505
 21
18.72700000000007
 31
0.0
 12
110.4406266451172
 22
15.42500000000007
 32
0.0
 13
110.4406266451172
 23
15.42500000000007
 33
0.0
  0
MTEXT
  5
244
330
239
100
AcDbEntity
  8
치수문자_일반주서
 62
     0
100
AcDbMText
 10
106.0656266451171
 20
41.77499999999993
 30
0.0
 40
3.5
 41
0.0
 71
     2
 72
     1
  1
\A1;%%c6.35 [1/4]
  7
SLDTEXTSTYLE0
 11
-4.475859752819528E-15
 21
1.0
 31
0.0
 73
     1
 44
1.0
  0
POINT
  5
245
330
239
100
AcDbEntity
  8
Defpoints
 62
     0
100
AcDbPoint
 10
94.85250000000006
 20
9.075000000000014
 30
0.0
  0
POINT
  5
246
330
239
100
AcDbEntity
  8
Defpoints
 62
     0
100
AcDbPoint
 10
94.85250000000006
 20
15.42500000000001
 30
0.0
  0
POINT
  5
247
330
239
100
AcDbEntity
  8
Defpoints
 62
     0
100
AcDbPoint
 10
110.4406266451172
 20
15.42500000000007
 30
0.0
  0
ENDBLK
  5
23B
330
239
100
AcDbEntity
  8
0
100
AcDbBlockEnd
  0
BLOCK
  5
295
330
294
100
AcDbEntity
  8
0
100
AcDbBlockBegin
  2
*D11
 70
     1
 10
0.0
 20
0.0
 30
0.0
  3
*D11
  1
*D12
  0
LINE
  5
297
330
294
100
AcDbEntity
  8
치수문자_일반주서
 62
     0
370
    -2
100
AcDbLine
 10
95.93109691355367
 20
-51.84095505010775
 30
0.0
 11
82.49359691355365
 21
-51.8409550501078
 31
0.0
  0
LINE
  5
298
330
294
100
AcDbEntity
  8
치수문자_일반주서
 62
     0
370
    -2
100
AcDbLine
 10
95.93109691355367
 20
-61.36595505010776
 30
0.0
 11
82.49359691355367
 21
-61.36595505010781
 31
0.0
  0
LINE
  5
299
330
294
100
AcDbEntity
  8
치수문자_일반주서
 62
     0
370
    -2
100
AcDbLine
 10
82.49359691355366
 20
-55.1429550501078
 30
0.0
 11
82.49359691355366
 21
-58.06395505010781
 31
0.0
  0
SOLID
  5
29A
330
294
100
AcDbEntity
  8
치수문자_일반주서
 62
     0
100
AcDbTrace
 10
83.04393024688699
 20
-55.1429550501078
 30
0.0
 11
81.94326358022033
 21
-55.1429550501078
 31
0.0
 12
82.49359691355365
 22
-51.8409550501078
 32
0.0
 13
82.49359691355365
 23
-51.8409550501078
 33
0.0
  0
SOLID
  5
29B
330
294
100
AcDbEntity
  8
치수문자_일반주서
 62
     0
100
AcDbTrace
 10
81.94326358022033
 20
-58.06395505010781
 30
0.0
 11
83.04393024688699
 21
-58.06395505010781
 31
0.0
 12
82.49359691355367
 22
-61.36595505010781
 32
0.0
 13
82.49359691355367
 23
-61.36595505010781
 33
0.0
  0
MTEXT
  5
29C
330
294
100
AcDbEntity
  8
치수문자_일반주서
 62
     0
100
AcDbMText
 10
78.11859691355366
 20
-56.60345505010777
 30
0.0
 40
3.5
 41
0.0
 71
     2
 72
     1
  1
\A1;%%c9.53 [3/8]
  7
SLDTEXTSTYLE0
 11
-2.983906501879682E-15
 21
1.0
 31
0.0
 73
     1
 44
1.0
  0
POINT
  5
29D
330
294
100
AcDbEntity
  8
Defpoints
 62
     0
100
AcDbPoint
 10
95.99359691355367
 20
-51.84095505010775
 30
0.0
  0
POINT
  5
29E
330
294
100
AcDbEntity
  8
Defpoints
 62
     0
100
AcDbPoint
 10
95.99359691355367
 20
-61.36595505010776
 30
0.0
  0
POINT
  5
29F
330
294
100
AcDbEntity
  8
Defpoints
 62
     0
100
AcDbPoint
 10
82.49359691355367
 20
-61.36595505010781
 30
0.0
  0
ENDBLK
  5
296
330
294
100
AcDbEntity
  8
0
100
AcDbBlockEnd
  0
BLOCK
  5
2A1
330
2A0
100
AcDbEntity
  8
0
100
AcDbBlockBegin
  2
*D12
 70
     1
 10
0.0
 20
0.0
 30
0.0
  3
*D12
  1
*D13
  0
LINE
  5
2A3
330
2A0
100
AcDbEntity
  8
치수문자_일반주서
 62
     0
370
    -2
100
AcDbLine
 10
172.9710969135537
 20
-53.36595505010776
 30
0.0
 11
172.9710969135537
 21
-40.2547967809307
 31
0.0
  0
LINE
  5
2A4
330
2A0
100
AcDbEntity
  8
치수문자_일반주서
 62
     0
370
    -2
100
AcDbLine
 10
157.0960969135537
 20
-53.43816858167103
 30
0.0
 11
157.0960969135537
 21
-40.2547967809307
 31
0.0
  0
LINE
  5
2A5
330
2A0
100
AcDbEntity
  8
치수문자_일반주서
 62
     0
370
    -2
100
AcDbLine
 10
157.0960969135537
 20
-40.2547967809307
 30
0.0
 11
125.1170969135537
 21
-40.2547967809307
 31
0.0
  0
LINE
  5
2A6
330
2A0
100
AcDbEntity
  8
치수문자_일반주서
 62
     0
370
    -2
100
AcDbLine
 10
172.9710969135537
 20
-40.2547967809307
 30
0.0
 11
157.0960969135537
 21
-40.2547967809307
 31
0.0
  0
LINE
  5
2A7
330
2A0
100
AcDbEntity
  8
치수문자_일반주서
 62
     0
370
    -2
100
AcDbLine
 10
176.2730969135537
 20
-40.2547967809307
 30
0.0
 11
179.5750969135537
 21
-40.2547967809307
 31
0.0
  0
LINE
  5
2A8
330
2A0
100
AcDbEntity
  8
치수문자_일반주서
 62
     0
370
    -2
100
AcDbLine
 10
153.7940969135537
 20
-40.2547967809307
 30
0.0
 11
150.4920969135537
 21
-40.2547967809307
 31
0.0
  0
SOLID
  5
2A9
330
2A0
100
AcDbEntity
  8
치수문자_일반주서
 62
     0
100
AcDbTrace
 10
176.2730969135537
 20
-39.70446344759737
 30
0.0
 11
176.2730969135537
 21
-40.80513011426404
 31
0.0
 12
172.9710969135537
 22
-40.2547967809307
 32
0.0
 13
172.9710969135537
 23
-40.2547967809307
 33
0.0
  0
SOLID
  5
2AA
330
2A0
100
AcDbEntity
  8
치수문자_일반주서
 62
     0
100
AcDbTrace
 10
153.7940969135537
 20
-40.80513011426404
 30
0.0
 11
153.7940969135537
 21
-39.70446344759737
 31
0.0
 12
157.0960969135537
 22
-40.2547967809307
 32
0.0
 13
157.0960969135537
 23
-40.2547967809307
 33
0.0
  0
MTEXT
  5
2AB
330
2A0
100
AcDbEntity
  8
치수문자_일반주서
 62
     0
100
AcDbMText
 10
137.8045969135537
 20
-35.8797967809307
 30
0.0
 40
3.5
 41
0.0
 71
     2
 72
     1
  1
\A1;15.88 [5/8]
  7
SLDTEXTSTYLE0
 73
     1
 44
1.0
  0
POINT
  5
2AC
330
2A0
100
AcDbEntity
  8
Defpoints
 62
     0
100
AcDbPoint
 10
172.9710969135537
 20
-53.42845505010776
 30
0.0
  0
POINT
  5
2AD
330
2A0
100
AcDbEntity
  8
Defpoints
 62
     0
100
AcDbPoint
 10
157.0960969135537
 20
-53.50066858167103
 30
0.0
  0
POINT
  5
2AE
330
2A0
100
AcDbEntity
  8
Defpoints
 62
     0
100
AcDbPoint
 10
157.0960969135537
 20
-40.2547967809307
 30
0.0
  0
ENDBLK
  5
2A2
330
2A0
100
AcDbEntity
  8
0
100
AcDbBlockEnd
  0
BLOCK
  5
2B0
330
2AF
100
AcDbEntity
  8
0
100
AcDbBlockBegin
  2
*D13
 70
     1
 10
0.0
 20
0.0
 30
0.0
  3
*D13
  1
*D14
  0
LINE
  5
2B2
330
2AF
100
AcDbEntity
  8
치수문자_일반주서
 62
     0
370
    -2
100
AcDbLine
 10
172.9710969135537
 20
-53.36595505010776
 30
0.0
 11
172.9710969135537
 21
-23.06503822491237
 31
0.0
  0
LINE
  5
2B3
330
2AF
100
AcDbEntity
  8
치수문자_일반주서
 62
     0
370
    -2
100
AcDbLine
 10
95.18359691355369
 20
-52.58845505010777
 30
0.0
 11
95.18359691355369
 21
-23.06503822491237
 31
0.0
  0
LINE
  5
2B4
330
2AF
100
AcDbEntity
  8
치수문자_일반주서
 62
     0
370
    -2
100
AcDbLine
 10
169.6690969135537
 20
-23.06503822491237
 30
0.0
 11
98.48559691355368
 21
-23.06503822491237
 31
0.0
  0
SOLID
  5
2B5
330
2AF
100
AcDbEntity
  8
치수문자_일반주서
 62
     0
100
AcDbTrace
 10
169.6690969135537
 20
-23.61537155824571
 30
0.0
 11
169.6690969135537
 21
-22.51470489157904
 31
0.0
 12
172.9710969135537
 22
-23.06503822491237
 32
0.0
 13
172.9710969135537
 23
-23.06503822491237
 33
0.0
  0
SOLID
  5
2B6
330
2AF
100
AcDbEntity
  8
치수문자_일반주서
 62
     0
100
AcDbTrace
 10
98.48559691355368
 20
-22.51470489157904
 30
0.0
 11
98.48559691355368
 21
-23.61537155824571
 31
0.0
 12
95.18359691355369
 22
-23.06503822491237
 32
0.0
 13
95.18359691355369
 23
-23.06503822491237
 33
0.0
  0
MTEXT
  5
2B7
330
2AF
100
AcDbEntity
  8
치수문자_일반주서
 62
     0
100
AcDbMText
 10
134.0773469135537
 20
-18.69003822491237
 30
0.0
 40
3.5
 41
0.0
 71
     2
 72
     1
  1
\A1;77.79 [3 1/16]
  7
SLDTEXTSTYLE0
 73
     1
 44
1.0
  0
POINT
  5
2B8
330
2AF
100
AcDbEntity
  8
Defpoints
 62
     0
100
AcDbPoint
 10
172.9710969135537
 20
-53.42845505010776
 30
0.0
  0
POINT
  5
2B9
330
2AF
100
AcDbEntity
  8
Defpoints
 62
     0
100
AcDbPoint
 10
95.18359691355369
 20
-52.65095505010777
 30
0.0
  0
POINT
  5
2BA
330
2AF
100
AcDbEntity
  8
Defpoints
 62
     0
100
AcDbPoint
 10
95.18359691355369
 20
-23.06503822491237
 30
0.0
  0
ENDBLK
  5
2B1
330
2AF
100
AcDbEntity
  8
0
100
AcDbBlockEnd
  0
BLOCK
  5
2BC
330
2BB
100
AcDbEntity
  8
0
100
AcDbBlockBegin
  2
*D14
 70
     1
 10
0.0
 20
0.0
 30
0.0
  3
*D14
  1
*D15
  0
LINE
  5
2BE
330
2BB
100
AcDbEntity
  8
치수문자_일반주서
 62
     0
370
    -2
100
AcDbLine
 10
173.0335969135537
 20
-59.77845505010775
 30
0.0
 11
188.5592235586709
 21
-59.7784550501077
 31
0.0
  0
LINE
  5
2BF
330
2BB
100
AcDbEntity
  8
치수문자_일반주서
 62
     0
370
    -2
100
AcDbLine
 10
173.0335969135537
 20
-53.42845505010776
 30
0.0
 11
188.5592235586708
 21
-53.4284550501077
 31
0.0
  0
LINE
  5
2C0
330
2BB
100
AcDbEntity
  8
치수문자_일반주서
 62
     0
370
    -2
100
AcDbLine
 10
188.5592235586708
 20
-53.4284550501077
 30
0.0
 11
188.5592235586707
 21
-14.39095505010782
 31
0.0
  0
LINE
  5
2C1
330
2BB
100
AcDbEntity
  8
치수문자_일반주서
 62
     0
370
    -2
100
AcDbLine
 10
188.5592235586709
 20
-59.7784550501077
 30
0.0
 11
188.5592235586708
 21
-53.4284550501077
 31
0.0
  0
LINE
  5
2C2
330
2BB
100
AcDbEntity
  8
치수문자_일반주서
 62
     0
370
    -2
100
AcDbLine
 10
188.5592235586709
 20
-63.08045505010769
 30
0.0
 11
188.5592235586709
 21
-66.3824550501077
 31
0.0
  0
LINE
  5
2C3
330
2BB
100
AcDbEntity
  8
치수문자_일반주서
 62
     0
370
    -2
100
AcDbLine
 10
188.5592235586708
 20
-50.1264550501077
 30
0.0
 11
188.5592235586708
 21
-46.8244550501077
 31
0.0
  0
SOLID
  5
2C4
330
2BB
100
AcDbEntity
  8
치수문자_일반주서
 62
     0
100
AcDbTrace
 10
189.1095568920042
 20
-63.08045505010769
 30
0.0
 11
188.0088902253376
 21
-63.08045505010769
 31
0.0
 12
188.5592235586709
 22
-59.7784550501077
 32
0.0
 13
188.5592235586709
 23
-59.7784550501077
 33
0.0
  0
SOLID
  5
2C5
330
2BB
100
AcDbEntity
  8
치수문자_일반주서
 62
     0
100
AcDbTrace
 10
188.0088902253375
 20
-50.1264550501077
 30
0.0
 11
189.1095568920041
 21
-50.1264550501077
 31
0.0
 12
188.5592235586708
 22
-53.4284550501077
 32
0.0
 13
188.5592235586708
 23
-53.4284550501077
 33
0.0
  0
MTEXT
  5
2C6
330
2BB
100
AcDbEntity
  8
치수문자_일반주서
 62
     0
100
AcDbMText
 10
184.1842235586707
 20
-27.07845505010784
 30
0.0
 40
3.5
 41
0.0
 71
     2
 72
     1
  1
\A1;%%c6.35 [1/4]
  7
SLDTEXTSTYLE0
 11
-4.475859752819533E-15
 21
1.0
 31
0.0
 73
     1
 44
1.0
  0
POINT
  5
2C7
330
2BB
100
AcDbEntity
  8
Defpoints
 62
     0
100
AcDbPoint
 10
172.9710969135537
 20
-59.77845505010775
 30
0.0
  0
POINT
  5
2C8
330
2BB
100
AcDbEntity
  8
Defpoints
 62
     0
100
AcDbPoint
 10
172.9710969135537
 20
-53.42845505010776
 30
0.0
  0
POINT
  5
2C9
330
2BB
100
AcDbEntity
  8
Defpoints
 62
     0
100
AcDbPoint
 10
188.5592235586708
 20
-53.4284550501077
 30
0.0
  0
ENDBLK
  5
2BD
330
2BB
100
AcDbEntity
  8
0
100
AcDbBlockEnd
  0
BLOCK
  5
382
330
381
100
AcDbEntity
  8
0
100
AcDbBlockBegin
  2
*D15
 70
     1
 10
0.0
 20
0.0
 30
0.0
  3
*D15
  1
*D15
  0
LINE
  5
384
330
381
100
AcDbEntity
  8
치수문자_일반주서
 62
     0
370
    -2
100
AcDbLine
 10
3.715117614558114
 20
3.901899999999999
 30
0.0
 11
3.71511761455811
 21
25.61976870172284
 31
0.0
  0
LINE
  5
385
330
381
100
AcDbEntity
  8
치수문자_일반주서
 62
     0
370
    -2
100
AcDbLine
 10
48.16511761455811
 20
4.031250000000009
 30
0.0
 11
48.16511761455811
 21
25.61976870172284
 31
0.0
  0
LINE
  5
386
330
381
100
AcDbEntity
  8
치수문자_일반주서
 62
     0
370
    -2
100
AcDbLine
 10
7.01711761455811
 20
25.61976870172284
 30
0.0
 11
44.86311761455811
 21
25.61976870172284
 31
0.0
  0
SOLID
  5
387
330
381
100
AcDbEntity
  8
치수문자_일반주서
 62
     0
100
AcDbTrace
 10
7.01711761455811
 20
26.17010203505617
 30
0.0
 11
7.01711761455811
 21
25.06943536838951
 31
0.0
 12
3.71511761455811
 22
25.61976870172284
 32
0.0
 13
3.71511761455811
 23
25.61976870172284
 33
0.0
  0
SOLID
  5
388
330
381
100
AcDbEntity
  8
치수문자_일반주서
 62
     0
100
AcDbTrace
 10
44.86311761455811
 20
25.06943536838951
 30
0.0
 11
44.86311761455811
 21
26.17010203505617
 31
0.0
 12
48.16511761455811
 22
25.61976870172284
 32
0.0
 13
48.16511761455811
 23
25.61976870172284
 33
0.0
  0
MTEXT
  5
389
330
381
100
AcDbEntity
  8
치수문자_일반주서
 62
     0
100
AcDbMText
 10
25.94011761455811
 20
28.24476870172284
 30
0.0
 40
3.5
 41
0.0
 71
     5
 72
     1
  1
\A1;44.45 [1 3/4]
  7
SLDTEXTSTYLE0
 73
     1
 44
1.0
  0
POINT
  5
38A
330
381
100
AcDbEntity
  8
Defpoints
 62
     0
100
AcDbPoint
 10
3.715117614558114
 20
3.839399999999999
 30
0.0
  0
POINT
  5
38B
330
381
100
AcDbEntity
  8
Defpoints
 62
     0
100
AcDbPoint
 10
48.16511761455811
 20
3.968750000000008
 30
0.0
  0
POINT
  5
38C
330
381
100
AcDbEntity
  8
Defpoints
 62
     0
100
AcDbPoint
 10
48.16511761455811
 20
25.61976870172284
 30
0.0
  0
ENDBLK
  5
383
330
381
100
AcDbEntity
  8
0
100
AcDbBlockEnd
  0
ENDSEC
  0
SECTION
  2
ENTITIES
  0
LINE
  5
96
330
1F
100
AcDbEntity
  8
외형선
  6
Continuous
370
    15
100
AcDbLine
 10
0.0
 20
4.762499999999999
 30
0.0
 11
-11.28993238544182
 21
4.762499999999998
 31
0.0
  0
LINE
  5
97
330
1F
100
AcDbEntity
  8
외형선
  6
Continuous
370
    15
100
AcDbLine
 10
-35.1623823854419
 20
-4.762499999999997
 30
0.0
 11
0.0000000000000071
 21
-4.762499999999994
 31
0.0
  0
LINE
  5
9A
330
1F
100
AcDbEntity
  8
외형선
  6
Continuous
370
    15
100
AcDbLine
 10
-35.1623823854419
 20
4.762499999999996
 30
0.0
 11
-35.97238238544192
 21
3.952499999999994
 31
0.0
  0
LINE
  5
9B
330
1F
100
AcDbEntity
  8
외형선
  6
Continuous
370
    15
100
AcDbLine
 10
-35.97238238544192
 20
-3.952499999999997
 30
0.0
 11
-35.1623823854419
 21
-4.762499999999995
 31
0.0
  0
LINE
  5
9E
330
1F
100
AcDbEntity
  8
0
  6
Continuous
 62
     1
370
    15
100
AcDbLine
 10
35.71748376988616
 20
1.101449890026578
 30
0.0
 11
35.6452125085744
 21
1.141035944867653
 31
0.0
  0
SPLINE
  5
9F
330
1F
100
AcDbEntity
  8
0
  6
Continuous
 62
     1
370
    15
100
AcDbSpline
210
0.0
220
0.0
230
1.0
 70
     8
 71
     3
 72
     9
 73
     5
 74
     0
 42
0.000000001
 43
0.00000001
 40
0.0
 40
0.0
 40
0.0
 40
0.0
 40
0.4370880413482935
 40
1.0
 40
1.0
 40
1.0
 40
1.0
 10
37.8838907763145
 20
1.01691812702242
 30
0.0
 10
37.72324695185038
 20
1.093222837840072
 30
0.0
 10
37.35571499199949
 20
1.267797988837739
 30
0.0
 10
36.98824257532826
 20
1.459666138883189
 30
0.0
 10
36.78138795750938
 20
1.567671015028153
 30
0.0
  0
SPLINE
  5
A0
330
1F
100
AcDbEntity
  8
0
  6
Continuous
 62
     1
370
    15
100
AcDbSpline
210
0.0
220
0.0
230
1.0
 70
     8
 71
     3
 72
    16
 73
    12
 74
     0
 42
0.000000001
 43
0.00000001
 40
0.0
 40
0.0
 40
0.0
 40
0.0
 40
0.1603910919077905
 40
0.2753358397686145
 40
0.3652593159960127
 40
0.4584404452683754
 40
0.5579653277019385
 40
0.6705559106149949
 40
0.795233860679248
 40
0.9281334549685368
 40
1.0
 40
1.0
 40
1.0
 40
1.0
 10
36.57087964767546
 20
3.153720564844139
 30
0.0
 10
36.40009675579702
 20
3.145200539647482
 30
0.0
 10
36.10692180203776
 20
3.130574613329082
 30
0.0
 10
35.7146625104451
 20
3.117036999171095
 30
0.0
 10
35.39216433110988
 20
3.108502105212548
 30
0.0
 10
35.08829362414277
 20
3.102849098002363
 30
0.0
 10
34.76096981960101
 20
3.099460237744738
 30
0.0
 10
34.39958314612608
 20
3.099010239349243
 30
0.0
 10
34.00238265486179
 20
3.102777933760794
 30
0.0
 10
33.64881983013472
 20
3.10928692449835
 30
0.0
 10
33.42918413919296
 20
3.116588389606193
 30
0.0
 10
33.3520988441049
 20
3.119150976724889
 30
0.0
  0
SPLINE
  5
A1
330
1F
100
AcDbEntity
  8
0
  6
Continuous
 62
     1
370
    15
100
AcDbSpline
210
0.0
220
0.0
230
1.0
 70
     8
 71
     3
 72
    22
 73
    18
 74
     0
 42
0.000000001
 43
0.00000001
 40
0.0
 40
0.0
 40
0.0
 40
0.0
 40
0.0817782758171323
 40
0.1429314611625371
 40
0.2017129825480846
 40
0.2724669083674552
 40
0.3451774235447854
 40
0.4150093114847449
 40
0.4748723023975887
 40
0.5690947453023771
 40
0.6614052382540548
 40
0.6944008242574242
 40
0.7303154469580171
 40
0.7713960514375487
 40
0.8294133471285148
 40
0.9058715427584125
 40
1.0
 40
1.0
 40
1.0
 40
1.0
 10
46.69550853901936
 20
2.714932286619295
 30
0.0
 10
46.51018102935603
 20
2.699829587497326
 30
0.0
 10
46.18626698879805
 20
2.6734332024986
 30
0.0
 10
45.71547901326367
 20
2.646344655571971
 30
0.0
 10
45.26758956175017
 20
2.626910504211258
 30
0.0
 10
44.80061032829132
 20
2.614347936235868
 30
0.0
 10
44.30747162964434
 20
2.61020086427398
 30
0.0
 10
43.83935839396737
 20
2.614845487421507
 30
0.0
 10
43.3216255464636
 20
2.628562614665544
 30
0.0
 10
42.75202233869996
 20
2.655054307869069
 30
0.0
 10
42.24419435625641
 20
2.690303935390134
 30
0.0
 10
41.8715350692053
 20
2.72191661183687
 30
0.0
 10
41.61731983703972
 20
2.745650242619134
 30
0.0
 10
41.30538581202059
 20
2.777754679830196
 30
0.0
 10
40.89981317333021
 20
2.824065317491217
 30
0.0
 10
40.37105010553811
 20
2.891611042887572
 30
0.0
 10
39.97585055528795
 20
2.951803970216092
 30
0.0
 10
39.75778235744576
 20
2.985017983686169
 30
0.0
  0
SPLINE
  5
A2
330
1F
100
AcDbEntity
  8
0
  6
Continuous
 62
     1
370
    15
100
AcDbSpline
210
0.0
220
0.0
230
1.0
 70
     8
 71
     3
 72
    16
 73
    12
 74
     0
 42
0.000000001
 43
0.00000001
 40
0.0
 40
0.0
 40
0.0
 40
0.0
 40
0.1864264791253659
 40
0.3292714640950109
 40
0.4273543249396859
 40
0.4982387790334247
 40
0.568525729854712
 40
0.6387618187653369
 40
0.7149310548134016
 40
0.8758888441011197
 40
1.0
 40
1.0
 40
1.0
 40
1.0
 10
39.75778235744576
 20
-2.985017983686163
 30
0.0
 10
39.94234184495424
 20
-2.95672858182629
 30
0.0
 10
40.26831577821547
 20
-2.906763079004618
 30
0.0
 10
40.69027625054154
 20
-2.850691610920569
 30
0.0
 10
40.99682596743911
 20
-2.813127425048455
 30
0.0
 10
41.23052157311745
 20
-2.786402985599368
 30
0.0
 10
41.43795512325426
 20
-2.764041492090906
 30
0.0
 10
41.65112010181119
 20
-2.742477302938156
 30
0.0
 10
41.95391558024558
 20
-2.714359936068818
 30
0.0
 10
42.3100896553519
 20
-2.684871406400321
 30
0.0
 10
42.59104800097269
 20
-2.668086866244752
 30
0.0
 10
42.71336951520009
 20
-2.660779340415955
 30
0.0
  0
SPLINE
  5
A3
330
1F
100
AcDbEntity
  8
0
  6
Continuous
 62
     1
370
    15
100
AcDbSpline
210
0.0
220
0.0
230
1.0
 70
     8
 71
     3
 72
    23
 73
    19
 74
     0
 42
0.000000001
 43
0.00000001
 40
0.0
 40
0.0
 40
0.0
 40
0.0
 40
0.0852239717191784
 40
0.1462887342087152
 40
0.1944957554431591
 40
0.2453274587992074
 40
0.3001593802471556
 40
0.3614196226542787
 40
0.4283401503586298
 40
0.4995655062794495
 40
0.5712228103317867
 40
0.6384471372693771
 40
0.6991541520377513
 40
0.7528163531863201
 40
0.8030581056003677
 40
0.8515433843698691
 40
0.9135197266659432
 40
0.9999999999999999
 40
0.9999999999999999
 40
0.9999999999999999
 40
0.9999999999999999
 10
30.60103311067282
 20
-3.302614066766874
 30
0.0
 10
30.76937456669458
 20
-3.286327243998371
 30
0.0
 10
31.05833620529812
 20
-3.258370571256845
 30
0.0
 10
31.44565446707475
 20
-3.225930662275842
 30
0.0
 10
31.76684190545106
 20
-3.20132366359863
 30
0.0
 10
32.07367357169385
 20
-3.180202011476298
 30
0.0
 10
32.40578558341769
 20
-3.159983132958623
 30
0.0
 10
32.77011233615151
 20
-3.14101166530806
 30
0.0
 10
33.16684563255619
 20
-3.124196576630493
 30
0.0
 10
33.58418708477458
 20
-3.111025018798326
 30
0.0
 10
34.00238044623706
 20
-3.10264027737345
 30
0.0
 10
34.39958366228207
 20
-3.099042409671528
 30
0.0
 10
34.76096970406039
 20
-3.099453036474252
 30
0.0
 10
35.08829365140594
 20
-3.10285079722695
 30
0.0
 10
35.39216432434989
 20
-3.108501683884481
 30
0.0
 10
35.71466251275966
 20
-3.117037143429958
 30
0.0
 10
36.10692180110402
 20
-3.130574555132247
 30
0.0
 10
36.40009675545331
 20
-3.145200518225223
 30
0.0
 10
36.57087964767546
 20
-3.153720564844133
 30
0.0
  0
LINE
  5
A5
330
1F
100
AcDbEntity
  8
외형선
  6
Continuous
370
    15
100
AcDbLine
 10
-35.1623823854419
 20
4.762499999999996
 30
0.0
 11
-35.1623823854419
 21
-4.762500000000003
 31
0.0
  0
LINE
  5
AB
330
1F
100
AcDbEntity
  8
외형선
  6
Continuous
370
    15
100
AcDbLine
 10
-35.97238238544192
 20
3.952499999999994
 30
0.0
 11
-35.97238238544192
 21
-3.952499999999997
 31
0.0
  0
SPLINE
  5
AE
330
1F
100
AcDbEntity
  8
외형선
  6
Continuous
370
    15
100
AcDbSpline
210
0.0
220
0.0
230
1.0
 70
    24
 71
     3
 72
    14
 73
    10
 74
     0
 42
0.000000001
 43
0.00000001
 40
0.0
 40
0.0
 40
0.0
 40
0.0
 40
0.2499999999999998
 40
0.2499999999999998
 40
0.4999999999999999
 40
0.4999999999999999
 40
0.75
 40
0.75
 40
1.0
 40
1.0
 40
1.0
 40
1.0
 10
29.11511761455809
 20
-1.148994569239836
 30
0.0
 10
29.11511761455809
 20
-1.419612111292076
 30
0.0
 10
29.11511761455809
 20
-1.681448495596216
 30
0.0
 10
29.11511761455809
 20
-2.166270692605608
 30
0.0
 10
29.11511761455809
 20
-2.389083897797135
 30
0.0
 10
29.11511761455809
 20
-2.777825059754026
 30
0.0
 10
29.11511761455809
 20
-2.943640759872484
 30
0.0
 10
29.11511761455809
 20
-3.20849866232949
 30
0.0
 10
29.11511761455809
 20
-3.307541466230524
 30
0.0
 10
29.11511761455809
 20
-3.373235219150464
 30
0.0
  0
SPLINE
  5
B0
330
1F
100
AcDbEntity
  8
외형선
  6
Continuous
370
    15
100
AcDbSpline
210
0.0
220
0.0
230
1.0
 70
    24
 71
     3
 72
    14
 73
    10
 74
     0
 42
0.000000001
 43
0.00000001
 40
0.0
 40
0.0
 40
0.0
 40
0.0
 40
0.25
 40
0.25
 40
0.5
 40
0.5
 40
0.75
 40
0.75
 40
1.0
 40
1.0
 40
1.0
 40
1.0
 10
29.11511761455809
 20
2.589828021296162
 30
0.0
 10
29.11511761455809
 20
2.39574128263443
 30
0.0
 10
29.11511761455809
 20
2.159490047521231
 30
0.0
 10
29.11511761455809
 20
1.613770389406093
 30
0.0
 10
29.11511761455809
 20
1.304424887018486
 30
0.0
 10
29.11511761455809
 20
0.6399283182745403
 30
0.0
 10
29.11511761455809
 20
0.2851313234714467
 30
0.0
 10
29.11511761455809
 20
-0.4337732064176
 30
0.0
 10
29.11511761455809
 20
-0.797514573392194
 30
0.0
 10
29.11511761455809
 20
-1.148994569239838
 30
0.0
  0
SPLINE
  5
B2
330
1F
100
AcDbEntity
  8
외형선
  6
Continuous
370
    15
100
AcDbSpline
210
0.0
220
0.0
230
1.0
 70
    24
 71
     3
 72
    10
 73
     6
 74
     0
 42
0.000000001
 43
0.00000001
 40
0.0
 40
0.0
 40
0.0
 40
0.0
 40
0.5
 40
0.5
 40
1.0
 40
1.0
 40
1.0
 40
1.0
 10
29.11511761455809
 20
3.755664714454353
 30
0.0
 10
29.11511761455809
 20
3.588780622106096
 30
0.0
 10
29.11511761455809
 20
3.39380981193888
 30
0.0
 10
29.11511761455809
 20
2.989848395980109
 30
0.0
 10
29.11511761455809
 20
2.782002427567949
 30
0.0
 10
29.11511761455809
 20
2.589828021296162
 30
0.0
  0
LINE
  5
B4
330
1F
100
AcDbEntity
  8
외형선
  6
Continuous
370
    15
100
AcDbLine
 10
29.11511761455809
 20
3.963916744088764
 30
0.0
 11
29.11511761455809
 21
3.755664714454357
 31
0.0
  0
SPLINE
  5
B6
330
1F
100
AcDbEntity
  8
외형선
  6
Continuous
370
    15
100
AcDbSpline
210
0.0
220
0.0
230
1.0
 70
    24
 71
     3
 72
     8
 73
     4
 74
     0
 42
0.000000001
 43
0.00000001
 40
0.0
 40
0.0
 40
0.0
 40
0.0
 40
1.0
 40
1.0
 40
1.0
 40
1.0
 10
29.11511761455809
 20
-3.373235219150464
 30
0.0
 10
29.11511761455809
 20
-3.575256022803967
 30
0.0
 10
29.11511761455809
 20
-3.773438057191507
 30
0.0
 10
29.11511761455809
 20
-3.963916744079829
 30
0.0
  0
SPLINE
  5
B7
330
1F
100
AcDbEntity
  8
0
  6
Continuous
 62
     1
370
    15
100
AcDbSpline
210
0.0
220
0.0
230
1.0
 70
     8
 71
     3
 72
    48
 73
    44
 74
     0
 42
0.000000001
 43
0.00000001
 40
0.0
 40
0.0
 40
0.0
 40
0.0
 40
0.0625000000000005
 40
0.0625000000000005
 40
0.1250000000000011
 40
0.1250000000000011
 40
0.1562500000000011
 40
0.1562500000000011
 40
0.1875000000000012
 40
0.1875000000000012
 40
0.2500000000000013
 40
0.2500000000000013
 40
0.2812500000000015
 40
0.2812500000000015
 40
0.3125000000000016
 40
0.3125000000000016
 40
0.3750000000000017
 40
0.3750000000000017
 40
0.4375000000000018
 40
0.4375000000000018
 40
0.5000000000000019
 40
0.5000000000000019
 40
0.562500000000002
 40
0.562500000000002
 40
0.5937500000000019
 40
0.5937500000000019
 40
0.6250000000000018
 40
0.6250000000000018
 40
0.6875000000000017
 40
0.6875000000000017
 40
0.7187500000000017
 40
0.7187500000000017
 40
0.7500000000000016
 40
0.7500000000000016
 40
0.8125000000000012
 40
0.8125000000000012
 40
0.8750000000000008
 40
0.8750000000000008
 40
0.9375000000000004
 40
0.9375000000000004
 40
0.9687500000000003
 40
0.9687500000000003
 40
1.0
 40
1.0
 40
1.0
 40
1.0
 10
48.16511761455811
 20
-3.968749999999992
 30
0.0
 10
47.77113224414881
 20
-3.95599975293409
 30
0.0
 10
47.37092192668322
 20
-3.926675092692576
 30
0.0
 10
46.57590073169587
 20
-3.829130809378953
 30
0.0
 10
46.18249421854443
 20
-3.761164260257652
 30
0.0
 10
45.58511351478244
 20
-3.631132378962674
 30
0.0
 10
45.38577891689305
 20
-3.583161096352687
 30
0.0
 10
44.98893417995637
 20
-3.478535238599871
 30
0.0
 10
44.79238842996741
 20
-3.421987991379525
 30
0.0
 10
44.19809199218867
 20
-3.239320361778722
 30
0.0
 10
43.7975257935572
 20
-3.100186994105946
 30
0.0
 10
43.20354970720692
 20
-2.870130650454055
 30
0.0
 10
43.00692160584511
 20
-2.789953818295184
 30
0.0
 10
42.60990766144119
 20
-2.622324450858581
 30
0.0
 10
42.41054172569773
 20
-2.534999179942651
 30
0.0
 10
41.81322856036839
 20
-2.263935772868751
 30
0.0
 10
41.41994883862145
 20
-2.071755619689015
 30
0.0
 10
40.62467850516405
 20
-1.66725172412167
 30
0.0
 10
40.22513100595073
 20
-1.455265208313922
 30
0.0
 10
39.4365777509868
 20
-1.020808827950286
 30
0.0
 10
39.03628622423931
 20
-0.7962741969986
 30
0.0
 10
38.24153458915162
 20
-0.3425496318203019
 30
0.0
 10
37.84796863135741
 20
-0.1135676923216413
 30
0.0
 10
37.25053580101543
 20
0.2303997957119719
 30
0.0
 10
37.05123769605833
 20
0.3449393848560202
 30
0.0
 10
36.65457232021903
 20
0.5725012530765967
 30
0.0
 10
36.45807132546039
 20
0.6853608486772504
 30
0.0
 10
35.86346968365072
 20
1.021921774413594
 30
0.0
 10
35.46291395760625
 20
1.243055224528153
 30
0.0
 10
34.8692733427099
 20
1.562496498217236
 30
0.0
 10
34.67252530085705
 20
1.666962844154653
 30
0.0
 10
34.27535231711121
 20
1.872114922578874
 30
0.0
 10
34.07596020130023
 20
1.972612221332062
 30
0.0
 10
33.4787299804473
 20
2.266154521964765
 30
0.0
 10
33.08554438598723
 20
2.450689452544542
 30
0.0
 10
32.29004535687413
 20
2.794881807417459
 30
0.0
 10
31.89112854801808
 20
2.953932139890266
 30
0.0
 10
31.1020126480305
 20
3.239962964022735
 30
0.0
 10
30.70165036049777
 20
3.368133638556581
 30
0.0
 10
30.1058041028326
 20
3.53366330432817
 30
0.0
 10
29.90900053931728
 20
3.584332295665771
 30
0.0
 10
29.51332789193088
 20
3.676795516257013
 30
0.0
 10
29.31427412808656
 20
3.718584214365869
 30
0.0
 10
29.11511761455809
 20
3.755664714454359
 30
0.0
  0
SPLINE
  5
B8
330
1F
100
AcDbEntity
  8
0
  6
Continuous
 62
     1
370
    15
100
AcDbSpline
210
0.0
220
0.0
230
1.0
 70
     8
 71
     3
 72
    13
 73
     9
 74
     0
 42
0.000000001
 43
0.00000001
 40
0.0
 40
0.0
 40
0.0
 40
0.0
 40
0.0445141458340743
 40
0.2313696390876428
 40
0.4182291932747058
 40
0.6050923426348133
 40
0.8025389605740831
 40
1.0
 40
1.0
 40
1.0
 40
1.0
 10
38.28935188248507
 20
-0.3684382465418713
 30
0.0
 10
38.1532281316835
 20
-0.3147986161726214
 30
0.0
 10
37.44570241139648
 20
-0.0359977611458142
 30
0.0
 10
36.16676011361882
 20
0.4894592384075682
 30
0.0
 10
34.45250149902152
 20
1.155348254208404
 30
0.0
 10
32.7058931905557
 20
1.76021439325938
 30
0.0
 10
30.92669925903429
 20
2.272714708856365
 30
0.0
 10
29.71899286397785
 20
2.48412101039339
 30
0.0
 10
29.1151176145581
 20
2.589828021296162
 30
0.0
  0
SPLINE
  5
B9
330
1F
100
AcDbEntity
  8
외형선
  6
Continuous
370
    15
100
AcDbSpline
210
0.0
220
0.0
230
1.0
 70
    24
 71
     3
 72
    10
 73
     6
 74
     0
 42
0.000000001
 43
0.00000001
 40
0.0
 40
0.0
 40
0.0
 40
0.0
 40
0.5
 40
0.5
 40
1.0
 40
1.0
 40
1.0
 40
1.0
 10
29.1151176145581
 20
3.755664714454352
 30
0.0
 10
29.1151176145581
 20
3.588780622106095
 30
0.0
 10
29.1151176145581
 20
3.39380981193888
 30
0.0
 10
29.1151176145581
 20
2.989848395980109
 30
0.0
 10
29.1151176145581
 20
2.78200242756795
 30
0.0
 10
29.1151176145581
 20
2.589828021296162
 30
0.0
  0
SPLINE
  5
BA
330
1F
100
AcDbEntity
  8
0
  6
Continuous
 62
     1
370
    15
100
AcDbSpline
210
0.0
220
0.0
230
1.0
 70
     8
 71
     3
 72
    48
 73
    44
 74
     0
 42
0.000000001
 43
0.00000001
 40
0.0
 40
0.0
 40
0.0
 40
0.0
 40
0.0625000000000001
 40
0.0625000000000001
 40
0.1250000000000001
 40
0.1250000000000001
 40
0.1562500000000002
 40
0.1562500000000002
 40
0.1875000000000002
 40
0.1875000000000002
 40
0.2500000000000003
 40
0.2500000000000003
 40
0.2812500000000002
 40
0.2812500000000002
 40
0.3125000000000001
 40
0.3125000000000001
 40
0.3749999999999999
 40
0.3749999999999999
 40
0.4374999999999998
 40
0.4374999999999998
 40
0.4999999999999997
 40
0.4999999999999997
 40
0.5624999999999996
 40
0.5624999999999996
 40
0.5937499999999994
 40
0.5937499999999994
 40
0.6249999999999993
 40
0.6249999999999993
 40
0.6874999999999994
 40
0.6874999999999994
 40
0.7187499999999994
 40
0.7187499999999994
 40
0.7499999999999994
 40
0.7499999999999994
 40
0.8124999999999997
 40
0.8124999999999997
 40
0.8749999999999999
 40
0.8749999999999999
 40
0.9375
 40
0.9375
 40
0.9687500000000001
 40
0.9687500000000001
 40
1.0
 40
1.0
 40
1.0
 40
1.0
 10
48.16511761455811
 20
-3.7661090747641
 30
0.0
 10
47.77113224414876
 20
-3.694002260965692
 30
0.0
 10
47.37092192668308
 20
-3.602637743433964
 30
0.0
 10
46.57590073169562
 20
-3.385151804777589
 30
0.0
 10
46.18249421854409
 20
-3.259337743305104
 30
0.0
 10
45.58511351478198
 20
-3.046375108309164
 30
0.0
 10
45.38577891689258
 20
-2.971450058118714
 30
0.0
 10
44.98893417995583
 20
-2.814594100783439
 30
0.0
 10
44.79238842996683
 20
-2.732808808389365
 30
0.0
 10
44.198091992188
 20
-2.476900395710615
 30
0.0
 10
43.79752579355646
 20
-2.292353170388527
 30
0.0
 10
43.20354970720608
 20
-2.000815073620551
 30
0.0
 10
43.00692160584423
 20
-1.901247525911551
 30
0.0
 10
42.60990766144025
 20
-1.696982411733792
 30
0.0
 10
42.41054172569675
 20
-1.592449080113895
 30
0.0
 10
41.8132285603673
 20
-1.273391741193357
 30
0.0
 10
41.41994883862031
 20
-1.054138439571845
 30
0.0
 10
40.62467850516276
 20
-0.6057093542483187
 30
0.0
 10
40.2251310059494
 20
-0.3769644801938376
 30
0.0
 10
39.43657775098531
 20
0.0799898622204265
 30
0.0
 10
39.03628622423774
 20
0.3103653891337635
 30
0.0
 10
38.24153458914994
 20
0.7646093190796168
 30
0.0
 10
37.84796863135565
 20
0.9883234398572398
 30
0.0
 10
37.25053580101357
 20
1.316140893798574
 30
0.0
 10
37.05123769605644
 20
1.423926052161625
 30
0.0
 10
36.65457232021708
 20
1.63532385833283
 30
0.0
 10
36.45807132545841
 20
1.73879256298809
 30
0.0
 10
35.86346968364861
 20
2.043194918232612
 30
0.0
 10
35.46291395760407
 20
2.237566811388522
 30
0.0
 10
34.86927334270766
 20
2.509791042595678
 30
0.0
 10
34.67252530085476
 20
2.597349974814037
 30
0.0
 10
34.27535231710884
 20
2.766299701911763
 30
0.0
 10
34.07596020129782
 20
2.847528296913306
 30
0.0
 10
33.47872998044481
 20
3.080078840859392
 30
0.0
 10
33.08554438598466
 20
3.219851806463149
 30
0.0
 10
32.29004535687141
 20
3.466952818749997
 30
0.0
 10
31.89112854801535
 20
3.573783708628593
 30
0.0
 10
31.10201264802759
 20
3.750117566051437
 30
0.0
 10
30.70165036049478
 20
3.82033757567994
 30
0.0
 10
30.10580410282953
 20
3.896205312134261
 30
0.0
 10
29.9090005393142
 20
3.916588379889165
 30
0.0
 10
29.51332789192771
 20
3.94762287351154
 30
0.0
 10
29.31427412808334
 20
3.958257407019541
 30
0.0
 10
29.11511761455485
 20
3.96391674408886
 30
0.0
  0
SPLINE
  5
BB
330
1F
100
AcDbEntity
  8
0
  6
Continuous
 62
     1
370
    15
100
AcDbSpline
210
0.0
220
0.0
230
1.0
 70
     8
 71
     3
 72
    13
 73
     9
 74
     0
 42
0.000000001
 43
0.00000001
 40
0.0
 40
0.0
 40
0.0
 40
0.0
 40
0.1666767134198898
 40
0.3333592758662544
 40
0.5000472959991508
 40
0.6667403809120139
 40
0.833438136242326
 40
0.9999999999999999
 40
0.9999999999999999
 40
0.9999999999999999
 40
0.9999999999999999
 10
48.16511761455811
 20
-3.131233674211355
 30
0.0
 10
47.59383109188597
 20
-3.00807019936394
 30
0.0
 10
46.45123799893018
 20
-2.761738927611099
 30
0.0
 10
44.73730815778321
 20
-2.169589407416538
 30
0.0
 10
43.02331459391772
 20
-1.45680519105824
 30
0.0
 10
41.309260934048
 20
-0.6513799737111603
 30
0.0
 10
39.59563303520501
 20
0.1976453996400254
 30
0.0
 10
38.45335361218012
 20
0.7443392818256496
 30
0.0
 10
37.88244679139054
 20
1.017574761632505
 30
0.0
  0
LINE
  5
BC
330
1F
100
AcDbEntity
  8
0
  6
Continuous
 62
     1
370
    15
100
AcDbLine
 10
48.16511761455811
 20
-3.766109074764101
 30
0.0
 11
48.16511761455811
 21
-3.131233674211355
 31
0.0
  0
LINE
  5
BD
330
1F
100
AcDbEntity
  8
0
  6
Continuous
 62
     1
370
    15
100
AcDbLine
 10
48.16511761455811
 20
-3.968749999999992
 30
0.0
 11
48.16511761455811
 21
-3.7661090747641
 31
0.0
  0
SPLINE
  5
BE
330
1F
100
AcDbEntity
  8
0
  6
Continuous
 62
     1
370
    15
100
AcDbSpline
210
0.0
220
0.0
230
1.0
 70
     8
 71
     3
 72
     8
 73
     4
 74
     0
 42
0.000000001
 43
0.00000001
 40
0.0
 40
0.0
 40
0.0
 40
0.0
 40
1.0
 40
1.0
 40
1.0
 40
1.0
 10
45.70917430214278
 20
1.110410216782525
 30
0.0
 10
45.56814968859594
 20
1.277501323937559
 30
0.0
 10
45.44239142590613
 20
1.438197945001424
 30
0.0
 10
45.33544228674351
 20
1.591016149021973
 30
0.0
  0
LINE
  5
BF
330
1F
100
AcDbEntity
  8
0
  6
Continuous
 62
     1
370
    15
100
AcDbLine
 10
45.38558956690393
 20
1.633094713309131
 30
0.0
 11
48.16511761455811
 21
0.0000000000000058
 31
0.0
  0
LINE
  5
C0
330
1F
100
AcDbEntity
  8
0
  6
Continuous
 62
     1
370
    15
100
AcDbLine
 10
48.16511761455811
 20
0.0000000000000058
 30
0.0
 11
48.16511761455811
 21
-1.060620442055148
 31
0.0
  0
SPLINE
  5
C1
330
1F
100
AcDbEntity
  8
0
  6
Continuous
 62
     1
370
    15
100
AcDbSpline
210
0.0
220
0.0
230
1.0
 70
     8
 71
     3
 72
    10
 73
     6
 74
     0
 42
0.000000001
 43
0.00000001
 40
0.0
 40
0.0
 40
0.0
 40
0.0
 40
0.5
 40
0.5
 40
1.0
 40
1.0
 40
1.0
 40
1.0
 10
48.16511761455811
 20
-1.060620442055148
 30
0.0
 10
47.73998217744889
 20
-0.7263914625886121
 30
0.0
 10
47.32194985265699
 20
-0.3784565810895857
 30
0.0
 10
46.50045147827031
 20
0.345519726182387
 30
0.0
 10
46.0931520149165
 20
0.725359725585865
 30
0.0
 10
45.70917430214278
 20
1.110410216782527
 30
0.0
  0
SPLINE
  5
C2
330
1F
100
AcDbEntity
  8
0
  6
Continuous
 62
     1
370
    15
100
AcDbSpline
210
0.0
220
0.0
230
1.0
 70
     8
 71
     3
 72
    13
 73
     9
 74
     0
 42
0.000000001
 43
0.00000001
 40
0.0
 40
0.0
 40
0.0
 40
0.0
 40
0.1468899554448019
 40
0.2938898308044569
 40
0.4814076825191277
 40
0.66893086210615
 40
0.8564589181308634
 40
1.0
 40
1.0
 40
1.0
 40
1.0
 10
45.70917430211897
 20
1.110410216792798
 30
0.0
 10
45.26172931044086
 20
1.300056951901895
 30
0.0
 10
44.36650449741408
 20
1.679492337562248
 30
0.0
 10
42.89992566297301
 20
2.21819785797888
 30
0.0
 10
41.30922929230596
 20
2.696365994536031
 30
0.0
 10
39.5951393063987
 20
3.037173896818775
 30
0.0
 10
38.01501099472346
 20
3.200078507306741
 30
0.0
 10
37.00625789960079
 20
3.155317016729353
 30
0.0
 10
36.56889453938576
 20
3.135909853547585
 30
0.0
  0
SPLINE
  5
C3
330
1F
100
AcDbEntity
  8
0
  6
Continuous
 62
     1
370
    15
100
AcDbSpline
210
0.0
220
0.0
230
1.0
 70
    24
 71
     3
 72
    10
 73
     6
 74
     0
 42
0.000000001
 43
0.00000001
 40
0.0
 40
0.0
 40
0.0
 40
0.0
 40
0.5
 40
0.5
 40
1.0
 40
1.0
 40
1.0
 40
1.0
 10
48.16511761455811
 20
-3.131233674211354
 30
0.0
 10
48.16511761455811
 20
-2.891200200108848
 30
0.0
 10
48.16511761455811
 20
-2.587908701753793
 30
0.0
 10
48.1651176145581
 20
-1.882785156629257
 30
0.0
 10
48.16511761455811
 20
-1.481563914609882
 30
0.0
 10
48.16511761455811
 20
-1.060620442055275
 30
0.0
  0
SPLINE
  5
C4
330
1F
100
AcDbEntity
  8
0
  6
Continuous
 62
     1
370
    15
100
AcDbSpline
210
0.0
220
0.0
230
1.0
 70
    24
 71
     3
 72
     8
 73
     4
 74
     0
 42
0.000000001
 43
0.00000001
 40
0.0
 40
0.0
 40
0.0
 40
0.0
 40
1.0
 40
1.0
 40
1.0
 40
1.0
 10
45.74952898959945
 20
1.938476148661927
 30
0.0
 10
45.6185649397102
 20
1.828584262702387
 30
0.0
 10
45.48009469312301
 20
1.712393929863898
 30
0.0
 10
45.33544228674359
 20
1.591016149022024
 30
0.0
  0
LINE
  5
C5
330
1F
100
AcDbEntity
  8
0
  6
Continuous
 62
     1
370
    15
100
AcDbLine
 10
48.16511761455811
 20
2.778125000000003
 30
0.0
 11
46.69339796353019
 21
2.7043410670458
 31
0.0
  0
SPLINE
  5
C6
330
1F
100
AcDbEntity
  8
0
  6
Continuous
 62
     1
370
    15
100
AcDbSpline
210
0.0
220
0.0
230
1.0
 70
     8
 71
     3
 72
    10
 73
     6
 74
     0
 42
0.000000001
 43
0.00000001
 40
0.0
 40
0.0
 40
0.0
 40
0.0
 40
0.5
 40
0.5
 40
1.0
 40
1.0
 40
1.0
 40
1.0
 10
48.16511761455811
 20
2.778125000000006
 30
0.0
 10
47.7568931131389
 20
2.667364671135018
 30
0.0
 10
47.35114949825634
 20
2.543114387779926
 30
0.0
 10
46.54512114899942
 20
2.264930863572465
 30
0.0
 10
46.14477527030962
 20
2.111487272308538
 30
0.0
 10
45.74952898960619
 20
1.938476148666212
 30
0.0
  0
SPLINE
  5
C7
330
1F
100
AcDbEntity
  8
0
  6
Continuous
 62
     1
370
    15
100
AcDbSpline
210
0.0
220
0.0
230
1.0
 70
     8
 71
     3
 72
    14
 73
    10
 74
     0
 42
0.000000001
 43
0.00000001
 40
0.0
 40
0.0
 40
0.0
 40
0.0
 40
0.0156937794158258
 40
0.1766967507293583
 40
0.3377035199367053
 40
0.4987136971471056
 40
0.6597268914823851
 40
0.8298573940578369
 40
1.0
 40
1.0
 40
1.0
 40
1.0
 10
39.76223626568551
 20
-2.97643301814168
 30
0.0
 10
39.70654037196176
 20
-2.987801042690464
 30
0.0
 10
39.07945857163847
 20
-3.115793984782929
 30
0.0
 10
37.88097102777554
 20
-3.18743694736249
 30
0.0
 10
36.16676608927559
 20
-3.162290783121349
 30
0.0
 10
34.45250556902887
 20
-2.923212423878198
 30
0.0
 10
32.70591347828811
 20
-2.499019607300545
 30
0.0
 10
30.92670249174321
 20
-1.905633086231677
 30
0.0
 10
29.7189935595139
 20
-1.401213388900319
 30
0.0
 10
29.1151176145581
 20
-1.148994569239841
 30
0.0
  0
SPLINE
  5
C8
330
1F
100
AcDbEntity
  8
외형선
  6
Continuous
370
    15
100
AcDbSpline
210
0.0
220
0.0
230
1.0
 70
    24
 71
     3
 72
    14
 73
    10
 74
     0
 42
0.000000001
 43
0.00000001
 40
0.0
 40
0.0
 40
0.0
 40
0.0
 40
0.25
 40
0.25
 40
0.5
 40
0.5
 40
0.75
 40
0.75
 40
1.0
 40
1.0
 40
1.0
 40
1.0
 10
29.11511761455809
 20
2.589828021296162
 30
0.0
 10
29.11511761455809
 20
2.39574128263443
 30
0.0
 10
29.11511761455809
 20
2.159490047521231
 30
0.0
 10
29.11511761455809
 20
1.613770389406093
 30
0.0
 10
29.11511761455809
 20
1.304424887018486
 30
0.0
 10
29.11511761455809
 20
0.6399283182745403
 30
0.0
 10
29.11511761455809
 20
0.2851313234714467
 30
0.0
 10
29.11511761455809
 20
-0.4337732064176
 30
0.0
 10
29.11511761455809
 20
-0.797514573392194
 30
0.0
 10
29.11511761455809
 20
-1.148994569239838
 30
0.0
  0
SPLINE
  5
C9
330
1F
100
AcDbEntity
  8
0
  6
Continuous
 62
     1
370
    15
100
AcDbSpline
210
0.0
220
0.0
230
1.0
 70
     8
 71
     3
 72
     9
 73
     5
 74
     0
 42
0.000000001
 43
0.00000001
 40
0.0
 40
0.0
 40
0.0
 40
0.0
 40
0.1894776718434977
 40
1.0
 40
1.0
 40
1.0
 40
1.0
 10
30.60326217099606
 20
-3.293315397261677
 30
0.0
 10
30.50924836893656
 20
-3.305572374443205
 30
0.0
 10
30.01307485601123
 20
-3.370260614816199
 30
0.0
 10
29.51710900820672
 20
-3.371903568503103
 30
0.0
 10
29.11511761455809
 20
-3.373235219150465
 30
0.0
  0
SPLINE
  5
CA
330
1F
100
AcDbEntity
  8
외형선
  6
Continuous
370
    15
100
AcDbSpline
210
0.0
220
0.0
230
1.0
 70
    24
 71
     3
 72
    14
 73
    10
 74
     0
 42
0.000000001
 43
0.00000001
 40
0.0
 40
0.0
 40
0.0
 40
0.0
 40
0.25
 40
0.25
 40
0.5
 40
0.5
 40
0.75
 40
0.75
 40
1.0
 40
1.0
 40
1.0
 40
1.0
 10
29.11511761455809
 20
-1.148994569239837
 30
0.0
 10
29.11511761455809
 20
-1.419612111292077
 30
0.0
 10
29.11511761455809
 20
-1.681448495596217
 30
0.0
 10
29.11511761455809
 20
-2.166270692605608
 30
0.0
 10
29.11511761455809
 20
-2.389083897797135
 30
0.0
 10
29.11511761455809
 20
-2.777825059754026
 30
0.0
 10
29.11511761455809
 20
-2.943640759872483
 30
0.0
 10
29.11511761455809
 20
-3.208498662329491
 30
0.0
 10
29.11511761455809
 20
-3.307541466230523
 30
0.0
 10
29.11511761455809
 20
-3.373235219150463
 30
0.0
  0
LINE
  5
CB
330
1F
100
AcDbEntity
  8
0
  6
Continuous
 62
     1
370
    15
100
AcDbLine
 10
48.16511761455811
 20
0.0000000000000058
 30
0.0
 11
48.16511761455811
 21
2.778125000000006
 31
0.0
  0
SPLINE
  5
CC
330
1F
100
AcDbEntity
  8
0
  6
Continuous
 62
     1
370
    15
100
AcDbSpline
210
0.0
220
0.0
230
1.0
 70
     8
 71
     3
 72
    11
 73
     7
 74
     0
 42
0.000000001
 43
0.00000001
 40
0.0
 40
0.0
 40
0.0
 40
0.0
 40
0.0110186910935283
 40
0.3408480073425082
 40
0.6704701036864048
 40
1.0
 40
1.0
 40
1.0
 40
1.0
 10
33.3520988441049
 20
-3.119150976724883
 30
0.0
 10
33.33653369563249
 20
-3.125352088007937
 30
0.0
 10
32.85504730166979
 20
-3.317174910355604
 30
0.0
 10
31.90804877627536
 20
-3.577247506573203
 30
0.0
 10
30.51133320855231
 20
-3.87895523420042
 30
0.0
 10
29.58047941095655
 20
-3.935598881835586
 30
0.0
 10
29.11511761455485
 20
-3.963916744088854
 30
0.0
  0
SPLINE
  5
CD
330
1F
100
AcDbEntity
  8
외형선
  6
Continuous
370
    15
100
AcDbSpline
210
0.0
220
0.0
230
1.0
 70
    24
 71
     3
 72
     8
 73
     4
 74
     0
 42
0.000000001
 43
0.00000001
 40
0.0
 40
0.0
 40
0.0
 40
0.0
 40
1.0
 40
1.0
 40
1.0
 40
1.0
 10
29.1151176145581
 20
-3.373235219150464
 30
0.0
 10
29.1151176145581
 20
-3.575256022803964
 30
0.0
 10
29.1151176145581
 20
-3.773438057191503
 30
0.0
 10
29.1151176145581
 20
-3.963916744079824
 30
0.0
  0
SPLINE
  5
CE
330
1F
100
AcDbEntity
  8
0
  6
Continuous
 62
     1
370
    15
100
AcDbSpline
210
0.0
220
0.0
230
1.0
 70
     8
 71
     3
 72
    11
 73
     7
 74
     0
 42
0.000000001
 43
0.00000001
 40
0.0
 40
0.0
 40
0.0
 40
0.0
 40
0.231432100786415
 40
0.4874889984344277
 40
0.7436486143492421
 40
1.0
 40
1.0
 40
1.0
 40
1.0
 10
42.71202517961171
 20
2.660249603785971
 30
0.0
 10
43.1326621747157
 20
2.833785829279307
 30
0.0
 10
44.01869270700107
 20
3.199322850593001
 30
0.0
 10
45.37030061649266
 20
3.598884265161765
 30
0.0
 10
46.76729693589741
 20
3.885233661323608
 30
0.0
 10
47.69906117347858
 20
3.938668337730568
 30
0.0
 10
48.16511761455811
 20
3.968750000000008
 30
0.0
  0
SPLINE
  5
CF
330
1F
100
AcDbEntity
  8
0
  6
Continuous
 62
     1
370
    15
100
AcDbSpline
210
0.0
220
0.0
230
1.0
 70
    24
 71
     3
 72
    10
 73
     6
 74
     0
 42
0.000000001
 43
0.00000001
 40
0.0
 40
0.0
 40
0.0
 40
0.0
 40
0.5
 40
0.5
 40
1.0
 40
1.0
 40
1.0
 40
1.0
 10
48.16511761455811
 20
2.778125000000003
 30
0.0
 10
48.16511761455811
 20
2.946528019204029
 30
0.0
 10
48.16511761455811
 20
3.142227923316373
 30
0.0
 10
48.16511761455811
 20
3.552805795063398
 30
0.0
 10
48.16511761455811
 20
3.766635198337095
 30
0.0
 10
48.16511761455811
 20
3.968750000000008
 30
0.0
  0
LINE
  5
D0
330
1F
100
AcDbEntity
  8
중심선
 48
0.8
100
AcDbLine
 10
-38.97238238544193
 20
-0.0000000000000019
 30
0.0
 11
51.16511761455811
 21
0.0000000000000091
 31
0.0
  0
LINE
  5
D1
330
1F
100
AcDbEntity
  8
참조1
100
AcDbLine
 10
14.98331360008148
 20
-0.0000000000000015
 30
0.0
 11
14.98331360008148
 21
-40.0
 31
0.0
  0
LINE
  5
D2
330
1F
100
AcDbEntity
  8
참조1
100
AcDbLine
 10
14.98331360008148
 20
-40.0
 30
0.0
 11
3.00200106478184
 21
-39.99999999999999
 31
0.0
  0
INSERT
  5
D4
330
1F
100
AcDbEntity
  8
0
  6
Continuous
 62
     7
100
AcDbBlockReference
 66
     1
  2
블럭10
 10
1.043040667956269
 20
-52.04717430164393
 30
0.0
  0
ATTRIB
  5
D5
330
D4
100
AcDbEntity
  8
FORMAT
 62
     2
100
AcDbText
 10
-8.138254620785009
 20
-49.97180738881174
 30
0.0
 40
4.233333333333333
  1
E2033020 [ 2 FLUTE ]
 41
0.75
  7
SLDTEXTSTYLE0
 11
-8.138254620785009
 21
-52.08847405547841
 31
0.0
100
AcDbAttribute
  2
AUTOATTR0
 70
     0
 74
     1
  0
SEQEND
  5
D6
330
D4
100
AcDbEntity
  8
0
  6
Continuous
 62
     7
  0
HATCH
  5
D7
330
1F
100
AcDbEntity
  8
중심선
100
AcDbHatch
 10
0.0
 20
0.0
 30
0.0
210
0.0
220
0.0
230
1.0
  2
SOLID
 70
     1
 71
     0
 91
        1
 92
        0
 93
        4
 72
     1
 10
6.757949972337101
 20
-35.79999999999999
 11
3.31167472849982
 21
-35.79999999999999
 72
     1
 10
3.31167472849982
 20
-35.79999999999999
 11
1.183444869295791
 21
-38.33632558057259
 72
     1
 10
1.183444869295791
 20
-38.33632558057259
 11
4.629753198246259
 21
-38.33628615127009
 72
     1
 10
4.629753198246259
 20
-38.33628615127009
 11
6.757949972337101
 21
-35.79999999999999
 97
        0
 75
     0
 76
     1
 98
        1
 10
23.15280228605031
 20
-0.0010749287238907
  0
HATCH
  5
D8
330
1F
100
AcDbEntity
  8
중심선
100
AcDbHatch
 10
0.0
 20
0.0
 30
0.0
210
0.0
220
0.0
230
1.0
  2
SOLID
 70
     1
 71
     0
 91
        1
 92
        0
 93
        4
 72
     1
 10
11.77071396337305
 20
-35.79999999999999
 11
8.32443871953583
 21
-35.79999999999999
 72
     1
 10
8.32443871953583
 20
-35.79999999999999
 11
3.793300711178379
 21
-41.20000000000001
 72
     1
 10
3.793300711178379
 20
-41.20000000000001
 11
7.23957595501566
 21
-41.20000000000001
 72
     1
 10
7.23957595501566
 20
-41.20000000000001
 11
11.77071396337305
 21
-35.79999999999999
 97
        0
 75
     0
 76
     1
 98
        1
 10
23.15280228605031
 20
-0.0010749287238907
  0
HATCH
  5
D9
330
1F
100
AcDbEntity
  8
중심선
100
AcDbHatch
 10
0.0
 20
0.0
 30
0.0
210
0.0
220
0.0
230
1.0
  2
SOLID
 70
     1
 71
     0
 91
        1
 92
        0
 93
        4
 72
     1
 10
16.78347795440895
 20
-35.79999999999997
 11
13.33720271057183
 21
-35.79999999999999
 72
     1
 10
13.33720271057183
 20
-35.79999999999999
 11
6.28876580868258
 21
-44.20000000000001
 72
     1
 10
6.28876580868258
 20
-44.20000000000001
 11
9.73504105251986
 21
-44.20000000000001
 72
     1
 10
9.73504105251986
 20
-44.20000000000001
 11
16.78347795440895
 21
-35.79999999999997
 97
        0
 75
     0
 76
     1
 98
        1
 10
23.15280228605031
 20
-0.0010749287238907
  0
HATCH
  5
DA
330
1F
100
AcDbEntity
  8
중심선
100
AcDbHatch
 10
0.0
 20
0.0
 30
0.0
210
0.0
220
0.0
230
1.0
  2
SOLID
 70
     1
 71
     0
 91
        1
 92
        0
 93
        6
 72
     3
 10
21.58336838542115
 20
-40.00000000005127
 11
3.960054785062283
 21
1.540882976769353E-10
 40
0.3939339440162628
 50
17.09539180608436
 51
320.0019657685078
 73
     0
 72
     1
 10
23.26636804112174
 20
-38.5878940046383
 11
25.57166991482281
 21
-36.65356729459035
 72
     3
 10
21.5833683853683
 20
-40.00000000000014
 11
6.600054785286829
 21
-1.278976924368180E-13
 40
0.636358354079598
 50
39.99873849337411
 51
368.4976242363724
 73
     1
 72
     1
 10
28.00870087726891
 20
-39.03999999993002
 11
20.26343569220422
 21
-39.03999999993002
 72
     1
 10
20.26343569220422
 20
-39.03999999993002
 11
20.26341064775829
 21
-40.95999999992991
 72
     1
 10
20.26341064775829
 20
-40.95999999992991
 11
24.70479041723033
 21
-40.95999999992988
 97
        0
 75
     0
 76
     1
 98
        1
 10
23.15280228605031
 20
-0.0010749287238907
  0
DIMENSION
  5
DB
330
1F
100
AcDbEntity
  8
치수문자_일반주서
100
AcDbDimension
  2
_D
 10
-48.66238238544189
 20
-4.76250000000005
 30
0.0
 11
-48.66238238544191
 21
0.000000000000012
 31
0.0
 70
   160
  1
%%c<>
 71
     2
 42
9.525000000000006
 52
-270.0
  3
SLDDIMSTYLE0
100
AcDbAlignedDimension
 13
-35.16238238544189
 23
4.762500000000006
 33
0.0
 14
-35.16238238544189
 24
-4.762499999999999
 34
0.0
 50
90.0000000000002
100
AcDbRotatedDimension
1001
ACAD
1000
DSTYLE
1002
{
1070
   171
1070
     6
1070
   273
1070
     7
1002
}
  0
DIMENSION
  5
F0
330
1F
100
AcDbEntity
  8
치수문자_일반주서
100
AcDbDimension
  2
_D_1
 10
29.11511761455809
 20
16.90712142862929
 30
0.0
 11
10.0423676145581
 21
16.90712142862929
 31
0.0
 70
   160
  1
<>
 71
     2
 42
19.05000000000002
  3
SLDDIMSTYLE0
100
AcDbAlignedDimension
 13
48.16511761455811
 23
3.968750000000008
 33
0.0
 14
29.11511761455809
 24
3.963916744088767
 34
0.0
100
AcDbRotatedDimension
1001
ACAD
1000
DSTYLE
1002
{
1070
   171
1070
     6
1070
   273
1070
     7
1002
}
  0
DIMENSION
  5
105
330
1F
100
AcDbEntity
  8
치수문자_일반주서
100
AcDbDimension
  2
_D_2
 10
-35.97238238544192
 20
34.29163864014821
 30
0.0
 11
6.096367614558091
 21
34.29163864014821
 31
0.0
 70
   160
  1
<>
 71
     2
 42
84.13750000000003
  3
SLDDIMSTYLE0
100
AcDbAlignedDimension
 13
48.16511761455811
 23
3.968750000000008
 33
0.0
 14
-35.97238238544192
 24
3.952499999999994
 34
0.0
 50
0.0000000000000048
100
AcDbRotatedDimension
1001
ACAD
1000
DSTYLE
1002
{
1070
   171
1070
     6
1070
   273
1070
     7
1002
}
  0
DIMENSION
  5
118
330
1F
100
AcDbEntity
  8
치수문자_일반주서
100
AcDbDimension
  2
_D_3
 10
64.31978448869675
 20
3.968750000000068
 30
0.0
 11
64.31978448869668
 21
24.57275000000007
 31
0.0
 70
   160
  1
%%c<>
 71
     2
 42
7.9375
 52
-270.0
  3
SLDDIMSTYLE0
100
AcDbAlignedDimension
 13
48.16511761455811
 23
-3.968749999999992
 33
0.0
 14
48.16511761455811
 24
3.968750000000008
 34
0.0
 50
90.0000000000002
100
AcDbRotatedDimension
1001
ACAD
1000
DSTYLE
1002
{
1070
   171
1070
     6
1070
   273
1070
     7
1002
}
  0
LINE
  5
12B
330
1F
100
AcDbEntity
  8
참조1
100
AcDbLine
 10
100.9743416944361
 20
7.440000000000006
 30
0.0
 11
100.9743416944361
 21
-7.44
 31
0.0
  0
LINE
  5
12C
330
1F
100
AcDbEntity
  8
참조1
100
AcDbLine
 10
113.6743416944361
 20
5.440000000000006
 30
0.0
 11
100.9743416944361
 21
5.440000000000006
 31
0.0
  0
SOLID
  5
12D
330
1F
100
AcDbEntity
  8
참조1
100
AcDbTrace
 10
100.9743416944361
 20
5.440000000000006
 30
0.0
 11
107.3243416944361
 21
4.424000000000006
 31
0.0
 12
107.3243416944361
 22
6.456000000000006
 32
0.0
 13
107.3243416944361
 23
6.456000000000006
 33
0.0
  0
LINE
  5
12E
330
1F
100
AcDbEntity
  8
참조1
100
AcDbLine
 10
113.6743416944361
 20
-5.44
 30
0.0
 11
100.9743416944361
 21
-5.44
 31
0.0
  0
SOLID
  5
12F
330
1F
100
AcDbEntity
  8
참조1
100
AcDbTrace
 10
100.9743416944361
 20
-5.44
 30
0.0
 11
107.3243416944361
 21
-6.456
 31
0.0
 12
107.3243416944361
 22
-4.423999999999999
 32
0.0
 13
107.3243416944361
 23
-4.423999999999999
 33
0.0
  0
MTEXT
  5
130
330
1F
100
AcDbEntity
  8
참조1
100
AcDbMText
 10
110.3586918270621
 20
11.01029177718833
 30
0.0
 40
3.5
 41
0.0
 71
     1
 72
     1
  1
A
  7
SLDTEXTSTYLE0
 73
     1
 44
1.0
  0
MTEXT
  5
131
330
1F
100
AcDbEntity
  8
참조1
100
AcDbMText
 10
110.3586918270621
 20
0.1302917771883285
 30
0.0
 40
3.5
 41
0.0
 71
     1
 72
     1
  1
A
  7
SLDTEXTSTYLE0
 73
     1
 44
1.0
  0
INSERT
  5
138
330
1F
100
AcDbEntity
  8
해칭선
100
AcDbBlockReference
  2
SW_DOWELSYMBOL_0
 10
0.0
 20
0.0
 30
0.0
  0
LINE
  5
292
330
1F
100
AcDbEntity
  8
외형선
  6
Continuous
370
    15
100
AcDbLine
 10
-35.03738238544187
 20
4.762499999999979
 30
0.0
 11
-20.96733238544201
 21
4.762499999999979
 31
0.0
  0
LINE
  5
327
330
1F
100
AcDbEntity
  8
외형선
  6
Continuous
370
    15
100
AcDbLine
 10
-19.69733238544204
 20
3.492500000000007
 30
0.0
 11
-12.55993238544191
 21
3.492500000000007
 31
0.0
  0
LINE
  5
328
330
1F
100
AcDbEntity
  8
외형선
  6
Continuous
370
    15
100
AcDbLine
 10
-19.69733238544204
 20
3.492500000000007
 30
0.0
 11
-20.96733238544202
 21
4.76249999999999
 31
0.0
  0
LINE
  5
329
330
1F
100
AcDbEntity
  8
외형선
  6
Continuous
370
    15
100
AcDbLine
 10
-12.55993238544191
 20
3.492500000000007
 30
0.0
 11
-11.28993238544182
 21
4.76249999999999
 31
0.0
  0
LINE
  5
370
330
1F
100
AcDbEntity
  8
외형선
  6
Continuous
370
    15
100
AcDbLine
 10
0.0
 20
-4.762499999999997
 30
0.0
 11
0.0
 21
4.762499999999997
 31
0.0
  0
LINE
  5
371
330
1F
100
AcDbEntity
  8
외형선
  6
Continuous
370
    15
100
AcDbLine
 10
0.0
 20
3.839399999999999
 30
0.0
 11
0.0
 21
-3.839400000000002
 31
0.0
  0
LINE
  5
373
330
1F
100
AcDbEntity
  8
외형선
  6
Continuous
370
    15
100
AcDbLine
 10
3.715117614558118
 20
3.839399999999999
 30
0.0
 11
27.71468950399667
 21
3.8394
 31
0.0
  0
ARC
  5
375
330
1F
100
AcDbEntity
  8
외형선
  6
Continuous
370
    15
100
AcDbCircle
 10
3.715117614558118
 20
11.7769
 30
0.0
 40
7.937499999999998
100
AcDbArc
 50
242.092446916015
 51
270.0
  0
ARC
  5
378
330
1F
100
AcDbEntity
  8
외형선
  6
Continuous
370
    15
100
AcDbCircle
 10
27.71468950399667
 20
11.7769
 30
0.0
 40
7.937499999999998
100
AcDbArc
 50
270.0
 51
280.1619959119797
  0
ARC
  5
379
330
1F
100
AcDbEntity
  8
외형선
  6
Continuous
370
    15
100
AcDbCircle
 10
27.71468950399667
 20
-11.77689999999999
 30
0.0
 40
7.937499999999998
100
AcDbArc
 50
79.83800408802034
 51
90.00000000000001
  0
LINE
  5
37A
330
1F
100
AcDbEntity
  8
외형선
  6
Continuous
370
    15
100
AcDbLine
 10
3.715117614558114
 20
-3.839399999999999
 30
0.0
 11
27.71468950399667
 21
-3.839399999999997
 31
0.0
  0
ARC
  5
37B
330
1F
100
AcDbEntity
  8
외형선
  6
Continuous
370
    15
100
AcDbCircle
 10
3.715117614558118
 20
-11.7769
 30
0.0
 40
7.937499999999998
100
AcDbArc
 50
90.00000000000001
 51
117.9075530839849
  0
LINE
  5
37C
330
1F
100
AcDbEntity
  8
외형선
  6
Continuous
370
    15
100
AcDbLine
 10
3.715117614558114
 20
3.839399999999999
 30
0.0
 11
3.715117614558114
 21
-3.839399999999999
 31
0.0
  0
LINE
  5
37D
330
1F
100
AcDbEntity
  8
외형선
  6
Continuous
370
    15
100
AcDbLine
 10
28.4176659104998
 20
3.87059046761386
 30
0.0
 11
28.4176659104998
 21
-3.870590467613857
 31
0.0
  0
DIMENSION
  5
37E
330
1F
100
AcDbEntity
  8
치수문자_일반주서
100
AcDbDimension
  2
*D15
 10
48.16511761455811
 20
25.61976870172284
 30
0.0
 11
25.94011761455811
 21
28.24476870172284
 31
0.0
 70
    32
 71
     5
 42
44.45
  3
SLDDIMSTYLE0
100
AcDbAlignedDimension
 13
3.715117614558114
 23
3.839399999999999
 33
0.0
 14
48.16511761455811
 24
3.968750000000008
 34
0.0
100
AcDbRotatedDimension
1001
ACAD
1000
DSTYLE
1002
{
1070
   171
1070
     6
1070
   273
1070
     7
1002
}
  0
ENDSEC
  0
SECTION
  2
OBJECTS
  0
DICTIONARY
  5
C
330
0
100
AcDbDictionary
281
     1
  3
ACAD_GROUP
350
D
  3
ACAD_IMAGE_VARS
350
15C
  3
ACAD_LAYOUT
350
1A
  3
ACAD_MLINESTYLE
350
17
  3
ACAD_PLOTSETTINGS
350
19
  3
ACAD_PLOTSTYLENAME
350
E
  3
ACAD_SCALELIST
350
47
  3
APPDATA
350
15A
  3
DWGPROPS
350
3B0
  0
DICTIONARY
  5
20E
330
2
100
AcDbDictionary
280
     1
281
     1
  3
ACAD_LAYERSTATES
360
20F
  0
DICTIONARY
  5
D
102
{ACAD_REACTORS
330
C
102
}
330
C
100
AcDbDictionary
281
     1
  0
RASTERVARIABLES
  5
15C
102
{ACAD_REACTORS
330
C
102
}
330
C
100
AcDbRasterVariables
 90
        0
 70
     1
 71
     1
 72
     1
  0
DICTIONARY
  5
1A
102
{ACAD_REACTORS
330
C
102
}
330
C
100
AcDbDictionary
281
     1
  3
Layout1
350
1E
  3
Layout2
350
26
  3
Model
350
22
  0
DICTIONARY
  5
17
102
{ACAD_REACTORS
330
C
102
}
330
C
100
AcDbDictionary
281
     1
  3
Standard
350
18
  0
DICTIONARY
  5
19
102
{ACAD_REACTORS
330
C
102
}
330
C
100
AcDbDictionary
281
     1
  0
ACDBDICTIONARYWDFLT
  5
E
102
{ACAD_REACTORS
330
C
102
}
330
C
100
AcDbDictionary
281
     1
  3
Normal
350
F
100
AcDbDictionaryWithDefault
340
F
  0
DICTIONARY
  5
47
102
{ACAD_REACTORS
330
C
102
}
330
C
100
AcDbDictionary
281
     1
  3
A0
350
48
  3
A1
350
49
  3
A2
350
4A
  3
A3
350
4B
  3
A4
350
4C
  3
A5
350
4D
  3
A6
350
4E
  3
A7
350
4F
  3
A8
350
50
  3
A9
350
51
  3
B0
350
52
  3
B1
350
53
  3
B2
350
54
  3
B3
350
55
  3
B4
350
56
  3
B5
350
57
  3
B6
350
58
  3
B7
350
59
  3
B8
350
5A
  3
B9
350
5B
  3
C0
350
5C
  3
C1
350
5D
  3
C2
350
5E
  3
C3
350
5F
  3
C4
350
60
  3
C5
350
61
  3
C6
350
62
  3
C7
350
63
  3
C8
350
64
  3
C9
350
65
  3
D0
350
66
  3
D1
350
67
  3
D2
350
68
  0
DICTIONARY
  5
15A
102
{ACAD_REACTORS
330
C
102
}
330
C
100
AcDbDictionary
281
     1
  0
XRECORD
  5
3B0
102
{ACAD_REACTORS
330
C
102
}
330
C
100
AcDbXrecord
280
     1
  1
DWGPROPS COOKIE
  2

  3

  4

  6

  7

  8
12016016
  9

300
=
301
=
302
=
303
=
304
=
305
=
306
=
307
=
308
=
309
=
 40
0.0
 41
2458311.103510625
 42
2458323.060389838
  1

 90
        0
  0
DICTIONARY
  5
20F
102
{ACAD_REACTORS
330
20E
102
}
330
20E
100
AcDbDictionary
281
     1
  0
LAYOUT
  5
1E
102
{ACAD_REACTORS
330
1A
102
}
330
1A
100
AcDbPlotSettings
  1

  2
none_device
  4

  6

 40
0.0
 41
0.0
 42
0.0
 43
0.0
 44
0.0
 45
0.0
 46
0.0
 47
0.0
 48
0.0
 49
0.0
140
0.0
141
0.0
142
1.0
143
1.0
 70
   688
 72
     1
 73
     0
 74
     5
  7

 75
    16
147
1.0
148
0.0
149
0.0
100
AcDbLayout
  1
Layout1
 70
     1
 71
     1
 10
0.0
 20
0.0
 11
420.0
 21
297.0
 12
0.0
 22
0.0
 32
0.0
 14
1.000000000000000E+20
 24
1.000000000000000E+20
 34
1.000000000000000E+20
 15
-1.000000000000000E+20
 25
-1.000000000000000E+20
 35
-1.000000000000000E+20
146
0.0
 13
0.0
 23
0.0
 33
0.0
 16
1.0
 26
0.0
 36
0.0
 17
0.0
 27
1.0
 37
0.0
 76
     0
330
1B
  0
LAYOUT
  5
26
102
{ACAD_REACTORS
330
1A
102
}
330
1A
100
AcDbPlotSettings
  1

  2
none_device
  4

  6

 40
0.0
 41
0.0
 42
0.0
 43
0.0
 44
0.0
 45
0.0
 46
0.0
 47
0.0
 48
0.0
 49
0.0
140
0.0
141
0.0
142
1.0
143
1.0
 70
   688
 72
     1
 73
     0
 74
     5
  7

 75
    16
147
1.0
148
0.0
149
0.0
100
AcDbLayout
  1
Layout2
 70
     1
 71
     2
 10
0.0
 20
0.0
 11
0.0
 21
0.0
 12
0.0
 22
0.0
 32
0.0
 14
0.0
 24
0.0
 34
0.0
 15
0.0
 25
0.0
 35
0.0
146
0.0
 13
0.0
 23
0.0
 33
0.0
 16
1.0
 26
0.0
 36
0.0
 17
0.0
 27
1.0
 37
0.0
 76
     0
330
23
  0
LAYOUT
  5
22
102
{ACAD_REACTORS
330
1A
102
}
330
1A
100
AcDbPlotSettings
  1

  2
none_device
  4
ANSI_A_(11.00_x_8.50_Inches)
  6

 40
6.35
 41
19.05
 42
6.35000508
 43
19.05000254
 44
279.4
 45
215.9
 46
119.2029521520338
 47
93.64006943441919
 48
0.0
 49
0.0
140
0.0
141
0.0
142
0.0663043329459683
143
1.0
 70
  1696
 72
     0
 73
     0
 74
     0
  7

 75
     0
147
0.0235690232323232
148
0.0
149
0.0
100
AcDbLayout
  1
Model
 70
     1
 71
     0
 10
0.0
 20
0.0
 11
420.0
 21
297.0
 12
0.0
 22
0.0
 32
0.0
 14
-53.03738238544195
 24
-49.97180738881174
 34
0.0
 15
113.6743416944361
 25
38.66663864014821
 35
0.0
146
0.0
 13
0.0
 23
0.0
 33
0.0
 16
1.0
 26
0.0
 36
0.0
 17
0.0
 27
1.0
 37
0.0
 76
     0
330
1F
331
29
  0
MLINESTYLE
  5
18
102
{ACAD_REACTORS
330
17
102
}
330
17
100
AcDbMlineStyle
  2
Standard
 70
     0
  3

 62
   256
 51
90.0
 52
90.0
 71
     2
 49
0.5
 62
   256
  6
BYLAYER
 49
-0.5
 62
   256
  6
BYLAYER
  0
ACDBPLACEHOLDER
  5
F
102
{ACAD_REACTORS
330
E
102
}
330
E
  0
SCALE
  5
48
102
{ACAD_REACTORS
330
47
102
}
330
47
100
AcDbScale
 70
     0
300
1:1
140
1.0
141
1.0
290
     1
  0
SCALE
  5
49
102
{ACAD_REACTORS
330
47
102
}
330
47
100
AcDbScale
 70
     0
300
1:2
140
1.0
141
2.0
290
     0
  0
SCALE
  5
4A
102
{ACAD_REACTORS
330
47
102
}
330
47
100
AcDbScale
 70
     0
300
1:4
140
1.0
141
4.0
290
     0
  0
SCALE
  5
4B
102
{ACAD_REACTORS
330
47
102
}
330
47
100
AcDbScale
 70
     0
300
1:5
140
1.0
141
5.0
290
     0
  0
SCALE
  5
4C
102
{ACAD_REACTORS
330
47
102
}
330
47
100
AcDbScale
 70
     0
300
1:8
140
1.0
141
8.0
290
     0
  0
SCALE
  5
4D
102
{ACAD_REACTORS
330
47
102
}
330
47
100
AcDbScale
 70
     0
300
1:10
140
1.0
141
10.0
290
     0
  0
SCALE
  5
4E
102
{ACAD_REACTORS
330
47
102
}
330
47
100
AcDbScale
 70
     0
300
1:16
140
1.0
141
16.0
290
     0
  0
SCALE
  5
4F
102
{ACAD_REACTORS
330
47
102
}
330
47
100
AcDbScale
 70
     0
300
1:20
140
1.0
141
20.0
290
     0
  0
SCALE
  5
50
102
{ACAD_REACTORS
330
47
102
}
330
47
100
AcDbScale
 70
     0
300
1:30
140
1.0
141
30.0
290
     0
  0
SCALE
  5
51
102
{ACAD_REACTORS
330
47
102
}
330
47
100
AcDbScale
 70
     0
300
1:40
140
1.0
141
40.0
290
     0
  0
SCALE
  5
52
102
{ACAD_REACTORS
330
47
102
}
330
47
100
AcDbScale
 70
     0
300
1:50
140
1.0
141
50.0
290
     0
  0
SCALE
  5
53
102
{ACAD_REACTORS
330
47
102
}
330
47
100
AcDbScale
 70
     0
300
1:100
140
1.0
141
100.0
290
     0
  0
SCALE
  5
54
102
{ACAD_REACTORS
330
47
102
}
330
47
100
AcDbScale
 70
     0
300
2:1
140
2.0
141
1.0
290
     0
  0
SCALE
  5
55
102
{ACAD_REACTORS
330
47
102
}
330
47
100
AcDbScale
 70
     0
300
4:1
140
4.0
141
1.0
290
     0
  0
SCALE
  5
56
102
{ACAD_REACTORS
330
47
102
}
330
47
100
AcDbScale
 70
     0
300
8:1
140
8.0
141
1.0
290
     0
  0
SCALE
  5
57
102
{ACAD_REACTORS
330
47
102
}
330
47
100
AcDbScale
 70
     0
300
10:1
140
10.0
141
1.0
290
     0
  0
SCALE
  5
58
102
{ACAD_REACTORS
330
47
102
}
330
47
100
AcDbScale
 70
     0
300
100:1
140
100.0
141
1.0
290
     0
  0
SCALE
  5
59
102
{ACAD_REACTORS
330
47
102
}
330
47
100
AcDbScale
 70
     0
300
1/128" = 1'-0"
140
0.0078125
141
12.0
290
     0
  0
SCALE
  5
5A
102
{ACAD_REACTORS
330
47
102
}
330
47
100
AcDbScale
 70
     0
300
1/64" = 1'-0"
140
0.015625
141
12.0
290
     0
  0
SCALE
  5
5B
102
{ACAD_REACTORS
330
47
102
}
330
47
100
AcDbScale
 70
     0
300
1/32" = 1'-0"
140
0.03125
141
12.0
290
     0
  0
SCALE
  5
5C
102
{ACAD_REACTORS
330
47
102
}
330
47
100
AcDbScale
 70
     0
300
1/16" = 1'-0"
140
0.0625
141
12.0
290
     0
  0
SCALE
  5
5D
102
{ACAD_REACTORS
330
47
102
}
330
47
100
AcDbScale
 70
     0
300
3/32" = 1'-0"
140
0.09375
141
12.0
290
     0
  0
SCALE
  5
5E
102
{ACAD_REACTORS
330
47
102
}
330
47
100
AcDbScale
 70
     0
300
1/8" = 1'-0"
140
0.125
141
12.0
290
     0
  0
SCALE
  5
5F
102
{ACAD_REACTORS
330
47
102
}
330
47
100
AcDbScale
 70
     0
300
3/16" = 1'-0"
140
0.1875
141
12.0
290
     0
  0
SCALE
  5
60
102
{ACAD_REACTORS
330
47
102
}
330
47
100
AcDbScale
 70
     0
300
1/4" = 1'-0"
140
0.25
141
12.0
290
     0
  0
SCALE
  5
61
102
{ACAD_REACTORS
330
47
102
}
330
47
100
AcDbScale
 70
     0
300
3/8" = 1'-0"
140
0.375
141
12.0
290
     0
  0
SCALE
  5
62
102
{ACAD_REACTORS
330
47
102
}
330
47
100
AcDbScale
 70
     0
300
1/2" = 1'-0"
140
0.5
141
12.0
290
     0
  0
SCALE
  5
63
102
{ACAD_REACTORS
330
47
102
}
330
47
100
AcDbScale
 70
     0
300
3/4" = 1'-0"
140
0.75
141
12.0
290
     0
  0
SCALE
  5
64
102
{ACAD_REACTORS
330
47
102
}
330
47
100
AcDbScale
 70
     0
300
1" = 1'-0"
140
1.0
141
12.0
290
     0
  0
SCALE
  5
65
102
{ACAD_REACTORS
330
47
102
}
330
47
100
AcDbScale
 70
     0
300
1-1/2" = 1'-0"
140
1.5
141
12.0
290
     0
  0
SCALE
  5
66
102
{ACAD_REACTORS
330
47
102
}
330
47
100
AcDbScale
 70
     0
300
3" = 1'-0"
140
3.0
141
12.0
290
     0
  0
SCALE
  5
67
102
{ACAD_REACTORS
330
47
102
}
330
47
100
AcDbScale
 70
     0
300
6" = 1'-0"
140
6.0
141
12.0
290
     0
  0
SCALE
  5
68
102
{ACAD_REACTORS
330
47
102
}
330
47
100
AcDbScale
 70
     0
300
1'-0" = 1'-0"
140
12.0
141
12.0
290
     0
  0
ENDSEC
  0
EOF
