  0
SECTION
  2
HEADER
  9
$ACADVER
  1
AC1015
  9
$ACADMAINTVER
 70
     6
  9
$DWGCODEPAGE
  3
ANSI_949
  9
$INSBASE
 10
0.0
 20
0.0
 30
0.0
  9
$EXTMIN
 10
-56.13182204607162
 20
-49.97180738881174
 30
0.0
  9
$EXTMAX
 10
106.3522173623142
 20
39.41986045510103
 30
0.0
  9
$LIMMIN
 10
0.0
 20
0.0
  9
$LIMMAX
 10
420.0
 20
297.0
  9
$ORTHOMODE
 70
     1
  9
$REGENMODE
 70
     1
  9
$FILLMODE
 70
     1
  9
$QTEXTMODE
 70
     0
  9
$MIRRTEXT
 70
     1
  9
$LTSCALE
 40
1.0
  9
$ATTMODE
 70
     1
  9
$TEXTSIZE
 40
3.5
  9
$TRACEWID
 40
1.0
  9
$TEXTSTYLE
  7
Standard
  9
$CLAYER
  8
0
  9
$CELTYPE
  6
ByLayer
  9
$CECOLOR
 62
   256
  9
$CELTSCALE
 40
1.0
  9
$DISPSILH
 70
     0
  9
$DIMSCALE
 40
1.0
  9
$DIMASZ
 40
3.302
  9
$DIMEXO
 40
1.0
  9
$DIMDLI
 40
3.75
  9
$DIMRND
 40
0.0
  9
$DIMDLE
 40
0.0
  9
$DIMEXE
 40
1.0
  9
$DIMTP
 40
0.0
  9
$DIMTM
 40
0.0
  9
$DIMTXT
 40
3.5
  9
$DIMCEN
 40
2.5
  9
$DIMTSZ
 40
0.0
  9
$DIMTOL
 70
     0
  9
$DIMLIM
 70
     0
  9
$DIMTIH
 70
     1
  9
$DIMTOH
 70
     1
  9
$DIMSE1
 70
     0
  9
$DIMSE2
 70
     0
  9
$DIMTAD
 70
     1
  9
$DIMZIN
 70
     0
  9
$DIMBLK
  1

  9
$DIMASO
 70
     1
  9
$DIMSHO
 70
     1
  9
$DIMPOST
  1

  9
$DIMAPOST
  1

  9
$DIMALT
 70
     0
  9
$DIMALTD
 70
     3
  9
$DIMALTF
 40
0.0393700787401575
  9
$DIMLFAC
 40
1.0
  9
$DIMTOFL
 70
     1
  9
$DIMTVP
 40
0.0
  9
$DIMTIX
 70
     0
  9
$DIMSOXD
 70
     0
  9
$DIMSAH
 70
     0
  9
$DIMBLK1
  1

  9
$DIMBLK2
  1

  9
$DIMSTYLE
  2
ISO-25
  9
$DIMCLRD
 70
     0
  9
$DIMCLRE
 70
     0
  9
$DIMCLRT
 70
     0
  9
$DIMTFAC
 40
1.0
  9
$DIMGAP
 40
1.524
  9
$DIMJUST
 70
     0
  9
$DIMSD1
 70
     0
  9
$DIMSD2
 70
     0
  9
$DIMTOLJ
 70
     0
  9
$DIMTZIN
 70
     0
  9
$DIMALTZ
 70
     0
  9
$DIMALTTZ
 70
     0
  9
$DIMUPT
 70
     0
  9
$DIMDEC
 70
     2
  9
$DIMTDEC
 70
     2
  9
$DIMALTU
 70
     2
  9
$DIMALTTD
 70
     3
  9
$DIMTXSTY
  7
Standard
  9
$DIMAUNIT
 70
     0
  9
$DIMADEC
 70
     2
  9
$DIMALTRND
 40
0.0
  9
$DIMAZIN
 70
     0
  9
$DIMDSEP
 70
    44
  9
$DIMATFIT
 70
     3
  9
$DIMFRAC
 70
     0
  9
$DIMLDRBLK
  1

  9
$DIMLUNIT
 70
     2
  9
$DIMLWD
 70
    -2
  9
$DIMLWE
 70
    -2
  9
$DIMTMOVE
 70
     0
  9
$LUNITS
 70
     2
  9
$LUPREC
 70
     2
  9
$SKETCHINC
 40
1.0
  9
$FILLETRAD
 40
10.0
  9
$AUNITS
 70
     0
  9
$AUPREC
 70
     2
  9
$MENU
  1
.
  9
$ELEVATION
 40
0.0
  9
$PELEVATION
 40
0.0
  9
$THICKNESS
 40
0.0
  9
$LIMCHECK
 70
     0
  9
$CHAMFERA
 40
0.0
  9
$CHAMFERB
 40
0.0
  9
$CHAMFERC
 40
0.0
  9
$CHAMFERD
 40
0.0
  9
$SKPOLY
 70
     0
  9
$TDCREATE
 40
2458311.478722419
  9
$TDUCREATE
 40
2458311.103722419
  9
$TDUPDATE
 40
2458323.435341146
  9
$TDUUPDATE
 40
2458323.060341146
  9
$TDINDWG
 40
0.0117305324
  9
$TDUSRTIMER
 40
2458323.060292512
  9
$USRTIMER
 70
     1
  9
$ANGBASE
 50
0.0
  9
$ANGDIR
 70
     0
  9
$PDMODE
 70
     0
  9
$PDSIZE
 40
-1.0
  9
$PLINEWID
 40
0.0
  9
$SPLFRAME
 70
     0
  9
$SPLINETYPE
 70
     6
  9
$SPLINESEGS
 70
     8
  9
$HANDSEED
  5
39B
  9
$SURFTAB1
 70
     6
  9
$SURFTAB2
 70
     6
  9
$SURFTYPE
 70
     6
  9
$SURFU
 70
     6
  9
$SURFV
 70
     6
  9
$UCSBASE
  2

  9
$UCSNAME
  2

  9
$UCSORG
 10
0.0
 20
0.0
 30
0.0
  9
$UCSXDIR
 10
1.0
 20
0.0
 30
0.0
  9
$UCSYDIR
 10
0.0
 20
1.0
 30
0.0
  9
$UCSORTHOREF
  2

  9
$UCSORTHOVIEW
 70
     0
  9
$UCSORGTOP
 10
0.0
 20
0.0
 30
0.0
  9
$UCSORGBOTTOM
 10
0.0
 20
0.0
 30
0.0
  9
$UCSORGLEFT
 10
0.0
 20
0.0
 30
0.0
  9
$UCSORGRIGHT
 10
0.0
 20
0.0
 30
0.0
  9
$UCSORGFRONT
 10
0.0
 20
0.0
 30
0.0
  9
$UCSORGBACK
 10
0.0
 20
0.0
 30
0.0
  9
$PUCSBASE
  2

  9
$PUCSNAME
  2

  9
$PUCSORG
 10
0.0
 20
0.0
 30
0.0
  9
$PUCSXDIR
 10
1.0
 20
0.0
 30
0.0
  9
$PUCSYDIR
 10
0.0
 20
1.0
 30
0.0
  9
$PUCSORTHOREF
  2

  9
$PUCSORTHOVIEW
 70
     0
  9
$PUCSORGTOP
 10
0.0
 20
0.0
 30
0.0
  9
$PUCSORGBOTTOM
 10
0.0
 20
0.0
 30
0.0
  9
$PUCSORGLEFT
 10
0.0
 20
0.0
 30
0.0
  9
$PUCSORGRIGHT
 10
0.0
 20
0.0
 30
0.0
  9
$PUCSORGFRONT
 10
0.0
 20
0.0
 30
0.0
  9
$PUCSORGBACK
 10
0.0
 20
0.0
 30
0.0
  9
$USERI1
 70
     0
  9
$USERI2
 70
     0
  9
$USERI3
 70
     0
  9
$USERI4
 70
     0
  9
$USERI5
 70
     0
  9
$USERR1
 40
0.0
  9
$USERR2
 40
0.0
  9
$USERR3
 40
0.0
  9
$USERR4
 40
0.0
  9
$USERR5
 40
0.0
  9
$WORLDVIEW
 70
     1
  9
$SHADEDGE
 70
     3
  9
$SHADEDIF
 70
    70
  9
$TILEMODE
 70
     1
  9
$MAXACTVP
 70
    64
  9
$PINSBASE
 10
0.0
 20
0.0
 30
0.0
  9
$PLIMCHECK
 70
     0
  9
$PEXTMIN
 10
1.000000000000000E+20
 20
1.000000000000000E+20
 30
1.000000000000000E+20
  9
$PEXTMAX
 10
-1.000000000000000E+20
 20
-1.000000000000000E+20
 30
-1.000000000000000E+20
  9
$PLIMMIN
 10
0.0
 20
0.0
  9
$PLIMMAX
 10
0.0
 20
0.0
  9
$UNITMODE
 70
     0
  9
$VISRETAIN
 70
     1
  9
$PLINEGEN
 70
     0
  9
$PSLTSCALE
 70
     1
  9
$TREEDEPTH
 70
  3020
  9
$CMLSTYLE
  2
Standard
  9
$CMLJUST
 70
     0
  9
$CMLSCALE
 40
20.0
  9
$PROXYGRAPHICS
 70
     1
  9
$MEASUREMENT
 70
     1
  9
$CELWEIGHT
370
    -1
  9
$ENDCAPS
280
     0
  9
$JOINSTYLE
280
     0
  9
$LWDISPLAY
290
     1
  9
$INSUNITS
 70
     4
  9
$HYPERLINKBASE
  1

  9
$STYLESHEET
  1

  9
$XEDIT
290
     1
  9
$CEPSNTYPE
380
     0
  9
$PSTYLEMODE
290
     1
  9
$FINGERPRINTGUID
  2
{06F747CF-7CC8-4607-8FB0-2940B5B8682F}
  9
$VERSIONGUID
  2
{FAEB1C32-E019-11D5-929B-00C0DF256EC4}
  9
$EXTNAMES
290
     1
  9
$PSVPSCALE
 40
0.0
  9
$OLESTARTUP
290
     0
  0
ENDSEC
  0
SECTION
  2
CLASSES
  0
CLASS
  1
ACDBDICTIONARYWDFLT
  2
AcDbDictionaryWithDefault
  3
ObjectDBX Classes
 90
        0
280
     0
281
     0
  0
CLASS
  1
VISUALSTYLE
  2
AcDbVisualStyle
  3
ObjectDBX Classes
 90
     4095
280
     0
281
     0
  0
CLASS
  1
MATERIAL
  2
AcDbMaterial
  3
ObjectDBX Classes
 90
     1153
280
     0
281
     0
  0
CLASS
  1
SCALE
  2
AcDbScale
  3
ObjectDBX Classes
 90
     1153
280
     0
281
     0
  0
CLASS
  1
SUN
  2
AcDbSun
  3
SCENEOE
 90
     1153
280
     0
281
     0
  0
CLASS
  1
ACDBPLACEHOLDER
  2
AcDbPlaceHolder
  3
ObjectDBX Classes
 90
        0
280
     0
281
     0
  0
CLASS
  1
LAYOUT
  2
AcDbLayout
  3
ObjectDBX Classes
 90
        0
280
     0
281
     0
  0
CLASS
  1
TABLESTYLE
  2
AcDbTableStyle
  3
ObjectDBX Classes
 90
     4095
280
     0
281
     0
  0
CLASS
  1
MLEADERSTYLE
  2
AcDbMLeaderStyle
  3
ACDB_MLEADERSTYLE_CLASS
 90
     4095
280
     0
281
     0
  0
CLASS
  1
RASTERVARIABLES
  2
AcDbRasterVariables
  3
ISM
 90
        0
280
     0
281
     0
  0
CLASS
  1
DIMASSOC
  2
AcDbDimAssoc
  3
"AcDbDimAssoc|Product Desc:     AcDim ARX App For Dimension|Company:          Autodesk, Inc.|WEB Address:      www.autodesk.com"
 90
        0
280
     0
281
     0
  0
ENDSEC
  0
SECTION
  2
TABLES
  0
TABLE
  2
VPORT
  5
8
330
0
100
AcDbSymbolTable
 70
     1
  0
VPORT
  5
29
330
8
100
AcDbSymbolTableRecord
100
AcDbViewportTableRecord
  2
*Active
 70
     0
 10
0.0
 20
0.0
 11
1.0
 21
1.0
 12
-4.92938408739909
 22
-39.67335418795841
 13
0.0
 23
0.0
 14
10.0
 24
10.0
 15
10.0
 25
10.0
 16
0.0
 26
0.0
 36
1.0
 17
0.0
 27
0.0
 37
0.0
 40
163.2704522515589
 41
1.586073500967118
 42
50.0
 43
0.0
 44
0.0
 50
0.0
 51
0.0
 71
    16
 72
  2000
 73
     1
 74
     3
 75
     0
 76
     0
 77
     0
 78
     0
281
     0
 65
     1
110
0.0
120
0.0
130
0.0
111
1.0
121
0.0
131
0.0
112
0.0
122
1.0
132
0.0
 79
     0
146
0.0
  0
ENDTAB
  0
TABLE
  2
LTYPE
  5
5
330
0
100
AcDbSymbolTable
 70
     6
  0
LTYPE
  5
14
330
5
100
AcDbSymbolTableRecord
100
AcDbLinetypeTableRecord
  2
ByBlock
 70
     0
  3

 72
    65
 73
     0
 40
0.0
  0
LTYPE
  5
15
330
5
100
AcDbSymbolTableRecord
100
AcDbLinetypeTableRecord
  2
ByLayer
 70
     0
  3

 72
    65
 73
     0
 40
0.0
  0
LTYPE
  5
16
330
5
100
AcDbSymbolTableRecord
100
AcDbLinetypeTableRecord
  2
Continuous
 70
     0
  3
Solid line
 72
    65
 73
     0
 40
0.0
  0
LTYPE
  5
6A
330
5
100
AcDbSymbolTableRecord
100
AcDbLinetypeTableRecord
  2
HIDDEN
 70
     0
  3
Hidden __ __ __ __ __ __ __ __ __ __ __ __ __ __
 72
    65
 73
     2
 40
1.905
 49
1.27
 74
     0
 49
-0.635
 74
     0
  0
LTYPE
  5
6B
330
5
100
AcDbSymbolTableRecord
100
AcDbLinetypeTableRecord
  2
PHANTOM
 70
     0
  3
Phantom ______  __  __  ______  __  __  ______
 72
    65
 73
     6
 40
12.7
 49
6.35
 74
     0
 49
-1.27
 74
     0
 49
1.27
 74
     0
 49
-1.27
 74
     0
 49
1.27
 74
     0
 49
-1.27
 74
     0
  0
LTYPE
  5
6C
330
5
100
AcDbSymbolTableRecord
100
AcDbLinetypeTableRecord
  2
CENTER
 70
     0
  3
Center ____ _ ____ _ ____ _ ____ _ ____ _ ____
 72
    65
 73
     4
 40
10.16
 49
6.35
 74
     0
 49
-1.27
 74
     0
 49
1.27
 74
     0
 49
-1.27
 74
     0
  0
LTYPE
  5
6D
330
5
100
AcDbSymbolTableRecord
100
AcDbLinetypeTableRecord
  2
CENTERX2
 70
     0
  3
Center (2x) ________  __  ________  __  _____
 72
    65
 73
     4
 40
20.32
 49
12.7
 74
     0
 49
-2.54
 74
     0
 49
2.54
 74
     0
 49
-2.54
 74
     0
  0
LTYPE
  5
6E
330
5
100
AcDbSymbolTableRecord
100
AcDbLinetypeTableRecord
  2
DOT2
 70
     0
  3
Dot (.5x) ........................................
 72
    65
 73
     2
 40
0.635
 49
0.0
 74
     0
 49
-0.635
 74
     0
  0
ENDTAB
  0
TABLE
  2
LAYER
  5
2
102
{ACAD_XDICTIONARY
360
1FF
102
}
330
0
100
AcDbSymbolTable
 70
    18
  0
LAYER
  5
10
330
2
100
AcDbSymbolTableRecord
100
AcDbLayerTableRecord
  2
0
 70
     0
 62
     7
  6
Continuous
370
    -3
390
F
  0
LAYER
  5
6F
330
2
100
AcDbSymbolTableRecord
100
AcDbLayerTableRecord
  2
FORMAT
 70
     0
 62
     2
  6
Continuous
370
    -3
390
F
  0
LAYER
  5
70
330
2
100
AcDbSymbolTableRecord
100
AcDbLayerTableRecord
  2
외형선
 70
     0
 62
     4
  6
Continuous
370
    30
390
F
  0
LAYER
  5
71
330
2
100
AcDbSymbolTableRecord
100
AcDbLayerTableRecord
  2
숨은선
 70
     0
 62
     2
  6
HIDDEN
370
    15
390
F
  0
LAYER
  5
72
330
2
100
AcDbSymbolTableRecord
100
AcDbLayerTableRecord
  2
중심선
 70
     0
 62
     1
  6
CENTERX2
370
    -3
390
F
  0
LAYER
  5
73
330
2
100
AcDbSymbolTableRecord
100
AcDbLayerTableRecord
  2
파단선
 70
     0
 62
     4
  6
Continuous
370
    -3
390
F
  0
LAYER
  5
74
330
2
100
AcDbSymbolTableRecord
100
AcDbLayerTableRecord
  2
해칭선
 70
     0
 62
   100
  6
Continuous
370
    -3
390
F
  0
LAYER
  5
75
330
2
100
AcDbSymbolTableRecord
100
AcDbLayerTableRecord
  2
가는실선
 70
     0
 62
     4
  6
Continuous
370
    -3
390
F
  0
LAYER
  5
76
330
2
100
AcDbSymbolTableRecord
100
AcDbLayerTableRecord
  2
치수_보조선
 70
     0
 62
     4
  6
Continuous
370
    -3
390
F
  0
LAYER
  5
77
330
2
100
AcDbSymbolTableRecord
100
AcDbLayerTableRecord
  2
치수문자_일반주서
 70
     0
 62
     7
  6
Continuous
370
    15
390
F
  0
LAYER
  5
78
330
2
100
AcDbSymbolTableRecord
100
AcDbLayerTableRecord
  2
개별주서
 70
     0
 62
   100
  6
Continuous
370
    30
390
F
  0
LAYER
  5
79
330
2
100
AcDbSymbolTableRecord
100
AcDbLayerTableRecord
  2
중간선
 70
     0
 62
     2
  6
Continuous
370
    15
390
F
  0
LAYER
  5
7A
330
2
100
AcDbSymbolTableRecord
100
AcDbLayerTableRecord
  2
윤곽선
 70
     0
 62
     3
  6
Continuous
370
    40
390
F
  0
LAYER
  5
7B
330
2
100
AcDbSymbolTableRecord
100
AcDbLayerTableRecord
  2
중심마크
 70
     0
 62
   100
  6
Continuous
370
    30
390
F
  0
LAYER
  5
7C
330
2
100
AcDbSymbolTableRecord
100
AcDbLayerTableRecord
  2
가상선
 70
     0
 62
     4
  6
PHANTOM
370
    -3
390
F
  0
LAYER
  5
7D
330
2
100
AcDbSymbolTableRecord
100
AcDbLayerTableRecord
  2
특수지정선
 70
     0
 62
     5
  6
CENTERX2
370
    60
390
F
  0
LAYER
  5
7E
330
2
100
AcDbSymbolTableRecord
100
AcDbLayerTableRecord
  2
참조1
 70
     0
 62
    -4
  6
Continuous
370
    -3
390
F
  0
LAYER
  5
155
330
2
100
AcDbSymbolTableRecord
100
AcDbLayerTableRecord
  2
Defpoints
 70
     0
 62
     7
  6
Continuous
290
     0
370
    -3
390
F
  0
ENDTAB
  0
TABLE
  2
STYLE
  5
3
330
0
100
AcDbSymbolTable
 70
     2
  0
STYLE
  5
11
330
3
100
AcDbSymbolTableRecord
100
AcDbTextStyleTableRecord
  2
Standard
 70
     0
 40
0.0
 41
1.0
 50
0.0
 71
     0
 42
3.5
  3
txt
  4

  0
STYLE
  5
94
330
3
100
AcDbSymbolTableRecord
100
AcDbTextStyleTableRecord
  2
SLDTEXTSTYLE0
 70
     0
 40
0.0
 41
0.75
 50
0.0
 71
     0
 42
3.5
  3
TXT
  4

  0
ENDTAB
  0
TABLE
  2
VIEW
  5
6
330
0
100
AcDbSymbolTable
 70
     0
  0
ENDTAB
  0
TABLE
  2
UCS
  5
7
330
0
100
AcDbSymbolTable
 70
     0
  0
ENDTAB
  0
TABLE
  2
APPID
  5
9
330
0
100
AcDbSymbolTable
 70
     1
  0
APPID
  5
12
330
9
100
AcDbSymbolTableRecord
100
AcDbRegAppTableRecord
  2
ACAD
 70
     0
  0
ENDTAB
  0
TABLE
  2
DIMSTYLE
  5
A
330
0
100
AcDbSymbolTable
 70
     3
100
AcDbDimStyleTable
  0
DIMSTYLE
105
27
330
A
100
AcDbSymbolTableRecord
100
AcDbDimStyleTableRecord
  2
ISO-25
 70
     0
 41
2.5
 42
0.625
 43
3.75
 44
1.25
 73
     0
 74
     0
 77
     1
 78
     8
140
2.5
141
2.5
143
0.03937007874016
147
0.625
171
     3
172
     1
178
     0
271
     2
272
     2
274
     3
278
    44
283
     0
284
     8
340
11
  0
DIMSTYLE
105
D3
102
{ACAD_REACTORS
330
D2
330
E7
330
FC
330
10F
330
368
102
}
330
A
100
AcDbSymbolTableRecord
100
AcDbDimStyleTableRecord
  2
SLDDIMSTYLE0
 70
     0
 41
3.302
 44
0.0
 45
0.000000001
 73
     0
 74
     0
 77
     1
 78
    12
 79
     3
140
3.5
143
0.0393700787401575
147
0.875
148
0.000000001
170
     1
172
     1
173
     1
178
     0
271
     2
272
     2
276
     2
284
    12
289
     0
340
94
  0
DIMSTYLE
105
E8
330
A
100
AcDbSymbolTableRecord
100
AcDbDimStyleTableRecord
  2
SLDDIMSTYLE1
 70
     0
 41
3.302
 44
0.0
 45
0.000000001
 73
     0
 74
     0
 77
     1
 78
    12
 79
     3
140
3.5
143
0.0393700787401575
147
0.875
148
0.000000001
170
     1
173
     1
178
     0
271
     2
272
     2
276
     2
284
    12
340
94
  0
ENDTAB
  0
TABLE
  2
BLOCK_RECORD
  5
1
330
0
100
AcDbSymbolTable
 70
    16
  0
BLOCK_RECORD
  5
1F
330
1
100
AcDbSymbolTableRecord
100
AcDbBlockTableRecord
  2
*Model_Space
340
22
  0
BLOCK_RECORD
  5
1B
330
1
100
AcDbSymbolTableRecord
100
AcDbBlockTableRecord
  2
*Paper_Space
340
1E
  0
BLOCK_RECORD
  5
23
330
1
100
AcDbSymbolTableRecord
100
AcDbBlockTableRecord
  2
*Paper_Space0
340
26
  0
BLOCK_RECORD
  5
7F
330
1
100
AcDbSymbolTableRecord
100
AcDbBlockTableRecord
  2
블럭10
340
0
102
{BLKREFS
331
CB
102
}
  0
BLOCK_RECORD
  5
D4
330
1
100
AcDbSymbolTableRecord
100
AcDbBlockTableRecord
  2
_D
340
0
  0
BLOCK_RECORD
  5
E9
330
1
100
AcDbSymbolTableRecord
100
AcDbBlockTableRecord
  2
_D_1
340
0
  0
BLOCK_RECORD
  5
FD
330
1
100
AcDbSymbolTableRecord
100
AcDbBlockTableRecord
  2
_D_2
340
0
  0
BLOCK_RECORD
  5
110
330
1
100
AcDbSymbolTableRecord
100
AcDbBlockTableRecord
  2
_D_3
340
0
  0
BLOCK_RECORD
  5
129
330
1
100
AcDbSymbolTableRecord
100
AcDbBlockTableRecord
  2
SW_DOWELSYMBOL_0
340
0
102
{BLKREFS
331
12F
102
}
  0
BLOCK_RECORD
  5
203
330
1
100
AcDbSymbolTableRecord
100
AcDbBlockTableRecord
  2
*D7
340
0
  0
BLOCK_RECORD
  5
20F
330
1
100
AcDbSymbolTableRecord
100
AcDbBlockTableRecord
  2
*D8
340
0
  0
BLOCK_RECORD
  5
21E
330
1
100
AcDbSymbolTableRecord
100
AcDbBlockTableRecord
  2
*D9
340
0
  0
BLOCK_RECORD
  5
22A
330
1
100
AcDbSymbolTableRecord
100
AcDbBlockTableRecord
  2
*D10
340
0
  0
BLOCK_RECORD
  5
27F
330
1
100
AcDbSymbolTableRecord
100
AcDbBlockTableRecord
  2
*D11
340
0
  0
BLOCK_RECORD
  5
28B
330
1
100
AcDbSymbolTableRecord
100
AcDbBlockTableRecord
  2
*D12
340
0
  0
BLOCK_RECORD
  5
29A
330
1
100
AcDbSymbolTableRecord
100
AcDbBlockTableRecord
  2
*D13
340
0
  0
BLOCK_RECORD
  5
2A6
330
1
100
AcDbSymbolTableRecord
100
AcDbBlockTableRecord
  2
*D14
340
0
  0
BLOCK_RECORD
  5
36B
330
1
100
AcDbSymbolTableRecord
100
AcDbBlockTableRecord
  2
*D15
340
0
  0
ENDTAB
  0
ENDSEC
  0
SECTION
  2
BLOCKS
  0
BLOCK
  5
20
330
1F
100
AcDbEntity
  8
0
100
AcDbBlockBegin
  2
*Model_Space
 70
     0
 10
0.0
 20
0.0
 30
0.0
  3
*Model_Space
  1
*Model_Space
  0
ENDBLK
  5
21
330
1F
100
AcDbEntity
  8
0
100
AcDbBlockEnd
  0
BLOCK
  5
1C
330
1B
100
AcDbEntity
 67
     1
  8
0
100
AcDbBlockBegin
  2
*Paper_Space
 70
     0
 10
0.0
 20
0.0
 30
0.0
  3
*Paper_Space
  1
*Paper_Space
  0
ENDBLK
  5
1D
330
1B
100
AcDbEntity
 67
     1
  8
0
100
AcDbBlockEnd
  0
BLOCK
  5
24
330
23
100
AcDbEntity
  8
0
100
AcDbBlockBegin
  2
*Paper_Space0
 70
     0
 10
0.0
 20
0.0
 30
0.0
  3
*Paper_Space0
  1
*Paper_Space0
  0
ENDBLK
  5
25
330
23
100
AcDbEntity
  8
0
100
AcDbBlockEnd
  0
BLOCK
  5
80
330
7F
100
AcDbEntity
  8
0
100
AcDbBlockBegin
  2
블럭10
 70
     2
 10
0.0
 20
0.0
 30
0.0
  3
블럭10
  1
블럭10
  0
ELLIPSE
  5
82
330
7F
100
AcDbEntity
  8
중심선
100
AcDbEllipse
 10
20.54032771741204
 20
12.0471743016438
 30
0.0
 11
6.600054785286829
 21
-1.261213355974178E-13
 31
0.0
210
0.0
220
0.0
230
1.0
 40
0.636358354079598
 41
0.9219305317359503
 42
6.513795318482858
  0
ELLIPSE
  5
83
330
7F
100
AcDbEntity
  8
중심선
100
AcDbEllipse
 10
20.54032771746488
 20
12.04717430159265
 30
0.0
 11
3.960054785062283
 21
1.540847449632565E-10
 31
0.0
210
0.0
220
0.0
230
1.0
 40
0.3939339440162632
 41
1.131841032648279
 42
5.62031148352944
  0
LINE
  5
84
330
7F
100
AcDbEntity
  8
중심선
100
AcDbLine
 10
2.268634060543552
 20
16.24717430164393
 30
0.0
 11
5.714909304380834
 21
16.24717430164393
 31
0.0
  0
LINE
  5
85
330
7F
100
AcDbEntity
  8
중심선
100
AcDbLine
 10
5.245725140726316
 20
7.84717430164391
 30
0.0
 11
8.692000384563599
 21
7.84717430164391
 31
0.0
  0
LINE
  5
86
330
7F
100
AcDbEntity
  8
중심선
100
AcDbLine
 10
15.74043728645272
 20
16.24717430164393
 30
0.0
 11
8.692000384563599
 21
7.84717430164391
 31
0.0
  0
LINE
  5
87
330
7F
100
AcDbEntity
  8
중심선
100
AcDbLine
 10
0.1404042013395286
 20
13.71084872107135
 30
0.0
 11
3.58671253028996
 21
13.71088815037384
 31
0.0
  0
LINE
  5
88
330
7F
100
AcDbEntity
  8
중심선
100
AcDbLine
 10
2.750260043222114
 20
10.84717430164391
 30
0.0
 11
6.196535287059397
 21
10.84717430164391
 31
0.0
  0
LINE
  5
89
330
7F
100
AcDbEntity
  8
중심선
100
AcDbLine
 10
12.29416204261559
 20
16.24717430164393
 30
0.0
 11
5.245725140726316
 21
7.84717430164391
 31
0.0
  0
LINE
  5
8A
330
7F
100
AcDbEntity
  8
중심선
100
AcDbLine
 10
10.72767329541681
 20
16.24717430164393
 30
0.0
 11
6.196535287059397
 21
10.84717430164391
 31
0.0
  0
LINE
  5
8B
330
7F
100
AcDbEntity
  8
중심선
100
AcDbLine
 10
7.28139805157953
 20
16.24717430164393
 30
0.0
 11
2.750260043222114
 21
10.84717430164391
 31
0.0
  0
LINE
  5
8C
330
7F
100
AcDbEntity
  8
중심선
100
AcDbLine
 10
5.714909304380834
 20
16.24717430164393
 30
0.0
 11
3.58671253028996
 21
13.71088815037384
 31
0.0
  0
LINE
  5
8D
330
7F
100
AcDbEntity
  8
중심선
100
AcDbLine
 10
2.268634060543552
 20
16.24717430164393
 30
0.0
 11
0.1404042013395286
 21
13.71084872107135
 31
0.0
  0
LINE
  5
8E
330
7F
100
AcDbEntity
  8
중심선
100
AcDbLine
 10
7.28139805157953
 20
16.24717430164393
 30
0.0
 11
10.72767329541681
 21
16.24717430164393
 31
0.0
  0
LINE
  5
8F
330
7F
100
AcDbEntity
  8
중심선
100
AcDbLine
 10
12.29416204261559
 20
16.24717430164393
 30
0.0
 11
15.74043728645272
 21
16.24717430164393
 31
0.0
  0
LINE
  5
90
330
7F
100
AcDbEntity
  8
중심선
100
AcDbLine
 10
19.22036997980202
 20
11.08717430171403
 30
0.0
 11
23.66174974927406
 21
11.08717430171406
 31
0.0
  0
LINE
  5
91
330
7F
100
AcDbEntity
  8
중심선
100
AcDbLine
 10
19.22039502424796
 20
13.00717430171391
 30
0.0
 11
19.22036997980202
 21
11.08717430171403
 31
0.0
  0
LINE
  5
92
330
7F
100
AcDbEntity
  8
중심선
100
AcDbLine
 10
19.22039502424796
 20
13.00717430171391
 30
0.0
 11
26.96566020931264
 21
13.00717430171391
 31
0.0
  0
LINE
  5
93
330
7F
100
AcDbEntity
  8
중심선
100
AcDbLine
 10
22.22332737316547
 20
13.45928029700563
 30
0.0
 11
24.52862924686651
 21
15.39360700705356
 31
0.0
  0
ATTDEF
  5
95
330
7F
100
AcDbEntity
  8
FORMAT
 62
     2
100
AcDbText
 10
4.408487351596664
 20
2.075366912832191
 30
0.0
 40
4.233333333333333
  1
E2033024
 41
0.75
  7
SLDTEXTSTYLE0
 11
4.408487351596664
 21
-0.0412997538344756
 31
0.0
100
AcDbAttributeDefinition
  3

  2
AUTOATTR0
 70
     0
 74
     1
  0
ENDBLK
  5
81
330
7F
100
AcDbEntity
  8
0
100
AcDbBlockEnd
  0
BLOCK
  5
D5
330
D4
100
AcDbEntity
  8
0
100
AcDbBlockBegin
  2
_D
 70
     0
 10
0.0
 20
0.0
 30
0.0
  3
_D
  1
_D
  0
LINE
  5
D7
330
D4
100
AcDbEntity
  8
치수문자_일반주서
 62
     0
370
    -2
100
AcDbLine
 10
-38.31932204607158
 20
4.762500000000004
 30
0.0
 11
-51.75682204607159
 21
4.762499999999953
 31
0.0
  0
LINE
  5
D8
330
D4
100
AcDbEntity
  8
치수문자_일반주서
 62
     0
370
    -2
100
AcDbLine
 10
-38.31932204607158
 20
-4.762500000000002
 30
0.0
 11
-51.75682204607156
 21
-4.762500000000053
 31
0.0
  0
LINE
  5
D9
330
D4
100
AcDbEntity
  8
치수문자_일반주서
 62
     0
370
    -2
100
AcDbLine
 10
-51.75682204607158
 20
1.460499999999953
 30
0.0
 11
-51.75682204607157
 21
-1.460500000000053
 31
0.0
  0
SOLID
  5
DA
330
D4
100
AcDbEntity
  8
치수문자_일반주서
 62
     0
100
AcDbTrace
 10
-51.20648871273824
 20
1.460499999999955
 30
0.0
 11
-52.30715537940491
 21
1.460499999999951
 31
0.0
 12
-51.75682204607159
 22
4.762499999999953
 32
0.0
 13
-51.75682204607159
 23
4.762499999999953
 33
0.0
  0
SOLID
  5
DB
330
D4
100
AcDbEntity
  8
치수문자_일반주서
 62
     0
100
AcDbTrace
 10
-52.3071553794049
 20
-1.460500000000055
 30
0.0
 11
-51.20648871273823
 21
-1.460500000000051
 31
0.0
 12
-51.75682204607156
 22
-4.762500000000053
 32
0.0
 13
-51.75682204607156
 23
-4.762500000000053
 33
0.0
  0
MTEXT
  5
DC
330
D4
100
AcDbEntity
  8
치수문자_일반주서
 62
     0
100
AcDbMText
 10
-56.13182204607158
 20
-0.0000000000000068
 30
0.0
 40
3.5
 41
0.0
 71
     2
 72
     1
  1
\A1;%%c9.53 [0.38]
  7
SLDTEXTSTYLE0
 11
-3.729883127349605E-15
 21
1.0
 31
0.0
 73
     1
 44
1.0
  0
POINT
  5
DD
330
D4
100
AcDbEntity
  8
Defpoints
 62
     0
100
AcDbPoint
 10
-38.25682204607158
 20
4.762500000000004
 30
0.0
  0
POINT
  5
DE
330
D4
100
AcDbEntity
  8
Defpoints
 62
     0
100
AcDbPoint
 10
-38.25682204607158
 20
-4.762500000000002
 30
0.0
  0
POINT
  5
DF
330
D4
100
AcDbEntity
  8
Defpoints
 62
     0
100
AcDbPoint
 10
-51.75682204607156
 20
-4.762500000000053
 30
0.0
  0
ENDBLK
  5
D6
330
D4
100
AcDbEntity
  8
0
100
AcDbBlockEnd
  0
BLOCK
  5
EA
330
E9
100
AcDbEntity
  8
0
100
AcDbBlockBegin
  2
_D_1
 70
     0
 10
0.0
 20
0.0
 30
0.0
  3
_D_1
  1
_D_1
  0
LINE
  5
EC
330
E9
100
AcDbEntity
  8
치수문자_일반주서
 62
     0
370
    -2
100
AcDbLine
 10
44.88067795392845
 20
4.825000000000007
 30
0.0
 11
44.88067795392845
 21
18.36194722681459
 31
0.0
  0
LINE
  5
ED
330
E9
100
AcDbEntity
  8
치수문자_일반주서
 62
     0
370
    -2
100
AcDbLine
 10
25.83067795392844
 20
4.216210105552389
 30
0.0
 11
25.83067795392844
 21
18.36194722681459
 31
0.0
  0
LINE
  5
EE
330
E9
100
AcDbEntity
  8
치수문자_일반주서
 62
     0
370
    -2
100
AcDbLine
 10
41.57867795392846
 20
18.36194722681459
 30
0.0
 11
29.13267795392844
 21
18.36194722681459
 31
0.0
  0
SOLID
  5
EF
330
E9
100
AcDbEntity
  8
치수문자_일반주서
 62
     0
100
AcDbTrace
 10
41.57867795392846
 20
17.81161389348126
 30
0.0
 11
41.57867795392846
 21
18.91228056014793
 31
0.0
 12
44.88067795392845
 22
18.36194722681459
 32
0.0
 13
44.88067795392845
 23
18.36194722681459
 33
0.0
  0
SOLID
  5
F0
330
E9
100
AcDbEntity
  8
치수문자_일반주서
 62
     0
100
AcDbTrace
 10
29.13267795392844
 20
18.91228056014793
 30
0.0
 11
29.13267795392844
 21
17.81161389348126
 31
0.0
 12
25.83067795392844
 22
18.36194722681459
 32
0.0
 13
25.83067795392844
 23
18.36194722681459
 33
0.0
  0
MTEXT
  5
F1
330
E9
100
AcDbEntity
  8
치수문자_일반주서
 62
     0
100
AcDbMText
 10
35.35567795392845
 20
22.73694722681459
 30
0.0
 40
3.5
 41
0.0
 71
     2
 72
     1
  1
\A1;19.05 [3/4]
  7
SLDTEXTSTYLE0
 73
     1
 44
1.0
  0
POINT
  5
F2
330
E9
100
AcDbEntity
  8
Defpoints
 62
     0
100
AcDbPoint
 10
44.88067795392845
 20
4.762500000000007
 30
0.0
  0
POINT
  5
F3
330
E9
100
AcDbEntity
  8
Defpoints
 62
     0
100
AcDbPoint
 10
25.83067795392844
 20
4.153710105552389
 30
0.0
  0
POINT
  5
F4
330
E9
100
AcDbEntity
  8
Defpoints
 62
     0
100
AcDbPoint
 10
25.83067795392844
 20
18.36194722681459
 30
0.0
  0
ENDBLK
  5
EB
330
E9
100
AcDbEntity
  8
0
100
AcDbBlockEnd
  0
BLOCK
  5
FE
330
FD
100
AcDbEntity
  8
0
100
AcDbBlockBegin
  2
_D_2
 70
     0
 10
0.0
 20
0.0
 30
0.0
  3
_D_2
  1
_D_2
  0
LINE
  5
100
330
FD
100
AcDbEntity
  8
치수문자_일반주서
 62
     0
370
    -2
100
AcDbLine
 10
44.88067795392845
 20
4.825000000000006
 30
0.0
 11
44.88067795392845
 21
35.04486045510103
 31
0.0
  0
LINE
  5
101
330
FD
100
AcDbEntity
  8
치수문자_일반주서
 62
     0
370
    -2
100
AcDbLine
 10
-39.25682204607158
 20
3.824999999999993
 30
0.0
 11
-39.25682204607158
 21
35.04486045510103
 31
0.0
  0
LINE
  5
102
330
FD
100
AcDbEntity
  8
치수문자_일반주서
 62
     0
370
    -2
100
AcDbLine
 10
41.57867795392846
 20
35.04486045510103
 30
0.0
 11
-35.95482204607158
 21
35.04486045510103
 31
0.0
  0
SOLID
  5
103
330
FD
100
AcDbEntity
  8
치수문자_일반주서
 62
     0
100
AcDbTrace
 10
41.57867795392846
 20
34.4945271217677
 30
0.0
 11
41.57867795392846
 21
35.59519378843436
 31
0.0
 12
44.88067795392845
 22
35.04486045510103
 32
0.0
 13
44.88067795392845
 23
35.04486045510103
 33
0.0
  0
SOLID
  5
104
330
FD
100
AcDbEntity
  8
치수문자_일반주서
 62
     0
100
AcDbTrace
 10
-35.95482204607158
 20
35.59519378843436
 30
0.0
 11
-35.95482204607158
 21
34.4945271217677
 31
0.0
 12
-39.25682204607158
 22
35.04486045510103
 32
0.0
 13
-39.25682204607158
 23
35.04486045510103
 33
0.0
  0
MTEXT
  5
105
330
FD
100
AcDbEntity
  8
치수문자_일반주서
 62
     0
100
AcDbMText
 10
2.811927953928436
 20
39.41986045510103
 30
0.0
 40
3.5
 41
0.0
 71
     2
 72
     1
  1
\A1;84.14 [3 5/16]
  7
SLDTEXTSTYLE0
 73
     1
 44
1.0
  0
POINT
  5
106
330
FD
100
AcDbEntity
  8
Defpoints
 62
     0
100
AcDbPoint
 10
44.88067795392845
 20
4.762500000000006
 30
0.0
  0
POINT
  5
107
330
FD
100
AcDbEntity
  8
Defpoints
 62
     0
100
AcDbPoint
 10
-39.25682204607158
 20
3.762499999999993
 30
0.0
  0
POINT
  5
108
330
FD
100
AcDbEntity
  8
Defpoints
 62
     0
100
AcDbPoint
 10
-39.25682204607158
 20
35.04486045510103
 30
0.0
  0
ENDBLK
  5
FF
330
FD
100
AcDbEntity
  8
0
100
AcDbBlockEnd
  0
BLOCK
  5
111
330
110
100
AcDbEntity
  8
0
100
AcDbBlockBegin
  2
_D_3
 70
     0
 10
0.0
 20
0.0
 30
0.0
  3
_D_3
  1
_D_3
  0
LINE
  5
113
330
110
100
AcDbEntity
  8
치수문자_일반주서
 62
     0
370
    -2
100
AcDbLine
 10
44.94317795392845
 20
-4.762499999999993
 30
0.0
 11
63.67699428645194
 21
-4.762499999999921
 31
0.0
  0
LINE
  5
114
330
110
100
AcDbEntity
  8
치수문자_일반주서
 62
     0
370
    -2
100
AcDbLine
 10
44.94317795392845
 20
4.762500000000007
 30
0.0
 11
63.6769942864519
 21
4.762500000000077
 31
0.0
  0
LINE
  5
115
330
110
100
AcDbEntity
  8
치수문자_일반주서
 62
     0
370
    -2
100
AcDbLine
 10
63.6769942864519
 20
4.762500000000077
 30
0.0
 11
63.67699428645178
 21
37.76991366003634
 31
0.0
  0
LINE
  5
116
330
110
100
AcDbEntity
  8
치수문자_일반주서
 62
     0
370
    -2
100
AcDbLine
 10
63.67699428645194
 20
-4.762499999999921
 30
0.0
 11
63.6769942864519
 21
4.762500000000077
 31
0.0
  0
LINE
  5
117
330
110
100
AcDbEntity
  8
치수문자_일반주서
 62
     0
370
    -2
100
AcDbLine
 10
63.67699428645195
 20
-8.06449999999992
 30
0.0
 11
63.67699428645196
 21
-11.36649999999992
 31
0.0
  0
LINE
  5
118
330
110
100
AcDbEntity
  8
치수문자_일반주서
 62
     0
370
    -2
100
AcDbLine
 10
63.67699428645189
 20
8.064500000000077
 30
0.0
 11
63.67699428645187
 21
11.36650000000008
 31
0.0
  0
SOLID
  5
119
330
110
100
AcDbEntity
  8
치수문자_일반주서
 62
     0
100
AcDbTrace
 10
64.22732761978529
 20
-8.064499999999919
 30
0.0
 11
63.12666095311862
 21
-8.064499999999923
 31
0.0
 12
63.67699428645194
 22
-4.762499999999921
 32
0.0
 13
63.67699428645194
 23
-4.762499999999921
 33
0.0
  0
SOLID
  5
11A
330
110
100
AcDbEntity
  8
치수문자_일반주서
 62
     0
100
AcDbTrace
 10
63.12666095311855
 20
8.064500000000075
 30
0.0
 11
64.22732761978521
 21
8.064500000000079
 31
0.0
 12
63.6769942864519
 22
4.762500000000077
 32
0.0
 13
63.6769942864519
 23
4.762500000000077
 33
0.0
  0
MTEXT
  5
11B
330
110
100
AcDbEntity
  8
치수문자_일반주서
 62
     0
100
AcDbMText
 10
59.30199428645183
 20
24.64491366003632
 30
0.0
 40
3.5
 41
0.0
 71
     2
 72
     1
  1
\A1;%%c9.53 [3/8]
  7
SLDTEXTSTYLE0
 11
-3.729883127349608E-15
 21
1.0
 31
0.0
 73
     1
 44
1.0
  0
POINT
  5
11C
330
110
100
AcDbEntity
  8
Defpoints
 62
     0
100
AcDbPoint
 10
44.88067795392845
 20
-4.762499999999993
 30
0.0
  0
POINT
  5
2B7
330
110
100
AcDbEntity
  8
Defpoints
 62
     0
100
AcDbPoint
 10
44.88067795392845
 20
4.762500000000007
 30
0.0
  0
POINT
  5
2B8
330
110
100
AcDbEntity
  8
Defpoints
 62
     0
100
AcDbPoint
 10
63.6769942864519
 20
4.762500000000077
 30
0.0
  0
ENDBLK
  5
112
330
110
100
AcDbEntity
  8
0
100
AcDbBlockEnd
  0
BLOCK
  5
12A
330
129
100
AcDbEntity
  8
0
100
AcDbBlockBegin
  2
SW_DOWELSYMBOL_0
 70
     0
 10
0.0
 20
0.0
 30
0.0
  3
SW_DOWELSYMBOL_0
  1
SW_DOWELSYMBOL_0
  0
CIRCLE
  5
12C
330
129
100
AcDbEntity
  8
해칭선
 62
     0
100
AcDbCircle
 10
0.0
 20
0.0
 30
0.0
 40
2.999999999999996
  0
HATCH
  5
12D
330
129
100
AcDbEntity
  8
0
  6
Continuous
 62
     0
370
     0
100
AcDbHatch
 10
0.0
 20
0.0
 30
0.0
210
0.0
220
0.0
230
1.0
  2
SOLID
 70
     1
 71
     0
 91
        1
 92
        0
 93
        3
 72
     2
 10
0.0
 20
0.0
 40
2.999999999999996
 50
0.0
 51
90.0
 73
     1
 72
     1
 10
0.0
 20
2.999999999999996
 11
0.0
 21
0.0
 72
     1
 10
0.0
 20
0.0
 11
2.999999999999996
 21
0.0
 97
        0
 75
     0
 76
     1
 98
        1
 10
0.0
 20
0.0
  0
HATCH
  5
12E
330
129
100
AcDbEntity
  8
0
  6
Continuous
 62
     0
370
     0
100
AcDbHatch
 10
0.0
 20
0.0
 30
0.0
210
0.0
220
0.0
230
1.0
  2
SOLID
 70
     1
 71
     0
 91
        1
 92
        0
 93
        3
 72
     2
 10
0.0
 20
0.0
 40
2.999999999999996
 50
180.0
 51
270.0000000000007
 73
     1
 72
     1
 10
0.0
 20
-2.999999999999996
 11
0.0
 21
0.0
 72
     1
 10
0.0
 20
0.0
 11
-2.999999999999996
 21
0.0
 97
        0
 75
     0
 76
     1
 98
        1
 10
0.0
 20
0.0
  0
ENDBLK
  5
12B
330
129
100
AcDbEntity
  8
0
100
AcDbBlockEnd
  0
BLOCK
  5
204
330
203
100
AcDbEntity
  8
0
100
AcDbBlockBegin
  2
*D7
 70
     1
 10
0.0
 20
0.0
 30
0.0
  3
*D7
  1
*D8
  0
LINE
  5
206
330
203
100
AcDbEntity
  8
치수문자_일반주서
 62
     0
370
    -2
100
AcDbLine
 10
17.81250000000005
 20
17.0125
 30
0.0
 11
4.375000000000012
 21
17.01249999999995
 31
0.0
  0
LINE
  5
207
330
203
100
AcDbEntity
  8
치수문자_일반주서
 62
     0
370
    -2
100
AcDbLine
 10
17.81250000000005
 20
7.487499999999993
 30
0.0
 11
4.375000000000045
 21
7.487499999999943
 31
0.0
  0
LINE
  5
208
330
203
100
AcDbEntity
  8
치수문자_일반주서
 62
     0
370
    -2
100
AcDbLine
 10
4.375000000000024
 20
13.71049999999995
 30
0.0
 11
4.375000000000034
 21
10.78949999999994
 31
0.0
  0
SOLID
  5
209
330
203
100
AcDbEntity
  8
치수문자_일반주서
 62
     0
100
AcDbTrace
 10
4.925333333333358
 20
13.71049999999995
 30
0.0
 11
3.824666666666691
 21
13.71049999999995
 31
0.0
 12
4.375000000000012
 22
17.01249999999995
 32
0.0
 13
4.375000000000012
 23
17.01249999999995
 33
0.0
  0
SOLID
  5
20A
330
203
100
AcDbEntity
  8
치수문자_일반주서
 62
     0
100
AcDbTrace
 10
3.824666666666701
 20
10.78949999999994
 30
0.0
 11
4.925333333333367
 21
10.78949999999995
 31
0.0
 12
4.375000000000045
 22
7.487499999999943
 32
0.0
 13
4.375000000000045
 23
7.487499999999943
 33
0.0
  0
MTEXT
  5
20B
330
203
100
AcDbEntity
  8
치수문자_일반주서
 62
     0
100
AcDbMText
 10
0.0000000000000284
 20
12.24999999999999
 30
0.0
 40
3.5
 41
0.0
 71
     2
 72
     1
  1
\A1;%%c9.53 [3/8]
  7
SLDTEXTSTYLE0
 11
-3.450141892798384E-15
 21
1.0
 31
0.0
 73
     1
 44
1.0
  0
POINT
  5
20C
330
203
100
AcDbEntity
  8
Defpoints
 62
     0
100
AcDbPoint
 10
17.87500000000005
 20
17.0125
 30
0.0
  0
POINT
  5
20D
330
203
100
AcDbEntity
  8
Defpoints
 62
     0
100
AcDbPoint
 10
17.87500000000005
 20
7.487499999999993
 30
0.0
  0
POINT
  5
20E
330
203
100
AcDbEntity
  8
Defpoints
 62
     0
100
AcDbPoint
 10
4.375000000000043
 20
7.487499999999942
 30
0.0
  0
ENDBLK
  5
205
330
203
100
AcDbEntity
  8
0
100
AcDbBlockEnd
  0
BLOCK
  5
210
330
20F
100
AcDbEntity
  8
0
100
AcDbBlockBegin
  2
*D8
 70
     1
 10
0.0
 20
0.0
 30
0.0
  3
*D8
  1
*D9
  0
LINE
  5
212
330
20F
100
AcDbEntity
  8
치수문자_일반주서
 62
     0
370
    -2
100
AcDbLine
 10
101.2025
 20
16.28125
 30
0.0
 11
101.2025
 21
29.15712142862928
 31
0.0
  0
LINE
  5
213
330
20F
100
AcDbEntity
  8
치수문자_일반주서
 62
     0
370
    -2
100
AcDbLine
 10
82.15250000000003
 20
16.27641674408876
 30
0.0
 11
82.15250000000003
 21
29.15712142862928
 31
0.0
  0
LINE
  5
214
330
20F
100
AcDbEntity
  8
치수문자_일반주서
 62
     0
370
    -2
100
AcDbLine
 10
82.15250000000003
 20
29.15712142862928
 30
0.0
 11
50.61100000000003
 21
29.15712142862928
 31
0.0
  0
LINE
  5
215
330
20F
100
AcDbEntity
  8
치수문자_일반주서
 62
     0
370
    -2
100
AcDbLine
 10
101.2025
 20
29.15712142862928
 30
0.0
 11
82.15250000000003
 21
29.15712142862928
 31
0.0
  0
LINE
  5
216
330
20F
100
AcDbEntity
  8
치수문자_일반주서
 62
     0
370
    -2
100
AcDbLine
 10
104.5045
 20
29.15712142862928
 30
0.0
 11
107.8065
 21
29.15712142862928
 31
0.0
  0
LINE
  5
217
330
20F
100
AcDbEntity
  8
치수문자_일반주서
 62
     0
370
    -2
100
AcDbLine
 10
78.85050000000004
 20
29.15712142862928
 30
0.0
 11
75.54850000000005
 21
29.15712142862928
 31
0.0
  0
SOLID
  5
218
330
20F
100
AcDbEntity
  8
치수문자_일반주서
 62
     0
100
AcDbTrace
 10
104.5045
 20
29.70745476196262
 30
0.0
 11
104.5045
 21
28.60678809529595
 31
0.0
 12
101.2025
 22
29.15712142862928
 32
0.0
 13
101.2025
 23
29.15712142862928
 33
0.0
  0
SOLID
  5
219
330
20F
100
AcDbEntity
  8
치수문자_일반주서
 62
     0
100
AcDbTrace
 10
78.85050000000004
 20
28.60678809529595
 30
0.0
 11
78.85050000000004
 21
29.70745476196262
 31
0.0
 12
82.15250000000003
 22
29.15712142862928
 32
0.0
 13
82.15250000000003
 23
29.15712142862928
 33
0.0
  0
MTEXT
  5
21A
330
20F
100
AcDbEntity
  8
치수문자_일반주서
 62
     0
100
AcDbMText
 10
63.07975000000003
 20
33.53212142862928
 30
0.0
 40
3.5
 41
0.0
 71
     2
 72
     1
  1
\A1;19.05 [3/4]
  7
SLDTEXTSTYLE0
 73
     1
 44
1.0
  0
POINT
  5
21B
330
20F
100
AcDbEntity
  8
Defpoints
 62
     0
100
AcDbPoint
 10
101.2025
 20
16.21875
 30
0.0
  0
POINT
  5
21C
330
20F
100
AcDbEntity
  8
Defpoints
 62
     0
100
AcDbPoint
 10
82.15250000000003
 20
16.21391674408876
 30
0.0
  0
POINT
  5
21D
330
20F
100
AcDbEntity
  8
Defpoints
 62
     0
100
AcDbPoint
 10
82.15250000000003
 20
29.15712142862928
 30
0.0
  0
ENDBLK
  5
211
330
20F
100
AcDbEntity
  8
0
100
AcDbBlockEnd
  0
BLOCK
  5
21F
330
21E
100
AcDbEntity
  8
0
100
AcDbBlockBegin
  2
*D9
 70
     1
 10
0.0
 20
0.0
 30
0.0
  3
*D9
  1
*D10
  0
LINE
  5
221
330
21E
100
AcDbEntity
  8
치수문자_일반주서
 62
     0
370
    -2
100
AcDbLine
 10
101.2025
 20
16.28125
 30
0.0
 11
101.2025
 21
46.54163864014819
 31
0.0
  0
LINE
  5
222
330
21E
100
AcDbEntity
  8
치수문자_일반주서
 62
     0
370
    -2
100
AcDbLine
 10
17.06500000000002
 20
16.26499999999999
 30
0.0
 11
17.06500000000002
 21
46.54163864014819
 31
0.0
  0
LINE
  5
223
330
21E
100
AcDbEntity
  8
치수문자_일반주서
 62
     0
370
    -2
100
AcDbLine
 10
97.90050000000005
 20
46.54163864014819
 30
0.0
 11
20.36700000000002
 21
46.54163864014819
 31
0.0
  0
SOLID
  5
224
330
21E
100
AcDbEntity
  8
치수문자_일반주서
 62
     0
100
AcDbTrace
 10
97.90050000000005
 20
45.99130530681486
 30
0.0
 11
97.90050000000005
 21
47.09197197348153
 31
0.0
 12
101.2025
 22
46.54163864014819
 32
0.0
 13
101.2025
 23
46.54163864014819
 33
0.0
  0
SOLID
  5
225
330
21E
100
AcDbEntity
  8
치수문자_일반주서
 62
     0
100
AcDbTrace
 10
20.36700000000002
 20
47.09197197348153
 30
0.0
 11
20.36700000000002
 21
45.99130530681486
 31
0.0
 12
17.06500000000002
 22
46.54163864014819
 32
0.0
 13
17.06500000000002
 23
46.54163864014819
 33
0.0
  0
MTEXT
  5
226
330
21E
100
AcDbEntity
  8
치수문자_일반주서
 62
     0
100
AcDbMText
 10
59.13375000000003
 20
50.91663864014819
 30
0.0
 40
3.5
 41
0.0
 71
     2
 72
     1
  1
\A1;84.14 [3 5/16]
  7
SLDTEXTSTYLE0
 73
     1
 44
1.0
  0
POINT
  5
227
330
21E
100
AcDbEntity
  8
Defpoints
 62
     0
100
AcDbPoint
 10
101.2025
 20
16.21875
 30
0.0
  0
POINT
  5
228
330
21E
100
AcDbEntity
  8
Defpoints
 62
     0
100
AcDbPoint
 10
17.06500000000002
 20
16.20249999999999
 30
0.0
  0
POINT
  5
229
330
21E
100
AcDbEntity
  8
Defpoints
 62
     0
100
AcDbPoint
 10
17.06500000000002
 20
46.54163864014819
 30
0.0
  0
ENDBLK
  5
220
330
21E
100
AcDbEntity
  8
0
100
AcDbBlockEnd
  0
BLOCK
  5
22B
330
22A
100
AcDbEntity
  8
0
100
AcDbBlockBegin
  2
*D10
 70
     1
 10
0.0
 20
0.0
 30
0.0
  3
*D10
  1
*D11
  0
LINE
  5
22D
330
22A
100
AcDbEntity
  8
치수문자_일반주서
 62
     0
370
    -2
100
AcDbLine
 10
101.265
 20
8.28125
 30
0.0
 11
117.3571668741387
 21
8.28125000000006
 31
0.0
  0
LINE
  5
22E
330
22A
100
AcDbEntity
  8
치수문자_일반주서
 62
     0
370
    -2
100
AcDbLine
 10
101.265
 20
16.21875
 30
0.0
 11
117.3571668741387
 21
16.21875000000006
 31
0.0
  0
LINE
  5
22F
330
22A
100
AcDbEntity
  8
치수문자_일반주서
 62
     0
370
    -2
100
AcDbLine
 10
117.3571668741387
 20
16.21875000000006
 30
0.0
 11
117.3571668741386
 21
50.82275000000006
 31
0.0
  0
LINE
  5
230
330
22A
100
AcDbEntity
  8
치수문자_일반주서
 62
     0
370
    -2
100
AcDbLine
 10
117.3571668741387
 20
8.28125000000006
 30
0.0
 11
117.3571668741387
 21
16.21875000000006
 31
0.0
  0
LINE
  5
231
330
22A
100
AcDbEntity
  8
치수문자_일반주서
 62
     0
370
    -2
100
AcDbLine
 10
117.3571668741387
 20
4.979250000000061
 30
0.0
 11
117.3571668741387
 21
1.677250000000061
 31
0.0
  0
LINE
  5
232
330
22A
100
AcDbEntity
  8
치수문자_일반주서
 62
     0
370
    -2
100
AcDbLine
 10
117.3571668741387
 20
19.52075000000006
 30
0.0
 11
117.3571668741387
 21
22.82275000000006
 31
0.0
  0
SOLID
  5
233
330
22A
100
AcDbEntity
  8
치수문자_일반주서
 62
     0
100
AcDbTrace
 10
117.9075002074721
 20
4.979250000000063
 30
0.0
 11
116.8068335408054
 21
4.979250000000059
 31
0.0
 12
117.3571668741387
 22
8.28125000000006
 32
0.0
 13
117.3571668741387
 23
8.28125000000006
 33
0.0
  0
SOLID
  5
234
330
22A
100
AcDbEntity
  8
치수문자_일반주서
 62
     0
100
AcDbTrace
 10
116.8068335408053
 20
19.52075000000006
 30
0.0
 11
117.907500207472
 21
19.52075000000006
 31
0.0
 12
117.3571668741387
 22
16.21875000000006
 32
0.0
 13
117.3571668741387
 23
16.21875000000006
 33
0.0
  0
MTEXT
  5
235
330
22A
100
AcDbEntity
  8
치수문자_일반주서
 62
     0
100
AcDbMText
 10
112.9821668741386
 20
36.82275000000004
 30
0.0
 40
3.5
 41
0.0
 71
     2
 72
     1
  1
\A1;%%c7.94 [5/16]
  7
SLDTEXTSTYLE0
 11
-3.580687802255623E-15
 21
1.0
 31
0.0
 73
     1
 44
1.0
  0
POINT
  5
236
330
22A
100
AcDbEntity
  8
Defpoints
 62
     0
100
AcDbPoint
 10
101.2025
 20
8.28125
 30
0.0
  0
POINT
  5
237
330
22A
100
AcDbEntity
  8
Defpoints
 62
     0
100
AcDbPoint
 10
101.2025
 20
16.21875
 30
0.0
  0
POINT
  5
238
330
22A
100
AcDbEntity
  8
Defpoints
 62
     0
100
AcDbPoint
 10
117.3571668741387
 20
16.21875000000006
 30
0.0
  0
ENDBLK
  5
22C
330
22A
100
AcDbEntity
  8
0
100
AcDbBlockEnd
  0
BLOCK
  5
280
330
27F
100
AcDbEntity
  8
0
100
AcDbBlockBegin
  2
*D11
 70
     1
 10
0.0
 20
0.0
 30
0.0
  3
*D11
  1
*D12
  0
LINE
  5
282
330
27F
100
AcDbEntity
  8
치수문자_일반주서
 62
     0
370
    -2
100
AcDbLine
 10
82.00703363980747
 20
-39.4171324428001
 30
0.0
 11
68.56953363980745
 21
-39.41713244280015
 31
0.0
  0
LINE
  5
283
330
27F
100
AcDbEntity
  8
치수문자_일반주서
 62
     0
370
    -2
100
AcDbLine
 10
82.00703363980747
 20
-48.94213244280011
 30
0.0
 11
68.56953363980747
 21
-48.94213244280016
 31
0.0
  0
LINE
  5
284
330
27F
100
AcDbEntity
  8
치수문자_일반주서
 62
     0
370
    -2
100
AcDbLine
 10
68.56953363980746
 20
-42.71913244280015
 30
0.0
 11
68.56953363980746
 21
-45.64013244280016
 31
0.0
  0
SOLID
  5
285
330
27F
100
AcDbEntity
  8
치수문자_일반주서
 62
     0
100
AcDbTrace
 10
69.11986697314079
 20
-42.71913244280015
 30
0.0
 11
68.01920030647413
 21
-42.71913244280015
 31
0.0
 12
68.56953363980745
 22
-39.41713244280015
 32
0.0
 13
68.56953363980745
 23
-39.41713244280015
 33
0.0
  0
SOLID
  5
286
330
27F
100
AcDbEntity
  8
치수문자_일반주서
 62
     0
100
AcDbTrace
 10
68.01920030647413
 20
-45.64013244280016
 30
0.0
 11
69.11986697314079
 21
-45.64013244280016
 31
0.0
 12
68.56953363980747
 22
-48.94213244280016
 32
0.0
 13
68.56953363980747
 23
-48.94213244280016
 33
0.0
  0
MTEXT
  5
287
330
27F
100
AcDbEntity
  8
치수문자_일반주서
 62
     0
100
AcDbMText
 10
64.19453363980746
 20
-44.17963244280011
 30
0.0
 40
3.5
 41
0.0
 71
     2
 72
     1
  1
\A1;%%c9.53 [3/8]
  7
SLDTEXTSTYLE0
 11
-2.983906501879682E-15
 21
1.0
 31
0.0
 73
     1
 44
1.0
  0
POINT
  5
288
330
27F
100
AcDbEntity
  8
Defpoints
 62
     0
100
AcDbPoint
 10
82.06953363980747
 20
-39.4171324428001
 30
0.0
  0
POINT
  5
289
330
27F
100
AcDbEntity
  8
Defpoints
 62
     0
100
AcDbPoint
 10
82.06953363980747
 20
-48.94213244280011
 30
0.0
  0
POINT
  5
28A
330
27F
100
AcDbEntity
  8
Defpoints
 62
     0
100
AcDbPoint
 10
68.56953363980747
 20
-48.94213244280016
 30
0.0
  0
ENDBLK
  5
281
330
27F
100
AcDbEntity
  8
0
100
AcDbBlockEnd
  0
BLOCK
  5
28C
330
28B
100
AcDbEntity
  8
0
100
AcDbBlockBegin
  2
*D12
 70
     1
 10
0.0
 20
0.0
 30
0.0
  3
*D12
  1
*D13
  0
LINE
  5
28E
330
28B
100
AcDbEntity
  8
치수문자_일반주서
 62
     0
370
    -2
100
AcDbLine
 10
165.3970336398075
 20
-40.1483824428001
 30
0.0
 11
165.3970336398075
 21
-27.27251101417082
 31
0.0
  0
LINE
  5
28F
330
28B
100
AcDbEntity
  8
치수문자_일반주서
 62
     0
370
    -2
100
AcDbLine
 10
146.3470336398075
 20
-40.15321569871134
 30
0.0
 11
146.3470336398075
 21
-27.27251101417082
 31
0.0
  0
LINE
  5
290
330
28B
100
AcDbEntity
  8
치수문자_일반주서
 62
     0
370
    -2
100
AcDbLine
 10
146.3470336398075
 20
-27.27251101417082
 30
0.0
 11
114.8055336398075
 21
-27.27251101417082
 31
0.0
  0
LINE
  5
291
330
28B
100
AcDbEntity
  8
치수문자_일반주서
 62
     0
370
    -2
100
AcDbLine
 10
165.3970336398075
 20
-27.27251101417082
 30
0.0
 11
146.3470336398075
 21
-27.27251101417082
 31
0.0
  0
LINE
  5
292
330
28B
100
AcDbEntity
  8
치수문자_일반주서
 62
     0
370
    -2
100
AcDbLine
 10
168.6990336398075
 20
-27.27251101417082
 30
0.0
 11
172.0010336398075
 21
-27.27251101417082
 31
0.0
  0
LINE
  5
293
330
28B
100
AcDbEntity
  8
치수문자_일반주서
 62
     0
370
    -2
100
AcDbLine
 10
143.0450336398075
 20
-27.27251101417082
 30
0.0
 11
139.7430336398075
 21
-27.27251101417082
 31
0.0
  0
SOLID
  5
294
330
28B
100
AcDbEntity
  8
치수문자_일반주서
 62
     0
100
AcDbTrace
 10
168.6990336398075
 20
-26.72217768083748
 30
0.0
 11
168.6990336398075
 21
-27.82284434750415
 31
0.0
 12
165.3970336398075
 22
-27.27251101417082
 32
0.0
 13
165.3970336398075
 23
-27.27251101417082
 33
0.0
  0
SOLID
  5
295
330
28B
100
AcDbEntity
  8
치수문자_일반주서
 62
     0
100
AcDbTrace
 10
143.0450336398075
 20
-27.82284434750415
 30
0.0
 11
143.0450336398075
 21
-26.72217768083748
 31
0.0
 12
146.3470336398075
 22
-27.27251101417082
 32
0.0
 13
146.3470336398075
 23
-27.27251101417082
 33
0.0
  0
MTEXT
  5
296
330
28B
100
AcDbEntity
  8
치수문자_일반주서
 62
     0
100
AcDbMText
 10
127.2742836398075
 20
-22.89751101417082
 30
0.0
 40
3.5
 41
0.0
 71
     2
 72
     1
  1
\A1;19.05 [3/4]
  7
SLDTEXTSTYLE0
 73
     1
 44
1.0
  0
POINT
  5
297
330
28B
100
AcDbEntity
  8
Defpoints
 62
     0
100
AcDbPoint
 10
165.3970336398075
 20
-40.2108824428001
 30
0.0
  0
POINT
  5
298
330
28B
100
AcDbEntity
  8
Defpoints
 62
     0
100
AcDbPoint
 10
146.3470336398075
 20
-40.21571569871134
 30
0.0
  0
POINT
  5
299
330
28B
100
AcDbEntity
  8
Defpoints
 62
     0
100
AcDbPoint
 10
146.3470336398075
 20
-27.27251101417082
 30
0.0
  0
ENDBLK
  5
28D
330
28B
100
AcDbEntity
  8
0
100
AcDbBlockEnd
  0
BLOCK
  5
29B
330
29A
100
AcDbEntity
  8
0
100
AcDbBlockBegin
  2
*D13
 70
     1
 10
0.0
 20
0.0
 30
0.0
  3
*D13
  1
*D14
  0
LINE
  5
29D
330
29A
100
AcDbEntity
  8
치수문자_일반주서
 62
     0
370
    -2
100
AcDbLine
 10
165.3970336398075
 20
-40.1483824428001
 30
0.0
 11
165.3970336398075
 21
-9.887993802651906
 31
0.0
  0
LINE
  5
29E
330
29A
100
AcDbEntity
  8
치수문자_일반주서
 62
     0
370
    -2
100
AcDbLine
 10
81.25953363980744
 20
-40.16463244280011
 30
0.0
 11
81.25953363980744
 21
-9.887993802651906
 31
0.0
  0
LINE
  5
29F
330
29A
100
AcDbEntity
  8
치수문자_일반주서
 62
     0
370
    -2
100
AcDbLine
 10
162.0950336398075
 20
-9.887993802651906
 30
0.0
 11
84.56153363980744
 21
-9.887993802651906
 31
0.0
  0
SOLID
  5
2A0
330
29A
100
AcDbEntity
  8
치수문자_일반주서
 62
     0
100
AcDbTrace
 10
162.0950336398075
 20
-10.43832713598524
 30
0.0
 11
162.0950336398075
 21
-9.337660469318573
 31
0.0
 12
165.3970336398075
 22
-9.887993802651906
 32
0.0
 13
165.3970336398075
 23
-9.887993802651906
 33
0.0
  0
SOLID
  5
2A1
330
29A
100
AcDbEntity
  8
치수문자_일반주서
 62
     0
100
AcDbTrace
 10
84.56153363980744
 20
-9.337660469318573
 30
0.0
 11
84.56153363980744
 21
-10.43832713598524
 31
0.0
 12
81.25953363980744
 22
-9.887993802651906
 32
0.0
 13
81.25953363980744
 23
-9.887993802651906
 33
0.0
  0
MTEXT
  5
2A2
330
29A
100
AcDbEntity
  8
치수문자_일반주서
 62
     0
100
AcDbMText
 10
123.3282836398075
 20
-5.512993802651906
 30
0.0
 40
3.5
 41
0.0
 71
     2
 72
     1
  1
\A1;84.14 [3 5/16]
  7
SLDTEXTSTYLE0
 73
     1
 44
1.0
  0
POINT
  5
2A3
330
29A
100
AcDbEntity
  8
Defpoints
 62
     0
100
AcDbPoint
 10
165.3970336398075
 20
-40.2108824428001
 30
0.0
  0
POINT
  5
2A4
330
29A
100
AcDbEntity
  8
Defpoints
 62
     0
100
AcDbPoint
 10
81.25953363980744
 20
-40.22713244280011
 30
0.0
  0
POINT
  5
2A5
330
29A
100
AcDbEntity
  8
Defpoints
 62
     0
100
AcDbPoint
 10
81.25953363980744
 20
-9.887993802651906
 30
0.0
  0
ENDBLK
  5
29C
330
29A
100
AcDbEntity
  8
0
100
AcDbBlockEnd
  0
BLOCK
  5
2A7
330
2A6
100
AcDbEntity
  8
0
100
AcDbBlockBegin
  2
*D14
 70
     1
 10
0.0
 20
0.0
 30
0.0
  3
*D14
  1
*D15
  0
LINE
  5
2A9
330
2A6
100
AcDbEntity
  8
치수문자_일반주서
 62
     0
370
    -2
100
AcDbLine
 10
165.4595336398075
 20
-48.1483824428001
 30
0.0
 11
181.5517005139462
 21
-48.14838244280004
 31
0.0
  0
LINE
  5
2AA
330
2A6
100
AcDbEntity
  8
치수문자_일반주서
 62
     0
370
    -2
100
AcDbLine
 10
165.4595336398075
 20
-40.2108824428001
 30
0.0
 11
181.5517005139461
 21
-40.21088244280004
 31
0.0
  0
LINE
  5
2AB
330
2A6
100
AcDbEntity
  8
치수문자_일반주서
 62
     0
370
    -2
100
AcDbLine
 10
181.5517005139461
 20
-40.21088244280004
 30
0.0
 11
181.551700513946
 21
-5.606882442800043
 31
0.0
  0
LINE
  5
2AC
330
2A6
100
AcDbEntity
  8
치수문자_일반주서
 62
     0
370
    -2
100
AcDbLine
 10
181.5517005139462
 20
-48.14838244280004
 30
0.0
 11
181.5517005139461
 21
-40.21088244280004
 31
0.0
  0
LINE
  5
2AD
330
2A6
100
AcDbEntity
  8
치수문자_일반주서
 62
     0
370
    -2
100
AcDbLine
 10
181.5517005139462
 20
-51.45038244280004
 30
0.0
 11
181.5517005139462
 21
-54.75238244280004
 31
0.0
  0
LINE
  5
2AE
330
2A6
100
AcDbEntity
  8
치수문자_일반주서
 62
     0
370
    -2
100
AcDbLine
 10
181.5517005139461
 20
-36.90888244280004
 30
0.0
 11
181.5517005139461
 21
-33.60688244280004
 31
0.0
  0
SOLID
  5
2AF
330
2A6
100
AcDbEntity
  8
치수문자_일반주서
 62
     0
100
AcDbTrace
 10
182.1020338472795
 20
-51.45038244280004
 30
0.0
 11
181.0013671806128
 21
-51.45038244280004
 31
0.0
 12
181.5517005139462
 22
-48.14838244280004
 32
0.0
 13
181.5517005139462
 23
-48.14838244280004
 33
0.0
  0
SOLID
  5
2B0
330
2A6
100
AcDbEntity
  8
치수문자_일반주서
 62
     0
100
AcDbTrace
 10
181.0013671806128
 20
-36.90888244280004
 30
0.0
 11
182.1020338472795
 21
-36.90888244280004
 31
0.0
 12
181.5517005139461
 22
-40.21088244280004
 32
0.0
 13
181.5517005139461
 23
-40.21088244280004
 33
0.0
  0
MTEXT
  5
2B1
330
2A6
100
AcDbEntity
  8
치수문자_일반주서
 62
     0
100
AcDbMText
 10
177.1767005139461
 20
-19.60688244280006
 30
0.0
 40
3.5
 41
0.0
 71
     2
 72
     1
  1
\A1;%%c7.94 [5/16]
  7
SLDTEXTSTYLE0
 11
-3.580687802255623E-15
 21
1.0
 31
0.0
 73
     1
 44
1.0
  0
POINT
  5
2B2
330
2A6
100
AcDbEntity
  8
Defpoints
 62
     0
100
AcDbPoint
 10
165.3970336398075
 20
-48.1483824428001
 30
0.0
  0
POINT
  5
2B3
330
2A6
100
AcDbEntity
  8
Defpoints
 62
     0
100
AcDbPoint
 10
165.3970336398075
 20
-40.2108824428001
 30
0.0
  0
POINT
  5
2B4
330
2A6
100
AcDbEntity
  8
Defpoints
 62
     0
100
AcDbPoint
 10
181.5517005139461
 20
-40.21088244280004
 30
0.0
  0
ENDBLK
  5
2A8
330
2A6
100
AcDbEntity
  8
0
100
AcDbBlockEnd
  0
BLOCK
  5
36C
330
36B
100
AcDbEntity
  8
0
100
AcDbBlockBegin
  2
*D15
 70
     1
 10
0.0
 20
0.0
 30
0.0
  3
*D15
  1
*D15
  0
LINE
  5
36E
330
36B
100
AcDbEntity
  8
치수문자_일반주서
 62
     0
370
    -2
100
AcDbLine
 10
0.4306779539284591
 20
4.697999999999996
 30
0.0
 11
0.4306779539284591
 21
25.98221065362592
 31
0.0
  0
LINE
  5
36F
330
36B
100
AcDbEntity
  8
치수문자_일반주서
 62
     0
370
    -2
100
AcDbLine
 10
44.88067795392845
 20
4.825000000000006
 30
0.0
 11
44.88067795392845
 21
25.98221065362592
 31
0.0
  0
LINE
  5
370
330
36B
100
AcDbEntity
  8
치수문자_일반주서
 62
     0
370
    -2
100
AcDbLine
 10
3.732677953928459
 20
25.98221065362592
 30
0.0
 11
41.57867795392846
 21
25.98221065362592
 31
0.0
  0
SOLID
  5
371
330
36B
100
AcDbEntity
  8
치수문자_일반주서
 62
     0
100
AcDbTrace
 10
3.732677953928459
 20
26.53254398695926
 30
0.0
 11
3.732677953928459
 21
25.43187732029259
 31
0.0
 12
0.4306779539284591
 22
25.98221065362592
 32
0.0
 13
0.4306779539284591
 23
25.98221065362592
 33
0.0
  0
SOLID
  5
372
330
36B
100
AcDbEntity
  8
치수문자_일반주서
 62
     0
100
AcDbTrace
 10
41.57867795392846
 20
25.43187732029259
 30
0.0
 11
41.57867795392846
 21
26.53254398695926
 31
0.0
 12
44.88067795392845
 22
25.98221065362592
 32
0.0
 13
44.88067795392845
 23
25.98221065362592
 33
0.0
  0
MTEXT
  5
373
330
36B
100
AcDbEntity
  8
치수문자_일반주서
 62
     0
100
AcDbMText
 10
22.65567795392846
 20
28.60721065362592
 30
0.0
 40
3.5
 41
0.0
 71
     5
 72
     1
  1
\A1;44.45 [1 3/4]
  7
SLDTEXTSTYLE0
 73
     1
 44
1.0
  0
POINT
  5
374
330
36B
100
AcDbEntity
  8
Defpoints
 62
     0
100
AcDbPoint
 10
0.4306779539284591
 20
4.635499999999996
 30
0.0
  0
POINT
  5
375
330
36B
100
AcDbEntity
  8
Defpoints
 62
     0
100
AcDbPoint
 10
44.88067795392845
 20
4.762500000000006
 30
0.0
  0
POINT
  5
376
330
36B
100
AcDbEntity
  8
Defpoints
 62
     0
100
AcDbPoint
 10
44.88067795392845
 20
25.98221065362592
 30
0.0
  0
ENDBLK
  5
36D
330
36B
100
AcDbEntity
  8
0
100
AcDbBlockEnd
  0
ENDSEC
  0
SECTION
  2
ENTITIES
  0
LINE
  5
96
330
1F
100
AcDbEntity
  8
외형선
  6
Continuous
370
    15
100
AcDbLine
 10
0.0
 20
4.762499999999999
 30
0.0
 11
-14.57437204607146
 21
4.762499999999998
 31
0.0
  0
LINE
  5
97
330
1F
100
AcDbEntity
  8
외형선
  6
Continuous
370
    15
100
AcDbLine
 10
-38.25682204607155
 20
-4.762500000000002
 30
0.0
 11
0.0000000000000036
 21
-4.7625
 31
0.0
  0
LINE
  5
98
330
1F
100
AcDbEntity
  8
외형선
  6
Continuous
370
    15
100
AcDbLine
 10
-38.25682204607155
 20
4.762499999999993
 30
0.0
 11
-39.25682204607158
 21
3.762499999999993
 31
0.0
  0
LINE
  5
99
330
1F
100
AcDbEntity
  8
외형선
  6
Continuous
370
    15
100
AcDbLine
 10
-39.25682204607158
 20
-3.762499999999998
 30
0.0
 11
-38.25682204607155
 21
-4.762499999999998
 31
0.0
  0
SPLINE
  5
9B
330
1F
100
AcDbEntity
  8
0
  6
Continuous
 62
     1
370
    15
100
AcDbSpline
210
0.0
220
0.0
230
1.0
 70
     8
 71
     3
 72
     9
 73
     5
 74
     0
 42
0.000000001
 43
0.00000001
 40
0.0
 40
0.0
 40
0.0
 40
0.0
 40
0.4403992498702048
 40
1.0
 40
1.0
 40
1.0
 40
1.0
 10
32.54156403517315
 20
1.220367910613919
 30
0.0
 10
32.34738309638442
 20
1.312824836039552
 30
0.0
 10
31.90646286583005
 20
1.522763716391601
 30
0.0
 10
31.46732672484847
 20
1.752565562046892
 30
0.0
 10
31.22158581094607
 20
1.881162847256803
 30
0.0
  0
LINE
  5
9C
330
1F
100
AcDbEntity
  8
0
  6
Continuous
 62
     1
370
    15
100
AcDbLine
 10
29.93636520120311
 20
1.32582028446466
 30
0.0
 11
29.85783777119621
 21
1.369101499281812
 31
0.0
  0
SPLINE
  5
9D
330
1F
100
AcDbEntity
  8
0
  6
Continuous
 62
     1
370
    15
100
AcDbSpline
210
0.0
220
0.0
230
1.0
 70
     8
 71
     3
 72
    16
 73
    12
 74
     0
 42
0.000000001
 43
0.00000001
 40
0.0
 40
0.0
 40
0.0
 40
0.0
 40
0.1841471534201393
 40
0.3480892129191454
 40
0.4952857354585656
 40
0.611289983212552
 40
0.6912047952764976
 40
0.7278365816437373
 40
0.7905808953571303
 40
0.9171976974984493
 40
1.0
 40
1.0
 40
1.0
 40
1.0
 10
30.96770376587602
 20
3.784463943237633
 30
0.0
 10
30.73723852971277
 20
3.772755097590711
 30
0.0
 10
30.3015952891232
 20
3.750622130614405
 30
0.0
 10
29.65413266674214
 20
3.729784325275488
 30
0.0
 10
29.08445436452482
 20
3.721647313679419
 30
0.0
 10
28.62862729230222
 20
3.718732899109848
 30
0.0
 10
28.32034966565526
 20
3.719438645943843
 30
0.0
 10
28.09102277753352
 20
3.721364551778291
 30
0.0
 10
27.797470561495
 20
3.725044088062293
 30
0.0
 10
27.44423631084058
 20
3.731380531258746
 30
0.0
 10
27.17165921675219
 20
3.741034466821878
 30
0.0
 10
27.06388485185749
 20
3.744851540217318
 30
0.0
  0
SPLINE
  5
9E
330
1F
100
AcDbEntity
  8
0
  6
Continuous
 62
     1
370
    15
100
AcDbSpline
210
0.0
220
0.0
230
1.0
 70
     8
 71
     3
 72
    27
 73
    23
 74
     0
 42
0.000000001
 43
0.00000001
 40
0.0
 40
0.0
 40
0.0
 40
0.0
 40
0.0658910465557855
 40
0.1160030538140067
 40
0.149977658508992
 40
0.1807254229593056
 40
0.2194566071235406
 40
0.2650648525038947
 40
0.3076485539148035
 40
0.3717191724339386
 40
0.425779612200469
 40
0.4792103944058302
 40
0.532705711162517
 40
0.5928706951937245
 40
0.6568201069655937
 40
0.7104085450907338
 40
0.740281480578964
 40
0.7678890674401271
 40
0.7958476561248873
 40
0.8421830249538057
 40
0.9101095688683635
 40
1.0
 40
1.0
 40
1.0
 40
1.0
 10
43.11067069799044
 20
3.257322567043361
 30
0.0
 10
42.92869969159138
 20
3.242444398975361
 30
0.0
 10
42.60833458052842
 20
3.216250962670097
 30
0.0
 10
42.19378495610374
 20
3.190198672709935
 30
0.0
 10
41.87402289199291
 20
3.173165831720451
 30
0.0
 10
41.58480171107443
 20
3.160183221123375
 30
0.0
 10
41.26494631960658
 20
3.148600509736346
 30
0.0
 10
40.91313347357067
 20
3.139651923496653
 30
0.0
 10
40.49102254165263
 20
3.133749154025744
 30
0.0
 10
40.04543467391521
 20
3.133607685257298
 30
0.0
 10
39.56961949954538
 20
3.140651483750213
 30
0.0
 10
39.12324862600993
 20
3.15350436913771
 30
0.0
 10
38.66017055472226
 20
3.173084041131743
 30
0.0
 10
38.16541701735579
 20
3.20103799099136
 30
0.0
 10
37.66803769859325
 20
3.236828564346188
 30
0.0
 10
37.25972353519525
 20
3.272429256793977
 30
0.0
 10
36.95656394165916
 20
3.301755805930085
 30
0.0
 10
36.7224997324096
 20
3.325889380369836
 30
0.0
 10
36.44289616675702
 20
3.356450735858051
 30
0.0
 10
36.04865431068569
 20
3.402985970237521
 30
0.0
 10
35.48203606076412
 20
3.477014474279318
 30
0.0
 10
35.04207737174477
 20
3.543924908682424
 30
0.0
 10
34.79148280658799
 20
3.582036194201236
 30
0.0
  0
SPLINE
  5
9F
330
1F
100
AcDbEntity
  8
0
  6
Continuous
 62
     1
370
    15
100
AcDbSpline
210
0.0
220
0.0
230
1.0
 70
     8
 71
     3
 72
    17
 73
    13
 74
     0
 42
0.000000001
 43
0.00000001
 40
0.0
 40
0.0
 40
0.0
 40
0.0
 40
0.1484685814633509
 40
0.2633134161075025
 40
0.3452579716894454
 40
0.4209288247277547
 40
0.5139387187304206
 40
0.6216757589525501
 40
0.7198429290481493
 40
0.8620812413747403
 40
0.9856572852603445
 40
1.0
 40
1.0
 40
1.0
 40
1.0
 10
34.79148280658799
 20
-3.582036194201234
 30
0.0
 10
34.9659423359419
 20
-3.555262007851511
 30
0.0
 10
35.27535146610205
 20
-3.507777197248774
 30
0.0
 10
35.68137222312085
 20
-3.451260813223121
 30
0.0
 10
36.0050231206928
 20
-3.409131279281073
 30
0.0
 10
36.30406857586398
 20
-3.372619132260142
 30
0.0
 10
36.63181976373805
 20
-3.335285322913641
 30
0.0
 10
36.98522744245597
 20
-3.298566904639035
 30
0.0
 10
37.39631508054349
 20
-3.259871436573172
 30
0.0
 10
37.82653542116964
 20
-3.225246987376605
 30
0.0
 10
38.15608652930358
 20
-3.201742253393324
 30
0.0
 10
38.31876390763213
 20
-3.193066846373674
 30
0.0
 10
38.33568136871735
 20
-3.192164656639851
 30
0.0
  0
SPLINE
  5
A0
330
1F
100
AcDbEntity
  8
0
  6
Continuous
 62
     1
370
    15
100
AcDbSpline
210
0.0
220
0.0
230
1.0
 70
     8
 71
     3
 72
    11
 73
     7
 74
     0
 42
0.000000001
 43
0.00000001
 40
0.0
 40
0.0
 40
0.0
 40
0.0
 40
0.3301604766183835
 40
0.4948326946421084
 40
0.6579686970353996
 40
1.0
 40
1.0
 40
1.0
 40
1.0
 10
25.83067795392844
 20
-3.800489513769895
 30
0.0
 10
26.39378104278987
 20
-3.772556512512449
 30
0.0
 10
27.23773977969422
 20
-3.730691530903401
 30
0.0
 10
28.3654675993788
 20
-3.717435632953114
 30
0.0
 10
29.51042210003381
 20
-3.721719299790488
 30
0.0
 10
30.37936952871129
 20
-3.759132654987797
 30
0.0
 10
30.96770376587602
 20
-3.784463943237631
 30
0.0
  0
LINE
  5
A6
330
1F
100
AcDbEntity
  8
외형선
  6
Continuous
370
    15
100
AcDbLine
 10
-38.25682204607155
 20
4.762499999999993
 30
0.0
 11
-38.25682204607155
 21
-4.762500000000006
 31
0.0
  0
LINE
  5
A8
330
1F
100
AcDbEntity
  8
외형선
  6
Continuous
370
    15
100
AcDbLine
 10
-39.25682204607158
 20
3.762499999999993
 30
0.0
 11
-39.25682204607158
 21
-3.762499999999996
 31
0.0
  0
SPLINE
  5
A9
330
1F
100
AcDbEntity
  8
외형선
  6
Continuous
370
    15
100
AcDbSpline
210
0.0
220
0.0
230
1.0
 70
    24
 71
     3
 72
    14
 73
    10
 74
     0
 42
0.000000001
 43
0.00000001
 40
0.0
 40
0.0
 40
0.0
 40
0.0
 40
0.25
 40
0.25
 40
0.5
 40
0.5
 40
0.75
 40
0.75
 40
1.0
 40
1.0
 40
1.0
 40
1.0
 10
25.83067795392843
 20
2.244670195105722
 30
0.0
 10
25.83067795392843
 20
1.879424075358656
 30
0.0
 10
25.83067795392843
 20
1.476568197157009
 30
0.0
 10
25.83067795392843
 20
0.6249990343487897
 30
0.0
 10
25.83067795392843
 20
0.1766105582370207
 30
0.0
 10
25.83067795392843
 20
-0.722983291889152
 30
0.0
 10
25.83067795392843
 20
-1.17370932468979
 30
0.0
 10
25.83067795392843
 20
-2.034185333762277
 30
0.0
 10
25.83067795392843
 20
-2.44359799139315
 30
0.0
 10
25.83067795392843
 20
-2.816938799379598
 30
0.0
  0
SPLINE
  5
AC
330
1F
100
AcDbEntity
  8
외형선
  6
Continuous
370
    15
100
AcDbSpline
210
0.0
220
0.0
230
1.0
 70
    24
 71
     3
 72
    10
 73
     6
 74
     0
 42
0.000000001
 43
0.00000001
 40
0.0
 40
0.0
 40
0.0
 40
0.0
 40
0.5
 40
0.5
 40
1.0
 40
1.0
 40
1.0
 40
1.0
 10
25.83067795392844
 20
3.348700777792758
 30
0.0
 10
25.83067795392844
 20
3.233228236423542
 30
0.0
 10
25.83067795392844
 20
3.071161169658077
 30
0.0
 10
25.83067795392844
 20
2.687418147574467
 30
0.0
 10
25.83067795392844
 20
2.466999188805832
 30
0.0
 10
25.83067795392844
 20
2.244670195105715
 30
0.0
  0
SPLINE
  5
AD
330
1F
100
AcDbEntity
  8
외형선
  6
Continuous
370
    15
100
AcDbSpline
210
0.0
220
0.0
230
1.0
 70
    24
 71
     3
 72
    12
 73
     8
 74
     0
 42
0.000000001
 43
0.00000001
 40
0.0
 40
0.0
 40
0.0
 40
0.0
 40
0.1803803948342537
 40
0.3607607896685076
 40
0.6241727911314509
 40
0.8952237584816157
 40
1.0
 40
1.0
 40
1.0
 40
1.0
 10
25.83067795392844
 20
-2.816938799379604
 30
0.0
 10
25.83067795392844
 20
-2.927426717973809
 30
0.0
 10
25.83067795392844
 20
-3.148402555162218
 30
0.0
 10
25.83067795392844
 20
-3.44710697520461
 30
0.0
 10
25.83067795392844
 20
-3.685411811337023
 30
0.0
 10
25.83067795392844
 20
-3.805173070158531
 30
0.0
 10
25.83067795392844
 20
-3.790172889669341
 30
0.0
 10
25.83067795392844
 20
-3.785991014337627
 30
0.0
  0
SPLINE
  5
AE
330
1F
100
AcDbEntity
  8
외형선
  6
Continuous
370
    15
100
AcDbSpline
210
0.0
220
0.0
230
1.0
 70
    24
 71
     3
 72
    10
 73
     6
 74
     0
 42
0.000000001
 43
0.00000001
 40
0.0
 40
0.0
 40
0.0
 40
0.0
 40
0.1895986090434753
 40
0.7930291504872452
 40
1.0
 40
1.0
 40
1.0
 40
1.0
 10
25.83067795392844
 20
-3.800489513769895
 30
0.0
 10
25.83067795392844
 20
-3.824625918973649
 30
0.0
 10
25.83067795392844
 20
-3.925580630672822
 30
0.0
 10
25.83067795392844
 20
-4.041251941883477
 30
0.0
 10
25.83067795392844
 20
-4.13083198803333
 30
0.0
 10
25.83067795392844
 20
-4.153710105541425
 30
0.0
  0
SPLINE
  5
AF
330
1F
100
AcDbEntity
  8
0
  6
Continuous
 62
     1
370
    15
100
AcDbSpline
210
0.0
220
0.0
230
1.0
 70
     8
 71
     3
 72
    38
 73
    34
 74
     0
 42
0.000000001
 43
0.00000001
 40
0.0
 40
0.0
 40
0.0
 40
0.0
 40
0.0625
 40
0.0625
 40
0.125
 40
0.125
 40
0.1875
 40
0.1875
 40
0.25
 40
0.25
 40
0.3125
 40
0.3125
 40
0.375
 40
0.375
 40
0.4375
 40
0.4375
 40
0.5
 40
0.5
 40
0.5625
 40
0.5625
 40
0.625
 40
0.625
 40
0.6875
 40
0.6875
 40
0.75
 40
0.75
 40
0.8125
 40
0.8125
 40
0.875
 40
0.875
 40
0.9375
 40
0.9375
 40
1.0
 40
1.0
 40
1.0
 40
1.0
 10
44.88067795392845
 20
-4.519330889716922
 30
0.0
 10
44.48627764486974
 20
-4.447196818535427
 30
0.0
 10
44.08706136110348
 20
-4.359060652950646
 30
0.0
 10
43.29138423444972
 20
-4.153260120529218
 30
0.0
 10
42.89778251929118
 20
-4.035963262129418
 30
0.0
 10
42.10285958033666
 20
-3.773451979927578
 30
0.0
 10
41.70333638745763
 20
-3.628329803030862
 30
0.0
 10
40.91258537155149
 20
-3.31500021320458
 30
0.0
 10
40.51557734008735
 20
-3.146070096316425
 30
0.0
 10
39.71944265192842
 20
-2.787197633526809
 30
0.0
 10
39.32529774373819
 20
-2.598050769998236
 30
0.0
 10
38.53142468132039
 20
-2.202195245249438
 30
0.0
 10
38.13174497971772
 20
-1.995437224302838
 30
0.0
 10
37.33933408933444
 20
-1.570720465294551
 30
0.0
 10
36.94399533791932
 20
-1.352332690145852
 30
0.0
 10
36.14770028366777
 20
-0.9066443965592315
 30
0.0
 10
35.75246966329297
 20
-0.6804188898380079
 30
0.0
 10
34.95994086319919
 20
-0.2244372491446974
 30
0.0
 10
34.56025525073647
 20
0.0057829125327409
 30
0.0
 10
33.76647706040232
 20
0.4635198658165378
 30
0.0
 10
33.37226654987565
 20
0.6910619722910969
 30
0.0
 10
32.57610852453838
 20
1.141244746721415
 30
0.0
 10
32.17925101883064
 20
1.36290778345192
 30
0.0
 10
31.38835920149603
 20
1.794760891737583
 30
0.0
 10
30.9888182834968
 20
2.005931119210441
 30
0.0
 10
30.19396706135266
 20
2.412125350068797
 30
0.0
 10
29.80034235392632
 20
2.606919239030652
 30
0.0
 10
29.0046185819587
 20
2.978452922443164
 30
0.0
 10
28.60559503240201
 20
3.154634197639245
 30
0.0
 10
27.81663089493128
 20
3.482673949634265
 30
0.0
 10
27.41738509414446
 20
3.635813722417341
 30
0.0
 10
26.62175643994978
 20
3.915367113363775
 30
0.0
 10
26.22817437112221
 20
4.041553753916386
 30
0.0
 10
25.83067795392509
 20
4.153710105553336
 30
0.0
  0
SPLINE
  5
B0
330
1F
100
AcDbEntity
  8
0
  6
Continuous
 62
     1
370
    15
100
AcDbSpline
210
0.0
220
0.0
230
1.0
 70
     8
 71
     3
 72
    15
 73
    11
 74
     0
 42
0.000000001
 43
0.00000001
 40
0.0
 40
0.0
 40
0.0
 40
0.0
 40
0.138738623440306
 40
0.277454372875128
 40
0.4161511722520106
 40
0.5548329705686974
 40
0.693503736695041
 40
0.8321674541391308
 40
0.9708281157722514
 40
1.0
 40
1.0
 40
1.0
 40
1.0
 10
44.88067795392845
 20
-3.757480409053629
 30
0.0
 10
44.30903920293557
 20
-3.637459012453699
 30
0.0
 10
43.16585594772553
 20
-3.397436007327385
 30
0.0
 10
41.45126133220244
 20
-2.847854799463371
 30
0.0
 10
39.73693210181796
 20
-2.187259631477749
 30
0.0
 10
38.0228166612128
 20
-1.429825037496806
 30
0.0
 10
36.30885763614614
 20
-0.610371522943685
 30
0.0
 10
34.59499831979291
 20
0.2305012908799847
 30
0.0
 10
33.33226889542127
 20
0.8565804363048535
 30
0.0
 10
32.64081631137807
 20
1.170893943591278
 30
0.0
 10
32.5206311909819
 20
1.225526477458566
 30
0.0
  0
LINE
  5
B1
330
1F
100
AcDbEntity
  8
0
  6
Continuous
 62
     1
370
    15
100
AcDbLine
 10
44.88067795392845
 20
-4.519330889716925
 30
0.0
 11
44.88067795392845
 21
-3.757480409053629
 31
0.0
  0
SPLINE
  5
B2
330
1F
100
AcDbEntity
  8
0
  6
Continuous
 62
     1
370
    15
100
AcDbSpline
210
0.0
220
0.0
230
1.0
 70
     8
 71
     3
 72
    38
 73
    34
 74
     0
 42
0.000000001
 43
0.00000001
 40
0.0
 40
0.0
 40
0.0
 40
0.0
 40
0.0625
 40
0.0625
 40
0.1249999999999999
 40
0.1249999999999999
 40
0.1874999999999999
 40
0.1874999999999999
 40
0.2499999999999998
 40
0.2499999999999998
 40
0.3124999999999997
 40
0.3124999999999997
 40
0.3749999999999997
 40
0.3749999999999997
 40
0.4374999999999996
 40
0.4374999999999996
 40
0.4999999999999996
 40
0.4999999999999996
 40
0.5624999999999996
 40
0.5624999999999996
 40
0.6249999999999994
 40
0.6249999999999994
 40
0.6874999999999996
 40
0.6874999999999996
 40
0.7499999999999996
 40
0.7499999999999996
 40
0.8124999999999997
 40
0.8124999999999997
 40
0.8749999999999998
 40
0.8749999999999998
 40
0.9374999999999998
 40
0.9374999999999998
 40
1.0
 40
1.0
 40
1.0
 40
1.0
 10
44.88067795392845
 20
-4.762499999999991
 30
0.0
 10
44.48627764486979
 20
-4.749075335733578
 30
0.0
 10
44.08706136110359
 20
-4.723096782017991
 30
0.0
 10
43.29138423444999
 20
-4.638505805782603
 30
0.0
 10
42.8977825192915
 20
-4.580125705431895
 30
0.0
 10
42.10285958033711
 20
-4.431648969945756
 30
0.0
 10
41.70333638745814
 20
-4.341540747744396
 30
0.0
 10
40.91258537155214
 20
-4.132546231415167
 30
0.0
 10
40.51557734008806
 20
-4.013198905268238
 30
0.0
 10
39.71944265192923
 20
-3.747205997523117
 30
0.0
 10
39.32529774373907
 20
-3.601173779178292
 30
0.0
 10
38.53142468132141
 20
-3.284504834604804
 30
0.0
 10
38.13174497971882
 20
-3.113790414692826
 30
0.0
 10
37.33933408933565
 20
-2.752953991761657
 30
0.0
 10
36.9439953379206
 20
-2.562494713317281
 30
0.0
 10
36.1477002836692
 20
-2.164190991404007
 30
0.0
 10
35.75246966329445
 20
-1.957307989301924
 30
0.0
 10
34.95994086320079
 20
-1.531079203217332
 30
0.0
 10
34.56025525073814
 20
-1.311273597732982
 30
0.0
 10
33.7664770604041
 20
-0.8651037234902713
 30
0.0
 10
33.37226654987752
 20
-0.638747395234423
 30
0.0
 10
32.57610852454037
 20
-0.1817014637408144
 30
0.0
 10
32.17925101883267
 20
0.0480131142072194
 30
0.0
 10
31.3883592014982
 20
0.504979055222858
 30
0.0
 10
30.98881828349904
 20
0.7332838623319887
 30
0.0
 10
30.193967061355
 20
1.18241472117335
 30
0.0
 10
29.80034235392873
 20
1.402945293749748
 30
0.0
 10
29.00461858196125
 20
1.834309579476661
 30
0.0
 10
28.60559503240459
 20
2.044538114450447
 30
0.0
 10
27.81663089493404
 20
2.447839685373915
 30
0.0
 10
27.41738509414728
 20
2.642489735745531
 30
0.0
 10
26.62175643995272
 20
3.011590975896713
 30
0.0
 10
26.22817437112521
 20
3.1856824423492
 30
0.0
 10
25.83067795392817
 20
3.348700777792873
 30
0.0
  0
SPLINE
  5
B3
330
1F
100
AcDbEntity
  8
0
  6
Continuous
 62
     1
370
    15
100
AcDbSpline
210
0.0
220
0.0
230
1.0
 70
     8
 71
     3
 72
    12
 73
     8
 74
     0
 42
0.000000001
 43
0.00000001
 40
0.0
 40
0.0
 40
0.0
 40
0.0
 40
0.0232460306546346
 40
0.2606802973421899
 40
0.4981233621388939
 40
0.7490609287477675
 40
1.0
 40
1.0
 40
1.0
 40
1.0
 10
33.04893858717534
 20
-0.4522628762404247
 30
0.0
 10
32.99300807050906
 20
-0.4302700939956151
 30
0.0
 10
32.36580491777794
 20
-0.1836436870990894
 30
0.0
 10
31.16730231396728
 20
0.3095662231542174
 30
0.0
 10
29.42099101480561
 20
1.001904183520496
 30
0.0
 10
27.64205494160058
 20
1.672174265313507
 30
0.0
 10
26.43447148994468
 20
2.053837837094824
 30
0.0
 10
25.83067795392844
 20
2.244670195105716
 30
0.0
  0
SPLINE
  5
B4
330
1F
100
AcDbEntity
  8
외형선
  6
Continuous
370
    15
100
AcDbSpline
210
0.0
220
0.0
230
1.0
 70
    24
 71
     3
 72
    10
 73
     6
 74
     0
 42
0.000000001
 43
0.00000001
 40
0.0
 40
0.0
 40
0.0
 40
0.0
 40
0.5
 40
0.5
 40
1.0
 40
1.0
 40
1.0
 40
1.0
 10
25.83067795392844
 20
3.348700777792757
 30
0.0
 10
25.83067795392844
 20
3.233228236423542
 30
0.0
 10
25.83067795392844
 20
3.071161169658076
 30
0.0
 10
25.83067795392844
 20
2.687418147574467
 30
0.0
 10
25.83067795392844
 20
2.466999188805832
 30
0.0
 10
25.83067795392844
 20
2.244670195105715
 30
0.0
  0
LINE
  5
B5
330
1F
100
AcDbEntity
  8
0
  6
Continuous
 62
     1
370
    15
100
AcDbLine
 10
44.88067795392845
 20
-4.762499999999993
 30
0.0
 11
44.88067795392831
 21
-4.519330889716924
 31
0.0
  0
SPLINE
  5
B6
330
1F
100
AcDbEntity
  8
0
  6
Continuous
 62
     1
370
    15
100
AcDbSpline
210
0.0
220
0.0
230
1.0
 70
     8
 71
     3
 72
     8
 73
     4
 74
     0
 42
0.000000001
 43
0.00000001
 40
0.0
 40
0.0
 40
0.0
 40
0.0
 40
1.0
 40
1.0
 40
1.0
 40
1.0
 10
41.93386972480653
 20
1.332157722516857
 30
0.0
 10
41.76409467889074
 20
1.533287874480678
 30
0.0
 10
41.61314970418809
 20
1.726224115457994
 30
0.0
 10
41.48506144715654
 20
1.909214249066898
 30
0.0
  0
LINE
  5
B7
330
1F
100
AcDbEntity
  8
0
  6
Continuous
 62
     1
370
    15
100
AcDbLine
 10
41.54524429674345
 20
1.959713655970954
 30
0.0
 11
44.88067795392845
 21
0.0000000000000032
 31
0.0
  0
LINE
  5
B8
330
1F
100
AcDbEntity
  8
0
  6
Continuous
 62
     1
370
    15
100
AcDbLine
 10
44.88067795392845
 20
0.0000000000000032
 30
0.0
 11
44.88067795392845
 21
-1.272744530466181
 31
0.0
  0
SPLINE
  5
B9
330
1F
100
AcDbEntity
  8
0
  6
Continuous
 62
     1
370
    15
100
AcDbSpline
210
0.0
220
0.0
230
1.0
 70
     8
 71
     3
 72
    12
 73
     8
 74
     0
 42
0.000000001
 43
0.00000001
 40
0.0
 40
0.0
 40
0.0
 40
0.0
 40
0.500000000000001
 40
0.500000000000001
 40
0.7500000000000004
 40
0.7500000000000004
 40
1.0
 40
1.0
 40
1.0
 40
1.0
 10
44.88067795392845
 20
-1.272744530466181
 30
0.0
 10
44.37057646925479
 20
-0.8717186828896215
 30
0.0
 10
43.86899513721752
 20
-0.4542496700308865
 30
0.0
 10
43.12973187451992
 20
0.1972525864200581
 30
0.0
 10
42.88553360718122
 20
0.4187098580069611
 30
0.0
 10
42.40212444852632
 20
0.8712496099959934
 30
0.0
 10
42.1642326891679
 20
1.10115775578405
 30
0.0
 10
41.93386972480653
 20
1.332157722516858
 30
0.0
  0
SPLINE
  5
BA
330
1F
100
AcDbEntity
  8
0
  6
Continuous
 62
     1
370
    15
100
AcDbSpline
210
0.0
220
0.0
230
1.0
 70
     8
 71
     3
 72
    15
 73
    11
 74
     0
 42
0.000000001
 43
0.00000001
 40
0.0
 40
0.0
 40
0.0
 40
0.0
 40
0.1000207090317374
 40
0.2003516037155876
 40
0.3566430857061735
 40
0.5129219609788449
 40
0.6691927811581445
 40
0.8254601086083185
 40
0.9817285103533354
 40
0.9999999999999999
 40
0.9999999999999999
 40
0.9999999999999999
 40
0.9999999999999999
 10
41.93386972480653
 20
1.332157722516857
 30
0.0
 10
41.56838448992919
 20
1.488291141113315
 30
0.0
 10
40.83628057214145
 20
1.80104218149508
 30
0.0
 10
39.53219891383038
 20
2.310697382256066
 30
0.0
 10
38.0228233852617
 20
2.835620577474576
 30
0.0
 10
36.30882797529831
 20
3.306925384660523
 30
0.0
 10
34.59497248177321
 20
3.640715445321211
 30
0.0
 10
32.88114864616773
 20
3.801496687176518
 30
0.0
 10
31.67181507388059
 20
3.842349182114233
 30
0.0
 10
31.03374364412953
 20
3.782321212737926
 30
0.0
 10
30.96694793668654
 20
3.776037260042504
 30
0.0
  0
SPLINE
  5
BB
330
1F
100
AcDbEntity
  8
0
  6
Continuous
 62
     1
370
    15
100
AcDbSpline
210
0.0
220
0.0
230
1.0
 70
    24
 71
     3
 72
    10
 73
     6
 74
     0
 42
0.000000001
 43
0.00000001
 40
0.0
 40
0.0
 40
0.0
 40
0.0
 40
0.5
 40
0.5
 40
1.0
 40
1.0
 40
1.0
 40
1.0
 10
44.88067795392845
 20
-3.757480409053627
 30
0.0
 10
44.88067795392845
 20
-3.469440240130619
 30
0.0
 10
44.88067795392845
 20
-3.105490442104555
 30
0.0
 10
44.88067795392845
 20
-2.259342187955111
 30
0.0
 10
44.88067795392845
 20
-1.77787669753186
 30
0.0
 10
44.88067795392845
 20
-1.272744530466332
 30
0.0
  0
SPLINE
  5
BC
330
1F
100
AcDbEntity
  8
0
  6
Continuous
 62
     1
370
    15
100
AcDbSpline
210
0.0
220
0.0
230
1.0
 70
    24
 71
     3
 72
     8
 73
     4
 74
     0
 42
0.000000001
 43
0.00000001
 40
0.0
 40
0.0
 40
0.0
 40
0.0
 40
1.0
 40
1.0
 40
1.0
 40
1.0
 10
41.98184143589283
 20
2.326062154403933
 30
0.0
 10
41.82464490742036
 20
2.194158605340334
 30
0.0
 10
41.65851649247922
 20
2.054760313635456
 30
0.0
 10
41.48506144715108
 20
1.909214249074779
 30
0.0
  0
SPLINE
  5
BD
330
1F
100
AcDbEntity
  8
0
  6
Continuous
 62
     1
370
    15
100
AcDbSpline
210
0.0
220
0.0
230
1.0
 70
     8
 71
     3
 72
     9
 73
     5
 74
     0
 42
0.000000001
 43
0.00000001
 40
0.0
 40
0.0
 40
0.0
 40
0.0
 40
0.9684697833592282
 40
1.0
 40
1.0
 40
1.0
 40
1.0
 10
44.88067795392845
 20
3.333750000000001
 30
0.0
 10
44.30903550130122
 20
3.332500493146538
 30
0.0
 10
43.71878223532484
 20
3.331210306426279
 30
0.0
 10
43.12854462326477
 20
3.257422183549587
 30
0.0
 10
43.10993430348698
 20
3.255095628049768
 30
0.0
  0
SPLINE
  5
BE
330
1F
100
AcDbEntity
  8
0
  6
Continuous
 62
     1
370
    15
100
AcDbSpline
210
0.0
220
0.0
230
1.0
 70
     8
 71
     3
 72
    10
 73
     6
 74
     0
 42
0.000000001
 43
0.00000001
 40
0.0
 40
0.0
 40
0.0
 40
0.0
 40
0.5
 40
0.5
 40
1.0
 40
1.0
 40
1.0
 40
1.0
 10
44.88067795392845
 20
3.333750000000004
 30
0.0
 10
44.39077879835908
 20
3.200858771186561
 30
0.0
 10
43.90386814471843
 20
3.051717186240098
 30
0.0
 10
42.93658397005387
 20
2.717887533311589
 30
0.0
 10
42.45616035406242
 20
2.533688937192338
 30
0.0
 10
41.981841435902
 20
2.326062154408197
 30
0.0
  0
SPLINE
  5
BF
330
1F
100
AcDbEntity
  8
0
  6
Continuous
 62
     1
370
    15
100
AcDbSpline
210
0.0
220
0.0
230
1.0
 70
     8
 71
     3
 72
    13
 73
     9
 74
     0
 42
0.000000001
 43
0.00000001
 40
0.0
 40
0.0
 40
0.0
 40
0.0
 40
0.0223148081910024
 40
0.2135006696240873
 40
0.4046878454073201
 40
0.5958819213299682
 40
0.797940370785692
 40
0.9999999999999999
 40
0.9999999999999999
 40
0.9999999999999999
 40
0.9999999999999999
 10
34.79499090134037
 20
-3.57361662037214
 30
0.0
 10
34.72831345492192
 20
-3.586652258266426
 30
0.0
 10
34.09036580431638
 20
-3.711372909933464
 30
0.0
 10
32.88115204785692
 20
-3.802054428159092
 30
0.0
 10
31.16730936111335
 20
-3.824343613402776
 30
0.0
 10
29.42100964091219
 20
-3.661508868980787
 30
0.0
 10
27.64205781392974
 20
-3.341097473075857
 30
0.0
 10
26.43447241571351
 20
-2.991658697322034
 30
0.0
 10
25.83067795392844
 20
-2.816938799379603
 30
0.0
  0
SPLINE
  5
C0
330
1F
100
AcDbEntity
  8
외형선
  6
Continuous
370
    15
100
AcDbSpline
210
0.0
220
0.0
230
1.0
 70
    24
 71
     3
 72
    14
 73
    10
 74
     0
 42
0.000000001
 43
0.00000001
 40
0.0
 40
0.0
 40
0.0
 40
0.0
 40
0.25
 40
0.25
 40
0.5
 40
0.5
 40
0.75
 40
0.75
 40
1.0
 40
1.0
 40
1.0
 40
1.0
 10
25.83067795392843
 20
2.244670195105722
 30
0.0
 10
25.83067795392843
 20
1.879424075358656
 30
0.0
 10
25.83067795392843
 20
1.476568197157009
 30
0.0
 10
25.83067795392843
 20
0.6249990343487897
 30
0.0
 10
25.83067795392843
 20
0.1766105582370207
 30
0.0
 10
25.83067795392843
 20
-0.722983291889152
 30
0.0
 10
25.83067795392843
 20
-1.17370932468979
 30
0.0
 10
25.83067795392843
 20
-2.034185333762277
 30
0.0
 10
25.83067795392843
 20
-2.44359799139315
 30
0.0
 10
25.83067795392844
 20
-4.635499999999995
 30
0.0
  0
LINE
  5
C1
330
1F
100
AcDbEntity
  8
0
  6
Continuous
 62
     1
370
    15
100
AcDbLine
 10
44.88067795392845
 20
0.0000000000000032
 30
0.0
 11
44.88067795392845
 21
3.333750000000004
 31
0.0
  0
SPLINE
  5
C2
330
1F
100
AcDbEntity
  8
외형선
  6
Continuous
370
    15
100
AcDbSpline
210
0.0
220
0.0
230
1.0
 70
    24
 71
     3
 72
    12
 73
     8
 74
     0
 42
0.000000001
 43
0.00000001
 40
0.0
 40
0.0
 40
0.0
 40
0.0
 40
0.1803132544519273
 40
0.3606265089038546
 40
0.6239404643318958
 40
0.8948905423055046
 40
0.9999999999999999
 40
0.9999999999999999
 40
0.9999999999999999
 40
0.9999999999999999
 10
25.83067795392844
 20
-2.816938799379604
 30
0.0
 10
25.83067795392844
 20
-2.9274268726888
 30
0.0
 10
25.83067795392844
 20
-3.148403019307187
 30
0.0
 10
25.83067795392844
 20
-3.447104762537418
 30
0.0
 10
25.83067795392844
 20
-3.685424634974997
 30
0.0
 10
25.83067795392844
 20
-3.805206720517224
 30
0.0
 10
25.83067795392844
 20
-3.790172201909658
 30
0.0
 10
25.83067795392844
 20
-3.785970021276926
 30
0.0
  0
SPLINE
  5
C3
330
1F
100
AcDbEntity
  8
0
  6
Continuous
 62
     1
370
    15
100
AcDbSpline
210
0.0
220
0.0
230
1.0
 70
     8
 71
     3
 72
    11
 73
     7
 74
     0
 42
0.000000001
 43
0.00000001
 40
0.0
 40
0.0
 40
0.0
 40
0.0
 40
0.2312772935075239
 40
0.4874639084087082
 40
0.7436998854275534
 40
1.0
 40
1.0
 40
1.0
 40
1.0
 10
38.33681999167236
 20
3.192613239299552
 30
0.0
 10
38.8412724874371
 20
3.400684183131779
 30
0.0
 10
39.90450866364219
 20
3.839235992384279
 30
0.0
 10
41.52668847430165
 20
4.318587297935422
 30
0.0
 10
43.2035034216464
 20
4.662250412033701
 30
0.0
 10
44.32157313896825
 20
4.72639733330071
 30
0.0
 10
44.88067795392847
 20
4.762500000000006
 30
0.0
  0
SPLINE
  5
C4
330
1F
100
AcDbEntity
  8
0
  6
Continuous
 62
     1
370
    15
100
AcDbSpline
210
0.0
220
0.0
230
1.0
 70
    24
 71
     3
 72
    10
 73
     6
 74
     0
 42
0.000000001
 43
0.00000001
 40
0.0
 40
0.0
 40
0.0
 40
0.0
 40
0.5
 40
0.5
 40
1.0
 40
1.0
 40
1.0
 40
1.0
 10
44.88067795392845
 20
3.333750000000001
 30
0.0
 10
44.88067795392845
 20
3.535833623044832
 30
0.0
 10
44.88067795392845
 20
3.770673507979645
 30
0.0
 10
44.88067795392845
 20
4.263366954076076
 30
0.0
 10
44.88067795392845
 20
4.519962238004513
 30
0.0
 10
44.88067795392845
 20
4.762500000000006
 30
0.0
  0
LINE
  5
C5
330
1F
100
AcDbEntity
  8
0
  6
Continuous
 62
     1
370
    15
100
AcDbLine
 10
27.04706114412114
 20
-3.750429287974202
 30
0.0
 11
25.83067795392509
 21
-4.153710105553334
 31
0.0
  0
SPLINE
  5
C6
330
1F
100
AcDbEntity
  8
외형선
  6
Continuous
370
    15
100
AcDbSpline
210
0.0
220
0.0
230
1.0
 70
    24
 71
     3
 72
    11
 73
     7
 74
     0
 42
0.000000001
 43
0.00000001
 40
0.0
 40
0.0
 40
0.0
 40
0.0
 40
0.1922973987131116
 40
0.4928434627539648
 40
0.7937408275247498
 40
1.0
 40
1.0
 40
1.0
 40
1.0
 10
25.83067795392844
 20
-3.800489513769895
 30
0.0
 10
25.83067795392844
 20
-3.824597073833417
 30
0.0
 10
25.83067795392844
 20
-3.886382898601542
 30
0.0
 10
25.83067795392844
 20
-3.981228823747727
 30
0.0
 10
25.83067795392844
 20
-4.074763016992077
 30
0.0
 10
25.83067795392844
 20
-4.130885319190886
 30
0.0
 10
25.83067795392844
 20
-4.15371010554145
 30
0.0
  0
LINE
  5
C7
330
1F
100
AcDbEntity
  8
중심선
 48
0.8
100
AcDbLine
 10
-42.25682204607159
 20
-0.0000000000000044
 30
0.0
 11
47.88067795392845
 21
0.0000000000000066
 31
0.0
  0
LINE
  5
C8
330
1F
100
AcDbEntity
  8
참조1
100
AcDbLine
 10
7.661189267959593
 20
0.0010749287238919
 30
0.0
 11
7.661189267959598
 21
-39.99892507127611
 31
0.0
  0
LINE
  5
C9
330
1F
100
AcDbEntity
  8
참조1
100
AcDbLine
 10
7.661189267959598
 20
-39.99892507127611
 30
0.0
 11
-4.320123267340044
 21
-39.9989250712761
 31
0.0
  0
CIRCLE
  5
CA
330
1F
100
AcDbEntity
  8
해칭선
100
AcDbCircle
 10
0.0
 20
0.0
 30
0.0
 40
2.999999999999996
  0
INSERT
  5
CB
330
1F
100
AcDbEntity
  8
0
  6
Continuous
 62
     7
100
AcDbBlockReference
 66
     1
  2
블럭10
 10
-11.12834497819676
 20
-52.04717430164393
 30
0.0
  0
ATTRIB
  5
CC
330
CB
100
AcDbEntity
  8
FORMAT
 62
     2
100
AcDbText
 10
-20.30964026693804
 20
-49.97180738881174
 30
0.0
 40
4.233333333333333
  1
E2033024 [ 2 FLUTE ]
 41
0.75
  7
SLDTEXTSTYLE0
 11
-20.30964026693804
 21
-52.08847405547841
 31
0.0
100
AcDbAttribute
  2
AUTOATTR0
 70
     0
 74
     1
  0
SEQEND
  5
CD
330
CB
100
AcDbEntity
  8
0
  6
Continuous
 62
     7
  0
HATCH
  5
CE
330
1F
100
AcDbEntity
  8
중심선
100
AcDbHatch
 10
0.0
 20
0.0
 30
0.0
210
0.0
220
0.0
230
1.0
  2
SOLID
 70
     1
 71
     0
 91
        1
 92
        0
 93
        4
 72
     1
 10
-5.413435673815925
 20
-35.8
 11
-8.859710917653214
 21
-35.8
 72
     1
 10
-8.859710917653214
 20
-35.8
 11
-10.98794077685723
 21
-38.3363255805726
 72
     1
 10
-10.98794077685723
 20
-38.3363255805726
 11
-7.541632447906775
 21
-38.33628615127011
 72
     1
 10
-7.541632447906775
 20
-38.33628615127011
 11
-5.413435673815925
 21
-35.8
 97
        0
 75
     0
 76
     1
 98
        1
 10
10.98141663989728
 20
-0.0010749287238932
  0
HATCH
  5
CF
330
1F
100
AcDbEntity
  8
중심선
100
AcDbHatch
 10
0.0
 20
0.0
 30
0.0
210
0.0
220
0.0
230
1.0
  2
SOLID
 70
     1
 71
     0
 91
        1
 92
        0
 93
        4
 72
     1
 10
-0.4006716827799757
 20
-35.8
 11
-3.846946926617203
 21
-35.8
 72
     1
 10
-3.846946926617203
 20
-35.8
 11
-8.378084934974645
 21
-41.20000000000002
 72
     1
 10
-8.378084934974645
 20
-41.20000000000002
 11
-4.931809691137364
 21
-41.20000000000002
 72
     1
 10
-4.931809691137364
 20
-41.20000000000002
 11
-0.4006716827799757
 21
-35.8
 97
        0
 75
     0
 76
     1
 98
        1
 10
10.98141663989728
 20
-0.0010749287238932
  0
HATCH
  5
D0
330
1F
100
AcDbEntity
  8
중심선
100
AcDbHatch
 10
0.0
 20
0.0
 30
0.0
210
0.0
220
0.0
230
1.0
  2
SOLID
 70
     1
 71
     0
 91
        1
 92
        0
 93
        4
 72
     1
 10
4.612092308255916
 20
-35.79999999999998
 11
1.165817064418805
 21
-35.8
 72
     1
 10
1.165817064418805
 20
-35.8
 11
-5.882619837470443
 21
-44.20000000000002
 72
     1
 10
-5.882619837470443
 20
-44.20000000000002
 11
-2.436344593633166
 21
-44.20000000000002
 72
     1
 10
-2.436344593633166
 20
-44.20000000000002
 11
4.612092308255916
 21
-35.79999999999998
 97
        0
 75
     0
 76
     1
 98
        1
 10
10.98141663989728
 20
-0.0010749287238932
  0
HATCH
  5
D1
330
1F
100
AcDbEntity
  8
중심선
100
AcDbHatch
 10
0.0
 20
0.0
 30
0.0
210
0.0
220
0.0
230
1.0
  2
SOLID
 70
     1
 71
     0
 91
        1
 92
        0
 93
        6
 72
     3
 10
9.411982739268115
 20
-40.00000000005127
 11
3.960054785062283
 21
1.540882976769353E-10
 40
0.3939339440162628
 50
17.09539180608439
 51
320.0019657685078
 73
     0
 72
     1
 10
11.09498239496871
 20
-38.5878940046383
 11
13.40028426866978
 21
-36.65356729459035
 72
     3
 10
9.411982739215269
 20
-40.00000000000015
 11
6.600054785286829
 21
-1.278976924368180E-13
 40
0.636358354079598
 50
39.99873849337411
 51
368.4976242363724
 73
     1
 72
     1
 10
15.83731523111588
 20
-39.03999999993002
 11
8.092050046051192
 21
-39.03999999993002
 72
     1
 10
8.092050046051192
 20
-39.03999999993002
 11
8.092025001605258
 21
-40.95999999992991
 72
     1
 10
8.092025001605258
 20
-40.95999999992991
 11
12.5334047710773
 21
-40.95999999992988
 97
        0
 75
     0
 76
     1
 98
        1
 10
10.98141663989728
 20
-0.0010749287238932
  0
DIMENSION
  5
D2
330
1F
100
AcDbEntity
  8
치수문자_일반주서
100
AcDbDimension
  2
_D
 10
-51.75682204607156
 20
-4.762500000000053
 30
0.0
 11
-51.75682204607158
 21
0.0000000000000095
 31
0.0
 70
   160
  1
%%c<>
 71
     2
 42
9.525000000000006
 52
-270.0
  3
SLDDIMSTYLE0
100
AcDbAlignedDimension
 13
-38.25682204607158
 23
4.762500000000004
 33
0.0
 14
-38.25682204607158
 24
-4.762500000000002
 34
0.0
 50
90.0000000000002
100
AcDbRotatedDimension
  0
DIMENSION
  5
E7
330
1F
100
AcDbEntity
  8
치수문자_일반주서
100
AcDbDimension
  2
_D_1
 10
25.83067795392844
 20
18.36194722681459
 30
0.0
 11
35.35567795392845
 21
18.36194722681459
 31
0.0
 70
   160
  1
<>
 71
     2
 42
19.05000000000001
  3
SLDDIMSTYLE0
100
AcDbAlignedDimension
 13
44.88067795392845
 23
4.762500000000007
 33
0.0
 14
25.83067795392844
 24
4.153710105552389
 34
0.0
 50
0.0000000000000107
100
AcDbRotatedDimension
1001
ACAD
1000
DSTYLE
1002
{
1070
   171
1070
     6
1070
   273
1070
     7
1002
}
  0
DIMENSION
  5
FC
330
1F
100
AcDbEntity
  8
치수문자_일반주서
100
AcDbDimension
  2
_D_2
 10
-39.25682204607158
 20
35.04486045510103
 30
0.0
 11
2.811927953928436
 21
35.04486045510103
 31
0.0
 70
   160
  1
<>
 71
     2
 42
84.13750000000003
  3
SLDDIMSTYLE0
100
AcDbAlignedDimension
 13
44.88067795392845
 23
4.762500000000006
 33
0.0
 14
-39.25682204607158
 24
3.762499999999993
 34
0.0
100
AcDbRotatedDimension
1001
ACAD
1000
DSTYLE
1002
{
1070
   171
1070
     6
1070
   273
1070
     7
1002
}
  0
DIMENSION
  5
10F
330
1F
100
AcDbEntity
  8
치수문자_일반주서
100
AcDbDimension
  2
_D_3
 10
63.6769942864519
 20
4.762500000000077
 30
0.0
 11
63.67699428645183
 21
24.64491366003633
 31
0.0
 70
   160
  1
%%c<>
 71
     2
 42
9.525
 52
-270.0
  3
SLDDIMSTYLE0
100
AcDbAlignedDimension
 13
44.88067795392845
 23
-4.762499999999993
 33
0.0
 14
44.88067795392845
 24
4.762500000000007
 34
0.0
 50
90.0000000000002
100
AcDbRotatedDimension
1001
ACAD
1000
DSTYLE
1002
{
1070
   171
1070
     6
1070
   273
1070
     7
1002
}
  0
LINE
  5
122
330
1F
100
AcDbEntity
  8
참조1
100
AcDbLine
 10
93.65221736231422
 20
7.441074928723899
 30
0.0
 11
93.65221736231422
 21
-7.438925071276106
 31
0.0
  0
LINE
  5
123
330
1F
100
AcDbEntity
  8
참조1
100
AcDbLine
 10
106.3522173623142
 20
5.441074928723899
 30
0.0
 11
93.65221736231422
 21
5.441074928723899
 31
0.0
  0
SOLID
  5
124
330
1F
100
AcDbEntity
  8
참조1
100
AcDbTrace
 10
93.65221736231422
 20
5.441074928723899
 30
0.0
 11
100.0022173623142
 21
4.425074928723899
 31
0.0
 12
100.0022173623142
 22
6.457074928723899
 32
0.0
 13
100.0022173623142
 23
6.457074928723899
 33
0.0
  0
LINE
  5
125
330
1F
100
AcDbEntity
  8
참조1
100
AcDbLine
 10
106.3522173623142
 20
-5.438925071276106
 30
0.0
 11
93.65221736231422
 21
-5.438925071276106
 31
0.0
  0
SOLID
  5
126
330
1F
100
AcDbEntity
  8
참조1
100
AcDbTrace
 10
93.65221736231422
 20
-5.438925071276106
 30
0.0
 11
100.0022173623142
 21
-6.454925071276106
 31
0.0
 12
100.0022173623142
 22
-4.422925071276106
 32
0.0
 13
100.0022173623142
 23
-4.422925071276106
 33
0.0
  0
MTEXT
  5
127
330
1F
100
AcDbEntity
  8
참조1
100
AcDbMText
 10
103.0365674949402
 20
11.01136670591222
 30
0.0
 40
3.5
 41
0.0
 71
     1
 72
     1
  1
A
  7
SLDTEXTSTYLE0
 73
     1
 44
1.0
  0
MTEXT
  5
128
330
1F
100
AcDbEntity
  8
참조1
100
AcDbMText
 10
103.0365674949402
 20
0.1313667059122219
 30
0.0
 40
3.5
 41
0.0
 71
     1
 72
     1
  1
A
  7
SLDTEXTSTYLE0
 73
     1
 44
1.0
  0
INSERT
  5
12F
330
1F
100
AcDbEntity
  8
해칭선
100
AcDbBlockReference
  2
SW_DOWELSYMBOL_0
 10
0.0
 20
0.0
 30
0.0
  0
LINE
  5
27D
330
1F
100
AcDbEntity
  8
외형선
  6
Continuous
370
    15
100
AcDbLine
 10
-38.25682204607155
 20
4.76249999999999
 30
0.0
 11
-24.25177204607168
 21
4.76249999999999
 31
0.0
  0
LINE
  5
315
330
1F
100
AcDbEntity
  8
외형선
  6
Continuous
370
    15
100
AcDbLine
 10
-22.98177204607171
 20
3.492500000000005
 30
0.0
 11
-15.84437204607157
 21
3.492500000000005
 31
0.0
  0
LINE
  5
316
330
1F
100
AcDbEntity
  8
외형선
  6
Continuous
370
    15
100
AcDbLine
 10
-22.98177204607171
 20
3.492500000000005
 30
0.0
 11
-24.25177204607168
 21
4.762499999999988
 31
0.0
  0
LINE
  5
317
330
1F
100
AcDbEntity
  8
외형선
  6
Continuous
370
    15
100
AcDbLine
 10
-15.84437204607157
 20
3.492500000000005
 30
0.0
 11
-14.57437204607147
 21
4.762499999999988
 31
0.0
  0
LINE
  5
35E
330
1F
100
AcDbEntity
  8
외형선
  6
Continuous
370
    15
100
AcDbLine
 10
0.0
 20
-4.762499999999999
 30
0.0
 11
0.0
 21
4.762499999999999
 31
0.0
  0
LINE
  5
35F
330
1F
100
AcDbEntity
  8
외형선
  6
Continuous
370
    15
100
AcDbLine
 10
0.0
 20
4.635499999999997
 30
0.0
 11
0.0
 21
-4.6355
 31
0.0
  0
LINE
  5
360
330
1F
100
AcDbEntity
  8
외형선
  6
Continuous
370
    15
100
AcDbLine
 10
0.4306779539284591
 20
4.635499999999996
 30
0.0
 11
25.83067795392844
 21
4.63549999999999
 31
0.0
  0
LINE
  5
361
330
1F
100
AcDbEntity
  8
외형선
  6
Continuous
370
    15
100
AcDbLine
 10
25.83067795392844
 20
3.348700777792757
 30
0.0
 11
25.83067795392844
 21
4.63549999999999
 31
0.0
  0
ARC
  5
362
330
1F
100
AcDbEntity
  8
외형선
  6
Continuous
370
    15
100
AcDbCircle
 10
0.4306779539284591
 20
5.429249999999996
 30
0.0
 40
0.7937500000000002
100
AcDbArc
 50
237.1401196211103
 51
270.0
  0
LINE
  5
365
330
1F
100
AcDbEntity
  8
외형선
  6
Continuous
370
    15
100
AcDbLine
 10
0.4306779539284591
 20
-4.6355
 30
0.0
 11
25.83067795392844
 21
-4.635499999999995
 31
0.0
  0
ARC
  5
366
330
1F
100
AcDbEntity
  8
외형선
  6
Continuous
370
    15
100
AcDbCircle
 10
0.4306779539284591
 20
-5.42925
 30
0.0
 40
0.7937500000000002
100
AcDbArc
 50
90.0
 51
122.8598803788897
  0
LINE
  5
367
330
1F
100
AcDbEntity
  8
외형선
  6
Continuous
370
    15
100
AcDbLine
 10
0.4306779539284591
 20
-4.6355
 30
0.0
 11
0.4306779539284591
 21
4.635499999999997
 31
0.0
  0
DIMENSION
  5
368
330
1F
100
AcDbEntity
  8
치수문자_일반주서
100
AcDbDimension
  2
*D15
 10
44.88067795392845
 20
25.98221065362592
 30
0.0
 11
22.65567795392846
 21
28.60721065362592
 31
0.0
 70
    32
 71
     5
 42
44.45
  3
SLDDIMSTYLE0
100
AcDbAlignedDimension
 13
0.4306779539284591
 23
4.635499999999996
 33
0.0
 14
44.88067795392845
 24
4.762500000000006
 34
0.0
100
AcDbRotatedDimension
1001
ACAD
1000
DSTYLE
1002
{
1070
   171
1070
     6
1070
   273
1070
     7
1002
}
  0
ENDSEC
  0
SECTION
  2
OBJECTS
  0
DICTIONARY
  5
C
330
0
100
AcDbDictionary
281
     1
  3
ACAD_GROUP
350
D
  3
ACAD_IMAGE_VARS
350
153
  3
ACAD_LAYOUT
350
1A
  3
ACAD_MLINESTYLE
350
17
  3
ACAD_PLOTSETTINGS
350
19
  3
ACAD_PLOTSTYLENAME
350
E
  3
ACAD_SCALELIST
350
47
  3
APPDATA
350
151
  3
DWGPROPS
350
39A
  0
DICTIONARY
  5
1FF
330
2
100
AcDbDictionary
280
     1
281
     1
  3
ACAD_LAYERSTATES
360
200
  0
DICTIONARY
  5
D
102
{ACAD_REACTORS
330
C
102
}
330
C
100
AcDbDictionary
281
     1
  0
RASTERVARIABLES
  5
153
102
{ACAD_REACTORS
330
C
102
}
330
C
100
AcDbRasterVariables
 90
        0
 70
     1
 71
     1
 72
     1
  0
DICTIONARY
  5
1A
102
{ACAD_REACTORS
330
C
102
}
330
C
100
AcDbDictionary
281
     1
  3
Layout1
350
1E
  3
Layout2
350
26
  3
Model
350
22
  0
DICTIONARY
  5
17
102
{ACAD_REACTORS
330
C
102
}
330
C
100
AcDbDictionary
281
     1
  3
Standard
350
18
  0
DICTIONARY
  5
19
102
{ACAD_REACTORS
330
C
102
}
330
C
100
AcDbDictionary
281
     1
  0
ACDBDICTIONARYWDFLT
  5
E
102
{ACAD_REACTORS
330
C
102
}
330
C
100
AcDbDictionary
281
     1
  3
Normal
350
F
100
AcDbDictionaryWithDefault
340
F
  0
DICTIONARY
  5
47
102
{ACAD_REACTORS
330
C
102
}
330
C
100
AcDbDictionary
281
     1
  3
A0
350
48
  3
A1
350
49
  3
A2
350
4A
  3
A3
350
4B
  3
A4
350
4C
  3
A5
350
4D
  3
A6
350
4E
  3
A7
350
4F
  3
A8
350
50
  3
A9
350
51
  3
B0
350
52
  3
B1
350
53
  3
B2
350
54
  3
B3
350
55
  3
B4
350
56
  3
B5
350
57
  3
B6
350
58
  3
B7
350
59
  3
B8
350
5A
  3
B9
350
5B
  3
C0
350
5C
  3
C1
350
5D
  3
C2
350
5E
  3
C3
350
5F
  3
C4
350
60
  3
C5
350
61
  3
C6
350
62
  3
C7
350
63
  3
C8
350
64
  3
C9
350
65
  3
D0
350
66
  3
D1
350
67
  3
D2
350
68
  0
DICTIONARY
  5
151
102
{ACAD_REACTORS
330
C
102
}
330
C
100
AcDbDictionary
281
     1
  0
XRECORD
  5
39A
102
{ACAD_REACTORS
330
C
102
}
330
C
100
AcDbXrecord
280
     1
  1
DWGPROPS COOKIE
  2

  3

  4

  6

  7

  8
12016016
  9

300
=
301
=
302
=
303
=
304
=
305
=
306
=
307
=
308
=
309
=
 40
0.0
 41
2458311.103722419
 42
2458323.060341146
  1

 90
        0
  0
DICTIONARY
  5
200
102
{ACAD_REACTORS
330
1FF
102
}
330
1FF
100
AcDbDictionary
281
     1
  0
LAYOUT
  5
1E
102
{ACAD_REACTORS
330
1A
102
}
330
1A
100
AcDbPlotSettings
  1

  2
none_device
  4

  6

 40
0.0
 41
0.0
 42
0.0
 43
0.0
 44
0.0
 45
0.0
 46
0.0
 47
0.0
 48
0.0
 49
0.0
140
0.0
141
0.0
142
1.0
143
1.0
 70
   688
 72
     1
 73
     0
 74
     5
  7

 75
    16
147
1.0
148
0.0
149
0.0
100
AcDbLayout
  1
Layout1
 70
     1
 71
     1
 10
0.0
 20
0.0
 11
420.0
 21
297.0
 12
0.0
 22
0.0
 32
0.0
 14
1.000000000000000E+20
 24
1.000000000000000E+20
 34
1.000000000000000E+20
 15
-1.000000000000000E+20
 25
-1.000000000000000E+20
 35
-1.000000000000000E+20
146
0.0
 13
0.0
 23
0.0
 33
0.0
 16
1.0
 26
0.0
 36
0.0
 17
0.0
 27
1.0
 37
0.0
 76
     0
330
1B
  0
LAYOUT
  5
26
102
{ACAD_REACTORS
330
1A
102
}
330
1A
100
AcDbPlotSettings
  1

  2
none_device
  4

  6

 40
0.0
 41
0.0
 42
0.0
 43
0.0
 44
0.0
 45
0.0
 46
0.0
 47
0.0
 48
0.0
 49
0.0
140
0.0
141
0.0
142
1.0
143
1.0
 70
   688
 72
     1
 73
     0
 74
     5
  7

 75
    16
147
1.0
148
0.0
149
0.0
100
AcDbLayout
  1
Layout2
 70
     1
 71
     2
 10
0.0
 20
0.0
 11
0.0
 21
0.0
 12
0.0
 22
0.0
 32
0.0
 14
0.0
 24
0.0
 34
0.0
 15
0.0
 25
0.0
 35
0.0
146
0.0
 13
0.0
 23
0.0
 33
0.0
 16
1.0
 26
0.0
 36
0.0
 17
0.0
 27
1.0
 37
0.0
 76
     0
330
23
  0
LAYOUT
  5
22
102
{ACAD_REACTORS
330
1A
102
}
330
1A
100
AcDbPlotSettings
  1

  2
none_device
  4
ANSI_A_(11.00_x_8.50_Inches)
  6

 40
6.35
 41
19.05
 42
6.35000508
 43
19.05000254
 44
279.4
 45
215.9
 46
119.0263898906113
 47
88.27716864352345
 48
0.0
 49
0.0
140
0.0
141
0.0
142
0.0663811242840319
143
1.0
 70
  1696
 72
     0
 73
     0
 74
     0
  7

 75
     0
147
0.0235690232323232
148
0.0
149
0.0
100
AcDbLayout
  1
Model
 70
     1
 71
     0
 10
0.0
 20
0.0
 11
420.0
 21
297.0
 12
0.0
 22
0.0
 32
0.0
 14
-56.13182204607162
 24
-49.97180738881174
 34
0.0
 15
106.3522173623142
 25
39.41986045510103
 35
0.0
146
0.0
 13
0.0
 23
0.0
 33
0.0
 16
1.0
 26
0.0
 36
0.0
 17
0.0
 27
1.0
 37
0.0
 76
     0
330
1F
331
29
  0
MLINESTYLE
  5
18
102
{ACAD_REACTORS
330
17
102
}
330
17
100
AcDbMlineStyle
  2
Standard
 70
     0
  3

 62
   256
 51
90.0
 52
90.0
 71
     2
 49
0.5
 62
   256
  6
BYLAYER
 49
-0.5
 62
   256
  6
BYLAYER
  0
ACDBPLACEHOLDER
  5
F
102
{ACAD_REACTORS
330
E
102
}
330
E
  0
SCALE
  5
48
102
{ACAD_REACTORS
330
47
102
}
330
47
100
AcDbScale
 70
     0
300
1:1
140
1.0
141
1.0
290
     1
  0
SCALE
  5
49
102
{ACAD_REACTORS
330
47
102
}
330
47
100
AcDbScale
 70
     0
300
1:2
140
1.0
141
2.0
290
     0
  0
SCALE
  5
4A
102
{ACAD_REACTORS
330
47
102
}
330
47
100
AcDbScale
 70
     0
300
1:4
140
1.0
141
4.0
290
     0
  0
SCALE
  5
4B
102
{ACAD_REACTORS
330
47
102
}
330
47
100
AcDbScale
 70
     0
300
1:5
140
1.0
141
5.0
290
     0
  0
SCALE
  5
4C
102
{ACAD_REACTORS
330
47
102
}
330
47
100
AcDbScale
 70
     0
300
1:8
140
1.0
141
8.0
290
     0
  0
SCALE
  5
4D
102
{ACAD_REACTORS
330
47
102
}
330
47
100
AcDbScale
 70
     0
300
1:10
140
1.0
141
10.0
290
     0
  0
SCALE
  5
4E
102
{ACAD_REACTORS
330
47
102
}
330
47
100
AcDbScale
 70
     0
300
1:16
140
1.0
141
16.0
290
     0
  0
SCALE
  5
4F
102
{ACAD_REACTORS
330
47
102
}
330
47
100
AcDbScale
 70
     0
300
1:20
140
1.0
141
20.0
290
     0
  0
SCALE
  5
50
102
{ACAD_REACTORS
330
47
102
}
330
47
100
AcDbScale
 70
     0
300
1:30
140
1.0
141
30.0
290
     0
  0
SCALE
  5
51
102
{ACAD_REACTORS
330
47
102
}
330
47
100
AcDbScale
 70
     0
300
1:40
140
1.0
141
40.0
290
     0
  0
SCALE
  5
52
102
{ACAD_REACTORS
330
47
102
}
330
47
100
AcDbScale
 70
     0
300
1:50
140
1.0
141
50.0
290
     0
  0
SCALE
  5
53
102
{ACAD_REACTORS
330
47
102
}
330
47
100
AcDbScale
 70
     0
300
1:100
140
1.0
141
100.0
290
     0
  0
SCALE
  5
54
102
{ACAD_REACTORS
330
47
102
}
330
47
100
AcDbScale
 70
     0
300
2:1
140
2.0
141
1.0
290
     0
  0
SCALE
  5
55
102
{ACAD_REACTORS
330
47
102
}
330
47
100
AcDbScale
 70
     0
300
4:1
140
4.0
141
1.0
290
     0
  0
SCALE
  5
56
102
{ACAD_REACTORS
330
47
102
}
330
47
100
AcDbScale
 70
     0
300
8:1
140
8.0
141
1.0
290
     0
  0
SCALE
  5
57
102
{ACAD_REACTORS
330
47
102
}
330
47
100
AcDbScale
 70
     0
300
10:1
140
10.0
141
1.0
290
     0
  0
SCALE
  5
58
102
{ACAD_REACTORS
330
47
102
}
330
47
100
AcDbScale
 70
     0
300
100:1
140
100.0
141
1.0
290
     0
  0
SCALE
  5
59
102
{ACAD_REACTORS
330
47
102
}
330
47
100
AcDbScale
 70
     0
300
1/128" = 1'-0"
140
0.0078125
141
12.0
290
     0
  0
SCALE
  5
5A
102
{ACAD_REACTORS
330
47
102
}
330
47
100
AcDbScale
 70
     0
300
1/64" = 1'-0"
140
0.015625
141
12.0
290
     0
  0
SCALE
  5
5B
102
{ACAD_REACTORS
330
47
102
}
330
47
100
AcDbScale
 70
     0
300
1/32" = 1'-0"
140
0.03125
141
12.0
290
     0
  0
SCALE
  5
5C
102
{ACAD_REACTORS
330
47
102
}
330
47
100
AcDbScale
 70
     0
300
1/16" = 1'-0"
140
0.0625
141
12.0
290
     0
  0
SCALE
  5
5D
102
{ACAD_REACTORS
330
47
102
}
330
47
100
AcDbScale
 70
     0
300
3/32" = 1'-0"
140
0.09375
141
12.0
290
     0
  0
SCALE
  5
5E
102
{ACAD_REACTORS
330
47
102
}
330
47
100
AcDbScale
 70
     0
300
1/8" = 1'-0"
140
0.125
141
12.0
290
     0
  0
SCALE
  5
5F
102
{ACAD_REACTORS
330
47
102
}
330
47
100
AcDbScale
 70
     0
300
3/16" = 1'-0"
140
0.1875
141
12.0
290
     0
  0
SCALE
  5
60
102
{ACAD_REACTORS
330
47
102
}
330
47
100
AcDbScale
 70
     0
300
1/4" = 1'-0"
140
0.25
141
12.0
290
     0
  0
SCALE
  5
61
102
{ACAD_REACTORS
330
47
102
}
330
47
100
AcDbScale
 70
     0
300
3/8" = 1'-0"
140
0.375
141
12.0
290
     0
  0
SCALE
  5
62
102
{ACAD_REACTORS
330
47
102
}
330
47
100
AcDbScale
 70
     0
300
1/2" = 1'-0"
140
0.5
141
12.0
290
     0
  0
SCALE
  5
63
102
{ACAD_REACTORS
330
47
102
}
330
47
100
AcDbScale
 70
     0
300
3/4" = 1'-0"
140
0.75
141
12.0
290
     0
  0
SCALE
  5
64
102
{ACAD_REACTORS
330
47
102
}
330
47
100
AcDbScale
 70
     0
300
1" = 1'-0"
140
1.0
141
12.0
290
     0
  0
SCALE
  5
65
102
{ACAD_REACTORS
330
47
102
}
330
47
100
AcDbScale
 70
     0
300
1-1/2" = 1'-0"
140
1.5
141
12.0
290
     0
  0
SCALE
  5
66
102
{ACAD_REACTORS
330
47
102
}
330
47
100
AcDbScale
 70
     0
300
3" = 1'-0"
140
3.0
141
12.0
290
     0
  0
SCALE
  5
67
102
{ACAD_REACTORS
330
47
102
}
330
47
100
AcDbScale
 70
     0
300
6" = 1'-0"
140
6.0
141
12.0
290
     0
  0
SCALE
  5
68
102
{ACAD_REACTORS
330
47
102
}
330
47
100
AcDbScale
 70
     0
300
1'-0" = 1'-0"
140
12.0
141
12.0
290
     0
  0
ENDSEC
  0
EOF
