  0
SECTION
  2
HEADER
  9
$ACADVER
  1
AC1015
  9
$ACADMAINTVER
 70
     6
  9
$DWGCODEPAGE
  3
ANSI_949
  9
$INSBASE
 10
0.0
 20
0.0
 30
0.0
  9
$EXTMIN
 10
-61.6880720460716
 20
-49.97180738881174
 30
0.0
  9
$EXTMAX
 10
109.8783863518704
 20
40.92630408500666
 30
0.0
  9
$LIMMIN
 10
0.0
 20
0.0
  9
$LIMMAX
 10
420.0
 20
297.0
  9
$ORTHOMODE
 70
     1
  9
$REGENMODE
 70
     1
  9
$FILLMODE
 70
     1
  9
$QTEXTMODE
 70
     0
  9
$MIRRTEXT
 70
     1
  9
$LTSCALE
 40
1.0
  9
$ATTMODE
 70
     1
  9
$TEXTSIZE
 40
3.5
  9
$TRACEWID
 40
1.0
  9
$TEXTSTYLE
  7
Standard
  9
$CLAYER
  8
0
  9
$CELTYPE
  6
ByLayer
  9
$CECOLOR
 62
   256
  9
$CELTSCALE
 40
1.0
  9
$DISPSILH
 70
     0
  9
$DIMSCALE
 40
1.0
  9
$DIMASZ
 40
3.302
  9
$DIMEXO
 40
1.0
  9
$DIMDLI
 40
3.75
  9
$DIMRND
 40
0.0
  9
$DIMDLE
 40
0.0
  9
$DIMEXE
 40
1.0
  9
$DIMTP
 40
0.0
  9
$DIMTM
 40
0.0
  9
$DIMTXT
 40
3.5
  9
$DIMCEN
 40
2.5
  9
$DIMTSZ
 40
0.0
  9
$DIMTOL
 70
     0
  9
$DIMLIM
 70
     0
  9
$DIMTIH
 70
     1
  9
$DIMTOH
 70
     1
  9
$DIMSE1
 70
     0
  9
$DIMSE2
 70
     0
  9
$DIMTAD
 70
     1
  9
$DIMZIN
 70
     0
  9
$DIMBLK
  1

  9
$DIMASO
 70
     1
  9
$DIMSHO
 70
     1
  9
$DIMPOST
  1

  9
$DIMAPOST
  1

  9
$DIMALT
 70
     0
  9
$DIMALTD
 70
     3
  9
$DIMALTF
 40
0.0393700787401575
  9
$DIMLFAC
 40
1.0
  9
$DIMTOFL
 70
     1
  9
$DIMTVP
 40
0.0
  9
$DIMTIX
 70
     0
  9
$DIMSOXD
 70
     0
  9
$DIMSAH
 70
     0
  9
$DIMBLK1
  1

  9
$DIMBLK2
  1

  9
$DIMSTYLE
  2
ISO-25
  9
$DIMCLRD
 70
     0
  9
$DIMCLRE
 70
     0
  9
$DIMCLRT
 70
     0
  9
$DIMTFAC
 40
1.0
  9
$DIMGAP
 40
1.524
  9
$DIMJUST
 70
     0
  9
$DIMSD1
 70
     0
  9
$DIMSD2
 70
     0
  9
$DIMTOLJ
 70
     0
  9
$DIMTZIN
 70
     0
  9
$DIMALTZ
 70
     0
  9
$DIMALTTZ
 70
     0
  9
$DIMUPT
 70
     0
  9
$DIMDEC
 70
     2
  9
$DIMTDEC
 70
     2
  9
$DIMALTU
 70
     2
  9
$DIMALTTD
 70
     3
  9
$DIMTXSTY
  7
Standard
  9
$DIMAUNIT
 70
     0
  9
$DIMADEC
 70
     2
  9
$DIMALTRND
 40
0.0
  9
$DIMAZIN
 70
     0
  9
$DIMDSEP
 70
    44
  9
$DIMATFIT
 70
     3
  9
$DIMFRAC
 70
     0
  9
$DIMLDRBLK
  1

  9
$DIMLUNIT
 70
     2
  9
$DIMLWD
 70
    -2
  9
$DIMLWE
 70
    -2
  9
$DIMTMOVE
 70
     0
  9
$LUNITS
 70
     2
  9
$LUPREC
 70
     2
  9
$SKETCHINC
 40
1.0
  9
$FILLETRAD
 40
10.0
  9
$AUNITS
 70
     0
  9
$AUPREC
 70
     2
  9
$MENU
  1
.
  9
$ELEVATION
 40
0.0
  9
$PELEVATION
 40
0.0
  9
$THICKNESS
 40
0.0
  9
$LIMCHECK
 70
     0
  9
$CHAMFERA
 40
0.0
  9
$CHAMFERB
 40
0.0
  9
$CHAMFERC
 40
0.0
  9
$CHAMFERD
 40
0.0
  9
$SKPOLY
 70
     0
  9
$TDCREATE
 40
2458311.478934213
  9
$TDUCREATE
 40
2458311.103934213
  9
$TDUPDATE
 40
2458323.435284294
  9
$TDUUPDATE
 40
2458323.060284294
  9
$TDINDWG
 40
0.0017281481
  9
$TDUSRTIMER
 40
2458323.060240937
  9
$USRTIMER
 70
     1
  9
$ANGBASE
 50
0.0
  9
$ANGDIR
 70
     0
  9
$PDMODE
 70
     0
  9
$PDSIZE
 40
-1.0
  9
$PLINEWID
 40
0.0
  9
$SPLFRAME
 70
     0
  9
$SPLINETYPE
 70
     6
  9
$SPLINESEGS
 70
     8
  9
$HANDSEED
  5
40E
  9
$SURFTAB1
 70
     6
  9
$SURFTAB2
 70
     6
  9
$SURFTYPE
 70
     6
  9
$SURFU
 70
     6
  9
$SURFV
 70
     6
  9
$UCSBASE
  2

  9
$UCSNAME
  2

  9
$UCSORG
 10
0.0
 20
0.0
 30
0.0
  9
$UCSXDIR
 10
1.0
 20
0.0
 30
0.0
  9
$UCSYDIR
 10
0.0
 20
1.0
 30
0.0
  9
$UCSORTHOREF
  2

  9
$UCSORTHOVIEW
 70
     0
  9
$UCSORGTOP
 10
0.0
 20
0.0
 30
0.0
  9
$UCSORGBOTTOM
 10
0.0
 20
0.0
 30
0.0
  9
$UCSORGLEFT
 10
0.0
 20
0.0
 30
0.0
  9
$UCSORGRIGHT
 10
0.0
 20
0.0
 30
0.0
  9
$UCSORGFRONT
 10
0.0
 20
0.0
 30
0.0
  9
$UCSORGBACK
 10
0.0
 20
0.0
 30
0.0
  9
$PUCSBASE
  2

  9
$PUCSNAME
  2

  9
$PUCSORG
 10
0.0
 20
0.0
 30
0.0
  9
$PUCSXDIR
 10
1.0
 20
0.0
 30
0.0
  9
$PUCSYDIR
 10
0.0
 20
1.0
 30
0.0
  9
$PUCSORTHOREF
  2

  9
$PUCSORTHOVIEW
 70
     0
  9
$PUCSORGTOP
 10
0.0
 20
0.0
 30
0.0
  9
$PUCSORGBOTTOM
 10
0.0
 20
0.0
 30
0.0
  9
$PUCSORGLEFT
 10
0.0
 20
0.0
 30
0.0
  9
$PUCSORGRIGHT
 10
0.0
 20
0.0
 30
0.0
  9
$PUCSORGFRONT
 10
0.0
 20
0.0
 30
0.0
  9
$PUCSORGBACK
 10
0.0
 20
0.0
 30
0.0
  9
$USERI1
 70
     0
  9
$USERI2
 70
     0
  9
$USERI3
 70
     0
  9
$USERI4
 70
     0
  9
$USERI5
 70
     0
  9
$USERR1
 40
0.0
  9
$USERR2
 40
0.0
  9
$USERR3
 40
0.0
  9
$USERR4
 40
0.0
  9
$USERR5
 40
0.0
  9
$WORLDVIEW
 70
     1
  9
$SHADEDGE
 70
     3
  9
$SHADEDIF
 70
    70
  9
$TILEMODE
 70
     1
  9
$MAXACTVP
 70
    64
  9
$PINSBASE
 10
0.0
 20
0.0
 30
0.0
  9
$PLIMCHECK
 70
     0
  9
$PEXTMIN
 10
1.000000000000000E+20
 20
1.000000000000000E+20
 30
1.000000000000000E+20
  9
$PEXTMAX
 10
-1.000000000000000E+20
 20
-1.000000000000000E+20
 30
-1.000000000000000E+20
  9
$PLIMMIN
 10
0.0
 20
0.0
  9
$PLIMMAX
 10
0.0
 20
0.0
  9
$UNITMODE
 70
     0
  9
$VISRETAIN
 70
     1
  9
$PLINEGEN
 70
     0
  9
$PSLTSCALE
 70
     1
  9
$TREEDEPTH
 70
  3020
  9
$CMLSTYLE
  2
Standard
  9
$CMLJUST
 70
     0
  9
$CMLSCALE
 40
20.0
  9
$PROXYGRAPHICS
 70
     1
  9
$MEASUREMENT
 70
     1
  9
$CELWEIGHT
370
    -1
  9
$ENDCAPS
280
     0
  9
$JOINSTYLE
280
     0
  9
$LWDISPLAY
290
     1
  9
$INSUNITS
 70
     4
  9
$HYPERLINKBASE
  1

  9
$STYLESHEET
  1

  9
$XEDIT
290
     1
  9
$CEPSNTYPE
380
     0
  9
$PSTYLEMODE
290
     1
  9
$FINGERPRINTGUID
  2
{9F1B308B-0B87-4208-8B07-026D9D6182D9}
  9
$VERSIONGUID
  2
{FAEB1C32-E019-11D5-929B-00C0DF256EC4}
  9
$EXTNAMES
290
     1
  9
$PSVPSCALE
 40
0.0
  9
$OLESTARTUP
290
     0
  0
ENDSEC
  0
SECTION
  2
CLASSES
  0
CLASS
  1
ACDBDICTIONARYWDFLT
  2
AcDbDictionaryWithDefault
  3
ObjectDBX Classes
 90
        0
280
     0
281
     0
  0
CLASS
  1
VISUALSTYLE
  2
AcDbVisualStyle
  3
ObjectDBX Classes
 90
     4095
280
     0
281
     0
  0
CLASS
  1
MATERIAL
  2
AcDbMaterial
  3
ObjectDBX Classes
 90
     1153
280
     0
281
     0
  0
CLASS
  1
SCALE
  2
AcDbScale
  3
ObjectDBX Classes
 90
     1153
280
     0
281
     0
  0
CLASS
  1
SUN
  2
AcDbSun
  3
SCENEOE
 90
     1153
280
     0
281
     0
  0
CLASS
  1
ACDBPLACEHOLDER
  2
AcDbPlaceHolder
  3
ObjectDBX Classes
 90
        0
280
     0
281
     0
  0
CLASS
  1
LAYOUT
  2
AcDbLayout
  3
ObjectDBX Classes
 90
        0
280
     0
281
     0
  0
CLASS
  1
TABLESTYLE
  2
AcDbTableStyle
  3
ObjectDBX Classes
 90
     4095
280
     0
281
     0
  0
CLASS
  1
MLEADERSTYLE
  2
AcDbMLeaderStyle
  3
ACDB_MLEADERSTYLE_CLASS
 90
     4095
280
     0
281
     0
  0
CLASS
  1
RASTERVARIABLES
  2
AcDbRasterVariables
  3
ISM
 90
        0
280
     0
281
     0
  0
CLASS
  1
DIMASSOC
  2
AcDbDimAssoc
  3
"AcDbDimAssoc|Product Desc:     AcDim ARX App For Dimension|Company:          Autodesk, Inc.|WEB Address:      www.autodesk.com"
 90
        0
280
     0
281
     0
  0
ENDSEC
  0
SECTION
  2
TABLES
  0
TABLE
  2
VPORT
  5
8
330
0
100
AcDbSymbolTable
 70
     1
  0
VPORT
  5
29
330
8
100
AcDbSymbolTableRecord
100
AcDbViewportTableRecord
  2
*Active
 70
     0
 10
0.0
 20
0.0
 11
1.0
 21
1.0
 12
-16.74987819993373
 22
9.566719378204693
 13
0.0
 23
0.0
 14
10.0
 24
10.0
 15
10.0
 25
10.0
 16
0.0
 26
0.0
 36
1.0
 17
0.0
 27
0.0
 37
0.0
 40
172.3968295952182
 41
1.586073500967118
 42
50.0
 43
0.0
 44
0.0
 50
0.0
 51
0.0
 71
    16
 72
  2000
 73
     1
 74
     3
 75
     0
 76
     0
 77
     0
 78
     0
281
     0
 65
     1
110
0.0
120
0.0
130
0.0
111
1.0
121
0.0
131
0.0
112
0.0
122
1.0
132
0.0
 79
     0
146
0.0
  0
ENDTAB
  0
TABLE
  2
LTYPE
  5
5
330
0
100
AcDbSymbolTable
 70
     6
  0
LTYPE
  5
14
330
5
100
AcDbSymbolTableRecord
100
AcDbLinetypeTableRecord
  2
ByBlock
 70
     0
  3

 72
    65
 73
     0
 40
0.0
  0
LTYPE
  5
15
330
5
100
AcDbSymbolTableRecord
100
AcDbLinetypeTableRecord
  2
ByLayer
 70
     0
  3

 72
    65
 73
     0
 40
0.0
  0
LTYPE
  5
16
330
5
100
AcDbSymbolTableRecord
100
AcDbLinetypeTableRecord
  2
Continuous
 70
     0
  3
Solid line
 72
    65
 73
     0
 40
0.0
  0
LTYPE
  5
6A
330
5
100
AcDbSymbolTableRecord
100
AcDbLinetypeTableRecord
  2
HIDDEN
 70
     0
  3
Hidden __ __ __ __ __ __ __ __ __ __ __ __ __ __
 72
    65
 73
     2
 40
1.905
 49
1.27
 74
     0
 49
-0.635
 74
     0
  0
LTYPE
  5
6B
330
5
100
AcDbSymbolTableRecord
100
AcDbLinetypeTableRecord
  2
PHANTOM
 70
     0
  3
Phantom ______  __  __  ______  __  __  ______
 72
    65
 73
     6
 40
12.7
 49
6.35
 74
     0
 49
-1.27
 74
     0
 49
1.27
 74
     0
 49
-1.27
 74
     0
 49
1.27
 74
     0
 49
-1.27
 74
     0
  0
LTYPE
  5
6C
330
5
100
AcDbSymbolTableRecord
100
AcDbLinetypeTableRecord
  2
CENTER
 70
     0
  3
Center ____ _ ____ _ ____ _ ____ _ ____ _ ____
 72
    65
 73
     4
 40
10.16
 49
6.35
 74
     0
 49
-1.27
 74
     0
 49
1.27
 74
     0
 49
-1.27
 74
     0
  0
LTYPE
  5
6D
330
5
100
AcDbSymbolTableRecord
100
AcDbLinetypeTableRecord
  2
CENTERX2
 70
     0
  3
Center (2x) ________  __  ________  __  _____
 72
    65
 73
     4
 40
20.32
 49
12.7
 74
     0
 49
-2.54
 74
     0
 49
2.54
 74
     0
 49
-2.54
 74
     0
  0
LTYPE
  5
6E
330
5
100
AcDbSymbolTableRecord
100
AcDbLinetypeTableRecord
  2
DOT2
 70
     0
  3
Dot (.5x) ........................................
 72
    65
 73
     2
 40
0.635
 49
0.0
 74
     0
 49
-0.635
 74
     0
  0
ENDTAB
  0
TABLE
  2
LAYER
  5
2
102
{ACAD_XDICTIONARY
360
1F6
102
}
330
0
100
AcDbSymbolTable
 70
    18
  0
LAYER
  5
10
330
2
100
AcDbSymbolTableRecord
100
AcDbLayerTableRecord
  2
0
 70
     0
 62
     7
  6
Continuous
370
    -3
390
F
  0
LAYER
  5
6F
330
2
100
AcDbSymbolTableRecord
100
AcDbLayerTableRecord
  2
FORMAT
 70
     0
 62
     2
  6
Continuous
370
    -3
390
F
  0
LAYER
  5
70
330
2
100
AcDbSymbolTableRecord
100
AcDbLayerTableRecord
  2
외형선
 70
     0
 62
     4
  6
Continuous
370
    30
390
F
  0
LAYER
  5
71
330
2
100
AcDbSymbolTableRecord
100
AcDbLayerTableRecord
  2
숨은선
 70
     0
 62
     2
  6
HIDDEN
370
    15
390
F
  0
LAYER
  5
72
330
2
100
AcDbSymbolTableRecord
100
AcDbLayerTableRecord
  2
중심선
 70
     0
 62
     1
  6
CENTERX2
370
    -3
390
F
  0
LAYER
  5
73
330
2
100
AcDbSymbolTableRecord
100
AcDbLayerTableRecord
  2
파단선
 70
     0
 62
     4
  6
Continuous
370
    -3
390
F
  0
LAYER
  5
74
330
2
100
AcDbSymbolTableRecord
100
AcDbLayerTableRecord
  2
해칭선
 70
     0
 62
   100
  6
Continuous
370
    -3
390
F
  0
LAYER
  5
75
330
2
100
AcDbSymbolTableRecord
100
AcDbLayerTableRecord
  2
가는실선
 70
     0
 62
     4
  6
Continuous
370
    -3
390
F
  0
LAYER
  5
76
330
2
100
AcDbSymbolTableRecord
100
AcDbLayerTableRecord
  2
치수_보조선
 70
     0
 62
     4
  6
Continuous
370
    -3
390
F
  0
LAYER
  5
77
330
2
100
AcDbSymbolTableRecord
100
AcDbLayerTableRecord
  2
치수문자_일반주서
 70
     0
 62
     7
  6
Continuous
370
    15
390
F
  0
LAYER
  5
78
330
2
100
AcDbSymbolTableRecord
100
AcDbLayerTableRecord
  2
개별주서
 70
     0
 62
   100
  6
Continuous
370
    30
390
F
  0
LAYER
  5
79
330
2
100
AcDbSymbolTableRecord
100
AcDbLayerTableRecord
  2
중간선
 70
     0
 62
     2
  6
Continuous
370
    15
390
F
  0
LAYER
  5
7A
330
2
100
AcDbSymbolTableRecord
100
AcDbLayerTableRecord
  2
윤곽선
 70
     0
 62
     3
  6
Continuous
370
    40
390
F
  0
LAYER
  5
7B
330
2
100
AcDbSymbolTableRecord
100
AcDbLayerTableRecord
  2
중심마크
 70
     0
 62
   100
  6
Continuous
370
    30
390
F
  0
LAYER
  5
7C
330
2
100
AcDbSymbolTableRecord
100
AcDbLayerTableRecord
  2
가상선
 70
     0
 62
     4
  6
PHANTOM
370
    -3
390
F
  0
LAYER
  5
7D
330
2
100
AcDbSymbolTableRecord
100
AcDbLayerTableRecord
  2
특수지정선
 70
     0
 62
     5
  6
CENTERX2
370
    60
390
F
  0
LAYER
  5
7E
330
2
100
AcDbSymbolTableRecord
100
AcDbLayerTableRecord
  2
참조1
 70
     0
 62
    -4
  6
Continuous
370
    -3
390
F
  0
LAYER
  5
155
330
2
100
AcDbSymbolTableRecord
100
AcDbLayerTableRecord
  2
Defpoints
 70
     0
 62
     7
  6
Continuous
290
     0
370
    -3
390
F
  0
ENDTAB
  0
TABLE
  2
STYLE
  5
3
330
0
100
AcDbSymbolTable
 70
     2
  0
STYLE
  5
11
330
3
100
AcDbSymbolTableRecord
100
AcDbTextStyleTableRecord
  2
Standard
 70
     0
 40
0.0
 41
1.0
 50
0.0
 71
     0
 42
3.5
  3
txt
  4

  0
STYLE
  5
94
330
3
100
AcDbSymbolTableRecord
100
AcDbTextStyleTableRecord
  2
SLDTEXTSTYLE0
 70
     0
 40
0.0
 41
0.75
 50
0.0
 71
     0
 42
3.5
  3
TXT
  4

  0
ENDTAB
  0
TABLE
  2
VIEW
  5
6
330
0
100
AcDbSymbolTable
 70
     0
  0
ENDTAB
  0
TABLE
  2
UCS
  5
7
330
0
100
AcDbSymbolTable
 70
     0
  0
ENDTAB
  0
TABLE
  2
APPID
  5
9
330
0
100
AcDbSymbolTable
 70
     1
  0
APPID
  5
12
330
9
100
AcDbSymbolTableRecord
100
AcDbRegAppTableRecord
  2
ACAD
 70
     0
  0
ENDTAB
  0
TABLE
  2
DIMSTYLE
  5
A
330
0
100
AcDbSymbolTable
 70
     4
100
AcDbDimStyleTable
  0
DIMSTYLE
105
27
330
A
100
AcDbSymbolTableRecord
100
AcDbDimStyleTableRecord
  2
ISO-25
 70
     0
 41
2.5
 42
0.625
 43
3.75
 44
1.25
 73
     0
 74
     0
 77
     1
 78
     8
140
2.5
141
2.5
143
0.03937007874016
147
0.625
171
     3
172
     1
178
     0
271
     2
272
     2
274
     3
278
    44
283
     0
284
     8
340
11
  0
DIMSTYLE
105
D2
102
{ACAD_REACTORS
330
D1
330
E6
330
FB
330
10E
330
3DB
102
}
330
A
100
AcDbSymbolTableRecord
100
AcDbDimStyleTableRecord
  2
SLDDIMSTYLE0
 70
     0
 41
3.302
 44
0.0
 45
0.000000001
 73
     0
 74
     0
 77
     1
 78
     4
 79
     1
140
3.5
143
0.0393700787401575
147
0.875
148
0.000000001
170
     1
172
     1
173
     1
178
     0
271
     2
272
     2
276
     2
284
    12
289
     0
340
94
  0
DIMSTYLE
105
E7
330
A
100
AcDbSymbolTableRecord
100
AcDbDimStyleTableRecord
  2
SLDDIMSTYLE1
 70
     0
 41
3.302
 44
0.0
 45
0.000000001
 73
     0
 74
     0
 77
     1
 78
     4
 79
     1
140
3.5
143
0.0393700787401575
147
0.875
148
0.000000001
170
     1
173
     1
178
     0
271
     2
272
     2
276
     2
284
    12
340
94
  0
DIMSTYLE
105
10F
330
A
100
AcDbSymbolTableRecord
100
AcDbDimStyleTableRecord
  2
SLDDIMSTYLE2
 70
     0
 41
3.302
 44
0.0
 45
0.000000001
 73
     0
 74
     0
 77
     1
 78
    12
 79
     3
140
3.5
143
0.0393700787401575
147
0.875
148
0.000000001
170
     1
173
     1
178
     0
271
     2
272
     2
276
     2
284
    12
340
94
  0
ENDTAB
  0
TABLE
  2
BLOCK_RECORD
  5
1
330
0
100
AcDbSymbolTable
 70
    16
  0
BLOCK_RECORD
  5
1F
330
1
100
AcDbSymbolTableRecord
100
AcDbBlockTableRecord
  2
*Model_Space
340
22
  0
BLOCK_RECORD
  5
1B
330
1
100
AcDbSymbolTableRecord
100
AcDbBlockTableRecord
  2
*Paper_Space
340
1E
  0
BLOCK_RECORD
  5
23
330
1
100
AcDbSymbolTableRecord
100
AcDbBlockTableRecord
  2
*Paper_Space0
340
26
  0
BLOCK_RECORD
  5
7F
330
1
100
AcDbSymbolTableRecord
100
AcDbBlockTableRecord
  2
블럭10
340
0
102
{BLKREFS
331
CA
102
}
  0
BLOCK_RECORD
  5
D3
330
1
100
AcDbSymbolTableRecord
100
AcDbBlockTableRecord
  2
_D
340
0
  0
BLOCK_RECORD
  5
E8
330
1
100
AcDbSymbolTableRecord
100
AcDbBlockTableRecord
  2
_D_1
340
0
  0
BLOCK_RECORD
  5
FC
330
1
100
AcDbSymbolTableRecord
100
AcDbBlockTableRecord
  2
_D_2
340
0
  0
BLOCK_RECORD
  5
110
330
1
100
AcDbSymbolTableRecord
100
AcDbBlockTableRecord
  2
_D_3
340
0
  0
BLOCK_RECORD
  5
129
330
1
100
AcDbSymbolTableRecord
100
AcDbBlockTableRecord
  2
SW_DOWELSYMBOL_0
340
0
102
{BLKREFS
331
12F
102
}
  0
BLOCK_RECORD
  5
1FA
330
1
100
AcDbSymbolTableRecord
100
AcDbBlockTableRecord
  2
*D7
340
0
  0
BLOCK_RECORD
  5
206
330
1
100
AcDbSymbolTableRecord
100
AcDbBlockTableRecord
  2
*D8
340
0
  0
BLOCK_RECORD
  5
215
330
1
100
AcDbSymbolTableRecord
100
AcDbBlockTableRecord
  2
*D9
340
0
  0
BLOCK_RECORD
  5
221
330
1
100
AcDbSymbolTableRecord
100
AcDbBlockTableRecord
  2
*D10
340
0
  0
BLOCK_RECORD
  5
26D
330
1
100
AcDbSymbolTableRecord
100
AcDbBlockTableRecord
  2
*D11
340
0
  0
BLOCK_RECORD
  5
279
330
1
100
AcDbSymbolTableRecord
100
AcDbBlockTableRecord
  2
*D12
340
0
  0
BLOCK_RECORD
  5
288
330
1
100
AcDbSymbolTableRecord
100
AcDbBlockTableRecord
  2
*D13
340
0
  0
BLOCK_RECORD
  5
294
330
1
100
AcDbSymbolTableRecord
100
AcDbBlockTableRecord
  2
*D14
340
0
  0
BLOCK_RECORD
  5
3DE
330
1
100
AcDbSymbolTableRecord
100
AcDbBlockTableRecord
  2
*D15
340
0
  0
ENDTAB
  0
ENDSEC
  0
SECTION
  2
BLOCKS
  0
BLOCK
  5
20
330
1F
100
AcDbEntity
  8
0
100
AcDbBlockBegin
  2
*Model_Space
 70
     0
 10
0.0
 20
0.0
 30
0.0
  3
*Model_Space
  1
*Model_Space
  0
ENDBLK
  5
21
330
1F
100
AcDbEntity
  8
0
100
AcDbBlockEnd
  0
BLOCK
  5
1C
330
1B
100
AcDbEntity
 67
     1
  8
0
100
AcDbBlockBegin
  2
*Paper_Space
 70
     0
 10
0.0
 20
0.0
 30
0.0
  3
*Paper_Space
  1
*Paper_Space
  0
ENDBLK
  5
1D
330
1B
100
AcDbEntity
 67
     1
  8
0
100
AcDbBlockEnd
  0
BLOCK
  5
24
330
23
100
AcDbEntity
  8
0
100
AcDbBlockBegin
  2
*Paper_Space0
 70
     0
 10
0.0
 20
0.0
 30
0.0
  3
*Paper_Space0
  1
*Paper_Space0
  0
ENDBLK
  5
25
330
23
100
AcDbEntity
  8
0
100
AcDbBlockEnd
  0
BLOCK
  5
80
330
7F
100
AcDbEntity
  8
0
100
AcDbBlockBegin
  2
블럭10
 70
     2
 10
0.0
 20
0.0
 30
0.0
  3
블럭10
  1
블럭10
  0
ELLIPSE
  5
82
330
7F
100
AcDbEntity
  8
중심선
100
AcDbEllipse
 10
20.54032771741204
 20
12.0471743016438
 30
0.0
 11
6.600054785286829
 21
-1.261213355974178E-13
 31
0.0
210
0.0
220
0.0
230
1.0
 40
0.636358354079598
 41
0.9219305317359503
 42
6.513795318482858
  0
ELLIPSE
  5
83
330
7F
100
AcDbEntity
  8
중심선
100
AcDbEllipse
 10
20.54032771746488
 20
12.04717430159265
 30
0.0
 11
3.960054785062283
 21
1.540847449632565E-10
 31
0.0
210
0.0
220
0.0
230
1.0
 40
0.3939339440162632
 41
1.131841032648279
 42
5.62031148352944
  0
LINE
  5
84
330
7F
100
AcDbEntity
  8
중심선
100
AcDbLine
 10
2.268634060543552
 20
16.24717430164393
 30
0.0
 11
5.714909304380834
 21
16.24717430164393
 31
0.0
  0
LINE
  5
85
330
7F
100
AcDbEntity
  8
중심선
100
AcDbLine
 10
5.245725140726316
 20
7.84717430164391
 30
0.0
 11
8.692000384563599
 21
7.84717430164391
 31
0.0
  0
LINE
  5
86
330
7F
100
AcDbEntity
  8
중심선
100
AcDbLine
 10
15.74043728645272
 20
16.24717430164393
 30
0.0
 11
8.692000384563599
 21
7.84717430164391
 31
0.0
  0
LINE
  5
87
330
7F
100
AcDbEntity
  8
중심선
100
AcDbLine
 10
0.1404042013395286
 20
13.71084872107135
 30
0.0
 11
3.58671253028996
 21
13.71088815037384
 31
0.0
  0
LINE
  5
88
330
7F
100
AcDbEntity
  8
중심선
100
AcDbLine
 10
2.750260043222114
 20
10.84717430164391
 30
0.0
 11
6.196535287059397
 21
10.84717430164391
 31
0.0
  0
LINE
  5
89
330
7F
100
AcDbEntity
  8
중심선
100
AcDbLine
 10
12.29416204261559
 20
16.24717430164393
 30
0.0
 11
5.245725140726316
 21
7.84717430164391
 31
0.0
  0
LINE
  5
8A
330
7F
100
AcDbEntity
  8
중심선
100
AcDbLine
 10
10.72767329541681
 20
16.24717430164393
 30
0.0
 11
6.196535287059397
 21
10.84717430164391
 31
0.0
  0
LINE
  5
8B
330
7F
100
AcDbEntity
  8
중심선
100
AcDbLine
 10
7.28139805157953
 20
16.24717430164393
 30
0.0
 11
2.750260043222114
 21
10.84717430164391
 31
0.0
  0
LINE
  5
8C
330
7F
100
AcDbEntity
  8
중심선
100
AcDbLine
 10
5.714909304380834
 20
16.24717430164393
 30
0.0
 11
3.58671253028996
 21
13.71088815037384
 31
0.0
  0
LINE
  5
8D
330
7F
100
AcDbEntity
  8
중심선
100
AcDbLine
 10
2.268634060543552
 20
16.24717430164393
 30
0.0
 11
0.1404042013395286
 21
13.71084872107135
 31
0.0
  0
LINE
  5
8E
330
7F
100
AcDbEntity
  8
중심선
100
AcDbLine
 10
7.28139805157953
 20
16.24717430164393
 30
0.0
 11
10.72767329541681
 21
16.24717430164393
 31
0.0
  0
LINE
  5
8F
330
7F
100
AcDbEntity
  8
중심선
100
AcDbLine
 10
12.29416204261559
 20
16.24717430164393
 30
0.0
 11
15.74043728645272
 21
16.24717430164393
 31
0.0
  0
LINE
  5
90
330
7F
100
AcDbEntity
  8
중심선
100
AcDbLine
 10
19.22036997980202
 20
11.08717430171403
 30
0.0
 11
23.66174974927406
 21
11.08717430171406
 31
0.0
  0
LINE
  5
91
330
7F
100
AcDbEntity
  8
중심선
100
AcDbLine
 10
19.22039502424796
 20
13.00717430171391
 30
0.0
 11
19.22036997980202
 21
11.08717430171403
 31
0.0
  0
LINE
  5
92
330
7F
100
AcDbEntity
  8
중심선
100
AcDbLine
 10
19.22039502424796
 20
13.00717430171391
 30
0.0
 11
26.96566020931264
 21
13.00717430171391
 31
0.0
  0
LINE
  5
93
330
7F
100
AcDbEntity
  8
중심선
100
AcDbLine
 10
22.22332737316547
 20
13.45928029700563
 30
0.0
 11
24.52862924686651
 21
15.39360700705356
 31
0.0
  0
ATTDEF
  5
95
330
7F
100
AcDbEntity
  8
FORMAT
 62
     2
100
AcDbText
 10
4.408487351596664
 20
2.075366912832191
 30
0.0
 40
4.233333333333333
  1
E2033032
 41
0.75
  7
SLDTEXTSTYLE0
 11
4.408487351596664
 21
-0.0412997538344756
 31
0.0
100
AcDbAttributeDefinition
  3

  2
AUTOATTR0
 70
     0
 74
     1
  0
ENDBLK
  5
81
330
7F
100
AcDbEntity
  8
0
100
AcDbBlockEnd
  0
BLOCK
  5
D4
330
D3
100
AcDbEntity
  8
0
100
AcDbBlockBegin
  2
_D
 70
     0
 10
0.0
 20
0.0
 30
0.0
  3
_D
  1
_D
  0
LINE
  5
D6
330
D3
100
AcDbEntity
  8
치수문자_일반주서
 62
     0
370
    -2
100
AcDbLine
 10
-43.87557204607154
 20
6.349999999999994
 30
0.0
 11
-57.31307204607158
 21
6.349999999999945
 31
0.0
  0
LINE
  5
D7
330
D3
100
AcDbEntity
  8
치수문자_일반주서
 62
     0
370
    -2
100
AcDbLine
 10
-43.87557204607154
 20
-6.349999999999995
 30
0.0
 11
-57.31307204607154
 21
-6.350000000000045
 31
0.0
  0
LINE
  5
D8
330
D3
100
AcDbEntity
  8
치수문자_일반주서
 62
     0
370
    -2
100
AcDbLine
 10
-57.31307204607157
 20
3.047999999999945
 30
0.0
 11
-57.31307204607155
 21
-3.048000000000045
 31
0.0
  0
SOLID
  5
D9
330
D3
100
AcDbEntity
  8
치수문자_일반주서
 62
     0
100
AcDbTrace
 10
-56.76273871273823
 20
3.047999999999946
 30
0.0
 11
-57.8634053794049
 21
3.047999999999943
 31
0.0
 12
-57.31307204607158
 22
6.349999999999945
 32
0.0
 13
-57.31307204607158
 23
6.349999999999945
 33
0.0
  0
SOLID
  5
DA
330
D3
100
AcDbEntity
  8
치수문자_일반주서
 62
     0
100
AcDbTrace
 10
-57.86340537940489
 20
-3.048000000000047
 30
0.0
 11
-56.76273871273822
 21
-3.048000000000043
 31
0.0
 12
-57.31307204607154
 22
-6.350000000000045
 32
0.0
 13
-57.31307204607154
 23
-6.350000000000045
 33
0.0
  0
MTEXT
  5
DB
330
D3
100
AcDbEntity
  8
치수문자_일반주서
 62
     0
100
AcDbMText
 10
-61.68807204607156
 20
-0.0000000000000166
 30
0.0
 40
3.5
 41
0.0
 71
     2
 72
     1
  1
\A1;%%c12.70 [1/2]
  7
SLDTEXTSTYLE0
 11
-3.356894814614649E-15
 21
1.0
 31
0.0
 73
     1
 44
1.0
  0
POINT
  5
DC
330
D3
100
AcDbEntity
  8
Defpoints
 62
     0
100
AcDbPoint
 10
-43.81307204607154
 20
6.349999999999994
 30
0.0
  0
POINT
  5
DD
330
D3
100
AcDbEntity
  8
Defpoints
 62
     0
100
AcDbPoint
 10
-43.81307204607154
 20
-6.349999999999995
 30
0.0
  0
POINT
  5
DE
330
D3
100
AcDbEntity
  8
Defpoints
 62
     0
100
AcDbPoint
 10
-57.31307204607153
 20
-6.350000000000046
 30
0.0
  0
ENDBLK
  5
D5
330
D3
100
AcDbEntity
  8
0
100
AcDbBlockEnd
  0
BLOCK
  5
E9
330
E8
100
AcDbEntity
  8
0
100
AcDbBlockBegin
  2
_D_1
 70
     0
 10
0.0
 20
0.0
 30
0.0
  3
_D_1
  1
_D_1
  0
LINE
  5
EB
330
E8
100
AcDbEntity
  8
치수문자_일반주서
 62
     0
370
    -2
100
AcDbLine
 10
56.78692795392812
 20
6.412500000000007
 30
0.0
 11
56.78692795392812
 21
16.10092409889251
 31
0.0
  0
LINE
  5
EC
330
E8
100
AcDbEntity
  8
치수문자_일반주서
 62
     0
370
    -2
100
AcDbLine
 10
31.38692795392845
 20
5.60058658730523
 30
0.0
 11
31.38692795392845
 21
16.10092409889251
 31
0.0
  0
LINE
  5
ED
330
E8
100
AcDbEntity
  8
치수문자_일반주서
 62
     0
370
    -2
100
AcDbLine
 10
53.48492795392812
 20
16.10092409889251
 30
0.0
 11
34.68892795392845
 21
16.10092409889251
 31
0.0
  0
SOLID
  5
EE
330
E8
100
AcDbEntity
  8
치수문자_일반주서
 62
     0
100
AcDbTrace
 10
53.48492795392812
 20
15.55059076555918
 30
0.0
 11
53.48492795392812
 21
16.65125743222585
 31
0.0
 12
56.78692795392812
 22
16.10092409889251
 32
0.0
 13
56.78692795392812
 23
16.10092409889251
 33
0.0
  0
SOLID
  5
EF
330
E8
100
AcDbEntity
  8
치수문자_일반주서
 62
     0
100
AcDbTrace
 10
34.68892795392845
 20
16.65125743222585
 30
0.0
 11
34.68892795392845
 21
15.55059076555918
 31
0.0
 12
31.38692795392845
 22
16.10092409889251
 32
0.0
 13
31.38692795392845
 23
16.10092409889251
 33
0.0
  0
MTEXT
  5
F0
330
E8
100
AcDbEntity
  8
치수문자_일반주서
 62
     0
100
AcDbMText
 10
44.0869279539283
 20
20.47592409889251
 30
0.0
 40
3.5
 41
0.0
 71
     2
 72
     1
  1
\A1;25.40 [1]
  7
SLDTEXTSTYLE0
 73
     1
 44
1.0
  0
POINT
  5
F1
330
E8
100
AcDbEntity
  8
Defpoints
 62
     0
100
AcDbPoint
 10
56.78692795392812
 20
6.350000000000007
 30
0.0
  0
POINT
  5
F2
330
E8
100
AcDbEntity
  8
Defpoints
 62
     0
100
AcDbPoint
 10
31.38692795392845
 20
5.53808658730523
 30
0.0
  0
POINT
  5
F3
330
E8
100
AcDbEntity
  8
Defpoints
 62
     0
100
AcDbPoint
 10
31.38692795392845
 20
16.10092409889251
 30
0.0
  0
ENDBLK
  5
EA
330
E8
100
AcDbEntity
  8
0
100
AcDbBlockEnd
  0
BLOCK
  5
FD
330
FC
100
AcDbEntity
  8
0
100
AcDbBlockBegin
  2
_D_2
 70
     0
 10
0.0
 20
0.0
 30
0.0
  3
_D_2
  1
_D_2
  0
LINE
  5
FF
330
FC
100
AcDbEntity
  8
치수문자_일반주서
 62
     0
370
    -2
100
AcDbLine
 10
56.78692795392812
 20
6.412500000000008
 30
0.0
 11
56.78692795392811
 21
36.55130408500666
 31
0.0
  0
LINE
  5
100
330
FC
100
AcDbEntity
  8
치수문자_일반주서
 62
     0
370
    -2
100
AcDbLine
 10
-44.81307204607155
 20
5.412499999999988
 30
0.0
 11
-44.81307204607155
 21
36.55130408500666
 31
0.0
  0
LINE
  5
101
330
FC
100
AcDbEntity
  8
치수문자_일반주서
 62
     0
370
    -2
100
AcDbLine
 10
53.48492795392811
 20
36.55130408500666
 30
0.0
 11
-41.51107204607155
 21
36.55130408500666
 31
0.0
  0
SOLID
  5
102
330
FC
100
AcDbEntity
  8
치수문자_일반주서
 62
     0
100
AcDbTrace
 10
53.48492795392811
 20
36.00097075167333
 30
0.0
 11
53.48492795392811
 21
37.10163741834
 31
0.0
 12
56.78692795392811
 22
36.55130408500666
 32
0.0
 13
56.78692795392811
 23
36.55130408500666
 33
0.0
  0
SOLID
  5
103
330
FC
100
AcDbEntity
  8
치수문자_일반주서
 62
     0
100
AcDbTrace
 10
-41.51107204607155
 20
37.10163741834
 30
0.0
 11
-41.51107204607155
 21
36.00097075167333
 31
0.0
 12
-44.81307204607155
 22
36.55130408500666
 32
0.0
 13
-44.81307204607155
 23
36.55130408500666
 33
0.0
  0
MTEXT
  5
104
330
FC
100
AcDbEntity
  8
치수문자_일반주서
 62
     0
100
AcDbMText
 10
5.986927953928447
 20
40.92630408500666
 30
0.0
 40
3.5
 41
0.0
 71
     2
 72
     1
  1
\A1;101.60 [4]
  7
SLDTEXTSTYLE0
 73
     1
 44
1.0
  0
POINT
  5
105
330
FC
100
AcDbEntity
  8
Defpoints
 62
     0
100
AcDbPoint
 10
56.78692795392812
 20
6.350000000000008
 30
0.0
  0
POINT
  5
106
330
FC
100
AcDbEntity
  8
Defpoints
 62
     0
100
AcDbPoint
 10
-44.81307204607155
 20
5.349999999999988
 30
0.0
  0
POINT
  5
107
330
FC
100
AcDbEntity
  8
Defpoints
 62
     0
100
AcDbPoint
 10
-44.81307204607155
 20
36.55130408500666
 30
0.0
  0
ENDBLK
  5
FE
330
FC
100
AcDbEntity
  8
0
100
AcDbBlockEnd
  0
BLOCK
  5
111
330
110
100
AcDbEntity
  8
0
100
AcDbBlockBegin
  2
_D_3
 70
     0
 10
0.0
 20
0.0
 30
0.0
  3
_D_3
  1
_D_3
  0
LINE
  5
113
330
110
100
AcDbEntity
  8
치수문자_일반주서
 62
     0
370
    -2
100
AcDbLine
 10
56.84942795392845
 20
-6.349999999999993
 30
0.0
 11
72.29448773533738
 21
-6.349999999999934
 31
0.0
  0
LINE
  5
114
330
110
100
AcDbEntity
  8
치수문자_일반주서
 62
     0
370
    -2
100
AcDbLine
 10
56.84942795392812
 20
6.350000000000007
 30
0.0
 11
72.29448773533734
 21
6.350000000000065
 31
0.0
  0
LINE
  5
115
330
110
100
AcDbEntity
  8
치수문자_일반주서
 62
     0
370
    -2
100
AcDbLine
 10
72.29448773533734
 20
6.350000000000065
 30
0.0
 11
72.29448773533723
 21
40.29775000000005
 31
0.0
  0
LINE
  5
116
330
110
100
AcDbEntity
  8
치수문자_일반주서
 62
     0
370
    -2
100
AcDbLine
 10
72.29448773533738
 20
-6.349999999999934
 30
0.0
 11
72.29448773533734
 21
6.350000000000065
 31
0.0
  0
LINE
  5
117
330
110
100
AcDbEntity
  8
치수문자_일반주서
 62
     0
370
    -2
100
AcDbLine
 10
72.2944877353374
 20
-9.651999999999934
 30
0.0
 11
72.29448773533741
 21
-12.95399999999993
 31
0.0
  0
LINE
  5
118
330
110
100
AcDbEntity
  8
치수문자_일반주서
 62
     0
370
    -2
100
AcDbLine
 10
72.29448773533733
 20
9.652000000000065
 30
0.0
 11
72.29448773533731
 21
12.95400000000006
 31
0.0
  0
SOLID
  5
119
330
110
100
AcDbEntity
  8
치수문자_일반주서
 62
     0
100
AcDbTrace
 10
72.84482106867073
 20
-9.651999999999932
 30
0.0
 11
71.74415440200407
 21
-9.651999999999935
 31
0.0
 12
72.29448773533738
 22
-6.349999999999934
 32
0.0
 13
72.29448773533738
 23
-6.349999999999934
 33
0.0
  0
SOLID
  5
11A
330
110
100
AcDbEntity
  8
치수문자_일반주서
 62
     0
100
AcDbTrace
 10
71.744154402004
 20
9.652000000000063
 30
0.0
 11
72.84482106867065
 21
9.652000000000067
 31
0.0
 12
72.29448773533734
 22
6.350000000000065
 32
0.0
 13
72.29448773533734
 23
6.350000000000065
 33
0.0
  0
MTEXT
  5
11B
330
110
100
AcDbEntity
  8
치수문자_일반주서
 62
     0
100
AcDbMText
 10
67.91948773533727
 20
26.95400000000004
 30
0.0
 40
3.5
 41
0.0
 71
     2
 72
     1
  1
\A1;%%c12.70 [1/2]
  7
SLDTEXTSTYLE0
 11
-3.356894814614647E-15
 21
1.0
 31
0.0
 73
     1
 44
1.0
  0
POINT
  5
11C
330
110
100
AcDbEntity
  8
Defpoints
 62
     0
100
AcDbPoint
 10
56.78692795392845
 20
-6.349999999999993
 30
0.0
  0
POINT
  5
2A5
330
110
100
AcDbEntity
  8
Defpoints
 62
     0
100
AcDbPoint
 10
56.78692795392812
 20
6.350000000000007
 30
0.0
  0
POINT
  5
2A6
330
110
100
AcDbEntity
  8
Defpoints
 62
     0
100
AcDbPoint
 10
72.29448773533736
 20
6.350000000000064
 30
0.0
  0
ENDBLK
  5
112
330
110
100
AcDbEntity
  8
0
100
AcDbBlockEnd
  0
BLOCK
  5
12A
330
129
100
AcDbEntity
  8
0
100
AcDbBlockBegin
  2
SW_DOWELSYMBOL_0
 70
     0
 10
0.0
 20
0.0
 30
0.0
  3
SW_DOWELSYMBOL_0
  1
SW_DOWELSYMBOL_0
  0
CIRCLE
  5
12C
330
129
100
AcDbEntity
  8
해칭선
 62
     0
100
AcDbCircle
 10
0.0
 20
0.0
 30
0.0
 40
2.999999999999996
  0
HATCH
  5
12D
330
129
100
AcDbEntity
  8
0
  6
Continuous
 62
     0
370
     0
100
AcDbHatch
 10
0.0
 20
0.0
 30
0.0
210
0.0
220
0.0
230
1.0
  2
SOLID
 70
     1
 71
     0
 91
        1
 92
        0
 93
        3
 72
     2
 10
0.0
 20
0.0
 40
2.999999999999996
 50
0.0
 51
90.0
 73
     1
 72
     1
 10
0.0
 20
2.999999999999996
 11
0.0
 21
0.0
 72
     1
 10
0.0
 20
0.0
 11
2.999999999999996
 21
0.0
 97
        0
 75
     0
 76
     1
 98
        1
 10
0.0
 20
0.0
  0
HATCH
  5
12E
330
129
100
AcDbEntity
  8
0
  6
Continuous
 62
     0
370
     0
100
AcDbHatch
 10
0.0
 20
0.0
 30
0.0
210
0.0
220
0.0
230
1.0
  2
SOLID
 70
     1
 71
     0
 91
        1
 92
        0
 93
        3
 72
     2
 10
0.0
 20
0.0
 40
2.999999999999996
 50
180.0
 51
270.0000000000007
 73
     1
 72
     1
 10
0.0
 20
-2.999999999999996
 11
0.0
 21
0.0
 72
     1
 10
0.0
 20
0.0
 11
-2.999999999999996
 21
0.0
 97
        0
 75
     0
 76
     1
 98
        1
 10
0.0
 20
0.0
  0
ENDBLK
  5
12B
330
129
100
AcDbEntity
  8
0
100
AcDbBlockEnd
  0
BLOCK
  5
1FB
330
1FA
100
AcDbEntity
  8
0
100
AcDbBlockBegin
  2
*D7
 70
     1
 10
0.0
 20
0.0
 30
0.0
  3
*D7
  1
*D8
  0
LINE
  5
1FD
330
1FA
100
AcDbEntity
  8
치수문자_일반주서
 62
     0
370
    -2
100
AcDbLine
 10
17.81250000000005
 20
17.23125
 30
0.0
 11
4.375000000000027
 21
17.23124999999995
 31
0.0
  0
LINE
  5
1FE
330
1FA
100
AcDbEntity
  8
치수문자_일반주서
 62
     0
370
    -2
100
AcDbLine
 10
17.81250000000005
 20
7.706249999999992
 30
0.0
 11
4.37500000000006
 21
7.706249999999942
 31
0.0
  0
LINE
  5
1FF
330
1FA
100
AcDbEntity
  8
치수문자_일반주서
 62
     0
370
    -2
100
AcDbLine
 10
4.375000000000038
 20
13.92924999999995
 30
0.0
 11
4.375000000000048
 21
11.00824999999994
 31
0.0
  0
SOLID
  5
200
330
1FA
100
AcDbEntity
  8
치수문자_일반주서
 62
     0
100
AcDbTrace
 10
4.925333333333372
 20
13.92924999999995
 30
0.0
 11
3.824666666666705
 21
13.92924999999994
 31
0.0
 12
4.375000000000027
 22
17.23124999999995
 32
0.0
 13
4.375000000000027
 23
17.23124999999995
 33
0.0
  0
SOLID
  5
201
330
1FA
100
AcDbEntity
  8
치수문자_일반주서
 62
     0
100
AcDbTrace
 10
3.824666666666715
 20
11.00824999999994
 30
0.0
 11
4.925333333333382
 21
11.00824999999994
 31
0.0
 12
4.37500000000006
 22
7.706249999999942
 32
0.0
 13
4.37500000000006
 23
7.706249999999942
 33
0.0
  0
MTEXT
  5
202
330
1FA
100
AcDbEntity
  8
치수문자_일반주서
 62
     0
100
AcDbMText
 10
0.0000000000000426
 20
12.46874999999999
 30
0.0
 40
3.5
 41
0.0
 71
     2
 72
     1
  1
\A1;%%c9.53 [0.38]
  7
SLDTEXTSTYLE0
 11
-3.450141892798385E-15
 21
1.0
 31
0.0
 73
     1
 44
1.0
  0
POINT
  5
203
330
1FA
100
AcDbEntity
  8
Defpoints
 62
     0
100
AcDbPoint
 10
17.87500000000005
 20
17.23125
 30
0.0
  0
POINT
  5
204
330
1FA
100
AcDbEntity
  8
Defpoints
 62
     0
100
AcDbPoint
 10
17.87500000000005
 20
7.706249999999992
 30
0.0
  0
POINT
  5
205
330
1FA
100
AcDbEntity
  8
Defpoints
 62
     0
100
AcDbPoint
 10
4.375000000000057
 20
7.706249999999941
 30
0.0
  0
ENDBLK
  5
1FC
330
1FA
100
AcDbEntity
  8
0
100
AcDbBlockEnd
  0
BLOCK
  5
207
330
206
100
AcDbEntity
  8
0
100
AcDbBlockBegin
  2
*D8
 70
     1
 10
0.0
 20
0.0
 30
0.0
  3
*D8
  1
*D9
  0
LINE
  5
209
330
206
100
AcDbEntity
  8
치수문자_일반주서
 62
     0
370
    -2
100
AcDbLine
 10
101.0125000000001
 20
17.29375
 30
0.0
 11
101.0125000000001
 21
30.83069722681458
 31
0.0
  0
LINE
  5
20A
330
206
100
AcDbEntity
  8
치수문자_일반주서
 62
     0
370
    -2
100
AcDbLine
 10
81.96250000000006
 20
16.68496010555238
 30
0.0
 11
81.96250000000006
 21
30.83069722681458
 31
0.0
  0
LINE
  5
20B
330
206
100
AcDbEntity
  8
치수문자_일반주서
 62
     0
370
    -2
100
AcDbLine
 10
81.96250000000006
 20
30.83069722681458
 30
0.0
 11
50.42100000000006
 21
30.83069722681458
 31
0.0
  0
LINE
  5
20C
330
206
100
AcDbEntity
  8
치수문자_일반주서
 62
     0
370
    -2
100
AcDbLine
 10
101.0125000000001
 20
30.83069722681458
 30
0.0
 11
81.96250000000006
 21
30.83069722681458
 31
0.0
  0
LINE
  5
20D
330
206
100
AcDbEntity
  8
치수문자_일반주서
 62
     0
370
    -2
100
AcDbLine
 10
104.3145000000001
 20
30.83069722681458
 30
0.0
 11
107.6165000000001
 21
30.83069722681458
 31
0.0
  0
LINE
  5
20E
330
206
100
AcDbEntity
  8
치수문자_일반주서
 62
     0
370
    -2
100
AcDbLine
 10
78.66050000000007
 20
30.83069722681458
 30
0.0
 11
75.35850000000008
 21
30.83069722681458
 31
0.0
  0
SOLID
  5
20F
330
206
100
AcDbEntity
  8
치수문자_일반주서
 62
     0
100
AcDbTrace
 10
104.3145000000001
 20
31.38103056014792
 30
0.0
 11
104.3145000000001
 21
30.28036389348125
 31
0.0
 12
101.0125000000001
 22
30.83069722681458
 32
0.0
 13
101.0125000000001
 23
30.83069722681458
 33
0.0
  0
SOLID
  5
210
330
206
100
AcDbEntity
  8
치수문자_일반주서
 62
     0
100
AcDbTrace
 10
78.66050000000007
 20
30.28036389348125
 30
0.0
 11
78.66050000000007
 21
31.38103056014792
 31
0.0
 12
81.96250000000006
 22
30.83069722681458
 32
0.0
 13
81.96250000000006
 23
30.83069722681458
 33
0.0
  0
MTEXT
  5
211
330
206
100
AcDbEntity
  8
치수문자_일반주서
 62
     0
100
AcDbMText
 10
62.88975000000006
 20
35.20569722681458
 30
0.0
 40
3.5
 41
0.0
 71
     2
 72
     1
  1
\A1;19.05 [3/4]
  7
SLDTEXTSTYLE0
 73
     1
 44
1.0
  0
POINT
  5
212
330
206
100
AcDbEntity
  8
Defpoints
 62
     0
100
AcDbPoint
 10
101.0125000000001
 20
17.23125
 30
0.0
  0
POINT
  5
213
330
206
100
AcDbEntity
  8
Defpoints
 62
     0
100
AcDbPoint
 10
81.96250000000006
 20
16.62246010555238
 30
0.0
  0
POINT
  5
214
330
206
100
AcDbEntity
  8
Defpoints
 62
     0
100
AcDbPoint
 10
81.96250000000006
 20
30.83069722681458
 30
0.0
  0
ENDBLK
  5
208
330
206
100
AcDbEntity
  8
0
100
AcDbBlockEnd
  0
BLOCK
  5
216
330
215
100
AcDbEntity
  8
0
100
AcDbBlockBegin
  2
*D9
 70
     1
 10
0.0
 20
0.0
 30
0.0
  3
*D9
  1
*D10
  0
LINE
  5
218
330
215
100
AcDbEntity
  8
치수문자_일반주서
 62
     0
370
    -2
100
AcDbLine
 10
101.0125000000001
 20
17.29375
 30
0.0
 11
101.0125000000001
 21
47.51361045510103
 31
0.0
  0
LINE
  5
219
330
215
100
AcDbEntity
  8
치수문자_일반주서
 62
     0
370
    -2
100
AcDbLine
 10
16.87500000000005
 20
16.29374999999999
 30
0.0
 11
16.87500000000005
 21
47.51361045510103
 31
0.0
  0
LINE
  5
21A
330
215
100
AcDbEntity
  8
치수문자_일반주서
 62
     0
370
    -2
100
AcDbLine
 10
97.71050000000008
 20
47.51361045510103
 30
0.0
 11
20.17700000000005
 21
47.51361045510103
 31
0.0
  0
SOLID
  5
21B
330
215
100
AcDbEntity
  8
치수문자_일반주서
 62
     0
100
AcDbTrace
 10
97.71050000000008
 20
46.9632771217677
 30
0.0
 11
97.71050000000008
 21
48.06394378843436
 31
0.0
 12
101.0125000000001
 22
47.51361045510103
 32
0.0
 13
101.0125000000001
 23
47.51361045510103
 33
0.0
  0
SOLID
  5
21C
330
215
100
AcDbEntity
  8
치수문자_일반주서
 62
     0
100
AcDbTrace
 10
20.17700000000005
 20
48.06394378843436
 30
0.0
 11
20.17700000000005
 21
46.9632771217677
 31
0.0
 12
16.87500000000005
 22
47.51361045510103
 32
0.0
 13
16.87500000000005
 23
47.51361045510103
 33
0.0
  0
MTEXT
  5
21D
330
215
100
AcDbEntity
  8
치수문자_일반주서
 62
     0
100
AcDbMText
 10
58.94375000000006
 20
51.88861045510103
 30
0.0
 40
3.5
 41
0.0
 71
     2
 72
     1
  1
\A1;84.14 [3 5/16]
  7
SLDTEXTSTYLE0
 73
     1
 44
1.0
  0
POINT
  5
21E
330
215
100
AcDbEntity
  8
Defpoints
 62
     0
100
AcDbPoint
 10
101.0125000000001
 20
17.23125
 30
0.0
  0
POINT
  5
21F
330
215
100
AcDbEntity
  8
Defpoints
 62
     0
100
AcDbPoint
 10
16.87500000000005
 20
16.23124999999999
 30
0.0
  0
POINT
  5
220
330
215
100
AcDbEntity
  8
Defpoints
 62
     0
100
AcDbPoint
 10
16.87500000000005
 20
47.51361045510103
 30
0.0
  0
ENDBLK
  5
217
330
215
100
AcDbEntity
  8
0
100
AcDbBlockEnd
  0
BLOCK
  5
222
330
221
100
AcDbEntity
  8
0
100
AcDbBlockBegin
  2
*D10
 70
     1
 10
0.0
 20
0.0
 30
0.0
  3
*D10
  1
*D11
  0
LINE
  5
224
330
221
100
AcDbEntity
  8
치수문자_일반주서
 62
     0
370
    -2
100
AcDbLine
 10
101.0750000000001
 20
7.706250000000001
 30
0.0
 11
119.8088163325235
 21
7.706250000000072
 31
0.0
  0
LINE
  5
225
330
221
100
AcDbEntity
  8
치수문자_일반주서
 62
     0
370
    -2
100
AcDbLine
 10
101.0750000000001
 20
17.23125
 30
0.0
 11
119.8088163325235
 21
17.23125000000007
 31
0.0
  0
LINE
  5
226
330
221
100
AcDbEntity
  8
치수문자_일반주서
 62
     0
370
    -2
100
AcDbLine
 10
119.8088163325235
 20
17.23125000000007
 30
0.0
 11
119.8088163325234
 21
50.23866366003632
 31
0.0
  0
LINE
  5
227
330
221
100
AcDbEntity
  8
치수문자_일반주서
 62
     0
370
    -2
100
AcDbLine
 10
119.8088163325235
 20
7.706250000000072
 30
0.0
 11
119.8088163325235
 21
17.23125000000007
 31
0.0
  0
LINE
  5
228
330
221
100
AcDbEntity
  8
치수문자_일반주서
 62
     0
370
    -2
100
AcDbLine
 10
119.8088163325236
 20
4.404250000000072
 30
0.0
 11
119.8088163325236
 21
1.102250000000073
 31
0.0
  0
LINE
  5
229
330
221
100
AcDbEntity
  8
치수문자_일반주서
 62
     0
370
    -2
100
AcDbLine
 10
119.8088163325235
 20
20.53325000000007
 30
0.0
 11
119.8088163325235
 21
23.83525000000007
 31
0.0
  0
SOLID
  5
22A
330
221
100
AcDbEntity
  8
치수문자_일반주서
 62
     0
100
AcDbTrace
 10
120.3591496658569
 20
4.404250000000074
 30
0.0
 11
119.2584829991902
 21
4.40425000000007
 31
0.0
 12
119.8088163325235
 22
7.706250000000072
 32
0.0
 13
119.8088163325235
 23
7.706250000000072
 33
0.0
  0
SOLID
  5
22B
330
221
100
AcDbEntity
  8
치수문자_일반주서
 62
     0
100
AcDbTrace
 10
119.2584829991902
 20
20.53325000000007
 30
0.0
 11
120.3591496658568
 21
20.53325000000007
 31
0.0
 12
119.8088163325235
 22
17.23125000000007
 32
0.0
 13
119.8088163325235
 23
17.23125000000007
 33
0.0
  0
MTEXT
  5
22C
330
221
100
AcDbEntity
  8
치수문자_일반주서
 62
     0
100
AcDbMText
 10
115.4338163325235
 20
37.11366366003631
 30
0.0
 40
3.5
 41
0.0
 71
     2
 72
     1
  1
\A1;%%c9.53 [3/8]
  7
SLDTEXTSTYLE0
 11
-2.983906501879685E-15
 21
1.0
 31
0.0
 73
     1
 44
1.0
  0
POINT
  5
22D
330
221
100
AcDbEntity
  8
Defpoints
 62
     0
100
AcDbPoint
 10
101.0125000000001
 20
7.706250000000001
 30
0.0
  0
POINT
  5
22E
330
221
100
AcDbEntity
  8
Defpoints
 62
     0
100
AcDbPoint
 10
101.0125000000001
 20
17.23125
 30
0.0
  0
POINT
  5
22F
330
221
100
AcDbEntity
  8
Defpoints
 62
     0
100
AcDbPoint
 10
119.8088163325235
 20
17.23125000000007
 30
0.0
  0
ENDBLK
  5
223
330
221
100
AcDbEntity
  8
0
100
AcDbBlockEnd
  0
BLOCK
  5
26E
330
26D
100
AcDbEntity
  8
0
100
AcDbBlockBegin
  2
*D11
 70
     1
 10
0.0
 20
0.0
 30
0.0
  3
*D11
  1
*D12
  0
LINE
  5
270
330
26D
100
AcDbEntity
  8
치수문자_일반주서
 62
     0
370
    -2
100
AcDbLine
 10
105.3495598501007
 20
-32.57568368357511
 30
0.0
 11
91.91205985010068
 21
-32.57568368357516
 31
0.0
  0
LINE
  5
271
330
26D
100
AcDbEntity
  8
치수문자_일반주서
 62
     0
370
    -2
100
AcDbLine
 10
105.3495598501007
 20
-42.10068368357511
 30
0.0
 11
91.9120598501007
 21
-42.10068368357516
 31
0.0
  0
LINE
  5
272
330
26D
100
AcDbEntity
  8
치수문자_일반주서
 62
     0
370
    -2
100
AcDbLine
 10
91.91205985010069
 20
-35.87768368357516
 30
0.0
 11
91.91205985010069
 21
-38.79868368357516
 31
0.0
  0
SOLID
  5
273
330
26D
100
AcDbEntity
  8
치수문자_일반주서
 62
     0
100
AcDbTrace
 10
92.46239318343402
 20
-35.87768368357516
 30
0.0
 11
91.36172651676736
 21
-35.87768368357516
 31
0.0
 12
91.91205985010068
 22
-32.57568368357516
 32
0.0
 13
91.91205985010068
 23
-32.57568368357516
 33
0.0
  0
SOLID
  5
274
330
26D
100
AcDbEntity
  8
치수문자_일반주서
 62
     0
100
AcDbTrace
 10
91.36172651676736
 20
-38.79868368357516
 30
0.0
 11
92.46239318343402
 21
-38.79868368357516
 31
0.0
 12
91.9120598501007
 22
-42.10068368357516
 32
0.0
 13
91.9120598501007
 23
-42.10068368357516
 33
0.0
  0
MTEXT
  5
275
330
26D
100
AcDbEntity
  8
치수문자_일반주서
 62
     0
100
AcDbMText
 10
87.53705985010069
 20
-37.33818368357511
 30
0.0
 40
3.5
 41
0.0
 71
     2
 72
     1
  1
\A1;%%c9.53 [0.38]
  7
SLDTEXTSTYLE0
 11
-2.983906501879684E-15
 21
1.0
 31
0.0
 73
     1
 44
1.0
  0
POINT
  5
276
330
26D
100
AcDbEntity
  8
Defpoints
 62
     0
100
AcDbPoint
 10
105.4120598501007
 20
-32.57568368357511
 30
0.0
  0
POINT
  5
277
330
26D
100
AcDbEntity
  8
Defpoints
 62
     0
100
AcDbPoint
 10
105.4120598501007
 20
-42.10068368357511
 30
0.0
  0
POINT
  5
278
330
26D
100
AcDbEntity
  8
Defpoints
 62
     0
100
AcDbPoint
 10
91.9120598501007
 20
-42.10068368357516
 30
0.0
  0
ENDBLK
  5
26F
330
26D
100
AcDbEntity
  8
0
100
AcDbBlockEnd
  0
BLOCK
  5
27A
330
279
100
AcDbEntity
  8
0
100
AcDbBlockBegin
  2
*D12
 70
     1
 10
0.0
 20
0.0
 30
0.0
  3
*D12
  1
*D13
  0
LINE
  5
27C
330
279
100
AcDbEntity
  8
치수문자_일반주서
 62
     0
370
    -2
100
AcDbLine
 10
188.5495598501007
 20
-32.5131836835751
 30
0.0
 11
188.5495598501007
 21
-18.97623645676052
 31
0.0
  0
LINE
  5
27D
330
279
100
AcDbEntity
  8
치수문자_일반주서
 62
     0
370
    -2
100
AcDbLine
 10
169.4995598501007
 20
-33.12197357802272
 30
0.0
 11
169.4995598501007
 21
-18.97623645676052
 31
0.0
  0
LINE
  5
27E
330
279
100
AcDbEntity
  8
치수문자_일반주서
 62
     0
370
    -2
100
AcDbLine
 10
169.4995598501007
 20
-18.97623645676052
 30
0.0
 11
137.9580598501007
 21
-18.97623645676052
 31
0.0
  0
LINE
  5
27F
330
279
100
AcDbEntity
  8
치수문자_일반주서
 62
     0
370
    -2
100
AcDbLine
 10
188.5495598501007
 20
-18.97623645676052
 30
0.0
 11
169.4995598501007
 21
-18.97623645676052
 31
0.0
  0
LINE
  5
280
330
279
100
AcDbEntity
  8
치수문자_일반주서
 62
     0
370
    -2
100
AcDbLine
 10
191.8515598501007
 20
-18.97623645676052
 30
0.0
 11
195.1535598501007
 21
-18.97623645676052
 31
0.0
  0
LINE
  5
281
330
279
100
AcDbEntity
  8
치수문자_일반주서
 62
     0
370
    -2
100
AcDbLine
 10
166.1975598501007
 20
-18.97623645676052
 30
0.0
 11
162.8955598501007
 21
-18.97623645676052
 31
0.0
  0
SOLID
  5
282
330
279
100
AcDbEntity
  8
치수문자_일반주서
 62
     0
100
AcDbTrace
 10
191.8515598501007
 20
-18.42590312342719
 30
0.0
 11
191.8515598501007
 21
-19.52656979009386
 31
0.0
 12
188.5495598501007
 22
-18.97623645676052
 32
0.0
 13
188.5495598501007
 23
-18.97623645676052
 33
0.0
  0
SOLID
  5
283
330
279
100
AcDbEntity
  8
치수문자_일반주서
 62
     0
100
AcDbTrace
 10
166.1975598501007
 20
-19.52656979009386
 30
0.0
 11
166.1975598501007
 21
-18.42590312342719
 31
0.0
 12
169.4995598501007
 22
-18.97623645676052
 32
0.0
 13
169.4995598501007
 23
-18.97623645676052
 33
0.0
  0
MTEXT
  5
284
330
279
100
AcDbEntity
  8
치수문자_일반주서
 62
     0
100
AcDbMText
 10
150.4268098501007
 20
-14.60123645676052
 30
0.0
 40
3.5
 41
0.0
 71
     2
 72
     1
  1
\A1;19.05 [3/4]
  7
SLDTEXTSTYLE0
 73
     1
 44
1.0
  0
POINT
  5
285
330
279
100
AcDbEntity
  8
Defpoints
 62
     0
100
AcDbPoint
 10
188.5495598501007
 20
-32.5756836835751
 30
0.0
  0
POINT
  5
286
330
279
100
AcDbEntity
  8
Defpoints
 62
     0
100
AcDbPoint
 10
169.4995598501007
 20
-33.18447357802272
 30
0.0
  0
POINT
  5
287
330
279
100
AcDbEntity
  8
Defpoints
 62
     0
100
AcDbPoint
 10
169.4995598501007
 20
-18.97623645676052
 30
0.0
  0
ENDBLK
  5
27B
330
279
100
AcDbEntity
  8
0
100
AcDbBlockEnd
  0
BLOCK
  5
289
330
288
100
AcDbEntity
  8
0
100
AcDbBlockBegin
  2
*D13
 70
     1
 10
0.0
 20
0.0
 30
0.0
  3
*D13
  1
*D14
  0
LINE
  5
28B
330
288
100
AcDbEntity
  8
치수문자_일반주서
 62
     0
370
    -2
100
AcDbLine
 10
188.5495598501007
 20
-32.51318368357511
 30
0.0
 11
188.5495598501007
 21
-2.293323228474073
 31
0.0
  0
LINE
  5
28C
330
288
100
AcDbEntity
  8
치수문자_일반주서
 62
     0
370
    -2
100
AcDbLine
 10
104.4120598501007
 20
-33.51318368357512
 30
0.0
 11
104.4120598501007
 21
-2.293323228474073
 31
0.0
  0
LINE
  5
28D
330
288
100
AcDbEntity
  8
치수문자_일반주서
 62
     0
370
    -2
100
AcDbLine
 10
185.2475598501007
 20
-2.293323228474073
 30
0.0
 11
107.7140598501007
 21
-2.293323228474073
 31
0.0
  0
SOLID
  5
28E
330
288
100
AcDbEntity
  8
치수문자_일반주서
 62
     0
100
AcDbTrace
 10
185.2475598501007
 20
-2.843656561807406
 30
0.0
 11
185.2475598501007
 21
-1.742989895140739
 31
0.0
 12
188.5495598501007
 22
-2.293323228474073
 32
0.0
 13
188.5495598501007
 23
-2.293323228474073
 33
0.0
  0
SOLID
  5
28F
330
288
100
AcDbEntity
  8
치수문자_일반주서
 62
     0
100
AcDbTrace
 10
107.7140598501007
 20
-1.742989895140739
 30
0.0
 11
107.7140598501007
 21
-2.843656561807406
 31
0.0
 12
104.4120598501007
 22
-2.293323228474073
 32
0.0
 13
104.4120598501007
 23
-2.293323228474073
 33
0.0
  0
MTEXT
  5
290
330
288
100
AcDbEntity
  8
치수문자_일반주서
 62
     0
100
AcDbMText
 10
146.4808098501007
 20
2.081676771525927
 30
0.0
 40
3.5
 41
0.0
 71
     2
 72
     1
  1
\A1;84.14 [3 5/16]
  7
SLDTEXTSTYLE0
 73
     1
 44
1.0
  0
POINT
  5
291
330
288
100
AcDbEntity
  8
Defpoints
 62
     0
100
AcDbPoint
 10
188.5495598501007
 20
-32.57568368357511
 30
0.0
  0
POINT
  5
292
330
288
100
AcDbEntity
  8
Defpoints
 62
     0
100
AcDbPoint
 10
104.4120598501007
 20
-33.57568368357512
 30
0.0
  0
POINT
  5
293
330
288
100
AcDbEntity
  8
Defpoints
 62
     0
100
AcDbPoint
 10
104.4120598501007
 20
-2.293323228474073
 30
0.0
  0
ENDBLK
  5
28A
330
288
100
AcDbEntity
  8
0
100
AcDbBlockEnd
  0
BLOCK
  5
295
330
294
100
AcDbEntity
  8
0
100
AcDbBlockBegin
  2
*D14
 70
     1
 10
0.0
 20
0.0
 30
0.0
  3
*D14
  1
*D15
  0
LINE
  5
297
330
294
100
AcDbEntity
  8
치수문자_일반주서
 62
     0
370
    -2
100
AcDbLine
 10
188.6120598501007
 20
-42.1006836835751
 30
0.0
 11
207.3458761826242
 21
-42.10068368357503
 31
0.0
  0
LINE
  5
298
330
294
100
AcDbEntity
  8
치수문자_일반주서
 62
     0
370
    -2
100
AcDbLine
 10
188.6120598501007
 20
-32.5756836835751
 30
0.0
 11
207.3458761826242
 21
-32.57568368357503
 31
0.0
  0
LINE
  5
299
330
294
100
AcDbEntity
  8
치수문자_일반주서
 62
     0
370
    -2
100
AcDbLine
 10
207.3458761826242
 20
-32.57568368357503
 30
0.0
 11
207.3458761826241
 21
0.4317299764612201
 31
0.0
  0
LINE
  5
29A
330
294
100
AcDbEntity
  8
치수문자_일반주서
 62
     0
370
    -2
100
AcDbLine
 10
207.3458761826242
 20
-42.10068368357503
 30
0.0
 11
207.3458761826242
 21
-32.57568368357503
 31
0.0
  0
LINE
  5
29B
330
294
100
AcDbEntity
  8
치수문자_일반주서
 62
     0
370
    -2
100
AcDbLine
 10
207.3458761826242
 20
-45.40268368357503
 30
0.0
 11
207.3458761826242
 21
-48.70468368357503
 31
0.0
  0
LINE
  5
29C
330
294
100
AcDbEntity
  8
치수문자_일반주서
 62
     0
370
    -2
100
AcDbLine
 10
207.3458761826242
 20
-29.27368368357503
 30
0.0
 11
207.3458761826242
 21
-25.97168368357503
 31
0.0
  0
SOLID
  5
29D
330
294
100
AcDbEntity
  8
치수문자_일반주서
 62
     0
100
AcDbTrace
 10
207.8962095159575
 20
-45.40268368357503
 30
0.0
 11
206.7955428492909
 21
-45.40268368357503
 31
0.0
 12
207.3458761826242
 22
-42.10068368357503
 32
0.0
 13
207.3458761826242
 23
-42.10068368357503
 33
0.0
  0
SOLID
  5
29E
330
294
100
AcDbEntity
  8
치수문자_일반주서
 62
     0
100
AcDbTrace
 10
206.7955428492909
 20
-29.27368368357503
 30
0.0
 11
207.8962095159575
 21
-29.27368368357503
 31
0.0
 12
207.3458761826242
 22
-32.57568368357503
 32
0.0
 13
207.3458761826242
 23
-32.57568368357503
 33
0.0
  0
MTEXT
  5
29F
330
294
100
AcDbEntity
  8
치수문자_일반주서
 62
     0
100
AcDbMText
 10
202.9708761826241
 20
-12.69327002353879
 30
0.0
 40
3.5
 41
0.0
 71
     2
 72
     1
  1
\A1;%%c9.53 [3/8]
  7
SLDTEXTSTYLE0
 11
-2.983906501879686E-15
 21
1.0
 31
0.0
 73
     1
 44
1.0
  0
POINT
  5
2A0
330
294
100
AcDbEntity
  8
Defpoints
 62
     0
100
AcDbPoint
 10
188.5495598501007
 20
-42.1006836835751
 30
0.0
  0
POINT
  5
2A1
330
294
100
AcDbEntity
  8
Defpoints
 62
     0
100
AcDbPoint
 10
188.5495598501007
 20
-32.5756836835751
 30
0.0
  0
POINT
  5
2A2
330
294
100
AcDbEntity
  8
Defpoints
 62
     0
100
AcDbPoint
 10
207.3458761826242
 20
-32.57568368357503
 30
0.0
  0
ENDBLK
  5
296
330
294
100
AcDbEntity
  8
0
100
AcDbBlockEnd
  0
BLOCK
  5
3DF
330
3DE
100
AcDbEntity
  8
0
100
AcDbBlockBegin
  2
*D15
 70
     1
 10
0.0
 20
0.0
 30
0.0
  3
*D15
  1
*D15
  0
LINE
  5
3E1
330
3DE
100
AcDbEntity
  8
치수문자_일반주서
 62
     0
370
    -2
100
AcDbLine
 10
0.430677953928452
 20
6.285499999999999
 30
0.0
 11
0.430677953928452
 21
25.29918053933121
 31
0.0
  0
LINE
  5
3E2
330
3DE
100
AcDbEntity
  8
치수문자_일반주서
 62
     0
370
    -2
100
AcDbLine
 10
56.78692795392812
 20
6.412500000000007
 30
0.0
 11
56.78692795392812
 21
25.29918053933121
 31
0.0
  0
LINE
  5
3E3
330
3DE
100
AcDbEntity
  8
치수문자_일반주서
 62
     0
370
    -2
100
AcDbLine
 10
3.732677953928452
 20
25.29918053933121
 30
0.0
 11
53.48492795392812
 21
25.29918053933121
 31
0.0
  0
SOLID
  5
3E4
330
3DE
100
AcDbEntity
  8
치수문자_일반주서
 62
     0
100
AcDbTrace
 10
3.732677953928452
 20
25.84951387266455
 30
0.0
 11
3.732677953928452
 21
24.74884720599788
 31
0.0
 12
0.430677953928452
 22
25.29918053933121
 32
0.0
 13
0.430677953928452
 23
25.29918053933121
 33
0.0
  0
SOLID
  5
3E5
330
3DE
100
AcDbEntity
  8
치수문자_일반주서
 62
     0
100
AcDbTrace
 10
53.48492795392812
 20
24.74884720599788
 30
0.0
 11
53.48492795392812
 21
25.84951387266455
 31
0.0
 12
56.78692795392812
 22
25.29918053933121
 32
0.0
 13
56.78692795392812
 23
25.29918053933121
 33
0.0
  0
MTEXT
  5
3E6
330
3DE
100
AcDbEntity
  8
치수문자_일반주서
 62
     0
100
AcDbMText
 10
28.60880295392829
 20
27.92418053933121
 30
0.0
 40
3.5
 41
0.0
 71
     5
 72
     1
  1
\A1;56.36 [2 7/32]
  7
SLDTEXTSTYLE0
 73
     1
 44
1.0
  0
POINT
  5
3E7
330
3DE
100
AcDbEntity
  8
Defpoints
 62
     0
100
AcDbPoint
 10
0.430677953928452
 20
6.222999999999999
 30
0.0
  0
POINT
  5
3E8
330
3DE
100
AcDbEntity
  8
Defpoints
 62
     0
100
AcDbPoint
 10
56.78692795392812
 20
6.350000000000007
 30
0.0
  0
POINT
  5
3E9
330
3DE
100
AcDbEntity
  8
Defpoints
 62
     0
100
AcDbPoint
 10
56.78692795392812
 20
25.29918053933121
 30
0.0
  0
ENDBLK
  5
3E0
330
3DE
100
AcDbEntity
  8
0
100
AcDbBlockEnd
  0
ENDSEC
  0
SECTION
  2
ENTITIES
  0
LINE
  5
96
330
1F
100
AcDbEntity
  8
외형선
  6
Continuous
370
    15
100
AcDbLine
 10
0.0000000000000036
 20
6.349999999999998
 30
0.0
 11
-15.07919704607153
 21
6.349999999999997
 31
0.0
  0
LINE
  5
97
330
1F
100
AcDbEntity
  8
외형선
  6
Continuous
370
    15
100
AcDbLine
 10
-43.81307204607154
 20
-6.350000000000004
 30
0.0
 11
0.0
 21
-6.350000000000001
 31
0.0
  0
LINE
  5
98
330
1F
100
AcDbEntity
  8
외형선
  6
Continuous
370
    15
100
AcDbLine
 10
-43.81307204607154
 20
6.349999999999991
 30
0.0
 11
-44.81307204607155
 21
5.349999999999988
 31
0.0
  0
LINE
  5
99
330
1F
100
AcDbEntity
  8
외형선
  6
Continuous
370
    15
100
AcDbLine
 10
-44.81307204607155
 20
-5.349999999999999
 30
0.0
 11
-43.81307204607154
 21
-6.35
 31
0.0
  0
SPLINE
  5
9B
330
1F
100
AcDbEntity
  8
0
  6
Continuous
 62
     1
370
    15
100
AcDbSpline
210
0.0
220
0.0
230
1.0
 70
     8
 71
     3
 72
     9
 73
     5
 74
     0
 42
0.000000001
 43
0.00000001
 40
0.0
 40
0.0
 40
0.0
 40
0.0
 40
0.4624067518754975
 40
1.0
 40
1.0
 40
1.0
 40
1.0
 10
40.3363126742022
 20
1.627139974534551
 30
0.0
 10
40.06489231006427
 20
1.756243348085253
 30
0.0
 10
39.47791912457971
 20
2.035442068750699
 30
0.0
 10
38.88973697604309
 20
2.342954197064534
 30
0.0
 10
38.57353422432244
 20
2.508270640962447
 30
0.0
  0
SPLINE
  5
9C
330
1F
100
AcDbEntity
  8
0
  6
Continuous
 62
     1
370
    15
100
AcDbSpline
210
0.0
220
0.0
230
1.0
 70
     8
 71
     3
 72
    17
 73
    13
 74
     0
 42
0.000000001
 43
0.00000001
 40
0.0
 40
0.0
 40
0.0
 40
0.0
 40
0.135153319239661
 40
0.2378902934843659
 40
0.3207371538375429
 40
0.4201859832543127
 40
0.5327901750280644
 40
0.6415103177790896
 40
0.7553711232471279
 40
0.8575339111616017
 40
0.9532326084578624
 40
1.0
 40
1.0
 40
1.0
 40
1.0
 10
38.23706325916451
 20
5.045968226809062
 30
0.0
 10
38.00495549919387
 20
5.034260934976472
 30
0.0
 10
37.59641071871753
 20
5.013654329784461
 30
0.0
 10
37.0389741914915
 20
4.992909140768776
 30
0.0
 10
36.53704502914226
 20
4.978100166497579
 30
0.0
 10
36.0229279566266
 20
4.966867066292367
 30
0.0
 10
35.46444861457409
 20
4.959844728396033
 30
0.0
 10
34.8735467487318
 20
4.958134301221163
 30
0.0
 10
34.29510949304294
 20
4.960244757194882
 30
0.0
 10
33.76380722495558
 20
4.970725303212392
 30
0.0
 10
33.36455047725894
 20
4.980989695485357
 30
0.0
 10
33.11720197680044
 20
4.988845002628143
 30
0.0
 10
33.03600480024691
 20
4.991423666981365
 30
0.0
  0
SPLINE
  5
9D
330
1F
100
AcDbEntity
  8
0
  6
Continuous
 62
     1
370
    15
100
AcDbSpline
210
0.0
220
0.0
230
1.0
 70
     8
 71
     3
 72
    27
 73
    23
 74
     0
 42
0.000000001
 43
0.00000001
 40
0.0
 40
0.0
 40
0.0
 40
0.0
 40
0.065999734342806
 40
0.116117048760352
 40
0.1500523286064573
 40
0.1807481138237818
 40
0.2193970890366741
 40
0.2651396178371605
 40
0.3077710785239993
 40
0.3717590367917633
 40
0.4256186306697179
 40
0.4792298134030911
 40
0.5328164663797741
 40
0.5928399811770717
 40
0.6565789753944957
 40
0.7104282167338999
 40
0.7403665617279594
 40
0.7679588512287231
 40
0.7958349153744624
 40
0.8419148469070205
 40
0.9100102111253479
 40
1.0
 40
1.0
 40
1.0
 40
1.0
 10
54.42750630739575
 20
4.343096787366905
 30
0.0
 10
54.18440058324506
 20
4.323251398855437
 30
0.0
 10
53.75669099462002
 20
4.288336289447797
 30
0.0
 10
53.20361716724988
 20
4.253584303106201
 30
0.0
 10
52.77755479138177
 20
4.230874306871725
 30
0.0
 10
52.3925636710656
 20
4.213568785795363
 30
0.0
 10
51.96621356089012
 20
4.198093389537314
 30
0.0
 10
51.49644776947705
 20
4.186205207091267
 30
0.0
 10
50.93315334338652
 20
4.178333941179481
 30
0.0
 10
50.33978583439975
 20
4.178133987162497
 30
0.0
 10
49.70606637818406
 20
4.187573436065129
 30
0.0
 10
49.11019705837533
 20
4.204664306534414
 30
0.0
 10
48.49213227132502
 20
4.230751424245397
 30
0.0
 10
47.83344409926967
 20
4.268003357312871
 30
0.0
 10
47.17084526194605
 20
4.315937064006331
 30
0.0
 10
46.62546166759888
 20
4.363181217417326
 30
0.0
 10
46.22002035974114
 20
4.402346159874464
 30
0.0
 10
45.90802332397099
 20
4.434525187168846
 30
0.0
 10
45.53650928754703
 20
4.475199149582061
 30
0.0
 10
45.01187497849376
 20
4.537533105494373
 30
0.0
 10
44.25577940338152
 20
4.635843620769865
 30
0.0
 10
43.66813018627414
 20
4.72519192792402
 30
0.0
 10
43.33361155536421
 20
4.776053347480483
 30
0.0
  0
SPLINE
  5
9E
330
1F
100
AcDbEntity
  8
0
  6
Continuous
 62
     1
370
    15
100
AcDbSpline
210
0.0
220
0.0
230
1.0
 70
     8
 71
     3
 72
    17
 73
    13
 74
     0
 42
0.000000001
 43
0.00000001
 40
0.0
 40
0.0
 40
0.0
 40
0.0
 40
0.1486350617452892
 40
0.2642807020113678
 40
0.3464733644524942
 40
0.4218904174520177
 40
0.5146141636197598
 40
0.6224319881867095
 40
0.721025045831278
 40
0.8638317373067931
 40
0.9869409115845291
 40
0.9999999999999999
 40
0.9999999999999999
 40
0.9999999999999999
 40
0.9999999999999999
 10
43.33361155536421
 20
-4.776053347480484
 30
0.0
 10
43.56615242226641
 20
-4.740312633150259
 30
0.0
 10
43.97962191479142
 20
-4.67676382466141
 30
0.0
 10
44.52270792322321
 20
-4.601652244422609
 30
0.0
 10
44.95505852897595
 20
-4.54548303622569
 30
0.0
 10
45.35268845600332
 20
-4.496717226378221
 30
0.0
 10
45.78825553051202
 20
-4.446927280182579
 30
0.0
 10
46.25923627960937
 20
-4.397982897545108
 30
0.0
 10
46.80860784523075
 20
-4.346424983548501
 30
0.0
 10
47.38274829355564
 20
-4.300442721157612
 30
0.0
 10
47.81937162012637
 20
-4.269061530542454
 30
0.0
 10
48.03325565630676
 20
-4.257635723278985
 30
0.0
 10
48.05376800245771
 20
-4.256539942042441
 30
0.0
  0
SPLINE
  5
9F
330
1F
100
AcDbEntity
  8
0
  6
Continuous
 62
     1
370
    15
100
AcDbSpline
210
0.0
220
0.0
230
1.0
 70
     8
 71
     3
 72
    19
 73
    15
 74
     0
 42
0.000000001
 43
0.00000001
 40
0.0
 40
0.0
 40
0.0
 40
0.0
 40
0.1254606069647362
 40
0.212543922348955
 40
0.2681223698361769
 40
0.3220887822108799
 40
0.411655473598101
 40
0.5125480729579558
 40
0.595159126316763
 40
0.6807214762149748
 40
0.7562877176265004
 40
0.8192389447686428
 40
0.8973036846272708
 40
1.0
 40
1.0
 40
1.0
 40
1.0
 10
31.3869279539284
 20
-5.067530071916599
 30
0.0
 10
31.67419015581471
 20
-5.051525836829411
 30
0.0
 10
32.16084358918026
 20
-5.024412920816007
 30
0.0
 10
32.77390115724733
 20
-4.999866109463609
 30
0.0
 10
33.22539723821191
 20
-4.985053092879854
 30
0.0
 10
33.6652173179857
 20
-4.973330311549869
 30
0.0
 10
34.19622088287957
 20
-4.960986993030191
 30
0.0
 10
34.84093640005126
 20
-4.957979367096337
 30
0.0
 10
35.46425875442279
 20
-4.959859675515185
 30
0.0
 10
36.02297319061763
 20
-4.966863505156188
 30
0.0
 10
36.53703575682513
 20
-4.978100896479245
 30
0.0
 10
37.03897707274036
 20
-4.992908913936711
 30
0.0
 10
37.59640964373233
 20
-5.013654414414815
 30
0.0
 10
38.00495510972784
 20
-5.034260965637963
 30
0.0
 10
38.23706325916451
 20
-5.045968226809062
 30
0.0
  0
LINE
  5
A1
330
1F
100
AcDbEntity
  8
외형선
  6
Continuous
370
    15
100
AcDbLine
 10
31.38692795392844
 20
6.222999999999999
 30
0.0
 11
31.38692795392844
 21
4.464653049026652
 31
0.0
  0
LINE
  5
A5
330
1F
100
AcDbEntity
  8
외형선
  6
Continuous
370
    15
100
AcDbLine
 10
-43.81307204607154
 20
6.349999999999991
 30
0.0
 11
-43.81307204607154
 21
-6.350000000000004
 31
0.0
  0
LINE
  5
A7
330
1F
100
AcDbEntity
  8
외형선
  6
Continuous
370
    15
100
AcDbLine
 10
-44.81307204607155
 20
5.349999999999988
 30
0.0
 11
-44.81307204607155
 21
-5.349999999999999
 31
0.0
  0
SPLINE
  5
A8
330
1F
100
AcDbEntity
  8
외형선
  6
Continuous
370
    15
100
AcDbSpline
210
0.0
220
0.0
230
1.0
 70
    24
 71
     3
 72
    14
 73
    10
 74
     0
 42
0.000000001
 43
0.00000001
 40
0.0
 40
0.0
 40
0.0
 40
0.0
 40
0.2499999999999999
 40
0.2499999999999999
 40
0.4999999999999999
 40
0.4999999999999999
 40
0.7499999999999999
 40
0.7499999999999999
 40
1.0
 40
1.0
 40
1.0
 40
1.0
 10
31.38692795392844
 20
2.992688830855067
 30
0.0
 10
31.38692795392844
 20
2.505676465482914
 30
0.0
 10
31.38692795392844
 20
1.968520911501919
 30
0.0
 10
31.38692795392844
 20
0.8330753216585428
 30
0.0
 10
31.38692795392844
 20
0.2352183905006426
 30
0.0
 10
31.38692795392844
 20
-0.964241558046269
 30
0.0
 10
31.38692795392844
 20
-1.565205453027408
 30
0.0
 10
31.38692795392844
 20
-2.712489578917417
 30
0.0
 10
31.38692795392844
 20
-3.258360077259149
 30
0.0
 10
31.38692795392844
 20
-3.756131498717473
 30
0.0
  0
SPLINE
  5
AB
330
1F
100
AcDbEntity
  8
외형선
  6
Continuous
370
    15
100
AcDbSpline
210
0.0
220
0.0
230
1.0
 70
    24
 71
     3
 72
    10
 73
     6
 74
     0
 42
0.000000001
 43
0.00000001
 40
0.0
 40
0.0
 40
0.0
 40
0.0
 40
0.5
 40
0.5
 40
1.0
 40
1.0
 40
1.0
 40
1.0
 10
31.38692795392844
 20
4.464653049026392
 30
0.0
 10
31.38692795392844
 20
4.310707723689768
 30
0.0
 10
31.38692795392844
 20
4.094634871367695
 30
0.0
 10
31.38692795392844
 20
3.583003836283772
 30
0.0
 10
31.38692795392844
 20
3.289121602635858
 30
0.0
 10
31.38692795392844
 20
2.992688830855067
 30
0.0
  0
SPLINE
  5
AC
330
1F
100
AcDbEntity
  8
외형선
  6
Continuous
370
    15
100
AcDbSpline
210
0.0
220
0.0
230
1.0
 70
    24
 71
     3
 72
    12
 73
     8
 74
     0
 42
0.000000001
 43
0.00000001
 40
0.0
 40
0.0
 40
0.0
 40
0.0
 40
0.1812512022763805
 40
0.364865638259381
 40
0.6314927177749573
 40
0.9058520006590864
 40
1.0
 40
1.0
 40
1.0
 40
1.0
 10
31.38692795392845
 20
-3.756131498717475
 30
0.0
 10
31.38692795392845
 20
-3.902464014686895
 30
0.0
 10
31.38692795392845
 20
-4.197036994985635
 30
0.0
 10
31.38692795392845
 20
-4.595337898441523
 30
0.0
 10
31.38692795392845
 20
-4.913102768331193
 30
0.0
 10
31.38692795392845
 20
-5.072051946431832
 30
0.0
 10
31.38692795392845
 20
-5.053542434184793
 30
0.0
 10
31.38692795392845
 20
-5.048813535650379
 30
0.0
  0
SPLINE
  5
AE
330
1F
100
AcDbEntity
  8
0
  6
Continuous
 62
     1
370
    15
100
AcDbSpline
210
0.0
220
0.0
230
1.0
 70
     8
 71
     3
 72
    46
 73
    42
 74
     0
 42
0.000000001
 43
0.00000001
 40
0.0
 40
0.0
 40
0.0
 40
0.0
 40
0.0625000000000002
 40
0.0625000000000002
 40
0.1250000000000002
 40
0.1250000000000002
 40
0.1875000000000003
 40
0.1875000000000003
 40
0.2500000000000003
 40
0.2500000000000003
 40
0.3125000000000004
 40
0.3125000000000004
 40
0.3437500000000004
 40
0.3437500000000004
 40
0.3750000000000004
 40
0.3750000000000004
 40
0.4375000000000003
 40
0.4375000000000003
 40
0.4687500000000001
 40
0.4687500000000001
 40
0.5
 40
0.5
 40
0.5312499999999998
 40
0.5312499999999998
 40
0.5624999999999997
 40
0.5624999999999997
 40
0.6249999999999997
 40
0.6249999999999997
 40
0.6562499999999997
 40
0.6562499999999997
 40
0.6874999999999998
 40
0.6874999999999998
 40
0.7499999999999998
 40
0.7499999999999998
 40
0.8124999999999998
 40
0.8124999999999998
 40
0.8749999999999999
 40
0.8749999999999999
 40
0.9375
 40
0.9375
 40
1.0
 40
1.0
 40
1.0
 40
1.0
 10
31.38692795392817
 20
4.464653049025794
 30
0.0
 10
31.91365299809145
 20
4.247735319399877
 30
0.0
 10
32.44489057958331
 20
4.014682337888051
 30
0.0
 10
33.50522099036386
 20
3.522585700552165
 30
0.0
 10
34.03055858621881
 20
3.26421241674788
 30
0.0
 10
35.09104197505506
 20
2.725028152128202
 30
0.0
 10
35.62176895736442
 20
2.44491097820186
 30
0.0
 10
36.67567474746536
 20
1.871044871323255
 30
0.0
 10
37.20813891382931
 20
1.575605287773696
 30
0.0
 10
38.26754404196184
 20
0.9768370137003097
 30
0.0
 10
38.79320398390976
 20
0.6737876833984016
 30
0.0
 10
39.58897228930095
 20
0.2158970721233083
 30
0.0
 10
39.85447162251134
 20
0.0628996160891401
 30
0.0
 10
40.38388340432112
 20
-0.2426340664196677
 30
0.0
 10
40.64680267669237
 20
-0.3949791364440132
 30
0.0
 10
41.43872893167042
 20
-0.8512014198788136
 30
0.0
 10
41.97138646448825
 20
-1.154341155132646
 30
0.0
 10
42.76500864252371
 20
-1.600455611857816
 30
0.0
 10
43.02771489811619
 20
-1.747559624106985
 30
0.0
 10
43.55610599001176
 20
-2.03903842303707
 30
0.0
 10
43.82137647342952
 20
-2.183331253705863
 30
0.0
 10
44.3519999058329
 20
-2.467882085309888
 30
0.0
 10
44.61735105364255
 20
-2.608139118209643
 30
0.0
 10
45.14606271078058
 20
-2.883537207963961
 30
0.0
 10
45.4087085693823
 20
-3.018563283268863
 30
0.0
 10
46.20189665054484
 20
-3.416336467692506
 30
0.0
 10
46.73458612901818
 20
-3.671171005326201
 30
0.0
 10
47.52703986305306
 20
-4.031973491173745
 30
0.0
 10
47.78977795947203
 20
-4.148642748725691
 30
0.0
 10
48.31893158285811
 20
-4.375123821467017
 30
0.0
 10
48.5843818243566
 20
-4.484784469970341
 30
0.0
 10
49.3802447286033
 20
-4.801711044558929
 30
0.0
 10
49.90617946375406
 20
-4.996437849626131
 30
0.0
 10
50.96513088287431
 20
-5.350798060661887
 30
0.0
 10
51.49769085377613
 20
-5.510253335497866
 30
0.0
 10
52.55242375876386
 20
-5.788904949475866
 30
0.0
 10
53.08224539564031
 20
-5.908824232292167
 30
0.0
 10
54.14298092183119
 20
-6.10684437550907
 30
0.0
 10
54.66838229803947
 20
-6.184700391917331
 30
0.0
 10
55.72838453979774
 20
-6.297449922029897
 30
0.0
 10
56.26065368135175
 20
-6.332097562425493
 30
0.0
 10
56.78692795392845
 20
-6.349999999999993
 30
0.0
  0
SPLINE
  5
AF
330
1F
100
AcDbEntity
  8
0
  6
Continuous
 62
     1
370
    15
100
AcDbSpline
210
0.0
220
0.0
230
1.0
 70
     8
 71
     3
 72
    12
 73
     8
 74
     0
 42
0.000000001
 43
0.00000001
 40
0.0
 40
0.0
 40
0.0
 40
0.0
 40
0.0228752424947206
 40
0.260511730725736
 40
0.4981478478606961
 40
0.7490792477363493
 40
1.0
 40
1.0
 40
1.0
 40
1.0
 10
41.00600250976581
 20
-0.6011042011910658
 30
0.0
 10
40.93265652763887
 20
-0.5722676164302374
 30
0.0
 10
40.09736532799027
 20
-0.2438659128856055
 30
0.0
 10
38.50012848348386
 20
0.4133434354969099
 30
0.0
 10
36.17167527080404
 20
1.336237737967552
 30
0.0
 10
33.80058605264918
 20
2.229730165800269
 30
0.0
 10
32.19146927348963
 20
2.738372873065035
 30
0.0
 10
31.38692795392845
 20
2.992688830855066
 30
0.0
  0
SPLINE
  5
B0
330
1F
100
AcDbEntity
  8
외형선
  6
Continuous
370
    15
100
AcDbSpline
210
0.0
220
0.0
230
1.0
 70
    24
 71
     3
 72
    10
 73
     6
 74
     0
 42
0.000000001
 43
0.00000001
 40
0.0
 40
0.0
 40
0.0
 40
0.0
 40
0.5000000000000002
 40
0.5000000000000002
 40
1.0
 40
1.0
 40
1.0
 40
1.0
 10
31.38692795392845
 20
4.464653049026389
 30
0.0
 10
31.38692795392845
 20
4.310707723689768
 30
0.0
 10
31.38692795392845
 20
4.094634871367693
 30
0.0
 10
31.38692795392845
 20
3.583003836283769
 30
0.0
 10
31.38692795392845
 20
3.289121602635856
 30
0.0
 10
31.38692795392845
 20
2.992688830855065
 30
0.0
  0
SPLINE
  5
B1
330
1F
100
AcDbEntity
  8
0
  6
Continuous
 62
     1
370
    15
100
AcDbSpline
210
0.0
220
0.0
230
1.0
 70
     8
 71
     3
 72
    46
 73
    42
 74
     0
 42
0.000000001
 43
0.00000001
 40
0.0
 40
0.0
 40
0.0
 40
0.0
 40
0.0625
 40
0.0625
 40
0.1250000000000001
 40
0.1250000000000001
 40
0.1875000000000001
 40
0.1875000000000001
 40
0.2500000000000002
 40
0.2500000000000002
 40
0.3125000000000002
 40
0.3125000000000002
 40
0.3437500000000004
 40
0.3437500000000004
 40
0.3750000000000006
 40
0.3750000000000006
 40
0.4375000000000006
 40
0.4375000000000006
 40
0.4687500000000007
 40
0.4687500000000007
 40
0.5000000000000007
 40
0.5000000000000007
 40
0.5312500000000007
 40
0.5312500000000007
 40
0.5625000000000007
 40
0.5625000000000007
 40
0.6250000000000007
 40
0.6250000000000007
 40
0.6562500000000006
 40
0.6562500000000006
 40
0.6875000000000004
 40
0.6875000000000004
 40
0.7500000000000003
 40
0.7500000000000003
 40
0.8125000000000003
 40
0.8125000000000003
 40
0.8750000000000002
 40
0.8750000000000002
 40
0.9375000000000002
 40
0.9375000000000002
 40
1.0
 40
1.0
 40
1.0
 40
1.0
 10
56.78692795392845
 20
-6.025774519622563
 30
0.0
 10
56.26065368135166
 20
-5.929573616110915
 30
0.0
 10
55.72838453979755
 20
-5.812053215775036
 30
0.0
 10
54.66838229803913
 20
-5.537740733374996
 30
0.0
 10
54.14298092183078
 20
-5.381300246554263
 30
0.0
 10
53.08224539563973
 20
-5.031198672749323
 30
0.0
 10
52.55242375876322
 20
-4.83806082254867
 30
0.0
 10
51.49769085377532
 20
-4.420275726186779
 30
0.0
 10
50.96513088287342
 20
-4.19458017109723
 30
0.0
 10
49.906179463753
 20
-3.716483098540838
 30
0.0
 10
49.38024472860214
 20
-3.46424949208457
 30
0.0
 10
48.58438182435533
 20
-3.068072989997655
 30
0.0
 10
48.31893158285681
 20
-2.933200939574385
 30
0.0
 10
47.78977795947065
 20
-2.658897810447499
 30
0.0
 10
47.52703986305164
 20
-2.519642419492137
 30
0.0
 10
46.73458612901661
 20
-2.094948173753146
 30
0.0
 10
46.2018966505432
 20
-1.802749197944183
 30
0.0
 10
45.40870856938054
 20
-1.357653750289135
 30
0.0
 10
45.14606271077878
 20
-1.208312258648276
 30
0.0
 10
44.61735105364067
 20
-0.9071497011257276
 30
0.0
 10
44.35199990583097
 20
-0.7554607481160838
 30
0.0
 10
43.82137647342752
 20
-0.4510466426938189
 30
0.0
 10
43.55610599000972
 20
-0.2983225241680638
 30
0.0
 10
43.02771489811408
 20
0.0069650330481447
 30
0.0
 10
42.76500864252155
 20
0.159448469824334
 30
0.0
 10
41.97138646448594
 20
0.6171460771169724
 30
0.0
 10
41.43872893166804
 20
0.9218696343603162
 30
0.0
 10
40.64680267668989
 20
1.371242881123166
 30
0.0
 10
40.38388340431861
 20
1.519778135504636
 30
0.0
 10
39.85447162250871
 20
1.814622629434588
 30
0.0
 10
39.5889722892983
 20
1.960742436635097
 30
0.0
 10
38.79320398390699
 20
2.393472084953292
 30
0.0
 10
38.26754404195898
 20
2.673771011333726
 30
0.0
 10
37.20813891382627
 20
3.215322660362485
 30
0.0
 10
36.67567474746224
 20
3.476278009401229
 30
0.0
 10
35.62176895736118
 20
3.970554147754003
 30
0.0
 10
35.09104197505169
 20
4.205342004246704
 30
0.0
 10
34.03055858621529
 20
4.643917003861759
 30
0.0
 10
33.50522099036027
 20
4.847180261326908
 30
0.0
 10
32.44489057957953
 20
5.219919992573506
 30
0.0
 10
31.91365299808765
 20
5.38884015749581
 30
0.0
 10
31.38692795392426
 20
5.538086587306416
 30
0.0
  0
SPLINE
  5
B2
330
1F
100
AcDbEntity
  8
0
  6
Continuous
 62
     1
370
    15
100
AcDbSpline
210
0.0
220
0.0
230
1.0
 70
     8
 71
     3
 72
    15
 73
    11
 74
     0
 42
0.000000001
 43
0.00000001
 40
0.0
 40
0.0
 40
0.0
 40
0.0
 40
0.1386024963854065
 40
0.2772047598300149
 40
0.41580679391874
 40
0.5544086022393712
 40
0.6930101883825297
 40
0.8316115559416222
 40
0.9702127085127987
 40
0.9999999999999999
 40
0.9999999999999999
 40
0.9999999999999999
 40
0.9999999999999999
 10
56.78692795392845
 20
-5.009973878738172
 30
0.0
 10
56.02497119307419
 20
-4.84995037642881
 30
0.0
 10
54.50105895194014
 20
-4.529903640751865
 30
0.0
 10
52.21519321623104
 20
-3.797135822685842
 30
0.0
 10
49.92933178166412
 20
-2.916302282121825
 30
0.0
 10
47.64347463696778
 20
-1.906291614492707
 30
0.0
 10
45.35762168517127
 20
-0.813559111317461
 30
0.0
 10
43.07177291763763
 20
0.307794525665206
 30
0.0
 10
41.38412202434452
 20
1.144287850156758
 30
0.0
 10
40.45842087044696
 20
1.564948250823328
 30
0.0
 10
40.29466776817571
 20
1.639361516186323
 30
0.0
  0
LINE
  5
B3
330
1F
100
AcDbEntity
  8
0
  6
Continuous
 62
     1
370
    15
100
AcDbLine
 10
56.78692795392845
 20
-6.025774519622566
 30
0.0
 11
56.78692795392845
 21
-5.009973878738172
 31
0.0
  0
LINE
  5
B4
330
1F
100
AcDbEntity
  8
0
  6
Continuous
 62
     1
370
    15
100
AcDbLine
 10
56.78692795392845
 20
-6.349999999999993
 30
0.0
 11
56.78692795392845
 21
-6.025774519622566
 31
0.0
  0
SPLINE
  5
B5
330
1F
100
AcDbEntity
  8
0
  6
Continuous
 62
     1
370
    15
100
AcDbSpline
210
0.0
220
0.0
230
1.0
 70
     8
 71
     3
 72
     8
 73
     4
 74
     0
 42
0.000000001
 43
0.00000001
 40
0.0
 40
0.0
 40
0.0
 40
0.0
 40
1.0
 40
1.0
 40
1.0
 40
1.0
 10
52.858037310208
 20
1.776017074452406
 30
0.0
 10
52.63288457224093
 20
2.042719345426057
 30
0.0
 10
52.43130330090757
 20
2.300050926275847
 30
0.0
 10
52.25939852337934
 20
2.54558480137688
 30
0.0
  0
LINE
  5
B6
330
1F
100
AcDbEntity
  8
0
  6
Continuous
 62
     1
370
    15
100
AcDbLine
 10
52.33968307768179
 20
2.612951541294603
 30
0.0
 11
56.78692795392845
 21
0.0000000000000029
 31
0.0
  0
LINE
  5
B7
330
1F
100
AcDbEntity
  8
0
  6
Continuous
 62
     1
370
    15
100
AcDbLine
 10
56.78692795392845
 20
0.0000000000000029
 30
0.0
 11
56.78692795392845
 21
-1.696992707288242
 31
0.0
  0
SPLINE
  5
B8
330
1F
100
AcDbEntity
  8
0
  6
Continuous
 62
     1
370
    15
100
AcDbSpline
210
0.0
220
0.0
230
1.0
 70
     8
 71
     3
 72
    12
 73
     8
 74
     0
 42
0.000000001
 43
0.00000001
 40
0.0
 40
0.0
 40
0.0
 40
0.0
 40
0.5
 40
0.5
 40
0.75
 40
0.75
 40
1.0
 40
1.0
 40
1.0
 40
1.0
 10
56.78692795392845
 20
-1.696992707288241
 30
0.0
 10
56.10682522658139
 20
-1.162318204574249
 30
0.0
 10
55.43808241186503
 20
-0.6057234975937643
 30
0.0
 10
54.45245117121977
 20
0.2629039036822275
 30
0.0
 10
54.1268681670902
 20
0.5581594504446621
 30
0.0
 10
53.48235198098527
 20
1.161502109201981
 30
0.0
 10
53.16517143124629
 20
1.468032404441036
 30
0.0
 10
52.85803731020799
 20
1.776017074452412
 30
0.0
  0
SPLINE
  5
B9
330
1F
100
AcDbEntity
  8
0
  6
Continuous
 62
     1
370
    15
100
AcDbSpline
210
0.0
220
0.0
230
1.0
 70
     8
 71
     3
 72
    15
 73
    11
 74
     0
 42
0.000000001
 43
0.00000001
 40
0.0
 40
0.0
 40
0.0
 40
0.0
 40
0.1000620568437197
 40
0.2003148339821809
 40
0.356626261353551
 40
0.5129374345346006
 40
0.6692483576374022
 40
0.8255590347771772
 40
0.9818694700722453
 40
1.0
 40
1.0
 40
1.0
 40
1.0
 10
52.85803731020344
 20
1.776017074454374
 30
0.0
 10
52.37047811626694
 20
1.984230605786111
 30
0.0
 10
51.39443043075503
 20
2.401054527631951
 30
0.0
 10
49.65610480834098
 20
3.081336365680356
 30
0.0
 10
47.64348541225885
 20
3.780841386837225
 30
0.0
 10
45.35764600787493
 20
4.409382147171742
 30
0.0
 10
43.07179924721326
 20
4.85441848065654
 30
0.0
 10
40.7859596951369
 20
5.068708277055086
 30
0.0
 10
39.17368900659275
 20
5.123154272578116
 30
0.0
 10
38.32336533042459
 20
5.043140184945801
 30
0.0
 10
38.23498689913495
 20
5.034823916983131
 30
0.0
  0
SPLINE
  5
BA
330
1F
100
AcDbEntity
  8
0
  6
Continuous
 62
     1
370
    15
100
AcDbSpline
210
0.0
220
0.0
230
1.0
 70
    24
 71
     3
 72
    10
 73
     6
 74
     0
 42
0.000000001
 43
0.00000001
 40
0.0
 40
0.0
 40
0.0
 40
0.0
 40
0.5
 40
0.5
 40
1.0
 40
1.0
 40
1.0
 40
1.0
 10
56.78692795392845
 20
-5.009973878738171
 30
0.0
 10
56.78692795392845
 20
-4.625920320174163
 30
0.0
 10
56.78692795392844
 20
-4.140653922806075
 30
0.0
 10
56.78692795392845
 20
-3.012456250606816
 30
0.0
 10
56.78692795392845
 20
-2.370502263375816
 30
0.0
 10
56.78692795392845
 20
-1.696992707288445
 30
0.0
  0
SPLINE
  5
BB
330
1F
100
AcDbEntity
  8
0
  6
Continuous
 62
     1
370
    15
100
AcDbSpline
210
0.0
220
0.0
230
1.0
 70
    24
 71
     3
 72
     8
 73
     4
 74
     0
 42
0.000000001
 43
0.00000001
 40
0.0
 40
0.0
 40
0.0
 40
0.0
 40
1.0
 40
1.0
 40
1.0
 40
1.0
 10
52.92172483823176
 20
3.101342567901443
 30
0.0
 10
52.71212876469212
 20
2.925470579898146
 30
0.0
 10
52.49063579991228
 20
2.739615914843404
 30
0.0
 10
52.25939852337353
 20
2.545584801385299
 30
0.0
  0
SPLINE
  5
BC
330
1F
100
AcDbEntity
  8
0
  6
Continuous
 62
     1
370
    15
100
AcDbSpline
210
0.0
220
0.0
230
1.0
 70
     8
 71
     3
 72
     9
 73
     5
 74
     0
 42
0.000000001
 43
0.00000001
 40
0.0
 40
0.0
 40
0.0
 40
0.0
 40
0.968410808113626
 40
1.0
 40
1.0
 40
1.0
 40
1.0
 10
56.78692795392845
 20
4.445
 30
0.0
 10
56.02497294869593
 20
4.4433284544773
 30
0.0
 10
55.23816326126923
 20
4.441602383776007
 30
0.0
 10
54.45135378668781
 20
4.343231210105528
 30
0.0
 10
54.42649911121726
 20
4.340123744224365
 30
0.0
  0
SPLINE
  5
BD
330
1F
100
AcDbEntity
  8
0
  6
Continuous
 62
     1
370
    15
100
AcDbSpline
210
0.0
220
0.0
230
1.0
 70
     8
 71
     3
 72
    10
 73
     6
 74
     0
 42
0.000000001
 43
0.00000001
 40
0.0
 40
0.0
 40
0.0
 40
0.0
 40
0.5
 40
0.5
 40
1.0
 40
1.0
 40
1.0
 40
1.0
 10
56.78692795392845
 20
4.445000000000003
 30
0.0
 10
56.13370679693044
 20
4.26783705660905
 30
0.0
 10
55.48448295936489
 20
4.068937872914622
 30
0.0
 10
54.19473454849307
 20
3.623835480516937
 30
0.0
 10
53.5541765925451
 20
3.378145942251231
 30
0.0
 10
52.92172483824342
 20
3.101342567906868
 30
0.0
  0
SPLINE
  5
BE
330
1F
100
AcDbEntity
  8
0
  6
Continuous
 62
     1
370
    15
100
AcDbSpline
210
0.0
220
0.0
230
1.0
 70
     8
 71
     3
 72
    13
 73
     9
 74
     0
 42
0.000000001
 43
0.00000001
 40
0.0
 40
0.0
 40
0.0
 40
0.0
 40
0.0223547214425942
 40
0.2136061611527386
 40
0.4048573049576434
 40
0.5961081578999413
 40
0.7980582516708313
 40
1.0
 40
1.0
 40
1.0
 40
1.0
 10
43.33898268984483
 20
-4.764862649609771
 30
0.0
 10
43.24992134113979
 20
-4.782269838739405
 30
0.0
 10
42.39891307191024
 20
-4.948600824164072
 30
0.0
 10
40.78596018095452
 20
-5.06947741873559
 30
0.0
 10
38.50012103435043
 20
-5.099068626184009
 30
0.0
 10
36.17167253271685
 20
-4.881861127607181
 30
0.0
 10
33.80058009611456
 20
-4.454632807391476
 30
0.0
 10
32.19146758519283
 20
-3.988962060958013
 30
0.0
 10
31.38692795392845
 20
-3.756131498717477
 30
0.0
  0
SPLINE
  5
BF
330
1F
100
AcDbEntity
  8
외형선
  6
Continuous
370
    15
100
AcDbSpline
210
0.0
220
0.0
230
1.0
 70
    24
 71
     3
 72
    14
 73
    10
 74
     0
 42
0.000000001
 43
0.00000001
 40
0.0
 40
0.0
 40
0.0
 40
0.0
 40
0.25
 40
0.25
 40
0.5
 40
0.5
 40
0.75
 40
0.75
 40
1.0
 40
1.0
 40
1.0
 40
1.0
 10
31.38692795392844
 20
2.992688830855068
 30
0.0
 10
31.38692795392844
 20
2.505676465482916
 30
0.0
 10
31.38692795392844
 20
1.968520911501922
 30
0.0
 10
31.38692795392844
 20
0.8330753216585443
 30
0.0
 10
31.38692795392844
 20
0.235218390500644
 30
0.0
 10
31.38692795392844
 20
-0.9642415580462677
 30
0.0
 10
31.38692795392844
 20
-1.565205453027407
 30
0.0
 10
31.38692795392844
 20
-2.712489578917415
 30
0.0
 10
31.38692795392844
 20
-3.258360077259146
 30
0.0
 10
31.38692795392844
 20
-3.756131498717473
 30
0.0
  0
LINE
  5
C0
330
1F
100
AcDbEntity
  8
0
  6
Continuous
 62
     1
370
    15
100
AcDbLine
 10
56.78692795392845
 20
0.0000000000000029
 30
0.0
 11
56.78692795392845
 21
4.445000000000002
 31
0.0
  0
SPLINE
  5
C2
330
1F
100
AcDbEntity
  8
0
  6
Continuous
 62
     1
370
    15
100
AcDbSpline
210
0.0
220
0.0
230
1.0
 70
    24
 71
     3
 72
    10
 73
     6
 74
     0
 42
0.000000001
 43
0.00000001
 40
0.0
 40
0.0
 40
0.0
 40
0.0
 40
0.5
 40
0.5
 40
1.0
 40
1.0
 40
1.0
 40
1.0
 10
56.78692795392845
 20
4.444999999999999
 30
0.0
 10
56.78692795392845
 20
4.714444830726442
 30
0.0
 10
56.78692795392845
 20
5.027564677306191
 30
0.0
 10
56.78692795392845
 20
5.684489272101431
 30
0.0
 10
56.78692795392845
 20
6.026616317339351
 30
0.0
 10
56.78692795392812
 20
6.350000000000008
 30
0.0
  0
SPLINE
  5
C3
330
1F
100
AcDbEntity
  8
0
  6
Continuous
 62
     1
370
    15
100
AcDbSpline
210
0.0
220
0.0
230
1.0
 70
     8
 71
     3
 72
    14
 73
    10
 74
     0
 42
0.000000001
 43
0.00000001
 40
0.0
 40
0.0
 40
0.0
 40
0.0
 40
0.0209481332948774
 40
0.1259910475432375
 40
0.2313981955407629
 40
0.4210675400828393
 40
0.611276307978896
 40
0.8053490070416391
 40
0.9999999999999999
 40
0.9999999999999999
 40
0.9999999999999999
 40
0.9999999999999999
 10
48.05524483297027
 20
4.25716373029807
 30
0.0
 10
48.11621065930217
 20
4.284981955462781
 30
0.0
 10
48.48288525582927
 20
4.452292678569187
 30
0.0
 10
49.15688801184488
 20
4.712817378417737
 30
0.0
 10
50.32031255530381
 20
5.148652108966121
 30
0.0
 10
51.73384765688548
 20
5.591475996471769
 30
0.0
 10
53.40386961245728
 20
5.989453201908212
 30
0.0
 10
55.0886565864573
 20
6.260610565115785
 30
0.0
 10
56.22027633790439
 20
6.316597809266169
 30
0.0
 10
56.78692795392812
 20
6.350000000000007
 30
0.0
  0
LINE
  5
C4
330
1F
100
AcDbEntity
  8
0
  6
Continuous
 62
     1
370
    15
100
AcDbLine
 10
33.03528912227293
 20
-4.991660911602282
 30
0.0
 11
31.38692795392426
 21
-5.538086587306417
 31
0.0
  0
LINE
  5
C6
330
1F
100
AcDbEntity
  8
중심선
 48
0.8
100
AcDbLine
 10
-47.81307204607155
 20
-0.0000000000000055
 30
0.0
 11
59.78692795392845
 21
0.0000000000000077
 31
0.0
  0
LINE
  5
C7
330
1F
100
AcDbEntity
  8
참조1
100
AcDbLine
 10
8.806108257515818
 20
0.0010749287238919
 30
0.0
 11
8.806108257515827
 21
-39.99892507127611
 31
0.0
  0
LINE
  5
C8
330
1F
100
AcDbEntity
  8
참조1
100
AcDbLine
 10
8.806108257515827
 20
-39.99892507127611
 30
0.0
 11
-0.793954277783822
 21
-39.9989250712761
 31
0.0
  0
CIRCLE
  5
C9
330
1F
100
AcDbEntity
  8
해칭선
100
AcDbCircle
 10
0.0
 20
0.0
 30
0.0
 40
2.999999999999996
  0
INSERT
  5
CA
330
1F
100
AcDbEntity
  8
0
  6
Continuous
 62
     7
100
AcDbBlockReference
 66
     1
  2
블럭10
 10
-7.953344978196753
 20
-52.04717430164393
 30
0.0
  0
ATTRIB
  5
CB
330
CA
100
AcDbEntity
  8
FORMAT
 62
     2
100
AcDbText
 10
-17.13464026693804
 20
-49.97180738881174
 30
0.0
 40
4.233333333333333
  1
E2033032 [ 2 FLUTE ]
 41
0.75
  7
SLDTEXTSTYLE0
 11
-17.13464026693804
 21
-52.08847405547841
 31
0.0
100
AcDbAttribute
  2
AUTOATTR0
 70
     0
 74
     1
  0
SEQEND
  5
CC
330
CA
100
AcDbEntity
  8
0
  6
Continuous
 62
     7
  0
HATCH
  5
CD
330
1F
100
AcDbEntity
  8
중심선
100
AcDbHatch
 10
0.0
 20
0.0
 30
0.0
210
0.0
220
0.0
230
1.0
  2
SOLID
 70
     1
 71
     0
 91
        1
 92
        0
 93
        4
 72
     1
 10
-2.238435673815903
 20
-35.8
 11
-5.684710917653192
 21
-35.8
 72
     1
 10
-5.684710917653192
 20
-35.8
 11
-7.812940776857211
 21
-38.33632558057257
 72
     1
 10
-7.812940776857211
 20
-38.33632558057257
 11
-4.366632447906781
 21
-38.33628615127008
 72
     1
 10
-4.366632447906781
 20
-38.33628615127008
 11
-2.238435673815903
 21
-35.8
 97
        0
 75
     0
 76
     1
 98
        1
 10
16.53766663989728
 20
-0.0010749287238943
  0
HATCH
  5
CE
330
1F
100
AcDbEntity
  8
중심선
100
AcDbHatch
 10
0.0
 20
0.0
 30
0.0
210
0.0
220
0.0
230
1.0
  2
SOLID
 70
     1
 71
     0
 91
        1
 92
        0
 93
        4
 72
     1
 10
2.774328317220078
 20
-35.8
 11
-0.6719469266172133
 21
-35.8
 72
     1
 10
-0.6719469266172133
 20
-35.8
 11
-5.203084934974623
 21
-41.20000000000002
 72
     1
 10
-5.203084934974623
 20
-41.20000000000002
 11
-1.756809691137342
 21
-41.20000000000002
 72
     1
 10
-1.756809691137342
 20
-41.20000000000002
 11
2.774328317220078
 21
-35.8
 97
        0
 75
     0
 76
     1
 98
        1
 10
16.53766663989728
 20
-0.0010749287238943
  0
HATCH
  5
CF
330
1F
100
AcDbEntity
  8
중심선
100
AcDbHatch
 10
0.0
 20
0.0
 30
0.0
210
0.0
220
0.0
230
1.0
  2
SOLID
 70
     1
 71
     0
 91
        1
 92
        0
 93
        4
 72
     1
 10
7.787092308255918
 20
-35.80000000000003
 11
4.340817064418797
 21
-35.80000000000003
 72
     1
 10
4.340817064418797
 20
-35.80000000000003
 11
-2.707619837470421
 21
-44.20000000000002
 72
     1
 10
-2.707619837470421
 20
-44.20000000000002
 11
0.7386554063668562
 21
-44.20000000000002
 72
     1
 10
0.7386554063668562
 20
-44.20000000000002
 11
7.787092308255918
 21
-35.80000000000003
 97
        0
 75
     0
 76
     1
 98
        1
 10
16.53766663989728
 20
-0.0010749287238943
  0
HATCH
  5
D0
330
1F
100
AcDbEntity
  8
중심선
100
AcDbHatch
 10
0.0
 20
0.0
 30
0.0
210
0.0
220
0.0
230
1.0
  2
SOLID
 70
     1
 71
     0
 91
        1
 92
        0
 93
        6
 72
     3
 10
12.58698273926814
 20
-40.00000000005127
 11
3.960054785062283
 21
1.540882976769353E-10
 40
0.3939339440162628
 50
17.09539180608439
 51
320.0019657685083
 73
     0
 72
     1
 10
14.26998239496871
 20
-38.58789400463833
 11
16.57528426866978
 21
-36.65356729459038
 72
     3
 10
12.58698273921529
 20
-40.00000000000015
 11
6.600054785286829
 21
-1.278976924368180E-13
 40
0.636358354079598
 50
39.99873849337413
 51
368.4976242363724
 73
     1
 72
     1
 10
19.0123152311159
 20
-39.03999999993002
 11
11.26705004605122
 21
-39.03999999993002
 72
     1
 10
11.26705004605122
 20
-39.03999999993002
 11
11.26702500160528
 21
-40.95999999992991
 72
     1
 10
11.26702500160528
 20
-40.95999999992991
 11
15.70840477107732
 21
-40.95999999992988
 97
        0
 75
     0
 76
     1
 98
        1
 10
16.53766663989728
 20
-0.0010749287238943
  0
DIMENSION
  5
D1
330
1F
100
AcDbEntity
  8
치수문자_일반주서
100
AcDbDimension
  2
_D
 10
-57.31307204607154
 20
-6.350000000000045
 30
0.0
 11
-57.31307204607156
 21
-0.000000000000002
 31
0.0
 70
   160
  1
%%c<>
 71
     2
 42
12.69999999999999
 52
-270.0
  3
SLDDIMSTYLE0
100
AcDbAlignedDimension
 13
-43.81307204607154
 23
6.349999999999994
 33
0.0
 14
-43.81307204607154
 24
-6.349999999999995
 34
0.0
 50
90.0000000000002
100
AcDbRotatedDimension
1001
ACAD
1000
DSTYLE
1002
{
1070
   171
1070
     6
1070
   273
1070
     7
1002
}
  0
DIMENSION
  5
E6
330
1F
100
AcDbEntity
  8
치수문자_일반주서
100
AcDbDimension
  2
_D_1
 10
31.38692795392845
 20
16.10092409889251
 30
0.0
 11
44.0869279539283
 21
16.10092409889251
 31
0.0
 70
   160
  1
<>
 71
     2
 42
25.39999999999967
  3
SLDDIMSTYLE0
100
AcDbAlignedDimension
 13
56.78692795392812
 23
6.350000000000007
 33
0.0
 14
31.38692795392845
 24
5.53808658730523
 34
0.0
100
AcDbRotatedDimension
1001
ACAD
1000
DSTYLE
1002
{
1070
   171
1070
     6
1070
   273
1070
     7
1002
}
  0
DIMENSION
  5
FB
330
1F
100
AcDbEntity
  8
치수문자_일반주서
100
AcDbDimension
  2
_D_2
 10
-44.81307204607155
 20
36.55130408500666
 30
0.0
 11
5.986927953928447
 21
36.55130408500666
 31
0.0
 70
   160
  1
<>
 71
     2
 42
101.5999999999997
  3
SLDDIMSTYLE0
100
AcDbAlignedDimension
 13
56.78692795392812
 23
6.350000000000008
 33
0.0
 14
-44.81307204607155
 24
5.349999999999988
 34
0.0
100
AcDbRotatedDimension
1001
ACAD
1000
DSTYLE
1002
{
1070
   171
1070
     6
1070
   273
1070
     7
1002
}
  0
DIMENSION
  5
10E
330
1F
100
AcDbEntity
  8
치수문자_일반주서
100
AcDbDimension
  2
_D_3
 10
72.29448773533734
 20
6.350000000000065
 30
0.0
 11
72.29448773533727
 21
26.95400000000005
 31
0.0
 70
   160
  1
%%c<>
 71
     2
 42
12.7
 52
-270.0
  3
SLDDIMSTYLE0
100
AcDbAlignedDimension
 13
56.78692795392845
 23
-6.349999999999993
 33
0.0
 14
56.78692795392812
 24
6.350000000000007
 34
0.0
 50
90.0000000000002
100
AcDbRotatedDimension
1001
ACAD
1000
DSTYLE
1002
{
1070
   171
1070
     6
1070
   273
1070
     7
1002
}
  0
LINE
  5
122
330
1F
100
AcDbEntity
  8
참조1
100
AcDbLine
 10
97.17838635187044
 20
7.441074928723899
 30
0.0
 11
97.17838635187044
 21
-7.438925071276106
 31
0.0
  0
LINE
  5
123
330
1F
100
AcDbEntity
  8
참조1
100
AcDbLine
 10
109.8783863518704
 20
5.441074928723899
 30
0.0
 11
97.17838635187044
 21
5.441074928723899
 31
0.0
  0
SOLID
  5
124
330
1F
100
AcDbEntity
  8
참조1
100
AcDbTrace
 10
97.17838635187044
 20
5.441074928723899
 30
0.0
 11
103.5283863518704
 21
4.425074928723899
 31
0.0
 12
103.5283863518704
 22
6.457074928723899
 32
0.0
 13
103.5283863518704
 23
6.457074928723899
 33
0.0
  0
LINE
  5
125
330
1F
100
AcDbEntity
  8
참조1
100
AcDbLine
 10
109.8783863518704
 20
-5.438925071276106
 30
0.0
 11
97.17838635187044
 21
-5.438925071276106
 31
0.0
  0
SOLID
  5
126
330
1F
100
AcDbEntity
  8
참조1
100
AcDbTrace
 10
97.17838635187044
 20
-5.438925071276106
 30
0.0
 11
103.5283863518704
 21
-6.454925071276106
 31
0.0
 12
103.5283863518704
 22
-4.422925071276106
 32
0.0
 13
103.5283863518704
 23
-4.422925071276106
 33
0.0
  0
MTEXT
  5
127
330
1F
100
AcDbEntity
  8
참조1
100
AcDbMText
 10
106.5627364844964
 20
11.01136670591222
 30
0.0
 40
3.5
 41
0.0
 71
     1
 72
     1
  1
A
  7
SLDTEXTSTYLE0
 73
     1
 44
1.0
  0
MTEXT
  5
128
330
1F
100
AcDbEntity
  8
참조1
100
AcDbMText
 10
106.5627364844964
 20
0.1313667059122219
 30
0.0
 40
3.5
 41
0.0
 71
     1
 72
     1
  1
A
  7
SLDTEXTSTYLE0
 73
     1
 44
1.0
  0
INSERT
  5
12F
330
1F
100
AcDbEntity
  8
해칭선
100
AcDbBlockReference
  2
SW_DOWELSYMBOL_0
 10
0.0
 20
0.0
 30
0.0
  0
LINE
  5
2D5
330
1F
100
AcDbEntity
  8
외형선
  6
Continuous
370
    15
100
AcDbLine
 10
-26.84169704607152
 20
4.825999999999994
 30
0.0
 11
-16.60319704607154
 21
4.825999999999994
 31
0.0
  0
LINE
  5
2D8
330
1F
100
AcDbEntity
  8
외형선
  6
Continuous
370
    15
100
AcDbLine
 10
-43.87557204607154
 20
6.349999999999996
 30
0.0
 11
-29.30319704607153
 21
6.349999999999996
 31
0.0
  0
LINE
  5
388
330
1F
100
AcDbEntity
  8
외형선
  6
Continuous
370
    15
100
AcDbLine
 10
-27.77919704607152
 20
4.825999999999989
 30
0.0
 11
-16.60319704607165
 21
4.825999999999989
 31
0.0
  0
LINE
  5
389
330
1F
100
AcDbEntity
  8
외형선
  6
Continuous
370
    15
100
AcDbLine
 10
-27.77919704607152
 20
4.825999999999989
 30
0.0
 11
-29.30319704607152
 21
6.34999999999999
 31
0.0
  0
LINE
  5
38A
330
1F
100
AcDbEntity
  8
외형선
  6
Continuous
370
    15
100
AcDbLine
 10
-16.60319704607154
 20
4.825999999999989
 30
0.0
 11
-15.07919704607153
 21
6.34999999999999
 31
0.0
  0
LINE
  5
3D1
330
1F
100
AcDbEntity
  8
외형선
  6
Continuous
370
    15
100
AcDbLine
 10
0.0
 20
-6.35
 30
0.0
 11
0.0
 21
6.35
 31
0.0
  0
LINE
  5
3D2
330
1F
100
AcDbEntity
  8
외형선
  6
Continuous
370
    15
100
AcDbLine
 10
0.0
 20
6.223000000000001
 30
0.0
 11
0.0
 21
-6.222999999999998
 31
0.0
  0
LINE
  5
3D3
330
1F
100
AcDbEntity
  8
외형선
  6
Continuous
370
    15
100
AcDbLine
 10
0.430677953928452
 20
6.222999999999999
 30
0.0
 11
31.38692795392845
 21
6.222999999999999
 31
0.0
  0
ARC
  5
3D4
330
1F
100
AcDbEntity
  8
외형선
  6
Continuous
370
    15
100
AcDbCircle
 10
0.430677953928452
 20
7.016750000000001
 30
0.0
 40
0.7937499999999997
100
AcDbArc
 50
237.1401196211111
 51
270.0
  0
LINE
  5
3D7
330
1F
100
AcDbEntity
  8
외형선
  6
Continuous
370
    15
100
AcDbLine
 10
0.430677953928452
 20
-6.223000000000003
 30
0.0
 11
31.38692795392845
 21
-6.223000000000003
 31
0.0
  0
ARC
  5
3D8
330
1F
100
AcDbEntity
  8
외형선
  6
Continuous
370
    15
100
AcDbCircle
 10
0.430677953928452
 20
-7.016750000000001
 30
0.0
 40
0.7937499999999997
100
AcDbArc
 50
90.0
 51
122.8598803788889
  0
LINE
  5
3D9
330
1F
100
AcDbEntity
  8
외형선
  6
Continuous
370
    15
100
AcDbLine
 10
0.430677953928452
 20
-6.223000000000001
 30
0.0
 11
0.430677953928452
 21
6.223000000000001
 31
0.0
  0
LINE
  5
3DA
330
1F
100
AcDbEntity
  8
외형선
  6
Continuous
370
    15
100
AcDbLine
 10
31.38692795392845
 20
-5.048813535650379
 30
0.0
 11
31.38692795392845
 21
-6.223000000000003
 31
0.0
  0
DIMENSION
  5
3DB
330
1F
100
AcDbEntity
  8
치수문자_일반주서
100
AcDbDimension
  2
*D15
 10
56.78692795392812
 20
25.29918053933121
 30
0.0
 11
28.60880295392829
 21
27.92418053933121
 31
0.0
 70
    32
 71
     5
 42
56.35624999999967
  3
SLDDIMSTYLE0
100
AcDbAlignedDimension
 13
0.430677953928452
 23
6.222999999999999
 33
0.0
 14
56.78692795392812
 24
6.350000000000007
 34
0.0
100
AcDbRotatedDimension
1001
ACAD
1000
DSTYLE
1002
{
1070
   171
1070
     6
1070
   273
1070
     7
1002
}
  0
ENDSEC
  0
SECTION
  2
OBJECTS
  0
DICTIONARY
  5
C
330
0
100
AcDbDictionary
281
     1
  3
ACAD_GROUP
350
D
  3
ACAD_IMAGE_VARS
350
153
  3
ACAD_LAYOUT
350
1A
  3
ACAD_MLINESTYLE
350
17
  3
ACAD_PLOTSETTINGS
350
19
  3
ACAD_PLOTSTYLENAME
350
E
  3
ACAD_SCALELIST
350
47
  3
APPDATA
350
151
  3
DWGPROPS
350
40D
  0
DICTIONARY
  5
1F6
330
2
100
AcDbDictionary
280
     1
281
     1
  3
ACAD_LAYERSTATES
360
1F7
  0
DICTIONARY
  5
D
102
{ACAD_REACTORS
330
C
102
}
330
C
100
AcDbDictionary
281
     1
  0
RASTERVARIABLES
  5
153
102
{ACAD_REACTORS
330
C
102
}
330
C
100
AcDbRasterVariables
 90
        0
 70
     1
 71
     1
 72
     1
  0
DICTIONARY
  5
1A
102
{ACAD_REACTORS
330
C
102
}
330
C
100
AcDbDictionary
281
     1
  3
Layout1
350
1E
  3
Layout2
350
26
  3
Model
350
22
  0
DICTIONARY
  5
17
102
{ACAD_REACTORS
330
C
102
}
330
C
100
AcDbDictionary
281
     1
  3
Standard
350
18
  0
DICTIONARY
  5
19
102
{ACAD_REACTORS
330
C
102
}
330
C
100
AcDbDictionary
281
     1
  0
ACDBDICTIONARYWDFLT
  5
E
102
{ACAD_REACTORS
330
C
102
}
330
C
100
AcDbDictionary
281
     1
  3
Normal
350
F
100
AcDbDictionaryWithDefault
340
F
  0
DICTIONARY
  5
47
102
{ACAD_REACTORS
330
C
102
}
330
C
100
AcDbDictionary
281
     1
  3
A0
350
48
  3
A1
350
49
  3
A2
350
4A
  3
A3
350
4B
  3
A4
350
4C
  3
A5
350
4D
  3
A6
350
4E
  3
A7
350
4F
  3
A8
350
50
  3
A9
350
51
  3
B0
350
52
  3
B1
350
53
  3
B2
350
54
  3
B3
350
55
  3
B4
350
56
  3
B5
350
57
  3
B6
350
58
  3
B7
350
59
  3
B8
350
5A
  3
B9
350
5B
  3
C0
350
5C
  3
C1
350
5D
  3
C2
350
5E
  3
C3
350
5F
  3
C4
350
60
  3
C5
350
61
  3
C6
350
62
  3
C7
350
63
  3
C8
350
64
  3
C9
350
65
  3
D0
350
66
  3
D1
350
67
  3
D2
350
68
  0
DICTIONARY
  5
151
102
{ACAD_REACTORS
330
C
102
}
330
C
100
AcDbDictionary
281
     1
  0
XRECORD
  5
40D
102
{ACAD_REACTORS
330
C
102
}
330
C
100
AcDbXrecord
280
     1
  1
DWGPROPS COOKIE
  2

  3

  4

  6

  7

  8
12016016
  9

300
=
301
=
302
=
303
=
304
=
305
=
306
=
307
=
308
=
309
=
 40
0.0
 41
2458311.103934213
 42
2458323.060284294
  1

 90
        0
  0
DICTIONARY
  5
1F7
102
{ACAD_REACTORS
330
1F6
102
}
330
1F6
100
AcDbDictionary
281
     1
  0
LAYOUT
  5
1E
102
{ACAD_REACTORS
330
1A
102
}
330
1A
100
AcDbPlotSettings
  1

  2
none_device
  4

  6

 40
0.0
 41
0.0
 42
0.0
 43
0.0
 44
0.0
 45
0.0
 46
0.0
 47
0.0
 48
0.0
 49
0.0
140
0.0
141
0.0
142
1.0
143
1.0
 70
   688
 72
     1
 73
     0
 74
     5
  7

 75
    16
147
1.0
148
0.0
149
0.0
100
AcDbLayout
  1
Layout1
 70
     1
 71
     1
 10
0.0
 20
0.0
 11
420.0
 21
297.0
 12
0.0
 22
0.0
 32
0.0
 14
1.000000000000000E+20
 24
1.000000000000000E+20
 34
1.000000000000000E+20
 15
-1.000000000000000E+20
 25
-1.000000000000000E+20
 35
-1.000000000000000E+20
146
0.0
 13
0.0
 23
0.0
 33
0.0
 16
1.0
 26
0.0
 36
0.0
 17
0.0
 27
1.0
 37
0.0
 76
     0
330
1B
  0
LAYOUT
  5
26
102
{ACAD_REACTORS
330
1A
102
}
330
1A
100
AcDbPlotSettings
  1

  2
none_device
  4

  6

 40
0.0
 41
0.0
 42
0.0
 43
0.0
 44
0.0
 45
0.0
 46
0.0
 47
0.0
 48
0.0
 49
0.0
140
0.0
141
0.0
142
1.0
143
1.0
 70
   688
 72
     1
 73
     0
 74
     5
  7

 75
    16
147
1.0
148
0.0
149
0.0
100
AcDbLayout
  1
Layout2
 70
     1
 71
     2
 10
0.0
 20
0.0
 11
0.0
 21
0.0
 12
0.0
 22
0.0
 32
0.0
 14
0.0
 24
0.0
 34
0.0
 15
0.0
 25
0.0
 35
0.0
146
0.0
 13
0.0
 23
0.0
 33
0.0
 16
1.0
 26
0.0
 36
0.0
 17
0.0
 27
1.0
 37
0.0
 76
     0
330
23
  0
LAYOUT
  5
22
102
{ACAD_REACTORS
330
1A
102
}
330
1A
100
AcDbPlotSettings
  1

  2
none_device
  4
ANSI_A_(11.00_x_8.50_Inches)
  6

 40
6.35
 41
19.05
 42
6.35000508
 43
19.05000254
 44
279.4
 45
215.9
 46
128.7090412720314
 47
75.6398938540778
 48
0.0
 49
0.0
140
0.0
141
0.0
142
0.0621698973231182
143
1.0
 70
  1696
 72
     0
 73
     0
 74
     0
  7

 75
     0
147
0.0235690232323232
148
0.0
149
0.0
100
AcDbLayout
  1
Model
 70
     1
 71
     0
 10
0.0
 20
0.0
 11
420.0
 21
297.0
 12
0.0
 22
0.0
 32
0.0
 14
-61.6880720460716
 24
-49.97180738881174
 34
0.0
 15
109.8783863518704
 25
40.92630408500666
 35
0.0
146
0.0
 13
0.0
 23
0.0
 33
0.0
 16
1.0
 26
0.0
 36
0.0
 17
0.0
 27
1.0
 37
0.0
 76
     0
330
1F
331
29
  0
MLINESTYLE
  5
18
102
{ACAD_REACTORS
330
17
102
}
330
17
100
AcDbMlineStyle
  2
Standard
 70
     0
  3

 62
   256
 51
90.0
 52
90.0
 71
     2
 49
0.5
 62
   256
  6
BYLAYER
 49
-0.5
 62
   256
  6
BYLAYER
  0
ACDBPLACEHOLDER
  5
F
102
{ACAD_REACTORS
330
E
102
}
330
E
  0
SCALE
  5
48
102
{ACAD_REACTORS
330
47
102
}
330
47
100
AcDbScale
 70
     0
300
1:1
140
1.0
141
1.0
290
     1
  0
SCALE
  5
49
102
{ACAD_REACTORS
330
47
102
}
330
47
100
AcDbScale
 70
     0
300
1:2
140
1.0
141
2.0
290
     0
  0
SCALE
  5
4A
102
{ACAD_REACTORS
330
47
102
}
330
47
100
AcDbScale
 70
     0
300
1:4
140
1.0
141
4.0
290
     0
  0
SCALE
  5
4B
102
{ACAD_REACTORS
330
47
102
}
330
47
100
AcDbScale
 70
     0
300
1:5
140
1.0
141
5.0
290
     0
  0
SCALE
  5
4C
102
{ACAD_REACTORS
330
47
102
}
330
47
100
AcDbScale
 70
     0
300
1:8
140
1.0
141
8.0
290
     0
  0
SCALE
  5
4D
102
{ACAD_REACTORS
330
47
102
}
330
47
100
AcDbScale
 70
     0
300
1:10
140
1.0
141
10.0
290
     0
  0
SCALE
  5
4E
102
{ACAD_REACTORS
330
47
102
}
330
47
100
AcDbScale
 70
     0
300
1:16
140
1.0
141
16.0
290
     0
  0
SCALE
  5
4F
102
{ACAD_REACTORS
330
47
102
}
330
47
100
AcDbScale
 70
     0
300
1:20
140
1.0
141
20.0
290
     0
  0
SCALE
  5
50
102
{ACAD_REACTORS
330
47
102
}
330
47
100
AcDbScale
 70
     0
300
1:30
140
1.0
141
30.0
290
     0
  0
SCALE
  5
51
102
{ACAD_REACTORS
330
47
102
}
330
47
100
AcDbScale
 70
     0
300
1:40
140
1.0
141
40.0
290
     0
  0
SCALE
  5
52
102
{ACAD_REACTORS
330
47
102
}
330
47
100
AcDbScale
 70
     0
300
1:50
140
1.0
141
50.0
290
     0
  0
SCALE
  5
53
102
{ACAD_REACTORS
330
47
102
}
330
47
100
AcDbScale
 70
     0
300
1:100
140
1.0
141
100.0
290
     0
  0
SCALE
  5
54
102
{ACAD_REACTORS
330
47
102
}
330
47
100
AcDbScale
 70
     0
300
2:1
140
2.0
141
1.0
290
     0
  0
SCALE
  5
55
102
{ACAD_REACTORS
330
47
102
}
330
47
100
AcDbScale
 70
     0
300
4:1
140
4.0
141
1.0
290
     0
  0
SCALE
  5
56
102
{ACAD_REACTORS
330
47
102
}
330
47
100
AcDbScale
 70
     0
300
8:1
140
8.0
141
1.0
290
     0
  0
SCALE
  5
57
102
{ACAD_REACTORS
330
47
102
}
330
47
100
AcDbScale
 70
     0
300
10:1
140
10.0
141
1.0
290
     0
  0
SCALE
  5
58
102
{ACAD_REACTORS
330
47
102
}
330
47
100
AcDbScale
 70
     0
300
100:1
140
100.0
141
1.0
290
     0
  0
SCALE
  5
59
102
{ACAD_REACTORS
330
47
102
}
330
47
100
AcDbScale
 70
     0
300
1/128" = 1'-0"
140
0.0078125
141
12.0
290
     0
  0
SCALE
  5
5A
102
{ACAD_REACTORS
330
47
102
}
330
47
100
AcDbScale
 70
     0
300
1/64" = 1'-0"
140
0.015625
141
12.0
290
     0
  0
SCALE
  5
5B
102
{ACAD_REACTORS
330
47
102
}
330
47
100
AcDbScale
 70
     0
300
1/32" = 1'-0"
140
0.03125
141
12.0
290
     0
  0
SCALE
  5
5C
102
{ACAD_REACTORS
330
47
102
}
330
47
100
AcDbScale
 70
     0
300
1/16" = 1'-0"
140
0.0625
141
12.0
290
     0
  0
SCALE
  5
5D
102
{ACAD_REACTORS
330
47
102
}
330
47
100
AcDbScale
 70
     0
300
3/32" = 1'-0"
140
0.09375
141
12.0
290
     0
  0
SCALE
  5
5E
102
{ACAD_REACTORS
330
47
102
}
330
47
100
AcDbScale
 70
     0
300
1/8" = 1'-0"
140
0.125
141
12.0
290
     0
  0
SCALE
  5
5F
102
{ACAD_REACTORS
330
47
102
}
330
47
100
AcDbScale
 70
     0
300
3/16" = 1'-0"
140
0.1875
141
12.0
290
     0
  0
SCALE
  5
60
102
{ACAD_REACTORS
330
47
102
}
330
47
100
AcDbScale
 70
     0
300
1/4" = 1'-0"
140
0.25
141
12.0
290
     0
  0
SCALE
  5
61
102
{ACAD_REACTORS
330
47
102
}
330
47
100
AcDbScale
 70
     0
300
3/8" = 1'-0"
140
0.375
141
12.0
290
     0
  0
SCALE
  5
62
102
{ACAD_REACTORS
330
47
102
}
330
47
100
AcDbScale
 70
     0
300
1/2" = 1'-0"
140
0.5
141
12.0
290
     0
  0
SCALE
  5
63
102
{ACAD_REACTORS
330
47
102
}
330
47
100
AcDbScale
 70
     0
300
3/4" = 1'-0"
140
0.75
141
12.0
290
     0
  0
SCALE
  5
64
102
{ACAD_REACTORS
330
47
102
}
330
47
100
AcDbScale
 70
     0
300
1" = 1'-0"
140
1.0
141
12.0
290
     0
  0
SCALE
  5
65
102
{ACAD_REACTORS
330
47
102
}
330
47
100
AcDbScale
 70
     0
300
1-1/2" = 1'-0"
140
1.5
141
12.0
290
     0
  0
SCALE
  5
66
102
{ACAD_REACTORS
330
47
102
}
330
47
100
AcDbScale
 70
     0
300
3" = 1'-0"
140
3.0
141
12.0
290
     0
  0
SCALE
  5
67
102
{ACAD_REACTORS
330
47
102
}
330
47
100
AcDbScale
 70
     0
300
6" = 1'-0"
140
6.0
141
12.0
290
     0
  0
SCALE
  5
68
102
{ACAD_REACTORS
330
47
102
}
330
47
100
AcDbScale
 70
     0
300
1'-0" = 1'-0"
140
12.0
141
12.0
290
     0
  0
ENDSEC
  0
EOF
