  0
SECTION
  2
HEADER
  9
$ACADVER
  1
AC1015
  9
$ACADMAINTVER
 70
     6
  9
$DWGCODEPAGE
  3
ANSI_949
  9
$INSBASE
 10
0.0
 20
0.0
 30
0.0
  9
$EXTMIN
 10
-67.95287356130568
 20
-49.97180738881175
 30
0.0
  9
$EXTMAX
 10
119.844404533049
 20
50.91320047500354
 30
0.0
  9
$LIMMIN
 10
0.0
 20
0.0
  9
$LIMMAX
 10
420.0
 20
297.0
  9
$ORTHOMODE
 70
     1
  9
$REGENMODE
 70
     1
  9
$FILLMODE
 70
     1
  9
$QTEXTMODE
 70
     0
  9
$MIRRTEXT
 70
     1
  9
$LTSCALE
 40
1.0
  9
$ATTMODE
 70
     1
  9
$TEXTSIZE
 40
3.5
  9
$TRACEWID
 40
1.0
  9
$TEXTSTYLE
  7
Standard
  9
$CLAYER
  8
0
  9
$CELTYPE
  6
ByLayer
  9
$CECOLOR
 62
   256
  9
$CELTSCALE
 40
1.0
  9
$DISPSILH
 70
     0
  9
$DIMSCALE
 40
1.0
  9
$DIMASZ
 40
3.302
  9
$DIMEXO
 40
1.0
  9
$DIMDLI
 40
3.75
  9
$DIMRND
 40
0.0
  9
$DIMDLE
 40
0.0
  9
$DIMEXE
 40
1.0
  9
$DIMTP
 40
0.0
  9
$DIMTM
 40
0.0
  9
$DIMTXT
 40
3.5
  9
$DIMCEN
 40
2.5
  9
$DIMTSZ
 40
0.0
  9
$DIMTOL
 70
     0
  9
$DIMLIM
 70
     0
  9
$DIMTIH
 70
     1
  9
$DIMTOH
 70
     1
  9
$DIMSE1
 70
     0
  9
$DIMSE2
 70
     0
  9
$DIMTAD
 70
     1
  9
$DIMZIN
 70
     0
  9
$DIMBLK
  1

  9
$DIMASO
 70
     1
  9
$DIMSHO
 70
     1
  9
$DIMPOST
  1

  9
$DIMAPOST
  1

  9
$DIMALT
 70
     0
  9
$DIMALTD
 70
     3
  9
$DIMALTF
 40
0.0393700787401575
  9
$DIMLFAC
 40
1.0
  9
$DIMTOFL
 70
     1
  9
$DIMTVP
 40
0.0
  9
$DIMTIX
 70
     0
  9
$DIMSOXD
 70
     0
  9
$DIMSAH
 70
     0
  9
$DIMBLK1
  1

  9
$DIMBLK2
  1

  9
$DIMSTYLE
  2
ISO-25
  9
$DIMCLRD
 70
     0
  9
$DIMCLRE
 70
     0
  9
$DIMCLRT
 70
     0
  9
$DIMTFAC
 40
1.0
  9
$DIMGAP
 40
1.524
  9
$DIMJUST
 70
     0
  9
$DIMSD1
 70
     0
  9
$DIMSD2
 70
     0
  9
$DIMTOLJ
 70
     0
  9
$DIMTZIN
 70
     0
  9
$DIMALTZ
 70
     0
  9
$DIMALTTZ
 70
     0
  9
$DIMUPT
 70
     0
  9
$DIMDEC
 70
     2
  9
$DIMTDEC
 70
     2
  9
$DIMALTU
 70
     2
  9
$DIMALTTD
 70
     3
  9
$DIMTXSTY
  7
Standard
  9
$DIMAUNIT
 70
     0
  9
$DIMADEC
 70
     2
  9
$DIMALTRND
 40
0.0
  9
$DIMAZIN
 70
     0
  9
$DIMDSEP
 70
    44
  9
$DIMATFIT
 70
     3
  9
$DIMFRAC
 70
     0
  9
$DIMLDRBLK
  1

  9
$DIMLUNIT
 70
     2
  9
$DIMLWD
 70
    -2
  9
$DIMLWE
 70
    -2
  9
$DIMTMOVE
 70
     0
  9
$LUNITS
 70
     2
  9
$LUPREC
 70
     2
  9
$SKETCHINC
 40
1.0
  9
$FILLETRAD
 40
10.0
  9
$AUNITS
 70
     0
  9
$AUPREC
 70
     2
  9
$MENU
  1
.
  9
$ELEVATION
 40
0.0
  9
$PELEVATION
 40
0.0
  9
$THICKNESS
 40
0.0
  9
$LIMCHECK
 70
     0
  9
$CHAMFERA
 40
0.0
  9
$CHAMFERB
 40
0.0
  9
$CHAMFERC
 40
0.0
  9
$CHAMFERD
 40
0.0
  9
$SKPOLY
 70
     0
  9
$TDCREATE
 40
2458311.479358484
  9
$TDUCREATE
 40
2458311.104358484
  9
$TDUPDATE
 40
2458323.435176007
  9
$TDUUPDATE
 40
2458323.060176007
  9
$TDINDWG
 40
0.0032333449
  9
$TDUSRTIMER
 40
2458323.060129317
  9
$USRTIMER
 70
     1
  9
$ANGBASE
 50
0.0
  9
$ANGDIR
 70
     0
  9
$PDMODE
 70
     0
  9
$PDSIZE
 40
-1.0
  9
$PLINEWID
 40
0.0
  9
$SPLFRAME
 70
     0
  9
$SPLINETYPE
 70
     6
  9
$SPLINESEGS
 70
     8
  9
$HANDSEED
  5
264
  9
$SURFTAB1
 70
     6
  9
$SURFTAB2
 70
     6
  9
$SURFTYPE
 70
     6
  9
$SURFU
 70
     6
  9
$SURFV
 70
     6
  9
$UCSBASE
  2

  9
$UCSNAME
  2

  9
$UCSORG
 10
0.0
 20
0.0
 30
0.0
  9
$UCSXDIR
 10
1.0
 20
0.0
 30
0.0
  9
$UCSYDIR
 10
0.0
 20
1.0
 30
0.0
  9
$UCSORTHOREF
  2

  9
$UCSORTHOVIEW
 70
     0
  9
$UCSORGTOP
 10
0.0
 20
0.0
 30
0.0
  9
$UCSORGBOTTOM
 10
0.0
 20
0.0
 30
0.0
  9
$UCSORGLEFT
 10
0.0
 20
0.0
 30
0.0
  9
$UCSORGRIGHT
 10
0.0
 20
0.0
 30
0.0
  9
$UCSORGFRONT
 10
0.0
 20
0.0
 30
0.0
  9
$UCSORGBACK
 10
0.0
 20
0.0
 30
0.0
  9
$PUCSBASE
  2

  9
$PUCSNAME
  2

  9
$PUCSORG
 10
0.0
 20
0.0
 30
0.0
  9
$PUCSXDIR
 10
1.0
 20
0.0
 30
0.0
  9
$PUCSYDIR
 10
0.0
 20
1.0
 30
0.0
  9
$PUCSORTHOREF
  2

  9
$PUCSORTHOVIEW
 70
     0
  9
$PUCSORGTOP
 10
0.0
 20
0.0
 30
0.0
  9
$PUCSORGBOTTOM
 10
0.0
 20
0.0
 30
0.0
  9
$PUCSORGLEFT
 10
0.0
 20
0.0
 30
0.0
  9
$PUCSORGRIGHT
 10
0.0
 20
0.0
 30
0.0
  9
$PUCSORGFRONT
 10
0.0
 20
0.0
 30
0.0
  9
$PUCSORGBACK
 10
0.0
 20
0.0
 30
0.0
  9
$USERI1
 70
     0
  9
$USERI2
 70
     0
  9
$USERI3
 70
     0
  9
$USERI4
 70
     0
  9
$USERI5
 70
     0
  9
$USERR1
 40
0.0
  9
$USERR2
 40
0.0
  9
$USERR3
 40
0.0
  9
$USERR4
 40
0.0
  9
$USERR5
 40
0.0
  9
$WORLDVIEW
 70
     1
  9
$SHADEDGE
 70
     3
  9
$SHADEDIF
 70
    70
  9
$TILEMODE
 70
     1
  9
$MAXACTVP
 70
    64
  9
$PINSBASE
 10
0.0
 20
0.0
 30
0.0
  9
$PLIMCHECK
 70
     0
  9
$PEXTMIN
 10
1.000000000000000E+20
 20
1.000000000000000E+20
 30
1.000000000000000E+20
  9
$PEXTMAX
 10
-1.000000000000000E+20
 20
-1.000000000000000E+20
 30
-1.000000000000000E+20
  9
$PLIMMIN
 10
0.0
 20
0.0
  9
$PLIMMAX
 10
0.0
 20
0.0
  9
$UNITMODE
 70
     0
  9
$VISRETAIN
 70
     1
  9
$PLINEGEN
 70
     0
  9
$PSLTSCALE
 70
     1
  9
$TREEDEPTH
 70
  3020
  9
$CMLSTYLE
  2
Standard
  9
$CMLJUST
 70
     0
  9
$CMLSCALE
 40
20.0
  9
$PROXYGRAPHICS
 70
     1
  9
$MEASUREMENT
 70
     1
  9
$CELWEIGHT
370
    -1
  9
$ENDCAPS
280
     0
  9
$JOINSTYLE
280
     0
  9
$LWDISPLAY
290
     1
  9
$INSUNITS
 70
     4
  9
$HYPERLINKBASE
  1

  9
$STYLESHEET
  1

  9
$XEDIT
290
     1
  9
$CEPSNTYPE
380
     0
  9
$PSTYLEMODE
290
     1
  9
$FINGERPRINTGUID
  2
{B4DB816A-94CE-4550-8AFD-DEF0D9052548}
  9
$VERSIONGUID
  2
{FAEB1C32-E019-11D5-929B-00C0DF256EC4}
  9
$EXTNAMES
290
     1
  9
$PSVPSCALE
 40
0.0
  9
$OLESTARTUP
290
     0
  0
ENDSEC
  0
SECTION
  2
CLASSES
  0
CLASS
  1
ACDBDICTIONARYWDFLT
  2
AcDbDictionaryWithDefault
  3
ObjectDBX Classes
 90
        0
280
     0
281
     0
  0
CLASS
  1
VISUALSTYLE
  2
AcDbVisualStyle
  3
ObjectDBX Classes
 90
     4095
280
     0
281
     0
  0
CLASS
  1
MATERIAL
  2
AcDbMaterial
  3
ObjectDBX Classes
 90
     1153
280
     0
281
     0
  0
CLASS
  1
SCALE
  2
AcDbScale
  3
ObjectDBX Classes
 90
     1153
280
     0
281
     0
  0
CLASS
  1
SUN
  2
AcDbSun
  3
SCENEOE
 90
     1153
280
     0
281
     0
  0
CLASS
  1
ACDBPLACEHOLDER
  2
AcDbPlaceHolder
  3
ObjectDBX Classes
 90
        0
280
     0
281
     0
  0
CLASS
  1
LAYOUT
  2
AcDbLayout
  3
ObjectDBX Classes
 90
        0
280
     0
281
     0
  0
CLASS
  1
TABLESTYLE
  2
AcDbTableStyle
  3
ObjectDBX Classes
 90
     4095
280
     0
281
     0
  0
CLASS
  1
MLEADERSTYLE
  2
AcDbMLeaderStyle
  3
ACDB_MLEADERSTYLE_CLASS
 90
     4095
280
     0
281
     0
  0
CLASS
  1
RASTERVARIABLES
  2
AcDbRasterVariables
  3
ISM
 90
        0
280
     0
281
     0
  0
CLASS
  1
DIMASSOC
  2
AcDbDimAssoc
  3
"AcDbDimAssoc|Product Desc:     AcDim ARX App For Dimension|Company:          Autodesk, Inc.|WEB Address:      www.autodesk.com"
 90
        0
280
     0
281
     0
  0
ENDSEC
  0
SECTION
  2
TABLES
  0
TABLE
  2
VPORT
  5
8
330
0
100
AcDbSymbolTable
 70
     1
  0
VPORT
  5
29
330
8
100
AcDbSymbolTableRecord
100
AcDbViewportTableRecord
  2
*Active
 70
     0
 10
0.0
 20
0.0
 11
1.0
 21
1.0
 12
10.33121184157759
 22
-43.61518711873664
 13
0.0
 23
0.0
 14
10.0
 24
10.0
 15
10.0
 25
10.0
 16
0.0
 26
0.0
 36
1.0
 17
0.0
 27
0.0
 37
0.0
 40
96.6175772002701
 41
1.586073500967118
 42
50.0
 43
0.0
 44
0.0
 50
0.0
 51
0.0
 71
    16
 72
  2000
 73
     1
 74
     3
 75
     0
 76
     0
 77
     0
 78
     0
281
     0
 65
     1
110
0.0
120
0.0
130
0.0
111
1.0
121
0.0
131
0.0
112
0.0
122
1.0
132
0.0
 79
     0
146
0.0
  0
ENDTAB
  0
TABLE
  2
LTYPE
  5
5
330
0
100
AcDbSymbolTable
 70
     6
  0
LTYPE
  5
14
330
5
100
AcDbSymbolTableRecord
100
AcDbLinetypeTableRecord
  2
ByBlock
 70
     0
  3

 72
    65
 73
     0
 40
0.0
  0
LTYPE
  5
15
330
5
100
AcDbSymbolTableRecord
100
AcDbLinetypeTableRecord
  2
ByLayer
 70
     0
  3

 72
    65
 73
     0
 40
0.0
  0
LTYPE
  5
16
330
5
100
AcDbSymbolTableRecord
100
AcDbLinetypeTableRecord
  2
Continuous
 70
     0
  3
Solid line
 72
    65
 73
     0
 40
0.0
  0
LTYPE
  5
6A
330
5
100
AcDbSymbolTableRecord
100
AcDbLinetypeTableRecord
  2
HIDDEN
 70
     0
  3
Hidden __ __ __ __ __ __ __ __ __ __ __ __ __ __
 72
    65
 73
     2
 40
1.905
 49
1.27
 74
     0
 49
-0.635
 74
     0
  0
LTYPE
  5
6B
330
5
100
AcDbSymbolTableRecord
100
AcDbLinetypeTableRecord
  2
PHANTOM
 70
     0
  3
Phantom ______  __  __  ______  __  __  ______
 72
    65
 73
     6
 40
12.7
 49
6.35
 74
     0
 49
-1.27
 74
     0
 49
1.27
 74
     0
 49
-1.27
 74
     0
 49
1.27
 74
     0
 49
-1.27
 74
     0
  0
LTYPE
  5
6C
330
5
100
AcDbSymbolTableRecord
100
AcDbLinetypeTableRecord
  2
CENTER
 70
     0
  3
Center ____ _ ____ _ ____ _ ____ _ ____ _ ____
 72
    65
 73
     4
 40
10.16
 49
6.35
 74
     0
 49
-1.27
 74
     0
 49
1.27
 74
     0
 49
-1.27
 74
     0
  0
LTYPE
  5
6D
330
5
100
AcDbSymbolTableRecord
100
AcDbLinetypeTableRecord
  2
CENTERX2
 70
     0
  3
Center (2x) ________  __  ________  __  _____
 72
    65
 73
     4
 40
20.32
 49
12.7
 74
     0
 49
-2.54
 74
     0
 49
2.54
 74
     0
 49
-2.54
 74
     0
  0
LTYPE
  5
6E
330
5
100
AcDbSymbolTableRecord
100
AcDbLinetypeTableRecord
  2
DOT2
 70
     0
  3
Dot (.5x) ........................................
 72
    65
 73
     2
 40
0.635
 49
0.0
 74
     0
 49
-0.635
 74
     0
  0
ENDTAB
  0
TABLE
  2
LAYER
  5
2
102
{ACAD_XDICTIONARY
360
17E
102
}
330
0
100
AcDbSymbolTable
 70
    18
  0
LAYER
  5
10
330
2
100
AcDbSymbolTableRecord
100
AcDbLayerTableRecord
  2
0
 70
     0
 62
     7
  6
Continuous
370
    -3
390
F
  0
LAYER
  5
6F
330
2
100
AcDbSymbolTableRecord
100
AcDbLayerTableRecord
  2
FORMAT
 70
     0
 62
     2
  6
Continuous
370
    -3
390
F
  0
LAYER
  5
70
330
2
100
AcDbSymbolTableRecord
100
AcDbLayerTableRecord
  2
외형선
 70
     0
 62
     4
  6
Continuous
370
    30
390
F
  0
LAYER
  5
71
330
2
100
AcDbSymbolTableRecord
100
AcDbLayerTableRecord
  2
숨은선
 70
     0
 62
     2
  6
HIDDEN
370
    15
390
F
  0
LAYER
  5
72
330
2
100
AcDbSymbolTableRecord
100
AcDbLayerTableRecord
  2
중심선
 70
     0
 62
     1
  6
CENTERX2
370
    -3
390
F
  0
LAYER
  5
73
330
2
100
AcDbSymbolTableRecord
100
AcDbLayerTableRecord
  2
파단선
 70
     0
 62
     4
  6
Continuous
370
    -3
390
F
  0
LAYER
  5
74
330
2
100
AcDbSymbolTableRecord
100
AcDbLayerTableRecord
  2
해칭선
 70
     0
 62
   100
  6
Continuous
370
    -3
390
F
  0
LAYER
  5
75
330
2
100
AcDbSymbolTableRecord
100
AcDbLayerTableRecord
  2
가는실선
 70
     0
 62
     4
  6
Continuous
370
    -3
390
F
  0
LAYER
  5
76
330
2
100
AcDbSymbolTableRecord
100
AcDbLayerTableRecord
  2
치수_보조선
 70
     0
 62
     4
  6
Continuous
370
    -3
390
F
  0
LAYER
  5
77
330
2
100
AcDbSymbolTableRecord
100
AcDbLayerTableRecord
  2
치수문자_일반주서
 70
     0
 62
     7
  6
Continuous
370
    15
390
F
  0
LAYER
  5
78
330
2
100
AcDbSymbolTableRecord
100
AcDbLayerTableRecord
  2
개별주서
 70
     0
 62
   100
  6
Continuous
370
    30
390
F
  0
LAYER
  5
79
330
2
100
AcDbSymbolTableRecord
100
AcDbLayerTableRecord
  2
중간선
 70
     0
 62
     2
  6
Continuous
370
    15
390
F
  0
LAYER
  5
7A
330
2
100
AcDbSymbolTableRecord
100
AcDbLayerTableRecord
  2
윤곽선
 70
     0
 62
     3
  6
Continuous
370
    40
390
F
  0
LAYER
  5
7B
330
2
100
AcDbSymbolTableRecord
100
AcDbLayerTableRecord
  2
중심마크
 70
     0
 62
   100
  6
Continuous
370
    30
390
F
  0
LAYER
  5
7C
330
2
100
AcDbSymbolTableRecord
100
AcDbLayerTableRecord
  2
가상선
 70
     0
 62
     4
  6
PHANTOM
370
    -3
390
F
  0
LAYER
  5
7D
330
2
100
AcDbSymbolTableRecord
100
AcDbLayerTableRecord
  2
특수지정선
 70
     0
 62
     5
  6
CENTERX2
370
    60
390
F
  0
LAYER
  5
7E
330
2
100
AcDbSymbolTableRecord
100
AcDbLayerTableRecord
  2
참조1
 70
     0
 62
    -4
  6
Continuous
370
    -3
390
F
  0
LAYER
  5
1B5
330
2
100
AcDbSymbolTableRecord
100
AcDbLayerTableRecord
  2
Defpoints
 70
     0
 62
     7
  6
Continuous
290
     0
370
    -3
390
F
  0
ENDTAB
  0
TABLE
  2
STYLE
  5
3
330
0
100
AcDbSymbolTable
 70
     2
  0
STYLE
  5
11
330
3
100
AcDbSymbolTableRecord
100
AcDbTextStyleTableRecord
  2
Standard
 70
     0
 40
0.0
 41
1.0
 50
0.0
 71
     0
 42
3.5
  3
txt
  4

  0
STYLE
  5
94
330
3
100
AcDbSymbolTableRecord
100
AcDbTextStyleTableRecord
  2
SLDTEXTSTYLE0
 70
     0
 40
0.0
 41
0.75
 50
0.0
 71
     0
 42
3.5
  3
TXT
  4

  0
ENDTAB
  0
TABLE
  2
VIEW
  5
6
330
0
100
AcDbSymbolTable
 70
     0
  0
ENDTAB
  0
TABLE
  2
UCS
  5
7
330
0
100
AcDbSymbolTable
 70
     0
  0
ENDTAB
  0
TABLE
  2
APPID
  5
9
330
0
100
AcDbSymbolTable
 70
     1
  0
APPID
  5
12
330
9
100
AcDbSymbolTableRecord
100
AcDbRegAppTableRecord
  2
ACAD
 70
     0
  0
ENDTAB
  0
TABLE
  2
DIMSTYLE
  5
A
330
0
100
AcDbSymbolTable
 70
     3
100
AcDbDimStyleTable
  0
DIMSTYLE
105
27
330
A
100
AcDbSymbolTableRecord
100
AcDbDimStyleTableRecord
  2
ISO-25
 70
     0
 41
2.5
 42
0.625
 43
3.75
 44
1.25
 73
     0
 74
     0
 77
     1
 78
     8
140
2.5
141
2.5
143
0.03937007874016
147
0.625
171
     3
172
     1
178
     0
271
     2
272
     2
274
     3
278
    44
283
     0
284
     8
340
11
  0
DIMSTYLE
105
D4
102
{ACAD_REACTORS
330
D3
330
110
330
E8
330
FD
330
230
102
}
330
A
100
AcDbSymbolTableRecord
100
AcDbDimStyleTableRecord
  2
SLDDIMSTYLE0
 70
     0
 41
3.302
 44
0.0
 45
0.000000001
 73
     0
 74
     0
 77
     1
 78
    12
 79
     3
140
3.5
143
0.0393700787401575
147
0.875
148
0.000000001
170
     1
172
     1
173
     1
178
     0
271
     2
272
     2
276
     2
284
    12
289
     0
340
94
  0
DIMSTYLE
105
E9
330
A
100
AcDbSymbolTableRecord
100
AcDbDimStyleTableRecord
  2
SLDDIMSTYLE1
 70
     0
 41
3.302
 44
0.0
 45
0.000000001
 73
     0
 74
     0
 77
     1
 78
    12
 79
     3
140
3.5
143
0.0393700787401575
147
0.875
148
0.000000001
170
     1
173
     1
178
     0
271
     2
272
     2
276
     2
284
    12
340
94
  0
ENDTAB
  0
TABLE
  2
BLOCK_RECORD
  5
1
330
0
100
AcDbSymbolTable
 70
     8
  0
BLOCK_RECORD
  5
1F
330
1
100
AcDbSymbolTableRecord
100
AcDbBlockTableRecord
  2
*Model_Space
340
22
  0
BLOCK_RECORD
  5
1B
330
1
100
AcDbSymbolTableRecord
100
AcDbBlockTableRecord
  2
*Paper_Space
340
1E
  0
BLOCK_RECORD
  5
23
330
1
100
AcDbSymbolTableRecord
100
AcDbBlockTableRecord
  2
*Paper_Space0
340
26
  0
BLOCK_RECORD
  5
7F
330
1
100
AcDbSymbolTableRecord
100
AcDbBlockTableRecord
  2
블럭10
340
0
102
{BLKREFS
331
CC
102
}
  0
BLOCK_RECORD
  5
D5
330
1
100
AcDbSymbolTableRecord
100
AcDbBlockTableRecord
  2
_D
340
0
  0
BLOCK_RECORD
  5
EA
330
1
100
AcDbSymbolTableRecord
100
AcDbBlockTableRecord
  2
_D_1
340
0
  0
BLOCK_RECORD
  5
FE
330
1
100
AcDbSymbolTableRecord
100
AcDbBlockTableRecord
  2
_D_2
340
0
  0
BLOCK_RECORD
  5
111
330
1
100
AcDbSymbolTableRecord
100
AcDbBlockTableRecord
  2
_D_3
340
0
  0
BLOCK_RECORD
  5
12A
330
1
100
AcDbSymbolTableRecord
100
AcDbBlockTableRecord
  2
SW_DOWELSYMBOL_0
340
0
102
{BLKREFS
331
130
102
}
  0
BLOCK_RECORD
  5
233
330
1
100
AcDbSymbolTableRecord
100
AcDbBlockTableRecord
  2
*D7
340
0
  0
ENDTAB
  0
ENDSEC
  0
SECTION
  2
BLOCKS
  0
BLOCK
  5
20
330
1F
100
AcDbEntity
  8
0
100
AcDbBlockBegin
  2
*Model_Space
 70
     0
 10
0.0
 20
0.0
 30
0.0
  3
*Model_Space
  1
*Model_Space
  0
ENDBLK
  5
21
330
1F
100
AcDbEntity
  8
0
100
AcDbBlockEnd
  0
BLOCK
  5
1C
330
1B
100
AcDbEntity
 67
     1
  8
0
100
AcDbBlockBegin
  2
*Paper_Space
 70
     0
 10
0.0
 20
0.0
 30
0.0
  3
*Paper_Space
  1
*Paper_Space
  0
ENDBLK
  5
1D
330
1B
100
AcDbEntity
 67
     1
  8
0
100
AcDbBlockEnd
  0
BLOCK
  5
24
330
23
100
AcDbEntity
  8
0
100
AcDbBlockBegin
  2
*Paper_Space0
 70
     0
 10
0.0
 20
0.0
 30
0.0
  3
*Paper_Space0
  1
*Paper_Space0
  0
ENDBLK
  5
25
330
23
100
AcDbEntity
  8
0
100
AcDbBlockEnd
  0
BLOCK
  5
80
330
7F
100
AcDbEntity
  8
0
100
AcDbBlockBegin
  2
블럭10
 70
     2
 10
0.0
 20
0.0
 30
0.0
  3
블럭10
  1
블럭10
  0
ELLIPSE
  5
82
330
7F
100
AcDbEntity
  8
중심선
100
AcDbEllipse
 10
20.54032771741204
 20
12.0471743016438
 30
0.0
 11
6.600054785286829
 21
-1.261213355974178E-13
 31
0.0
210
0.0
220
0.0
230
1.0
 40
0.636358354079598
 41
0.9219305317359503
 42
6.513795318482858
  0
ELLIPSE
  5
83
330
7F
100
AcDbEntity
  8
중심선
100
AcDbEllipse
 10
20.54032771746488
 20
12.04717430159265
 30
0.0
 11
3.960054785062283
 21
1.540847449632565E-10
 31
0.0
210
0.0
220
0.0
230
1.0
 40
0.3939339440162632
 41
1.131841032648279
 42
5.62031148352944
  0
LINE
  5
84
330
7F
100
AcDbEntity
  8
중심선
100
AcDbLine
 10
2.268634060543552
 20
16.24717430164393
 30
0.0
 11
5.714909304380834
 21
16.24717430164393
 31
0.0
  0
LINE
  5
85
330
7F
100
AcDbEntity
  8
중심선
100
AcDbLine
 10
5.245725140726316
 20
7.84717430164391
 30
0.0
 11
8.692000384563599
 21
7.84717430164391
 31
0.0
  0
LINE
  5
86
330
7F
100
AcDbEntity
  8
중심선
100
AcDbLine
 10
15.74043728645272
 20
16.24717430164393
 30
0.0
 11
8.692000384563599
 21
7.84717430164391
 31
0.0
  0
LINE
  5
87
330
7F
100
AcDbEntity
  8
중심선
100
AcDbLine
 10
0.1404042013395286
 20
13.71084872107135
 30
0.0
 11
3.58671253028996
 21
13.71088815037384
 31
0.0
  0
LINE
  5
88
330
7F
100
AcDbEntity
  8
중심선
100
AcDbLine
 10
2.750260043222114
 20
10.84717430164391
 30
0.0
 11
6.196535287059397
 21
10.84717430164391
 31
0.0
  0
LINE
  5
89
330
7F
100
AcDbEntity
  8
중심선
100
AcDbLine
 10
12.29416204261559
 20
16.24717430164393
 30
0.0
 11
5.245725140726316
 21
7.84717430164391
 31
0.0
  0
LINE
  5
8A
330
7F
100
AcDbEntity
  8
중심선
100
AcDbLine
 10
10.72767329541681
 20
16.24717430164393
 30
0.0
 11
6.196535287059397
 21
10.84717430164391
 31
0.0
  0
LINE
  5
8B
330
7F
100
AcDbEntity
  8
중심선
100
AcDbLine
 10
7.28139805157953
 20
16.24717430164393
 30
0.0
 11
2.750260043222114
 21
10.84717430164391
 31
0.0
  0
LINE
  5
8C
330
7F
100
AcDbEntity
  8
중심선
100
AcDbLine
 10
5.714909304380834
 20
16.24717430164393
 30
0.0
 11
3.58671253028996
 21
13.71088815037384
 31
0.0
  0
LINE
  5
8D
330
7F
100
AcDbEntity
  8
중심선
100
AcDbLine
 10
2.268634060543552
 20
16.24717430164393
 30
0.0
 11
0.1404042013395286
 21
13.71084872107135
 31
0.0
  0
LINE
  5
8E
330
7F
100
AcDbEntity
  8
중심선
100
AcDbLine
 10
7.28139805157953
 20
16.24717430164393
 30
0.0
 11
10.72767329541681
 21
16.24717430164393
 31
0.0
  0
LINE
  5
8F
330
7F
100
AcDbEntity
  8
중심선
100
AcDbLine
 10
12.29416204261559
 20
16.24717430164393
 30
0.0
 11
15.74043728645272
 21
16.24717430164393
 31
0.0
  0
LINE
  5
90
330
7F
100
AcDbEntity
  8
중심선
100
AcDbLine
 10
19.22036997980202
 20
11.08717430171403
 30
0.0
 11
23.66174974927406
 21
11.08717430171406
 31
0.0
  0
LINE
  5
91
330
7F
100
AcDbEntity
  8
중심선
100
AcDbLine
 10
19.22039502424796
 20
13.00717430171391
 30
0.0
 11
19.22036997980202
 21
11.08717430171403
 31
0.0
  0
LINE
  5
92
330
7F
100
AcDbEntity
  8
중심선
100
AcDbLine
 10
19.22039502424796
 20
13.00717430171391
 30
0.0
 11
26.96566020931264
 21
13.00717430171391
 31
0.0
  0
LINE
  5
93
330
7F
100
AcDbEntity
  8
중심선
100
AcDbLine
 10
22.22332737316547
 20
13.45928029700563
 30
0.0
 11
24.52862924686651
 21
15.39360700705356
 31
0.0
  0
ATTDEF
  5
95
330
7F
100
AcDbEntity
  8
FORMAT
 62
     2
100
AcDbText
 10
4.408487351596664
 20
2.075366912832191
 30
0.0
 40
4.233333333333333
  1
E2033048
 41
0.75
  7
SLDTEXTSTYLE0
 11
4.408487351596664
 21
-0.0412997538344756
 31
0.0
100
AcDbAttributeDefinition
  3

  2
AUTOATTR0
 70
     0
 74
     1
  0
ENDBLK
  5
81
330
7F
100
AcDbEntity
  8
0
100
AcDbBlockEnd
  0
BLOCK
  5
D6
330
D5
100
AcDbEntity
  8
0
100
AcDbBlockBegin
  2
_D
 70
     0
 10
0.0
 20
0.0
 30
0.0
  3
_D
  1
_D
  0
LINE
  5
D8
330
D5
100
AcDbEntity
  8
치수문자_일반주서
 62
     0
370
    -2
100
AcDbLine
 10
-50.14037356130562
 20
9.525000000000006
 30
0.0
 11
-63.57787356130566
 21
9.524999999999956
 31
0.0
  0
LINE
  5
D9
330
D5
100
AcDbEntity
  8
치수문자_일반주서
 62
     0
370
    -2
100
AcDbLine
 10
-50.14037356130562
 20
-9.525000000000006
 30
0.0
 11
-63.57787356130559
 21
-9.525000000000055
 31
0.0
  0
LINE
  5
DA
330
D5
100
AcDbEntity
  8
치수문자_일반주서
 62
     0
370
    -2
100
AcDbLine
 10
-63.57787356130564
 20
6.222999999999956
 30
0.0
 11
-63.57787356130561
 21
-6.223000000000056
 31
0.0
  0
SOLID
  5
DB
330
D5
100
AcDbEntity
  8
치수문자_일반주서
 62
     0
100
AcDbTrace
 10
-63.02754022797231
 20
6.222999999999958
 30
0.0
 11
-64.12820689463898
 21
6.222999999999955
 31
0.0
 12
-63.57787356130566
 22
9.524999999999956
 32
0.0
 13
-63.57787356130566
 23
9.524999999999956
 33
0.0
  0
SOLID
  5
DC
330
D5
100
AcDbEntity
  8
치수문자_일반주서
 62
     0
100
AcDbTrace
 10
-64.12820689463894
 20
-6.223000000000058
 30
0.0
 11
-63.02754022797227
 21
-6.223000000000054
 31
0.0
 12
-63.57787356130559
 22
-9.525000000000055
 32
0.0
 13
-63.57787356130559
 23
-9.525000000000055
 33
0.0
  0
MTEXT
  5
DD
330
D5
100
AcDbEntity
  8
치수문자_일반주서
 62
     0
100
AcDbMText
 10
-67.95287356130564
 20
-0.0000000000000026
 30
0.0
 40
3.5
 41
0.0
 71
     2
 72
     1
  1
\A1;%%c19.05 [3/4]
  7
SLDTEXTSTYLE0
 11
-3.356894814614645E-15
 21
1.0
 31
0.0
 73
     1
 44
1.0
  0
POINT
  5
DE
330
D5
100
AcDbEntity
  8
Defpoints
 62
     0
100
AcDbPoint
 10
-50.07787356130562
 20
9.525000000000006
 30
0.0
  0
POINT
  5
DF
330
D5
100
AcDbEntity
  8
Defpoints
 62
     0
100
AcDbPoint
 10
-50.07787356130562
 20
-9.525000000000006
 30
0.0
  0
POINT
  5
E0
330
D5
100
AcDbEntity
  8
Defpoints
 62
     0
100
AcDbPoint
 10
-63.57787356130559
 20
-9.525000000000055
 30
0.0
  0
ENDBLK
  5
D7
330
D5
100
AcDbEntity
  8
0
100
AcDbBlockEnd
  0
BLOCK
  5
EB
330
EA
100
AcDbEntity
  8
0
100
AcDbBlockBegin
  2
_D_1
 70
     0
 10
0.0
 20
0.0
 30
0.0
  3
_D_1
  1
_D_1
  0
LINE
  5
ED
330
EA
100
AcDbEntity
  8
치수문자_일반주서
 62
     0
370
    -2
100
AcDbLine
 10
85.44712643869383
 20
9.587500000000018
 30
0.0
 11
85.44712643869383
 21
21.35601073236545
 31
0.0
  0
LINE
  5
EE
330
EA
100
AcDbEntity
  8
치수문자_일반주서
 62
     0
370
    -2
100
AcDbLine
 10
44.17212643869441
 20
9.107507317499222
 30
0.0
 11
44.17212643869441
 21
21.35601073236545
 31
0.0
  0
LINE
  5
EF
330
EA
100
AcDbEntity
  8
치수문자_일반주서
 62
     0
370
    -2
100
AcDbLine
 10
82.14512643869382
 20
21.35601073236545
 30
0.0
 11
47.47412643869441
 21
21.35601073236545
 31
0.0
  0
SOLID
  5
F0
330
EA
100
AcDbEntity
  8
치수문자_일반주서
 62
     0
100
AcDbTrace
 10
82.14512643869382
 20
20.80567739903211
 30
0.0
 11
82.14512643869382
 21
21.90634406569878
 31
0.0
 12
85.44712643869383
 22
21.35601073236545
 32
0.0
 13
85.44712643869383
 23
21.35601073236545
 33
0.0
  0
SOLID
  5
F1
330
EA
100
AcDbEntity
  8
치수문자_일반주서
 62
     0
100
AcDbTrace
 10
47.47412643869441
 20
21.90634406569878
 30
0.0
 11
47.47412643869441
 21
20.80567739903211
 31
0.0
 12
44.17212643869441
 22
21.35601073236545
 32
0.0
 13
44.17212643869441
 23
21.35601073236545
 33
0.0
  0
MTEXT
  5
F2
330
EA
100
AcDbEntity
  8
치수문자_일반주서
 62
     0
100
AcDbMText
 10
64.80962643869412
 20
25.73101073236545
 30
0.0
 40
3.5
 41
0.0
 71
     2
 72
     1
  1
\A1;41.28 [1 5/8]
  7
SLDTEXTSTYLE0
 73
     1
 44
1.0
  0
POINT
  5
F3
330
EA
100
AcDbEntity
  8
Defpoints
 62
     0
100
AcDbPoint
 10
85.44712643869383
 20
9.525000000000018
 30
0.0
  0
POINT
  5
F4
330
EA
100
AcDbEntity
  8
Defpoints
 62
     0
100
AcDbPoint
 10
44.17212643869441
 20
9.045007317499222
 30
0.0
  0
POINT
  5
F5
330
EA
100
AcDbEntity
  8
Defpoints
 62
     0
100
AcDbPoint
 10
44.17212643869441
 20
21.35601073236545
 30
0.0
  0
ENDBLK
  5
EC
330
EA
100
AcDbEntity
  8
0
100
AcDbBlockEnd
  0
BLOCK
  5
FF
330
FE
100
AcDbEntity
  8
0
100
AcDbBlockBegin
  2
_D_2
 70
     0
 10
0.0
 20
0.0
 30
0.0
  3
_D_2
  1
_D_2
  0
LINE
  5
101
330
FE
100
AcDbEntity
  8
치수문자_일반주서
 62
     0
370
    -2
100
AcDbLine
 10
85.44712643869383
 20
9.587500000000015
 30
0.0
 11
85.44712643869383
 21
39.56419134481794
 31
0.0
  0
LINE
  5
102
330
FE
100
AcDbEntity
  8
치수문자_일반주서
 62
     0
370
    -2
100
AcDbLine
 10
-51.07787356130562
 20
8.587499999999988
 30
0.0
 11
-51.07787356130562
 21
39.56419134481794
 31
0.0
  0
LINE
  5
103
330
FE
100
AcDbEntity
  8
치수문자_일반주서
 62
     0
370
    -2
100
AcDbLine
 10
82.14512643869382
 20
39.56419134481794
 30
0.0
 11
-47.77587356130562
 21
39.56419134481794
 31
0.0
  0
SOLID
  5
104
330
FE
100
AcDbEntity
  8
치수문자_일반주서
 62
     0
100
AcDbTrace
 10
82.14512643869382
 20
39.01385801148461
 30
0.0
 11
82.14512643869382
 21
40.11452467815128
 31
0.0
 12
85.44712643869383
 22
39.56419134481794
 32
0.0
 13
85.44712643869383
 23
39.56419134481794
 33
0.0
  0
SOLID
  5
105
330
FE
100
AcDbEntity
  8
치수문자_일반주서
 62
     0
100
AcDbTrace
 10
-47.77587356130562
 20
40.11452467815128
 30
0.0
 11
-47.77587356130562
 21
39.01385801148461
 31
0.0
 12
-51.07787356130562
 22
39.56419134481794
 32
0.0
 13
-51.07787356130562
 23
39.56419134481794
 33
0.0
  0
MTEXT
  5
106
330
FE
100
AcDbEntity
  8
치수문자_일반주서
 62
     0
100
AcDbMText
 10
17.18462643869426
 20
43.93919134481794
 30
0.0
 40
3.5
 41
0.0
 71
     2
 72
     1
  1
\A1;136.53 [5 3/8]
  7
SLDTEXTSTYLE0
 73
     1
 44
1.0
  0
POINT
  5
107
330
FE
100
AcDbEntity
  8
Defpoints
 62
     0
100
AcDbPoint
 10
85.44712643869383
 20
9.525000000000015
 30
0.0
  0
POINT
  5
108
330
FE
100
AcDbEntity
  8
Defpoints
 62
     0
100
AcDbPoint
 10
-51.07787356130562
 20
8.524999999999988
 30
0.0
  0
POINT
  5
109
330
FE
100
AcDbEntity
  8
Defpoints
 62
     0
100
AcDbPoint
 10
-51.07787356130562
 20
39.56419134481794
 30
0.0
  0
ENDBLK
  5
100
330
FE
100
AcDbEntity
  8
0
100
AcDbBlockEnd
  0
BLOCK
  5
112
330
111
100
AcDbEntity
  8
0
100
AcDbBlockBegin
  2
_D_3
 70
     0
 10
0.0
 20
0.0
 30
0.0
  3
_D_3
  1
_D_3
  0
LINE
  5
114
330
111
100
AcDbEntity
  8
치수문자_일반주서
 62
     0
370
    -2
100
AcDbLine
 10
85.50962643869445
 20
-9.524999999999986
 30
0.0
 11
109.6657972877732
 21
-9.524999999999899
 31
0.0
  0
LINE
  5
115
330
111
100
AcDbEntity
  8
치수문자_일반주서
 62
     0
370
    -2
100
AcDbLine
 10
85.50962643869383
 20
9.525000000000018
 30
0.0
 11
109.6657972877731
 21
9.525000000000109
 31
0.0
  0
LINE
  5
116
330
111
100
AcDbEntity
  8
치수문자_일반주서
 62
     0
370
    -2
100
AcDbLine
 10
109.6657972877731
 20
9.525000000000109
 30
0.0
 11
109.6657972877729
 21
50.91320047500354
 31
0.0
  0
LINE
  5
117
330
111
100
AcDbEntity
  8
치수문자_일반주서
 62
     0
370
    -2
100
AcDbLine
 10
109.6657972877732
 20
-9.524999999999899
 30
0.0
 11
109.6657972877731
 21
9.525000000000109
 31
0.0
  0
LINE
  5
118
330
111
100
AcDbEntity
  8
치수문자_일반주서
 62
     0
370
    -2
100
AcDbLine
 10
109.6657972877732
 20
-12.8269999999999
 30
0.0
 11
109.6657972877732
 21
-16.1289999999999
 31
0.0
  0
LINE
  5
119
330
111
100
AcDbEntity
  8
치수문자_일반주서
 62
     0
370
    -2
100
AcDbLine
 10
109.6657972877731
 20
12.82700000000011
 30
0.0
 11
109.6657972877731
 21
16.12900000000011
 31
0.0
  0
SOLID
  5
11A
330
111
100
AcDbEntity
  8
치수문자_일반주서
 62
     0
100
AcDbTrace
 10
110.2161306211065
 20
-12.8269999999999
 30
0.0
 11
109.1154639544398
 21
-12.8269999999999
 31
0.0
 12
109.6657972877732
 22
-9.524999999999899
 32
0.0
 13
109.6657972877732
 23
-9.524999999999899
 33
0.0
  0
SOLID
  5
11B
330
111
100
AcDbEntity
  8
치수문자_일반주서
 62
     0
100
AcDbTrace
 10
109.1154639544397
 20
12.82700000000011
 30
0.0
 11
110.2161306211064
 21
12.82700000000011
 31
0.0
 12
109.6657972877731
 22
9.525000000000109
 32
0.0
 13
109.6657972877731
 23
9.525000000000109
 33
0.0
  0
MTEXT
  5
11C
330
111
100
AcDbEntity
  8
치수문자_일반주서
 62
     0
100
AcDbMText
 10
105.290797287773
 20
37.13195047500353
 30
0.0
 40
3.5
 41
0.0
 71
     2
 72
     1
  1
\A1;%%c19.05 [3/4]
  7
SLDTEXTSTYLE0
 11
-3.729883127349606E-15
 21
1.0
 31
0.0
 73
     1
 44
1.0
  0
POINT
  5
11D
330
111
100
AcDbEntity
  8
Defpoints
 62
     0
100
AcDbPoint
 10
85.44712643869445
 20
-9.524999999999986
 30
0.0
  0
POINT
  5
1B6
330
111
100
AcDbEntity
  8
Defpoints
 62
     0
100
AcDbPoint
 10
85.44712643869383
 20
9.525000000000018
 30
0.0
  0
POINT
  5
1B7
330
111
100
AcDbEntity
  8
Defpoints
 62
     0
100
AcDbPoint
 10
109.6657972877731
 20
9.525000000000109
 30
0.0
  0
ENDBLK
  5
113
330
111
100
AcDbEntity
  8
0
100
AcDbBlockEnd
  0
BLOCK
  5
12B
330
12A
100
AcDbEntity
  8
0
100
AcDbBlockBegin
  2
SW_DOWELSYMBOL_0
 70
     0
 10
0.0
 20
0.0
 30
0.0
  3
SW_DOWELSYMBOL_0
  1
SW_DOWELSYMBOL_0
  0
CIRCLE
  5
12D
330
12A
100
AcDbEntity
  8
해칭선
 62
     0
100
AcDbCircle
 10
0.0
 20
0.0
 30
0.0
 40
2.999999999999996
  0
HATCH
  5
12E
330
12A
100
AcDbEntity
  8
0
  6
Continuous
 62
     0
370
     0
100
AcDbHatch
 10
0.0
 20
0.0
 30
0.0
210
0.0
220
0.0
230
1.0
  2
SOLID
 70
     1
 71
     0
 91
        1
 92
        0
 93
        3
 72
     2
 10
0.0
 20
0.0
 40
2.999999999999996
 50
0.0
 51
90.0
 73
     1
 72
     1
 10
0.0
 20
2.999999999999996
 11
0.0
 21
0.0
 72
     1
 10
0.0
 20
0.0
 11
2.999999999999996
 21
0.0
 97
        0
 75
     0
 76
     1
 98
        1
 10
0.0
 20
0.0
  0
HATCH
  5
12F
330
12A
100
AcDbEntity
  8
0
  6
Continuous
 62
     0
370
     0
100
AcDbHatch
 10
0.0
 20
0.0
 30
0.0
210
0.0
220
0.0
230
1.0
  2
SOLID
 70
     1
 71
     0
 91
        1
 92
        0
 93
        3
 72
     2
 10
0.0
 20
0.0
 40
2.999999999999996
 50
180.0
 51
270.0000000000007
 73
     1
 72
     1
 10
0.0
 20
-2.999999999999996
 11
0.0
 21
0.0
 72
     1
 10
0.0
 20
0.0
 11
-2.999999999999996
 21
0.0
 97
        0
 75
     0
 76
     1
 98
        1
 10
0.0
 20
0.0
  0
ENDBLK
  5
12C
330
12A
100
AcDbEntity
  8
0
100
AcDbBlockEnd
  0
BLOCK
  5
234
330
233
100
AcDbEntity
  8
0
100
AcDbBlockBegin
  2
*D7
 70
     1
 10
0.0
 20
0.0
 30
0.0
  3
*D7
  1
*D7
  0
LINE
  5
236
330
233
100
AcDbEntity
  8
치수문자_일반주서
 62
     0
370
    -2
100
AcDbLine
 10
0.5158764386943844
 20
9.396999999999998
 30
0.0
 11
0.5158764386943915
 21
30.031523364071
 31
0.0
  0
LINE
  5
237
330
233
100
AcDbEntity
  8
치수문자_일반주서
 62
     0
370
    -2
100
AcDbLine
 10
85.44712643869383
 20
9.587500000000015
 30
0.0
 11
85.44712643869383
 21
30.031523364071
 31
0.0
  0
LINE
  5
238
330
233
100
AcDbEntity
  8
치수문자_일반주서
 62
     0
370
    -2
100
AcDbLine
 10
3.817876438694392
 20
30.031523364071
 30
0.0
 11
82.14512643869382
 21
30.031523364071
 31
0.0
  0
SOLID
  5
239
330
233
100
AcDbEntity
  8
치수문자_일반주서
 62
     0
100
AcDbTrace
 10
3.817876438694392
 20
30.58185669740433
 30
0.0
 11
3.817876438694392
 21
29.48119003073766
 31
0.0
 12
0.5158764386943915
 22
30.031523364071
 32
0.0
 13
0.5158764386943915
 23
30.031523364071
 33
0.0
  0
SOLID
  5
23A
330
233
100
AcDbEntity
  8
치수문자_일반주서
 62
     0
100
AcDbTrace
 10
82.14512643869382
 20
29.48119003073766
 30
0.0
 11
82.14512643869382
 21
30.58185669740433
 31
0.0
 12
85.44712643869383
 22
30.031523364071
 32
0.0
 13
85.44712643869383
 23
30.031523364071
 33
0.0
  0
MTEXT
  5
23B
330
233
100
AcDbEntity
  8
치수문자_일반주서
 62
     0
100
AcDbMText
 10
42.98150143869411
 20
32.656523364071
 30
0.0
 40
3.5
 41
0.0
 71
     5
 72
     1
  1
\A1;84.93 [3 11/32]
  7
SLDTEXTSTYLE0
 73
     1
 44
1.0
  0
POINT
  5
23C
330
233
100
AcDbEntity
  8
Defpoints
 62
     0
100
AcDbPoint
 10
0.5158764386943844
 20
9.334499999999998
 30
0.0
  0
POINT
  5
23D
330
233
100
AcDbEntity
  8
Defpoints
 62
     0
100
AcDbPoint
 10
85.44712643869383
 20
9.525000000000015
 30
0.0
  0
POINT
  5
23E
330
233
100
AcDbEntity
  8
Defpoints
 62
     0
100
AcDbPoint
 10
85.44712643869383
 20
30.031523364071
 30
0.0
  0
ENDBLK
  5
235
330
233
100
AcDbEntity
  8
0
100
AcDbBlockEnd
  0
ENDSEC
  0
SECTION
  2
ENTITIES
  0
LINE
  5
96
330
1F
100
AcDbEntity
  8
외형선
  6
Continuous
370
    15
100
AcDbLine
 10
0.0
 20
9.524999999999999
 30
0.0
 11
-17.58479856130562
 21
9.524999999999997
 31
0.0
  0
LINE
  5
97
330
1F
100
AcDbEntity
  8
외형선
  6
Continuous
370
    15
100
AcDbLine
 10
-50.07787356130562
 20
-9.525000000000006
 30
0.0
 11
-0.0000000000000071
 21
-9.525000000000002
 31
0.0
  0
LINE
  5
98
330
1F
100
AcDbEntity
  8
외형선
  6
Continuous
370
    15
100
AcDbLine
 10
-50.07787356130562
 20
9.524999999999988
 30
0.0
 11
-51.07787356130562
 21
8.524999999999988
 31
0.0
  0
LINE
  5
99
330
1F
100
AcDbEntity
  8
외형선
  6
Continuous
370
    15
100
AcDbLine
 10
-51.07787356130562
 20
-8.524999999999999
 30
0.0
 11
-50.07787356130562
 21
-9.524999999999999
 31
0.0
  0
LINE
  5
9B
330
1F
100
AcDbEntity
  8
0
  6
Continuous
 62
     1
370
    15
100
AcDbLine
 10
58.17760141953308
 20
3.736401098589023
 30
0.0
 11
58.12765388776464
 21
3.762379947288232
 31
0.0
  0
SPLINE
  5
9C
330
1F
100
AcDbEntity
  8
0
  6
Continuous
 62
     1
370
    15
100
AcDbSpline
210
0.0
220
0.0
230
1.0
 70
     8
 71
     3
 72
    10
 73
     6
 74
     0
 42
0.000000001
 43
0.00000001
 40
0.0
 40
0.0
 40
0.0
 40
0.0
 40
0.4354749644739758
 40
0.6497903050428333
 40
1.0
 40
1.0
 40
1.0
 40
1.0
 10
60.77068445610752
 20
2.440718142402202
 30
0.0
 10
60.39248134611638
 20
2.620880465524003
 30
0.0
 10
59.8281487569717
 20
2.889708160452347
 30
0.0
 10
58.9683708880621
 20
3.321410598729418
 30
0.0
 10
58.48035053916988
 20
3.577520396323368
 30
0.0
 10
58.17760141953308
 20
3.736401098589023
 30
0.0
  0
SPLINE
  5
9D
330
1F
100
AcDbEntity
  8
0
  6
Continuous
 62
     1
370
    15
100
AcDbSpline
210
0.0
220
0.0
230
1.0
 70
     8
 71
     3
 72
    18
 73
    14
 74
     0
 42
0.000000001
 43
0.00000001
 40
0.0
 40
0.0
 40
0.0
 40
0.0
 40
0.1329314305274756
 40
0.2531148894844256
 40
0.3554915012642072
 40
0.4444915075610447
 40
0.5466706588301886
 40
0.6495234158625343
 40
0.7411139096826107
 40
0.8337779032926823
 40
0.9052217992519895
 40
0.979486437945952
 40
1.0
 40
1.0
 40
1.0
 40
1.0
 10
57.62217596614148
 20
7.568936112421754
 30
0.0
 10
57.29439914925611
 20
7.551810157867503
 30
0.0
 10
56.6702789359078
 20
7.51920060813864
 30
0.0
 10
55.72468062166024
 20
7.485977789617876
 30
0.0
 10
54.90511597175411
 20
7.462772631492035
 30
0.0
 10
54.1545982038114
 20
7.448218821097711
 30
0.0
 10
53.39228722798306
 20
7.439492979741735
 30
0.0
 10
52.62456793039075
 20
7.437581055135269
 30
0.0
 10
51.88137059497937
 20
7.441998487921358
 30
0.0
 10
51.21934633878007
 20
7.451173396260552
 30
0.0
 10
50.60218444141931
 20
7.464288269240619
 30
0.0
 10
50.17182799056521
 20
7.47553221847321
 30
0.0
 10
49.92642061738182
 20
7.483742441335655
 30
0.0
 10
49.87330524550742
 20
7.485519441899467
 30
0.0
  0
SPLINE
  5
9E
330
1F
100
AcDbEntity
  8
0
  6
Continuous
 62
     1
370
    15
100
AcDbSpline
210
0.0
220
0.0
230
1.0
 70
     8
 71
     3
 72
    28
 73
    24
 74
     0
 42
0.000000001
 43
0.00000001
 40
0.0
 40
0.0
 40
0.0
 40
0.0
 40
0.0440035570774449
 40
0.082230683453543
 40
0.1263559135247432
 40
0.1600450612020057
 40
0.1828292257395573
 40
0.2123706966999505
 40
0.2545594426473645
 40
0.2955927136484539
 40
0.3354540524315063
 40
0.3842020625670457
 40
0.4398578797036471
 40
0.4864308925995379
 40
0.5500919835181153
 40
0.6119310498580021
 40
0.677972914836888
 40
0.7568073374101161
 40
0.798642101674929
 40
0.8357787546662592
 40
0.8795883607860109
 40
0.9328498343091501
 40
1.0
 40
1.0
 40
1.0
 40
1.0
 10
81.90863196079522
 20
6.514656243180535
 30
0.0
 10
81.6950732057372
 20
6.496086922604934
 30
0.0
 10
81.2959899599214
 20
6.461385911513669
 30
0.0
 10
80.60007817572242
 20
6.40871821585969
 30
0.0
 10
79.92791986027837
 20
6.372276269665114
 30
0.0
 10
79.34533347485953
 20
6.342098465965749
 30
0.0
 10
78.86767394081869
 20
6.321083341594295
 30
0.0
 10
78.34805484269029
 20
6.301698482645887
 30
0.0
 10
77.71526403016689
 20
6.283787476622767
 30
0.0
 10
77.02820425798609
 20
6.271796204027315
 30
0.0
 10
76.31054427370384
 20
6.266731326209626
 30
0.0
 10
75.50814331203615
 20
6.270204105659396
 30
0.0
 10
74.66611881685793
 20
6.285190965152488
 30
0.0
 10
73.74152791931107
 20
6.313768254090427
 30
0.0
 10
72.78324341022959
 20
6.357088608623854
 30
0.0
 10
71.71455627787596
 20
6.422186611587357
 30
0.0
 10
70.56491405868498
 20
6.510340839749384
 30
0.0
 10
69.5172718382485
 20
6.609861127074034
 30
0.0
 10
68.65547751415193
 20
6.703321254339628
 30
0.0
 10
67.97894347934614
 20
6.782494038220255
 30
0.0
 10
67.20868540547303
 20
6.881004985436766
 30
0.0
 10
66.27218567832492
 20
7.008645705564081
 30
0.0
 10
65.62737627487839
 20
7.108435738581651
 30
0.0
 10
65.26778430716584
 20
7.164085817719901
 30
0.0
  0
SPLINE
  5
9F
330
1F
100
AcDbEntity
  8
0
  6
Continuous
 62
     1
370
    15
100
AcDbSpline
210
0.0
220
0.0
230
1.0
 70
     8
 71
     3
 72
    16
 73
    12
 74
     0
 42
0.000000001
 43
0.00000001
 40
0.0
 40
0.0
 40
0.0
 40
0.0
 40
0.1452401522050962
 40
0.2630832057293697
 40
0.3605545297227208
 40
0.4442750314379962
 40
0.5247054328459138
 40
0.6276440638734496
 40
0.734284558466879
 40
0.900292579185749
 40
1.0
 40
1.0
 40
1.0
 40
1.0
 10
65.26778430716584
 20
-7.164085817719899
 30
0.0
 10
65.59753896664745
 20
-7.112987449589536
 30
0.0
 10
66.19484564529999
 20
-7.020429556395563
 30
0.0
 10
67.0628539621179
 20
-6.900394119177679
 30
0.0
 10
67.78892478246654
 20
-6.806362060404984
 30
0.0
 10
68.4164393129706
 20
-6.730635076080254
 30
0.0
 10
69.02468623227676
 20
-6.662786541716528
 30
0.0
 10
69.71258697192104
 20
-6.591317633591099
 30
0.0
 10
70.60049817177143
 20
-6.508958876563263
 30
0.0
 10
71.48112958780771
 20
-6.437700843819418
 30
0.0
 10
72.10998660047153
 20
-6.400418003703562
 30
0.0
 10
72.34595975442858
 20
-6.386427940472258
 30
0.0
  0
SPLINE
  5
A0
330
1F
100
AcDbEntity
  8
0
  6
Continuous
 62
     1
370
    15
100
AcDbSpline
210
0.0
220
0.0
230
1.0
 70
     8
 71
     3
 72
    29
 73
    25
 74
     0
 42
0.000000001
 43
0.00000001
 40
0.0
 40
0.0
 40
0.0
 40
0.0
 40
0.0766224816265334
 40
0.1342705572944174
 40
0.1733894244206703
 40
0.2013578311105881
 40
0.2261692896651355
 40
0.2483894801965673
 40
0.27876001446856
 40
0.3205002958122449
 40
0.357976713234994
 40
0.3822132251028535
 40
0.4075165716007139
 40
0.4406298721310977
 40
0.4805880203840526
 40
0.5182180426099698
 40
0.5776589962598946
 40
0.6386350492961641
 40
0.7061429580883013
 40
0.7681730733275027
 40
0.8144751759442636
 40
0.8697337643518477
 40
0.9319194104671613
 40
1.0
 40
1.0
 40
1.0
 40
1.0
 10
44.17212643869441
 20
-7.839222384756983
 30
0.0
 10
44.51988865865633
 20
-7.809272121303671
 30
0.0
 10
45.1292950115832
 20
-7.756788326996522
 30
0.0
 10
45.9158465590985
 20
-7.696373094729544
 30
0.0
 10
46.47972811402281
 20
-7.656384965748484
 30
0.0
 10
46.89058945406904
 20
-7.629270014051343
 30
0.0
 10
47.22680428556713
 20
-7.608323009876008
 30
0.0
 10
47.5737580626392
 20
-7.587867632641155
 30
0.0
 10
47.99657956390109
 20
-7.564512259580005
 30
0.0
 10
48.48757553325183
 20
-7.539909604966524
 30
0.0
 10
48.95088822643882
 20
-7.519292456149893
 30
0.0
 10
49.34081166205834
 20
-7.503735529233258
 30
0.0
 10
49.71124462773223
 20
-7.490324833548051
 30
0.0
 10
50.15207203339538
 20
-7.4762776197176
 30
0.0
 10
50.64812687427626
 20
-7.463155248925772
 30
0.0
 10
51.26212260494638
 20
-7.450441640471043
 30
0.0
 10
51.9704443575168
 20
-7.440879171074891
 30
0.0
 10
52.81180052960394
 20
-7.437139253445346
 30
0.0
 10
53.66746692400609
 20
-7.441627827065976
 30
0.0
 10
54.44961260010395
 20
-7.453200763947617
 30
0.0
 10
55.18244071320635
 20
-7.470104911135185
 30
0.0
 10
55.92908500618363
 20
-7.49271676019059
 30
0.0
 10
56.77961526704256
 20
-7.524650883085956
 30
0.0
 10
57.33297532449011
 20
-7.553735644665202
 30
0.0
 10
57.62217596614148
 20
-7.568936112421753
 30
0.0
  0
LINE
  5
A2
330
1F
100
AcDbEntity
  8
외형선
  6
Continuous
370
    15
100
AcDbLine
 10
44.17212643869441
 20
9.045007317499214
 30
0.0
 11
44.17212643869441
 21
7.868658541669563
 31
0.0
  0
LINE
  5
A6
330
1F
100
AcDbEntity
  8
외형선
  6
Continuous
370
    15
100
AcDbLine
 10
-50.07787356130562
 20
9.524999999999988
 30
0.0
 11
-50.07787356130562
 21
-9.52500000000001
 31
0.0
  0
LINE
  5
A8
330
1F
100
AcDbEntity
  8
외형선
  6
Continuous
370
    15
100
AcDbLine
 10
-51.07787356130562
 20
8.524999999999988
 30
0.0
 11
-51.07787356130562
 21
-8.524999999999999
 31
0.0
  0
SPLINE
  5
A9
330
1F
100
AcDbEntity
  8
외형선
  6
Continuous
370
    15
100
AcDbSpline
210
0.0
220
0.0
230
1.0
 70
    24
 71
     3
 72
    14
 73
    10
 74
     0
 42
0.000000001
 43
0.00000001
 40
0.0
 40
0.0
 40
0.0
 40
0.0
 40
0.25
 40
0.25
 40
0.5
 40
0.5
 40
0.75
 40
0.75
 40
1.0
 40
1.0
 40
1.0
 40
1.0
 10
44.17212643869441
 20
5.348962912263906
 30
0.0
 10
44.17212643869441
 20
4.712674307996753
 30
0.0
 10
44.17212643869441
 20
3.988028033072573
 30
0.0
 10
44.17212643869441
 20
2.408547049440659
 30
0.0
 10
44.17212643869441
 20
1.554227029035069
 30
0.0
 10
44.17212643869441
 20
-0.2049459162625224
 30
0.0
 10
44.17212643869441
 20
-1.108861480261378
 30
0.0
 10
44.17212643869441
 20
-2.877317509624253
 30
0.0
 10
44.17212643869441
 20
-3.741077861037777
 30
0.0
 10
44.17212643869441
 20
-4.54911009204204
 30
0.0
  0
SPLINE
  5
AD
330
1F
100
AcDbEntity
  8
외형선
  6
Continuous
370
    15
100
AcDbSpline
210
0.0
220
0.0
230
1.0
 70
    24
 71
     3
 72
    13
 73
     9
 74
     0
 42
0.000000001
 43
0.00000001
 40
0.0
 40
0.0
 40
0.0
 40
0.0
 40
0.1423509912723147
 40
0.2865533825730467
 40
0.4962129157830629
 40
0.7119525896595157
 40
0.9013596547193755
 40
1.0
 40
1.0
 40
1.0
 40
1.0
 10
44.17212643869441
 20
-4.549110092042038
 30
0.0
 10
44.17212643869441
 20
-4.827106406802721
 30
0.0
 10
44.17212643869441
 20
-5.386714623264844
 30
0.0
 10
44.17212643869443
 20
-6.207718763656418
 30
0.0
 10
44.17212643869439
 20
-6.978930763214876
 30
0.0
 10
44.17212643869441
 20
-7.530888131769426
 30
0.0
 10
44.17212643869441
 20
-7.807204447089189
 30
0.0
 10
44.17212643869441
 20
-7.808170362033736
 30
0.0
 10
44.17212643869441
 20
-7.808501134608741
 30
0.0
  0
SPLINE
  5
AE
330
1F
100
AcDbEntity
  8
외형선
  6
Continuous
370
    15
100
AcDbSpline
210
0.0
220
0.0
230
1.0
 70
    24
 71
     3
 72
    10
 73
     6
 74
     0
 42
0.000000001
 43
0.00000001
 40
0.0
 40
0.0
 40
0.0
 40
0.0
 40
0.5
 40
0.5
 40
1.0
 40
1.0
 40
1.0
 40
1.0
 10
44.17212643869441
 20
7.868658541669567
 30
0.0
 10
44.17212643869441
 20
7.558836001674821
 30
0.0
 10
44.17212643869441
 20
7.164416072179651
 30
0.0
 10
44.17212643869441
 20
6.289912953838469
 30
0.0
 10
44.17212643869441
 20
5.812510410540098
 30
0.0
 10
44.17212643869441
 20
5.348962912263904
 30
0.0
  0
SPLINE
  5
AF
330
1F
100
AcDbEntity
  8
외형선
  6
Continuous
370
    15
100
AcDbSpline
210
0.0
220
0.0
230
1.0
 70
    24
 71
     3
 72
    12
 73
     8
 74
     0
 42
0.000000001
 43
0.00000001
 40
0.0
 40
0.0
 40
0.0
 40
0.0
 40
0.1494526479796684
 40
0.379712251576289
 40
0.6097041166985491
 40
0.8399637202951701
 40
1.0
 40
1.0
 40
1.0
 40
1.0
 10
44.17212643869441
 20
-7.92221659164401
 30
0.0
 10
44.17212643869441
 20
-7.9811945991256
 30
0.0
 10
44.17212643869441
 20
-8.131039197512138
 30
0.0
 10
44.17212643869441
 20
-8.36464522057755
 30
0.0
 10
44.17212643869441
 20
-8.623448079861651
 30
0.0
 10
44.17212643869441
 20
-8.849948272323195
 30
0.0
 10
44.17212643869441
 20
-8.988284258196346
 30
0.0
 10
44.17212643869441
 20
-9.045007317484519
 30
0.0
  0
SPLINE
  5
B0
330
1F
100
AcDbEntity
  8
0
  6
Continuous
 62
     1
370
    15
100
AcDbSpline
210
0.0
220
0.0
230
1.0
 70
     8
 71
     3
 72
    58
 73
    54
 74
     0
 42
0.000000001
 43
0.00000001
 40
0.0
 40
0.0
 40
0.0
 40
0.0
 40
0.03125
 40
0.03125
 40
0.0625000000000001
 40
0.0625000000000001
 40
0.0937500000000001
 40
0.0937500000000001
 40
0.1250000000000001
 40
0.1250000000000001
 40
0.1875000000000001
 40
0.1875000000000001
 40
0.25
 40
0.25
 40
0.28125
 40
0.28125
 40
0.3125000000000001
 40
0.3125000000000001
 40
0.3437500000000001
 40
0.3437500000000001
 40
0.3750000000000001
 40
0.3750000000000001
 40
0.4375000000000003
 40
0.4375000000000003
 40
0.4687500000000003
 40
0.4687500000000003
 40
0.5000000000000003
 40
0.5000000000000003
 40
0.5312500000000004
 40
0.5312500000000004
 40
0.5625000000000004
 40
0.5625000000000004
 40
0.6250000000000007
 40
0.6250000000000007
 40
0.6562500000000007
 40
0.6562500000000007
 40
0.6875000000000006
 40
0.6875000000000006
 40
0.7187500000000006
 40
0.7187500000000006
 40
0.7500000000000004
 40
0.7500000000000004
 40
0.8125000000000004
 40
0.8125000000000004
 40
0.8437500000000004
 40
0.8437500000000004
 40
0.8750000000000004
 40
0.8750000000000004
 40
0.9062500000000004
 40
0.9062500000000004
 40
0.9375000000000004
 40
0.9375000000000004
 40
1.0
 40
1.0
 40
1.0
 40
1.0
 10
44.17212643869441
 20
7.868658541669563
 30
0.0
 10
44.60297473182911
 20
7.728679892450434
 30
0.0
 10
45.03399962471855
 20
7.580642877069872
 30
0.0
 10
45.89245967734949
 20
7.269866289867162
 30
0.0
 10
46.32052185340643
 20
7.107072443056734
 30
0.0
 10
47.18143637058843
 20
6.766726564359365
 30
0.0
 10
47.61279053968288
 20
6.589352372244776
 30
0.0
 10
48.47333974761243
 20
6.221832736521323
 30
0.0
 10
48.90099842497659
 20
6.03192831581865
 30
0.0
 10
50.18963266483956
 20
5.443563270056412
 30
0.0
 10
51.05515690022953
 20
5.0264419267851
 30
0.0
 10
52.76761465957176
 20
4.157773115240927
 30
0.0
 10
53.63315354814981
 20
3.703101716666975
 30
0.0
 10
54.92177458563614
 20
3.002937172047551
 30
0.0
 10
55.34943772602247
 20
2.766599406812165
 30
0.0
 10
56.20999281403068
 20
2.287811274031874
 30
0.0
 10
56.64134722989692
 20
2.0456380426063
 30
0.0
 10
57.50225684657563
 20
1.55795075172854
 30
0.0
 10
57.93031157806965
 20
1.3127262294648
 30
0.0
 10
58.78878140443678
 20
0.819659719448187
 30
0.0
 10
59.21980851269892
 20
0.5716970585348696
 30
0.0
 10
60.51235192267343
 20
-0.1730811114554207
 30
0.0
 10
61.36793161897518
 20
-0.6697420689518696
 30
0.0
 10
62.66008484452853
 20
-1.409301897506658
 30
0.0
 10
63.0913402883762
 20
-1.65473604598779
 30
0.0
 10
63.95097663360124
 20
-2.141190581565994
 30
0.0
 10
64.37843985799685
 20
-2.382044853699715
 30
0.0
 10
65.23857015793904
 20
-2.859386096698986
 30
0.0
 10
65.66989186789255
 20
-3.095614368261111
 30
0.0
 10
66.53109644451683
 20
-3.561013976147329
 30
0.0
 10
66.95974625081811
 20
-3.789969351279774
 30
0.0
 10
68.24642424360236
 20
-4.464718278893276
 30
0.0
 10
69.11209493798509
 20
-4.899482910944337
 30
0.0
 10
70.39876487592574
 20
-5.517143241357882
 30
0.0
 10
70.82741988876188
 20
-5.717594318229287
 30
0.0
 10
71.68862642706578
 20
-6.107033833288658
 30
0.0
 10
72.11994776781675
 20
-6.295822912094924
 30
0.0
 10
72.98007464050684
 20
-6.659825575414071
 30
0.0
 10
73.40753711914161
 20
-6.834873159589296
 30
0.0
 10
74.26717737979553
 20
-7.171346219013286
 30
0.0
 10
74.69843343949216
 20
-7.332625912648673
 30
0.0
 10
75.99058445888357
 20
-7.793331868719004
 30
0.0
 10
76.84616540147894
 20
-8.069262554218634
 30
0.0
 10
78.13870954892926
 20
-8.433196852901528
 30
0.0
 10
78.56973555042664
 20
-8.546032151273131
 30
0.0
 10
79.42820049174338
 20
-8.753782069120701
 30
0.0
 10
79.85625893993867
 20
-8.848772064516519
 30
0.0
 10
80.71717100870411
 20
-9.020877214412783
 30
0.0
 10
81.1485253021084
 20
-9.097866016747027
 30
0.0
 10
82.0090774519098
 20
-9.233018245287953
 30
0.0
 10
82.43673835520204
 20
-9.291132286582464
 30
0.0
 10
83.72536599660987
 20
-9.437212134644039
 30
0.0
 10
84.59090389081715
 20
-9.496571523568715
 30
0.0
 10
85.44712643869447
 20
-9.524999999999983
 30
0.0
  0
SPLINE
  5
B1
330
1F
100
AcDbEntity
  8
0
  6
Continuous
 62
     1
370
    15
100
AcDbSpline
210
0.0
220
0.0
230
1.0
 70
     8
 71
     3
 72
    13
 73
     9
 74
     0
 42
0.000000001
 43
0.00000001
 40
0.0
 40
0.0
 40
0.0
 40
0.0
 40
0.1238376402597309
 40
0.333775260762897
 40
0.5436435107006358
 40
0.6957912419646526
 40
0.8479052153400619
 40
1.0
 40
1.0
 40
1.0
 40
1.0
 10
61.77067793483639
 20
-0.8966649298231328
 30
0.0
 10
61.04416232887738
 20
-0.6061881257954537
 30
0.0
 10
59.08601022489111
 20
0.1767238451252216
 30
0.0
 10
55.89661381249665
 20
1.470370368739797
 30
0.0
 10
52.54112410851418
 20
2.75997151046051
 30
0.0
 10
49.52543604228761
 20
3.815582826126634
 30
0.0
 10
46.84859622881243
 20
4.662329455042751
 30
0.0
 10
45.06424551796412
 20
5.120094718080062
 30
0.0
 10
44.17212643869441
 20
5.348962912263906
 30
0.0
  0
SPLINE
  5
B2
330
1F
100
AcDbEntity
  8
외형선
  6
Continuous
370
    15
100
AcDbSpline
210
0.0
220
0.0
230
1.0
 70
    24
 71
     3
 72
    10
 73
     6
 74
     0
 42
0.000000001
 43
0.00000001
 40
0.0
 40
0.0
 40
0.0
 40
0.0
 40
0.5
 40
0.5
 40
1.0
 40
1.0
 40
1.0
 40
1.0
 10
44.17212643869441
 20
7.868658541669567
 30
0.0
 10
44.17212643869441
 20
7.558836001674818
 30
0.0
 10
44.17212643869441
 20
7.164416072179649
 30
0.0
 10
44.17212643869441
 20
6.289912953838468
 30
0.0
 10
44.17212643869441
 20
5.812510410540095
 30
0.0
 10
44.17212643869441
 20
5.348962912263903
 30
0.0
  0
SPLINE
  5
B3
330
1F
100
AcDbEntity
  8
0
  6
Continuous
 62
     1
370
    15
100
AcDbSpline
210
0.0
220
0.0
230
1.0
 70
     8
 71
     3
 72
    58
 73
    54
 74
     0
 42
0.000000001
 43
0.00000001
 40
0.0
 40
0.0
 40
0.0
 40
0.0
 40
0.0625000000000001
 40
0.0625000000000001
 40
0.0937500000000003
 40
0.0937500000000003
 40
0.1250000000000006
 40
0.1250000000000006
 40
0.1562500000000008
 40
0.1562500000000008
 40
0.187500000000001
 40
0.187500000000001
 40
0.2500000000000011
 40
0.2500000000000011
 40
0.281250000000001
 40
0.281250000000001
 40
0.3125000000000009
 40
0.3125000000000009
 40
0.3437500000000008
 40
0.3437500000000008
 40
0.3750000000000007
 40
0.3750000000000007
 40
0.4375000000000006
 40
0.4375000000000006
 40
0.4687500000000004
 40
0.4687500000000004
 40
0.5000000000000003
 40
0.5000000000000003
 40
0.5312500000000001
 40
0.5312500000000001
 40
0.5625
 40
0.5625
 40
0.6249999999999999
 40
0.6249999999999999
 40
0.6562499999999998
 40
0.6562499999999998
 40
0.6874999999999998
 40
0.6874999999999998
 40
0.7187499999999997
 40
0.7187499999999997
 40
0.7499999999999996
 40
0.7499999999999996
 40
0.8124999999999997
 40
0.8124999999999997
 40
0.8749999999999998
 40
0.8749999999999998
 40
0.9062499999999999
 40
0.9062499999999999
 40
0.9374999999999999
 40
0.9374999999999999
 40
0.96875
 40
0.96875
 40
1.0
 40
1.0
 40
1.0
 40
1.0
 10
85.44712643869443
 20
-9.038661779433845
 30
0.0
 10
84.59090389081709
 20
-8.882274831954463
 30
0.0
 10
83.72536599660974
 20
-8.688372198995337
 30
0.0
 10
82.43673835520181
 20
-8.34636702119489
 30
0.0
 10
82.00907745190955
 20
-8.223933488968376
 30
0.0
 10
81.14852530210806
 20
-7.962067706660591
 30
0.0
 10
80.71717100870373
 20
-7.822764092099797
 30
0.0
 10
79.85625893993821
 20
-7.528685303606462
 30
0.0
 10
79.4282004917429
 20
-7.374103844771835
 30
0.0
 10
78.56973555042609
 20
-7.049987746358549
 30
0.0
 10
78.13870954892869
 20
-6.880353843413125
 30
0.0
 10
76.84616540147823
 20
-6.350974832854239
 30
0.0
 10
75.99058445888284
 20
-5.97156374920263
 30
0.0
 10
74.69843343949128
 20
-5.367034523349796
 30
0.0
 10
74.26717737979465
 20
-5.15975277648913
 30
0.0
 10
73.40753711914064
 20
-4.735566727035882
 30
0.0
 10
72.98007464050585
 20
-4.518832042219475
 30
0.0
 10
72.11994776781569
 20
-4.075730293940079
 30
0.0
 10
71.68862642706466
 20
-3.849578404506752
 30
0.0
 10
70.82741988876072
 20
-3.390134818987049
 30
0.0
 10
70.39876487592451
 20
-3.157070965114024
 30
0.0
 10
69.11209493798376
 20
-2.448844758721481
 30
0.0
 10
68.24642424360096
 20
-1.96330322585527
 30
0.0
 10
66.95974625081661
 20
-1.228177613422503
 30
0.0
 10
66.5310964445153
 20
-0.981683899471248
 30
0.0
 10
65.66989186789093
 20
-0.4864502677205095
 30
0.0
 10
65.23857015793739
 20
-0.2379463260725487
 30
0.0
 10
64.37843985799518
 20
0.2585577270148288
 30
0.0
 10
63.95097663359947
 20
0.5062987417334665
 30
0.0
 10
63.09134028837438
 20
1.001151431456604
 30
0.0
 10
62.66008484452667
 20
1.248084327286112
 30
0.0
 10
61.36793161897322
 20
1.984001862985581
 30
0.0
 10
60.51235192267141
 20
2.46741470573202
 30
0.0
 10
59.21980851269677
 20
3.176236553122599
 30
0.0
 10
58.7887814044346
 20
3.40953876661491
 30
0.0
 10
57.93031157806742
 20
3.868088424577924
 30
0.0
 10
57.50225684657337
 20
4.093455830941263
 30
0.0
 10
56.64134722989458
 20
4.536227830136754
 30
0.0
 10
56.2099928140283
 20
4.753361710504975
 30
0.0
 10
55.34943772602004
 20
5.177139272516553
 30
0.0
 10
54.92177458563367
 20
5.38354695315828
 30
0.0
 10
53.63315354814721
 20
5.986620749562681
 30
0.0
 10
52.76761465956908
 20
6.366783384758817
 30
0.0
 10
51.05515690022676
 20
7.069647059416142
 30
0.0
 10
50.18963266483669
 20
7.394875876462434
 30
0.0
 10
48.90099842497364
 20
7.834386487635833
 30
0.0
 10
48.47333974760943
 20
7.972863055038377
 30
0.0
 10
47.61279053967979
 20
8.233856346744638
 30
0.0
 10
47.1814363705853
 20
8.3561897826895
 30
0.0
 10
46.32052185340325
 20
8.583401987222755
 30
0.0
 10
45.8924596773463
 20
8.688173232249646
 30
0.0
 10
45.03399962471526
 20
8.880035231286929
 30
0.0
 10
44.60297473182577
 20
8.967147256833261
 30
0.0
 10
44.17212643869104
 20
9.04500731749983
 30
0.0
  0
SPLINE
  5
B4
330
1F
100
AcDbEntity
  8
0
  6
Continuous
 62
     1
370
    15
100
AcDbSpline
210
0.0
220
0.0
230
1.0
 70
     8
 71
     3
 72
    16
 73
    12
 74
     0
 42
0.000000001
 43
0.00000001
 40
0.0
 40
0.0
 40
0.0
 40
0.0
 40
0.1120847866922956
 40
0.2241508430370815
 40
0.3362023291437511
 40
0.4482434250749315
 40
0.5602783251437751
 40
0.6723112321698878
 40
0.7843463517105376
 40
0.896387886283902
 40
0.9999999999999999
 40
0.9999999999999999
 40
0.9999999999999999
 40
0.9999999999999999
 10
85.44712643869443
 20
-7.514960818107255
 30
0.0
 10
84.5233937819058
 20
-7.325893461775264
 30
0.0
 10
82.6760828321292
 20
-6.947790343919029
 30
0.0
 10
79.9054048708756
 20
-6.128477568545923
 30
0.0
 10
77.13513445846468
 20
-5.151988084056567
 30
0.0
 10
74.36516061883819
 20
-4.02651356274714
 30
0.0
 10
71.5953621437202
 20
-2.789005116229971
 30
0.0
 10
68.82562068528345
 20
-1.472349490441391
 30
0.0
 10
66.0558151816611
 20
-0.1158988486967169
 30
0.0
 10
63.35538500361633
 20
1.215362890488457
 30
0.0
 10
61.5781836965545
 20
2.056379784279704
 30
0.0
 10
60.72431646368244
 20
2.460451492446192
 30
0.0
  0
LINE
  5
B5
330
1F
100
AcDbEntity
  8
0
  6
Continuous
 62
     1
370
    15
100
AcDbLine
 10
85.44712643869413
 20
-9.038661779433847
 30
0.0
 11
85.4471264386944
 21
-7.514960818107254
 31
0.0
  0
LINE
  5
B6
330
1F
100
AcDbEntity
  8
0
  6
Continuous
 62
     1
370
    15
100
AcDbLine
 10
85.44712643869445
 20
-9.524999999999986
 30
0.0
 11
85.44712643869408
 21
-9.038661779433827
 31
0.0
  0
SPLINE
  5
B7
330
1F
100
AcDbEntity
  8
0
  6
Continuous
 62
     1
370
    15
100
AcDbSpline
210
0.0
220
0.0
230
1.0
 70
     8
 71
     3
 72
    12
 73
     8
 74
     0
 42
0.000000001
 43
0.00000001
 40
0.0
 40
0.0
 40
0.0
 40
0.0
 40
0.4999999999999988
 40
0.4999999999999988
 40
0.7499999999999993
 40
0.7499999999999993
 40
1.0
 40
1.0
 40
1.0
 40
1.0
 10
85.4471264386944
 20
-2.545489060932361
 30
0.0
 10
84.58892140836815
 20
-1.870798261156444
 30
0.0
 10
83.74286384446832
 20
-1.172677160324452
 30
0.0
 10
82.49205046443899
 20
-0.090250209741791
 30
0.0
 10
82.07819686536855
 20
0.2765076356954214
 30
0.0
 10
81.25711485788099
 20
1.022802140366354
 30
0.0
 10
80.84851179208158
 20
1.403657852354441
 30
0.0
 10
80.44712643869443
 20
1.788486169330866
 30
0.0
  0
LINE
  5
B8
330
1F
100
AcDbEntity
  8
0
  6
Continuous
 62
     1
370
    15
100
AcDbLine
 10
80.44712643869443
 20
2.937719435296592
 30
0.0
 11
85.4471264386944
 21
0.0000000000000058
 31
0.0
  0
LINE
  5
B9
330
1F
100
AcDbEntity
  8
0
  6
Continuous
 62
     1
370
    15
100
AcDbLine
 10
85.4471264386944
 20
0.0000000000000058
 30
0.0
 11
85.4471264386944
 21
-2.545489060932362
 31
0.0
  0
SPLINE
  5
BA
330
1F
100
AcDbEntity
  8
0
  6
Continuous
 62
     1
370
    15
100
AcDbSpline
210
0.0
220
0.0
230
1.0
 70
     8
 71
     3
 72
    14
 73
    10
 74
     0
 42
0.000000001
 43
0.00000001
 40
0.0
 40
0.0
 40
0.0
 40
0.0
 40
0.1483285243170915
 40
0.296638558011905
 40
0.4449219850560562
 40
0.5931908735505937
 40
0.7414880838323352
 40
0.8898080101582888
 40
1.0
 40
1.0
 40
1.0
 40
1.0
 10
80.44712643869443
 20
2.273962504588732
 30
0.0
 10
79.31842155484333
 20
2.762226108900387
 30
0.0
 10
77.061152491404
 20
3.738692450620849
 30
0.0
 10
73.67558391377123
 20
5.021097335402944
 30
0.0
 10
70.29055621986285
 20
6.098949968007002
 30
0.0
 10
66.90569882299445
 20
6.921617594823075
 30
0.0
 10
63.52044979081369
 20
7.444744286291448
 30
0.0
 10
60.42481710478441
 20
7.669668368005825
 30
0.0
 10
58.45777404268122
 20
7.582290630394711
 30
0.0
 10
57.61931215538897
 20
7.54504543521001
 30
0.0
  0
SPLINE
  5
BB
330
1F
100
AcDbEntity
  8
0
  6
Continuous
 62
     1
370
    15
100
AcDbSpline
210
0.0
220
0.0
230
1.0
 70
    24
 71
     3
 72
     8
 73
     4
 74
     0
 42
0.000000001
 43
0.00000001
 40
0.0
 40
0.0
 40
0.0
 40
0.0
 40
1.0
 40
1.0
 40
1.0
 40
1.0
 10
80.4471264386944
 20
1.788486169330773
 30
0.0
 10
80.4471264386944
 20
1.95169109347769
 30
0.0
 10
80.44712643869443
 20
2.113595766767042
 30
0.0
 10
80.44712643869443
 20
2.273962504588737
 30
0.0
  0
SPLINE
  5
BC
330
1F
100
AcDbEntity
  8
0
  6
Continuous
 62
     1
370
    15
100
AcDbSpline
210
0.0
220
0.0
230
1.0
 70
    24
 71
     3
 72
    10
 73
     6
 74
     0
 42
0.000000001
 43
0.00000001
 40
0.0
 40
0.0
 40
0.0
 40
0.0
 40
0.5
 40
0.5
 40
1.0
 40
1.0
 40
1.0
 40
1.0
 10
85.4471264386944
 20
-7.514960818107254
 30
0.0
 10
85.4471264386944
 20
-6.938880480261239
 30
0.0
 10
85.44712643869443
 20
-6.210980884209112
 30
0.0
 10
85.44712643869443
 20
-4.518684375910224
 30
0.0
 10
85.4471264386944
 20
-3.555753395063722
 30
0.0
 10
85.4471264386944
 20
-2.545489060932666
 30
0.0
  0
SPLINE
  5
BD
330
1F
100
AcDbEntity
  8
0
  6
Continuous
 62
     1
370
    15
100
AcDbSpline
210
0.0
220
0.0
230
1.0
 70
    24
 71
     3
 72
    10
 73
     6
 74
     0
 42
0.000000001
 43
0.00000001
 40
0.0
 40
0.0
 40
0.0
 40
0.0
 40
0.5
 40
0.5
 40
1.0
 40
1.0
 40
1.0
 40
1.0
 10
80.44712643869443
 20
2.273962504588739
 30
0.0
 10
80.44712643869443
 20
2.801767246870178
 30
0.0
 10
80.44712643869443
 20
3.304266617507636
 30
0.0
 10
80.44712643869443
 20
4.221095501631606
 30
0.0
 10
80.44712643869443
 20
4.635160569708964
 30
0.0
 10
80.4471264386944
 20
4.989159483222102
 30
0.0
  0
LINE
  5
BE
330
1F
100
AcDbEntity
  8
0
  6
Continuous
 62
     1
370
    15
100
AcDbLine
 10
85.4471264386944
 20
6.667500000000001
 30
0.0
 11
81.90760610664002
 21
6.508012671137645
 31
0.0
  0
SPLINE
  5
BF
330
1F
100
AcDbEntity
  8
0
  6
Continuous
 62
     1
370
    15
100
AcDbSpline
210
0.0
220
0.0
230
1.0
 70
     8
 71
     3
 72
    10
 73
     6
 74
     0
 42
0.000000001
 43
0.00000001
 40
0.0
 40
0.0
 40
0.0
 40
0.0
 40
0.5
 40
0.5
 40
1.0
 40
1.0
 40
1.0
 40
1.0
 10
85.4471264386944
 20
6.667500000000007
 30
0.0
 10
84.60426487596715
 20
6.438964413875569
 30
0.0
 10
83.76540859622884
 20
6.185979994980781
 30
0.0
 10
82.0976857639414
 20
5.628562403643728
 30
0.0
 10
81.26875433064072
 20
5.324600261969328
 30
0.0
 10
80.44712643869426
 20
4.989159483222251
 30
0.0
  0
SPLINE
  5
C0
330
1F
100
AcDbEntity
  8
0
  6
Continuous
 62
     1
370
    15
100
AcDbSpline
210
0.0
220
0.0
230
1.0
 70
     8
 71
     3
 72
    14
 73
    10
 74
     0
 42
0.000000001
 43
0.00000001
 40
0.0
 40
0.0
 40
0.0
 40
0.0
 40
0.0835057884421488
 40
0.2438835279155021
 40
0.3951038319566766
 40
0.546326313494698
 40
0.6975502904717412
 40
0.8487750802772137
 40
1.0
 40
1.0
 40
1.0
 40
1.0
 10
65.28353240772991
 20
-7.124147505516757
 30
0.0
 10
64.69589176303626
 20
-7.223531895846943
 30
0.0
 10
62.979652969917
 20
-7.513789807132325
 30
0.0
 10
60.19912323261396
 20
-7.655532098768782
 30
0.0
 10
56.94226753346611
 20
-7.575528756180098
 30
0.0
 10
53.74976025169232
 20
-7.201331027466529
 30
0.0
 10
50.55723338342827
 20
-6.558789564900696
 30
0.0
 10
47.36468266454413
 20
-5.68263158477822
 30
0.0
 10
45.23631215205826
 20
-4.92695069782171
 30
0.0
 10
44.17212643869441
 20
-4.549110092042042
 30
0.0
  0
SPLINE
  5
C1
330
1F
100
AcDbEntity
  8
외형선
  6
Continuous
370
    15
100
AcDbSpline
210
0.0
220
0.0
230
1.0
 70
    24
 71
     3
 72
    14
 73
    10
 74
     0
 42
0.000000001
 43
0.00000001
 40
0.0
 40
0.0
 40
0.0
 40
0.0
 40
0.2500000000000002
 40
0.2500000000000002
 40
0.5000000000000001
 40
0.5000000000000001
 40
0.75
 40
0.75
 40
1.0
 40
1.0
 40
1.0
 40
1.0
 10
44.17212643869441
 20
5.348962912263904
 30
0.0
 10
44.17212643869441
 20
4.71267430799675
 30
0.0
 10
44.17212643869441
 20
3.988028033072571
 30
0.0
 10
44.17212643869441
 20
2.408547049440656
 30
0.0
 10
44.17212643869441
 20
1.554227029035067
 30
0.0
 10
44.17212643869441
 20
-0.2049459162625249
 30
0.0
 10
44.17212643869441
 20
-1.10886148026138
 30
0.0
 10
44.17212643869441
 20
-2.877317509624254
 30
0.0
 10
44.17212643869441
 20
-3.74107786103778
 30
0.0
 10
44.17212643869441
 20
-4.549110092042042
 30
0.0
  0
SPLINE
  5
C2
330
1F
100
AcDbEntity
  8
외형선
  6
Continuous
370
    15
100
AcDbSpline
210
0.0
220
0.0
230
1.0
 70
    24
 71
     3
 72
    13
 73
     9
 74
     0
 42
0.000000001
 43
0.00000001
 40
0.0
 40
0.0
 40
0.0
 40
0.0
 40
0.1424927691343932
 40
0.2868387822431818
 40
0.4967071308616277
 40
0.7126616758074998
 40
0.9022573853475047
 40
1.0
 40
1.0
 40
1.0
 40
1.0
 10
44.17212643869441
 20
-4.549110092042044
 30
0.0
 10
44.17212643869441
 20
-4.827106669875098
 30
0.0
 10
44.17212643869441
 20
-5.386715415903449
 30
0.0
 10
44.17212643869441
 20
-6.207714935372507
 30
0.0
 10
44.17212643869441
 20
-6.978952829796134
 30
0.0
 10
44.17212643869441
 20
-7.530808500124077
 30
0.0
 10
44.17212643869441
 20
-7.806863502285012
 30
0.0
 10
44.17212643869441
 20
-7.807939402278178
 30
0.0
 10
44.17212643869441
 20
-7.808305386449385
 30
0.0
  0
LINE
  5
C3
330
1F
100
AcDbEntity
  8
0
  6
Continuous
 62
     1
370
    15
100
AcDbLine
 10
85.4471264386944
 20
0.0000000000000058
 30
0.0
 11
85.4471264386944
 21
6.667500000000006
 31
0.0
  0
SPLINE
  5
C4
330
1F
100
AcDbEntity
  8
0
  6
Continuous
 62
     1
370
    15
100
AcDbSpline
210
0.0
220
0.0
230
1.0
 70
    24
 71
     3
 72
    10
 73
     6
 74
     0
 42
0.000000001
 43
0.00000001
 40
0.0
 40
0.0
 40
0.0
 40
0.0
 40
0.5
 40
0.5
 40
1.0
 40
1.0
 40
1.0
 40
1.0
 10
85.4471264386944
 20
6.6675
 30
0.0
 10
85.4471264386944
 20
7.071667246089663
 30
0.0
 10
85.44712643869443
 20
7.54134701595929
 30
0.0
 10
85.44712643869443
 20
8.526733908152153
 30
0.0
 10
85.4471264386944
 20
9.039924476009025
 30
0.0
 10
85.44712643869383
 20
9.525000000000015
 30
0.0
  0
SPLINE
  5
C5
330
1F
100
AcDbEntity
  8
0
  6
Continuous
 62
     1
370
    15
100
AcDbSpline
210
0.0
220
0.0
230
1.0
 70
     8
 71
     3
 72
    14
 73
    10
 74
     0
 42
0.000000001
 43
0.00000001
 40
0.0
 40
0.0
 40
0.0
 40
0.0
 40
0.1981470221492561
 40
0.3031186877254062
 40
0.4084543898193221
 40
0.5550804944094502
 40
0.7022041900414208
 40
0.8508424745262961
 40
1.0
 40
1.0
 40
1.0
 40
1.0
 10
72.34584943886614
 20
6.38637954685934
 30
0.0
 10
73.2113401016799
 20
6.744382524260132
 30
0.0
 10
74.53533877249052
 20
7.29204350616363
 30
0.0
 10
76.31875856847464
 20
7.899611835934424
 30
0.0
 10
77.8774262425467
 20
8.373451290659276
 30
0.0
 10
79.61996828483473
 20
8.814576385595196
 30
0.0
 10
81.5526866992809
 20
9.18069415921819
 30
0.0
 10
83.49491480603032
 20
9.432199569348164
 30
0.0
 10
84.7956332441136
 20
9.48866678081459
 30
0.0
 10
85.44712643869383
 20
9.525000000000015
 30
0.0
  0
SPLINE
  5
C6
330
1F
100
AcDbEntity
  8
0
  6
Continuous
 62
     1
370
    15
100
AcDbSpline
210
0.0
220
0.0
230
1.0
 70
     8
 71
     3
 72
     9
 73
     5
 74
     0
 42
0.000000001
 43
0.00000001
 40
0.0
 40
0.0
 40
0.0
 40
0.0
 40
0.4690958205816253
 40
1.0
 40
1.0
 40
1.0
 40
1.0
 10
49.87328571263234
 20
-7.485525744962039
 30
0.0
 10
48.98182236948615
 20
-7.79255012285808
 30
0.0
 10
47.08143591530525
 20
-8.447052602789292
 30
0.0
 10
45.18104951899956
 20
-8.837641852429794
 30
0.0
 10
44.17212643869104
 20
-9.045007317499826
 30
0.0
  0
SPLINE
  5
C7
330
1F
100
AcDbEntity
  8
외형선
  6
Continuous
370
    15
100
AcDbSpline
210
0.0
220
0.0
230
1.0
 70
    24
 71
     3
 72
    12
 73
     8
 74
     0
 42
0.000000001
 43
0.00000001
 40
0.0
 40
0.0
 40
0.0
 40
0.0
 40
0.1494526479796759
 40
0.3797122515763068
 40
0.6097041166985755
 40
0.8399637202952059
 40
0.9999999999999999
 40
0.9999999999999999
 40
0.9999999999999999
 40
0.9999999999999999
 10
44.17212643869441
 20
-7.92221659164401
 30
0.0
 10
44.17212643869441
 20
-7.981194599125604
 30
0.0
 10
44.17212643869441
 20
-8.131039197512145
 30
0.0
 10
44.17212643869441
 20
-8.364645220577554
 30
0.0
 10
44.17212643869441
 20
-8.623448079861655
 30
0.0
 10
44.17212643869441
 20
-8.849948272323187
 30
0.0
 10
44.17212643869441
 20
-8.988284258196314
 30
0.0
 10
44.17212643869441
 20
-9.045007317484474
 30
0.0
  0
LINE
  5
C8
330
1F
100
AcDbEntity
  8
중심선
100
AcDbLine
 10
-54.07787356130562
 20
-0.0000000000000037
 30
0.0
 11
88.44712643869438
 21
0.0000000000000137
 31
0.0
  0
LINE
  5
C9
330
1F
100
AcDbEntity
  8
참조1
100
AcDbLine
 10
17.18462643869439
 20
-0.0000000000000042
 30
0.0
 11
17.18462643869439
 21
-40.00000000000001
 31
0.0
  0
LINE
  5
CA
330
1F
100
AcDbEntity
  8
참조1
100
AcDbLine
 10
17.18462643869439
 20
-40.00000000000001
 30
0.0
 11
9.172063903394776
 21
-39.99999999999999
 31
0.0
  0
CIRCLE
  5
CB
330
1F
100
AcDbEntity
  8
해칭선
100
AcDbCircle
 10
0.0
 20
-0.0000000000000018
 30
0.0
 40
2.999999999999996
  0
INSERT
  5
CC
330
1F
100
AcDbEntity
  8
0
  6
Continuous
 62
     7
100
AcDbBlockReference
 66
     1
  2
블럭10
 10
3.244353506569176
 20
-52.04717430164393
 30
0.0
  0
ATTRIB
  5
CD
330
CC
100
AcDbEntity
  8
FORMAT
 62
     2
100
AcDbText
 10
-5.936941782172106
 20
-49.97180738881174
 30
0.0
 40
4.233333333333333
  1
E2033048 [ 2 FLUTE ]
 41
0.75
  7
SLDTEXTSTYLE0
 11
-5.936941782172106
 21
-52.08847405547841
 31
0.0
100
AcDbAttribute
  2
AUTOATTR0
 70
     0
 74
     1
  0
SEQEND
  5
CE
330
CC
100
AcDbEntity
  8
0
  6
Continuous
 62
     7
  0
HATCH
  5
CF
330
1F
100
AcDbEntity
  8
중심선
100
AcDbHatch
 10
0.0
 20
0.0
 30
0.0
210
0.0
220
0.0
230
1.0
  2
SOLID
 70
     1
 71
     0
 91
        1
 92
        0
 93
        4
 72
     1
 10
8.959262810950015
 20
-35.8
 11
5.512987567112734
 21
-35.8
 72
     1
 10
5.512987567112734
 20
-35.8
 11
3.384757707908705
 21
-38.33632558057256
 72
     1
 10
3.384757707908705
 20
-38.33632558057256
 11
6.831066036859145
 21
-38.33628615127009
 72
     1
 10
6.831066036859145
 20
-38.33628615127009
 11
8.959262810950015
 21
-35.8
 97
        0
 75
     0
 76
     1
 98
        1
 10
29.32286512466325
 20
-0.0010749287238934
  0
HATCH
  5
D0
330
1F
100
AcDbEntity
  8
중심선
100
AcDbHatch
 10
0.0
 20
0.0
 30
0.0
210
0.0
220
0.0
230
1.0
  2
SOLID
 70
     1
 71
     0
 91
        1
 92
        0
 93
        4
 72
     1
 10
13.972026801986
 20
-35.8
 11
10.52575155814872
 21
-35.8
 72
     1
 10
10.52575155814872
 20
-35.8
 11
5.994613549791296
 21
-41.20000000000002
 72
     1
 10
5.994613549791296
 20
-41.20000000000002
 11
9.440888793628574
 21
-41.20000000000002
 72
     1
 10
9.440888793628574
 20
-41.20000000000002
 11
13.972026801986
 21
-35.8
 97
        0
 75
     0
 76
     1
 98
        1
 10
29.32286512466325
 20
-0.0010749287238934
  0
HATCH
  5
D1
330
1F
100
AcDbEntity
  8
중심선
100
AcDbHatch
 10
0.0
 20
0.0
 30
0.0
210
0.0
220
0.0
230
1.0
  2
SOLID
 70
     1
 71
     0
 91
        1
 92
        0
 93
        4
 72
     1
 10
18.98479079302189
 20
-35.8
 11
15.53851554918475
 21
-35.8
 72
     1
 10
15.53851554918475
 20
-35.8
 11
8.490078647295494
 21
-44.20000000000002
 72
     1
 10
8.490078647295494
 20
-44.20000000000002
 11
11.93635389113278
 21
-44.20000000000002
 72
     1
 10
11.93635389113278
 20
-44.20000000000002
 11
18.98479079302189
 21
-35.8
 97
        0
 75
     0
 76
     1
 98
        1
 10
29.32286512466325
 20
-0.0010749287238934
  0
HATCH
  5
D2
330
1F
100
AcDbEntity
  8
중심선
100
AcDbHatch
 10
0.0
 20
0.0
 30
0.0
210
0.0
220
0.0
230
1.0
  2
SOLID
 70
     1
 71
     0
 91
        1
 92
        0
 93
        6
 72
     3
 10
23.78468122403406
 20
-40.00000000005127
 11
3.960054785062283
 21
1.540882976769353E-10
 40
0.3939339440162628
 50
17.09539180608436
 51
320.0019657685078
 73
     0
 72
     1
 10
25.46768087973466
 20
-38.58789400463831
 11
27.7729827534357
 21
-36.65356729459035
 72
     3
 10
23.78468122398121
 20
-40.00000000000014
 11
6.600054785286829
 21
-1.278976924368180E-13
 40
0.636358354079598
 50
39.99873849337429
 51
368.4976242363724
 73
     1
 72
     1
 10
30.21001371588182
 20
-39.03999999993002
 11
22.46474853081714
 21
-39.03999999993002
 72
     1
 10
22.46474853081714
 20
-39.03999999993002
 11
22.4647234863712
 21
-40.95999999992991
 72
     1
 10
22.4647234863712
 20
-40.95999999992991
 11
26.90610325584324
 21
-40.95999999992988
 97
        0
 75
     0
 76
     1
 98
        1
 10
29.32286512466325
 20
-0.0010749287238934
  0
DIMENSION
  5
D3
330
1F
100
AcDbEntity
  8
치수문자_일반주서
100
AcDbDimension
  2
_D
 10
-63.57787356130559
 20
-9.525000000000055
 30
0.0
 11
-63.57787356130563
 21
0.0000000000000119
 31
0.0
 70
   160
  1
%%c<>
 71
     2
 42
19.05000000000001
 52
-270.0
  3
SLDDIMSTYLE0
100
AcDbAlignedDimension
 13
-50.07787356130562
 23
9.525000000000006
 33
0.0
 14
-50.07787356130562
 24
-9.525000000000006
 34
0.0
 50
90.0000000000002
100
AcDbRotatedDimension
1001
ACAD
1000
DSTYLE
1002
{
1070
   171
1070
     6
1070
   273
1070
     7
1002
}
  0
DIMENSION
  5
E8
330
1F
100
AcDbEntity
  8
치수문자_일반주서
100
AcDbDimension
  2
_D_1
 10
44.17212643869441
 20
21.35601073236545
 30
0.0
 11
64.80962643869412
 21
21.35601073236545
 31
0.0
 70
   160
  1
<>
 71
     2
 42
41.27499999999942
  3
SLDDIMSTYLE0
100
AcDbAlignedDimension
 13
85.44712643869383
 23
9.525000000000018
 33
0.0
 14
44.17212643869441
 24
9.045007317499222
 34
0.0
 50
0.0000000000000099
100
AcDbRotatedDimension
1001
ACAD
1000
DSTYLE
1002
{
1070
   171
1070
     6
1070
   273
1070
     7
1002
}
  0
DIMENSION
  5
FD
330
1F
100
AcDbEntity
  8
치수문자_일반주서
100
AcDbDimension
  2
_D_2
 10
-51.07787356130562
 20
39.56419134481794
 30
0.0
 11
17.18462643869426
 21
39.56419134481794
 31
0.0
 70
   160
  1
<>
 71
     2
 42
136.5249999999994
  3
SLDDIMSTYLE0
100
AcDbAlignedDimension
 13
85.44712643869383
 23
9.525000000000015
 33
0.0
 14
-51.07787356130562
 24
8.524999999999988
 34
0.0
 50
0.000000000000003
100
AcDbRotatedDimension
1001
ACAD
1000
DSTYLE
1002
{
1070
   171
1070
     6
1070
   273
1070
     7
1002
}
  0
DIMENSION
  5
110
330
1F
100
AcDbEntity
  8
치수문자_일반주서
100
AcDbDimension
  2
_D_3
 10
109.6657972877731
 20
9.525000000000109
 30
0.0
 11
109.665797287773
 21
37.13195047500354
 31
0.0
 70
   160
  1
%%c<>
 71
     2
 42
19.05
 52
-270.0
  3
SLDDIMSTYLE0
100
AcDbAlignedDimension
 13
85.44712643869445
 23
-9.524999999999986
 33
0.0
 14
85.44712643869383
 24
9.525000000000018
 34
0.0
 50
90.0000000000002
100
AcDbRotatedDimension
1001
ACAD
1000
DSTYLE
1002
{
1070
   171
1070
     6
1070
   273
1070
     7
1002
}
  0
LINE
  5
123
330
1F
100
AcDbEntity
  8
참조1
100
AcDbLine
 10
107.144404533049
 20
7.440000000000003
 30
0.0
 11
107.144404533049
 21
-7.440000000000002
 31
0.0
  0
LINE
  5
124
330
1F
100
AcDbEntity
  8
참조1
100
AcDbLine
 10
119.844404533049
 20
5.440000000000003
 30
0.0
 11
107.144404533049
 21
5.440000000000003
 31
0.0
  0
SOLID
  5
125
330
1F
100
AcDbEntity
  8
참조1
100
AcDbTrace
 10
107.144404533049
 20
5.440000000000003
 30
0.0
 11
113.494404533049
 21
4.424000000000003
 31
0.0
 12
113.494404533049
 22
6.456000000000003
 32
0.0
 13
113.494404533049
 23
6.456000000000003
 33
0.0
  0
LINE
  5
126
330
1F
100
AcDbEntity
  8
참조1
100
AcDbLine
 10
119.844404533049
 20
-5.440000000000002
 30
0.0
 11
107.144404533049
 21
-5.440000000000002
 31
0.0
  0
SOLID
  5
127
330
1F
100
AcDbEntity
  8
참조1
100
AcDbTrace
 10
107.144404533049
 20
-5.440000000000002
 30
0.0
 11
113.494404533049
 21
-6.456000000000002
 31
0.0
 12
113.494404533049
 22
-4.424000000000002
 32
0.0
 13
113.494404533049
 23
-4.424000000000002
 33
0.0
  0
MTEXT
  5
128
330
1F
100
AcDbEntity
  8
참조1
100
AcDbMText
 10
116.528754665675
 20
11.01029177718833
 30
0.0
 40
3.5
 41
0.0
 71
     1
 72
     1
  1
A
  7
SLDTEXTSTYLE0
 73
     1
 44
1.0
  0
MTEXT
  5
129
330
1F
100
AcDbEntity
  8
참조1
100
AcDbMText
 10
116.528754665675
 20
0.1302917771883258
 30
0.0
 40
3.5
 41
0.0
 71
     1
 72
     1
  1
A
  7
SLDTEXTSTYLE0
 73
     1
 44
1.0
  0
INSERT
  5
130
330
1F
100
AcDbEntity
  8
해칭선
100
AcDbBlockReference
  2
SW_DOWELSYMBOL_0
 10
0.0
 20
-0.0000000000000018
 30
0.0
  0
LINE
  5
183
330
1F
100
AcDbEntity
  8
외형선
  6
Continuous
370
    15
100
AcDbLine
 10
-31.0721985613056
 20
7.619999999999991
 30
0.0
 11
-19.48979856130558
 21
7.619999999999991
 31
0.0
  0
LINE
  5
184
330
1F
100
AcDbEntity
  8
외형선
  6
Continuous
370
    15
100
AcDbLine
 10
-31.0721985613056
 20
7.619999999999978
 30
0.0
 11
-32.97719856130573
 21
9.525000000000007
 31
0.0
  0
LINE
  5
185
330
1F
100
AcDbEntity
  8
외형선
  6
Continuous
370
    15
100
AcDbLine
 10
-19.48979856130558
 20
7.619999999999978
 30
0.0
 11
-17.58479856130562
 21
9.525000000000007
 31
0.0
  0
LINE
  5
189
330
1F
100
AcDbEntity
  8
외형선
  6
Continuous
370
    15
100
AcDbLine
 10
-32.97719856130575
 20
9.524999999999997
 30
0.0
 11
-50.07787356130562
 21
9.524999999999995
 31
0.0
  0
LINE
  5
226
330
1F
100
AcDbEntity
  8
외형선
  6
Continuous
370
    15
100
AcDbLine
 10
0.0
 20
-9.525000000000002
 30
0.0
 11
0.0
 21
9.524999999999999
 31
0.0
  0
LINE
  5
229
330
1F
100
AcDbEntity
  8
외형선
  6
Continuous
370
    15
100
AcDbLine
 10
0.0
 20
9.334499999999998
 30
0.0
 11
0.0
 21
-9.3345
 31
0.0
  0
LINE
  5
22A
330
1F
100
AcDbEntity
  8
외형선
  6
Continuous
370
    15
100
AcDbLine
 10
0.5158764386943844
 20
9.334499999999998
 30
0.0
 11
44.17212643869441
 21
9.334499999999998
 31
0.0
  0
ARC
  5
22C
330
1F
100
AcDbEntity
  8
외형선
  6
Continuous
370
    15
100
AcDbCircle
 10
0.5158764386943844
 20
10.12825
 30
0.0
 40
0.7937499999999997
100
AcDbArc
 50
229.4641978886834
 51
270.0
  0
ARC
  5
22D
330
1F
100
AcDbEntity
  8
외형선
  6
Continuous
370
    15
100
AcDbCircle
 10
0.5158764386943844
 20
-10.12825
 30
0.0
 40
0.7937499999999997
100
AcDbArc
 50
90.0
 51
130.5358021113167
  0
LINE
  5
22E
330
1F
100
AcDbEntity
  8
외형선
  6
Continuous
370
    15
100
AcDbLine
 10
0.5158764386943844
 20
-9.334499999999998
 30
0.0
 11
44.17212643869441
 21
-9.334499999999998
 31
0.0
  0
LINE
  5
22F
330
1F
100
AcDbEntity
  8
외형선
  6
Continuous
370
    15
100
AcDbLine
 10
0.5158764386943844
 20
-9.334499999999998
 30
0.0
 11
0.5158764386943844
 21
9.334499999999998
 31
0.0
  0
DIMENSION
  5
230
330
1F
100
AcDbEntity
  8
치수문자_일반주서
100
AcDbDimension
  2
*D7
 10
85.44712643869383
 20
30.031523364071
 30
0.0
 11
42.98150143869411
 21
32.656523364071
 31
0.0
 70
    32
 71
     5
 42
84.93124999999944
  3
SLDDIMSTYLE0
100
AcDbAlignedDimension
 13
0.5158764386943844
 23
9.334499999999998
 33
0.0
 14
85.44712643869383
 24
9.525000000000015
 34
0.0
100
AcDbRotatedDimension
1001
ACAD
1000
DSTYLE
1002
{
1070
   171
1070
     6
1070
   273
1070
     7
1002
}
  0
ENDSEC
  0
SECTION
  2
OBJECTS
  0
DICTIONARY
  5
C
330
0
100
AcDbDictionary
281
     1
  3
ACAD_GROUP
350
D
  3
ACAD_IMAGE_VARS
350
154
  3
ACAD_LAYOUT
350
1A
  3
ACAD_MLINESTYLE
350
17
  3
ACAD_PLOTSETTINGS
350
19
  3
ACAD_PLOTSTYLENAME
350
E
  3
ACAD_SCALELIST
350
47
  3
APPDATA
350
152
  3
DWGPROPS
350
263
  0
DICTIONARY
  5
17E
330
2
100
AcDbDictionary
280
     1
281
     1
  3
ACAD_LAYERSTATES
360
17F
  0
DICTIONARY
  5
D
102
{ACAD_REACTORS
330
C
102
}
330
C
100
AcDbDictionary
281
     1
  0
RASTERVARIABLES
  5
154
102
{ACAD_REACTORS
330
C
102
}
330
C
100
AcDbRasterVariables
 90
        0
 70
     1
 71
     1
 72
     1
  0
DICTIONARY
  5
1A
102
{ACAD_REACTORS
330
C
102
}
330
C
100
AcDbDictionary
281
     1
  3
Layout1
350
1E
  3
Layout2
350
26
  3
Model
350
22
  0
DICTIONARY
  5
17
102
{ACAD_REACTORS
330
C
102
}
330
C
100
AcDbDictionary
281
     1
  3
Standard
350
18
  0
DICTIONARY
  5
19
102
{ACAD_REACTORS
330
C
102
}
330
C
100
AcDbDictionary
281
     1
  0
ACDBDICTIONARYWDFLT
  5
E
102
{ACAD_REACTORS
330
C
102
}
330
C
100
AcDbDictionary
281
     1
  3
Normal
350
F
100
AcDbDictionaryWithDefault
340
F
  0
DICTIONARY
  5
47
102
{ACAD_REACTORS
330
C
102
}
330
C
100
AcDbDictionary
281
     1
  3
A0
350
48
  3
A1
350
49
  3
A2
350
4A
  3
A3
350
4B
  3
A4
350
4C
  3
A5
350
4D
  3
A6
350
4E
  3
A7
350
4F
  3
A8
350
50
  3
A9
350
51
  3
B0
350
52
  3
B1
350
53
  3
B2
350
54
  3
B3
350
55
  3
B4
350
56
  3
B5
350
57
  3
B6
350
58
  3
B7
350
59
  3
B8
350
5A
  3
B9
350
5B
  3
C0
350
5C
  3
C1
350
5D
  3
C2
350
5E
  3
C3
350
5F
  3
C4
350
60
  3
C5
350
61
  3
C6
350
62
  3
C7
350
63
  3
C8
350
64
  3
C9
350
65
  3
D0
350
66
  3
D1
350
67
  3
D2
350
68
  0
DICTIONARY
  5
152
102
{ACAD_REACTORS
330
C
102
}
330
C
100
AcDbDictionary
281
     1
  0
XRECORD
  5
263
102
{ACAD_REACTORS
330
C
102
}
330
C
100
AcDbXrecord
280
     1
  1
DWGPROPS COOKIE
  2

  3

  4

  6

  7

  8
12016016
  9

300
=
301
=
302
=
303
=
304
=
305
=
306
=
307
=
308
=
309
=
 40
0.0
 41
2458311.104358484
 42
2458323.060176007
  1

 90
        0
  0
DICTIONARY
  5
17F
102
{ACAD_REACTORS
330
17E
102
}
330
17E
100
AcDbDictionary
281
     1
  0
LAYOUT
  5
1E
102
{ACAD_REACTORS
330
1A
102
}
330
1A
100
AcDbPlotSettings
  1

  2
none_device
  4

  6

 40
0.0
 41
0.0
 42
0.0
 43
0.0
 44
0.0
 45
0.0
 46
0.0
 47
0.0
 48
0.0
 49
0.0
140
0.0
141
0.0
142
1.0
143
1.0
 70
   688
 72
     1
 73
     0
 74
     5
  7

 75
    16
147
1.0
148
0.0
149
0.0
100
AcDbLayout
  1
Layout1
 70
     1
 71
     1
 10
0.0
 20
0.0
 11
420.0
 21
297.0
 12
0.0
 22
0.0
 32
0.0
 14
1.000000000000000E+20
 24
1.000000000000000E+20
 34
1.000000000000000E+20
 15
-1.000000000000000E+20
 25
-1.000000000000000E+20
 35
-1.000000000000000E+20
146
0.0
 13
0.0
 23
0.0
 33
0.0
 16
1.0
 26
0.0
 36
0.0
 17
0.0
 27
1.0
 37
0.0
 76
     0
330
1B
  0
LAYOUT
  5
26
102
{ACAD_REACTORS
330
1A
102
}
330
1A
100
AcDbPlotSettings
  1

  2
none_device
  4

  6

 40
0.0
 41
0.0
 42
0.0
 43
0.0
 44
0.0
 45
0.0
 46
0.0
 47
0.0
 48
0.0
 49
0.0
140
0.0
141
0.0
142
1.0
143
1.0
 70
   688
 72
     1
 73
     0
 74
     5
  7

 75
    16
147
1.0
148
0.0
149
0.0
100
AcDbLayout
  1
Layout2
 70
     1
 71
     2
 10
0.0
 20
0.0
 11
0.0
 21
0.0
 12
0.0
 22
0.0
 32
0.0
 14
0.0
 24
0.0
 34
0.0
 15
0.0
 25
0.0
 35
0.0
146
0.0
 13
0.0
 23
0.0
 33
0.0
 16
1.0
 26
0.0
 36
0.0
 17
0.0
 27
1.0
 37
0.0
 76
     0
330
23
  0
LAYOUT
  5
22
102
{ACAD_REACTORS
330
1A
102
}
330
1A
100
AcDbPlotSettings
  1

  2
none_device
  4
ANSI_A_(11.00_x_8.50_Inches)
  6

 40
6.35
 41
19.05
 42
6.35000508
 43
19.05000254
 44
279.4
 45
215.9
 46
130.901590542152
 47
58.55726484762668
 48
0.0
 49
0.0
140
0.0
141
0.0
142
0.0515808591321266
143
1.0
 70
  1696
 72
     0
 73
     0
 74
     0
  7

 75
     0
147
0.0235690232323232
148
0.0
149
0.0
100
AcDbLayout
  1
Model
 70
     1
 71
     0
 10
0.0
 20
0.0
 11
420.0
 21
297.0
 12
0.0
 22
0.0
 32
0.0
 14
-67.95287356130568
 24
-49.97180738881175
 34
0.0
 15
119.844404533049
 25
50.91320047500354
 35
0.0
146
0.0
 13
0.0
 23
0.0
 33
0.0
 16
1.0
 26
0.0
 36
0.0
 17
0.0
 27
1.0
 37
0.0
 76
     0
330
1F
331
29
  0
MLINESTYLE
  5
18
102
{ACAD_REACTORS
330
17
102
}
330
17
100
AcDbMlineStyle
  2
Standard
 70
     0
  3

 62
   256
 51
90.0
 52
90.0
 71
     2
 49
0.5
 62
   256
  6
BYLAYER
 49
-0.5
 62
   256
  6
BYLAYER
  0
ACDBPLACEHOLDER
  5
F
102
{ACAD_REACTORS
330
E
102
}
330
E
  0
SCALE
  5
48
102
{ACAD_REACTORS
330
47
102
}
330
47
100
AcDbScale
 70
     0
300
1:1
140
1.0
141
1.0
290
     1
  0
SCALE
  5
49
102
{ACAD_REACTORS
330
47
102
}
330
47
100
AcDbScale
 70
     0
300
1:2
140
1.0
141
2.0
290
     0
  0
SCALE
  5
4A
102
{ACAD_REACTORS
330
47
102
}
330
47
100
AcDbScale
 70
     0
300
1:4
140
1.0
141
4.0
290
     0
  0
SCALE
  5
4B
102
{ACAD_REACTORS
330
47
102
}
330
47
100
AcDbScale
 70
     0
300
1:5
140
1.0
141
5.0
290
     0
  0
SCALE
  5
4C
102
{ACAD_REACTORS
330
47
102
}
330
47
100
AcDbScale
 70
     0
300
1:8
140
1.0
141
8.0
290
     0
  0
SCALE
  5
4D
102
{ACAD_REACTORS
330
47
102
}
330
47
100
AcDbScale
 70
     0
300
1:10
140
1.0
141
10.0
290
     0
  0
SCALE
  5
4E
102
{ACAD_REACTORS
330
47
102
}
330
47
100
AcDbScale
 70
     0
300
1:16
140
1.0
141
16.0
290
     0
  0
SCALE
  5
4F
102
{ACAD_REACTORS
330
47
102
}
330
47
100
AcDbScale
 70
     0
300
1:20
140
1.0
141
20.0
290
     0
  0
SCALE
  5
50
102
{ACAD_REACTORS
330
47
102
}
330
47
100
AcDbScale
 70
     0
300
1:30
140
1.0
141
30.0
290
     0
  0
SCALE
  5
51
102
{ACAD_REACTORS
330
47
102
}
330
47
100
AcDbScale
 70
     0
300
1:40
140
1.0
141
40.0
290
     0
  0
SCALE
  5
52
102
{ACAD_REACTORS
330
47
102
}
330
47
100
AcDbScale
 70
     0
300
1:50
140
1.0
141
50.0
290
     0
  0
SCALE
  5
53
102
{ACAD_REACTORS
330
47
102
}
330
47
100
AcDbScale
 70
     0
300
1:100
140
1.0
141
100.0
290
     0
  0
SCALE
  5
54
102
{ACAD_REACTORS
330
47
102
}
330
47
100
AcDbScale
 70
     0
300
2:1
140
2.0
141
1.0
290
     0
  0
SCALE
  5
55
102
{ACAD_REACTORS
330
47
102
}
330
47
100
AcDbScale
 70
     0
300
4:1
140
4.0
141
1.0
290
     0
  0
SCALE
  5
56
102
{ACAD_REACTORS
330
47
102
}
330
47
100
AcDbScale
 70
     0
300
8:1
140
8.0
141
1.0
290
     0
  0
SCALE
  5
57
102
{ACAD_REACTORS
330
47
102
}
330
47
100
AcDbScale
 70
     0
300
10:1
140
10.0
141
1.0
290
     0
  0
SCALE
  5
58
102
{ACAD_REACTORS
330
47
102
}
330
47
100
AcDbScale
 70
     0
300
100:1
140
100.0
141
1.0
290
     0
  0
SCALE
  5
59
102
{ACAD_REACTORS
330
47
102
}
330
47
100
AcDbScale
 70
     0
300
1/128" = 1'-0"
140
0.0078125
141
12.0
290
     0
  0
SCALE
  5
5A
102
{ACAD_REACTORS
330
47
102
}
330
47
100
AcDbScale
 70
     0
300
1/64" = 1'-0"
140
0.015625
141
12.0
290
     0
  0
SCALE
  5
5B
102
{ACAD_REACTORS
330
47
102
}
330
47
100
AcDbScale
 70
     0
300
1/32" = 1'-0"
140
0.03125
141
12.0
290
     0
  0
SCALE
  5
5C
102
{ACAD_REACTORS
330
47
102
}
330
47
100
AcDbScale
 70
     0
300
1/16" = 1'-0"
140
0.0625
141
12.0
290
     0
  0
SCALE
  5
5D
102
{ACAD_REACTORS
330
47
102
}
330
47
100
AcDbScale
 70
     0
300
3/32" = 1'-0"
140
0.09375
141
12.0
290
     0
  0
SCALE
  5
5E
102
{ACAD_REACTORS
330
47
102
}
330
47
100
AcDbScale
 70
     0
300
1/8" = 1'-0"
140
0.125
141
12.0
290
     0
  0
SCALE
  5
5F
102
{ACAD_REACTORS
330
47
102
}
330
47
100
AcDbScale
 70
     0
300
3/16" = 1'-0"
140
0.1875
141
12.0
290
     0
  0
SCALE
  5
60
102
{ACAD_REACTORS
330
47
102
}
330
47
100
AcDbScale
 70
     0
300
1/4" = 1'-0"
140
0.25
141
12.0
290
     0
  0
SCALE
  5
61
102
{ACAD_REACTORS
330
47
102
}
330
47
100
AcDbScale
 70
     0
300
3/8" = 1'-0"
140
0.375
141
12.0
290
     0
  0
SCALE
  5
62
102
{ACAD_REACTORS
330
47
102
}
330
47
100
AcDbScale
 70
     0
300
1/2" = 1'-0"
140
0.5
141
12.0
290
     0
  0
SCALE
  5
63
102
{ACAD_REACTORS
330
47
102
}
330
47
100
AcDbScale
 70
     0
300
3/4" = 1'-0"
140
0.75
141
12.0
290
     0
  0
SCALE
  5
64
102
{ACAD_REACTORS
330
47
102
}
330
47
100
AcDbScale
 70
     0
300
1" = 1'-0"
140
1.0
141
12.0
290
     0
  0
SCALE
  5
65
102
{ACAD_REACTORS
330
47
102
}
330
47
100
AcDbScale
 70
     0
300
1-1/2" = 1'-0"
140
1.5
141
12.0
290
     0
  0
SCALE
  5
66
102
{ACAD_REACTORS
330
47
102
}
330
47
100
AcDbScale
 70
     0
300
3" = 1'-0"
140
3.0
141
12.0
290
     0
  0
SCALE
  5
67
102
{ACAD_REACTORS
330
47
102
}
330
47
100
AcDbScale
 70
     0
300
6" = 1'-0"
140
6.0
141
12.0
290
     0
  0
SCALE
  5
68
102
{ACAD_REACTORS
330
47
102
}
330
47
100
AcDbScale
 70
     0
300
1'-0" = 1'-0"
140
12.0
141
12.0
290
     0
  0
ENDSEC
  0
EOF
