  0
SECTION
  2
HEADER
  9
$ACADVER
  1
AC1015
  9
$ACADMAINTVER
 70
     6
  9
$DWGCODEPAGE
  3
ANSI_949
  9
$INSBASE
 10
0.0
 20
0.0
 30
0.0
  9
$EXTMIN
 10
-67.15912356130566
 20
-49.97180738881174
 30
0.0
  9
$EXTMAX
 10
136.671298330046
 20
46.86989224311986
 30
0.0
  9
$LIMMIN
 10
0.0
 20
0.0
  9
$LIMMAX
 10
420.0
 20
297.0
  9
$ORTHOMODE
 70
     1
  9
$REGENMODE
 70
     1
  9
$FILLMODE
 70
     1
  9
$QTEXTMODE
 70
     0
  9
$MIRRTEXT
 70
     1
  9
$LTSCALE
 40
1.0
  9
$ATTMODE
 70
     1
  9
$TEXTSIZE
 40
3.5
  9
$TRACEWID
 40
1.0
  9
$TEXTSTYLE
  7
Standard
  9
$CLAYER
  8
0
  9
$CELTYPE
  6
ByLayer
  9
$CECOLOR
 62
   256
  9
$CELTSCALE
 40
1.0
  9
$DISPSILH
 70
     0
  9
$DIMSCALE
 40
1.0
  9
$DIMASZ
 40
3.302
  9
$DIMEXO
 40
1.0
  9
$DIMDLI
 40
3.75
  9
$DIMRND
 40
0.0
  9
$DIMDLE
 40
0.0
  9
$DIMEXE
 40
1.0
  9
$DIMTP
 40
0.0
  9
$DIMTM
 40
0.0
  9
$DIMTXT
 40
3.5
  9
$DIMCEN
 40
2.5
  9
$DIMTSZ
 40
0.0
  9
$DIMTOL
 70
     0
  9
$DIMLIM
 70
     0
  9
$DIMTIH
 70
     1
  9
$DIMTOH
 70
     1
  9
$DIMSE1
 70
     0
  9
$DIMSE2
 70
     0
  9
$DIMTAD
 70
     1
  9
$DIMZIN
 70
     0
  9
$DIMBLK
  1

  9
$DIMASO
 70
     1
  9
$DIMSHO
 70
     1
  9
$DIMPOST
  1

  9
$DIMAPOST
  1

  9
$DIMALT
 70
     0
  9
$DIMALTD
 70
     3
  9
$DIMALTF
 40
0.0393700787401575
  9
$DIMLFAC
 40
1.0
  9
$DIMTOFL
 70
     1
  9
$DIMTVP
 40
0.0
  9
$DIMTIX
 70
     0
  9
$DIMSOXD
 70
     0
  9
$DIMSAH
 70
     0
  9
$DIMBLK1
  1

  9
$DIMBLK2
  1

  9
$DIMSTYLE
  2
ISO-25
  9
$DIMCLRD
 70
     0
  9
$DIMCLRE
 70
     0
  9
$DIMCLRT
 70
     0
  9
$DIMTFAC
 40
1.0
  9
$DIMGAP
 40
1.524
  9
$DIMJUST
 70
     0
  9
$DIMSD1
 70
     0
  9
$DIMSD2
 70
     0
  9
$DIMTOLJ
 70
     0
  9
$DIMTZIN
 70
     0
  9
$DIMALTZ
 70
     0
  9
$DIMALTTZ
 70
     0
  9
$DIMUPT
 70
     0
  9
$DIMDEC
 70
     2
  9
$DIMTDEC
 70
     2
  9
$DIMALTU
 70
     2
  9
$DIMALTTD
 70
     3
  9
$DIMTXSTY
  7
Standard
  9
$DIMAUNIT
 70
     0
  9
$DIMADEC
 70
     2
  9
$DIMALTRND
 40
0.0
  9
$DIMAZIN
 70
     0
  9
$DIMDSEP
 70
    44
  9
$DIMATFIT
 70
     3
  9
$DIMFRAC
 70
     0
  9
$DIMLDRBLK
  1

  9
$DIMLUNIT
 70
     2
  9
$DIMLWD
 70
    -2
  9
$DIMLWE
 70
    -2
  9
$DIMTMOVE
 70
     0
  9
$LUNITS
 70
     2
  9
$LUPREC
 70
     2
  9
$SKETCHINC
 40
1.0
  9
$FILLETRAD
 40
10.0
  9
$AUNITS
 70
     0
  9
$AUPREC
 70
     2
  9
$MENU
  1
.
  9
$ELEVATION
 40
0.0
  9
$PELEVATION
 40
0.0
  9
$THICKNESS
 40
0.0
  9
$LIMCHECK
 70
     0
  9
$CHAMFERA
 40
0.0
  9
$CHAMFERB
 40
0.0
  9
$CHAMFERC
 40
0.0
  9
$CHAMFERD
 40
0.0
  9
$SKPOLY
 70
     0
  9
$TDCREATE
 40
2458311.479569572
  9
$TDUCREATE
 40
2458311.104569572
  9
$TDUPDATE
 40
2458323.435122338
  9
$TDUUPDATE
 40
2458323.060122338
  9
$TDINDWG
 40
0.0043485764
  9
$TDUSRTIMER
 40
2458323.060074363
  9
$USRTIMER
 70
     1
  9
$ANGBASE
 50
0.0
  9
$ANGDIR
 70
     0
  9
$PDMODE
 70
     0
  9
$PDSIZE
 40
-1.0
  9
$PLINEWID
 40
0.0
  9
$SPLFRAME
 70
     0
  9
$SPLINETYPE
 70
     6
  9
$SPLINESEGS
 70
     8
  9
$HANDSEED
  5
37C
  9
$SURFTAB1
 70
     6
  9
$SURFTAB2
 70
     6
  9
$SURFTYPE
 70
     6
  9
$SURFU
 70
     6
  9
$SURFV
 70
     6
  9
$UCSBASE
  2

  9
$UCSNAME
  2

  9
$UCSORG
 10
0.0
 20
0.0
 30
0.0
  9
$UCSXDIR
 10
1.0
 20
0.0
 30
0.0
  9
$UCSYDIR
 10
0.0
 20
1.0
 30
0.0
  9
$UCSORTHOREF
  2

  9
$UCSORTHOVIEW
 70
     0
  9
$UCSORGTOP
 10
0.0
 20
0.0
 30
0.0
  9
$UCSORGBOTTOM
 10
0.0
 20
0.0
 30
0.0
  9
$UCSORGLEFT
 10
0.0
 20
0.0
 30
0.0
  9
$UCSORGRIGHT
 10
0.0
 20
0.0
 30
0.0
  9
$UCSORGFRONT
 10
0.0
 20
0.0
 30
0.0
  9
$UCSORGBACK
 10
0.0
 20
0.0
 30
0.0
  9
$PUCSBASE
  2

  9
$PUCSNAME
  2

  9
$PUCSORG
 10
0.0
 20
0.0
 30
0.0
  9
$PUCSXDIR
 10
1.0
 20
0.0
 30
0.0
  9
$PUCSYDIR
 10
0.0
 20
1.0
 30
0.0
  9
$PUCSORTHOREF
  2

  9
$PUCSORTHOVIEW
 70
     0
  9
$PUCSORGTOP
 10
0.0
 20
0.0
 30
0.0
  9
$PUCSORGBOTTOM
 10
0.0
 20
0.0
 30
0.0
  9
$PUCSORGLEFT
 10
0.0
 20
0.0
 30
0.0
  9
$PUCSORGRIGHT
 10
0.0
 20
0.0
 30
0.0
  9
$PUCSORGFRONT
 10
0.0
 20
0.0
 30
0.0
  9
$PUCSORGBACK
 10
0.0
 20
0.0
 30
0.0
  9
$USERI1
 70
     0
  9
$USERI2
 70
     0
  9
$USERI3
 70
     0
  9
$USERI4
 70
     0
  9
$USERI5
 70
     0
  9
$USERR1
 40
0.0
  9
$USERR2
 40
0.0
  9
$USERR3
 40
0.0
  9
$USERR4
 40
0.0
  9
$USERR5
 40
0.0
  9
$WORLDVIEW
 70
     1
  9
$SHADEDGE
 70
     3
  9
$SHADEDIF
 70
    70
  9
$TILEMODE
 70
     1
  9
$MAXACTVP
 70
    64
  9
$PINSBASE
 10
0.0
 20
0.0
 30
0.0
  9
$PLIMCHECK
 70
     0
  9
$PEXTMIN
 10
1.000000000000000E+20
 20
1.000000000000000E+20
 30
1.000000000000000E+20
  9
$PEXTMAX
 10
-1.000000000000000E+20
 20
-1.000000000000000E+20
 30
-1.000000000000000E+20
  9
$PLIMMIN
 10
0.0
 20
0.0
  9
$PLIMMAX
 10
0.0
 20
0.0
  9
$UNITMODE
 70
     0
  9
$VISRETAIN
 70
     1
  9
$PLINEGEN
 70
     0
  9
$PSLTSCALE
 70
     1
  9
$TREEDEPTH
 70
  3020
  9
$CMLSTYLE
  2
Standard
  9
$CMLJUST
 70
     0
  9
$CMLSCALE
 40
20.0
  9
$PROXYGRAPHICS
 70
     1
  9
$MEASUREMENT
 70
     1
  9
$CELWEIGHT
370
    -1
  9
$ENDCAPS
280
     0
  9
$JOINSTYLE
280
     0
  9
$LWDISPLAY
290
     1
  9
$INSUNITS
 70
     4
  9
$HYPERLINKBASE
  1

  9
$STYLESHEET
  1

  9
$XEDIT
290
     1
  9
$CEPSNTYPE
380
     0
  9
$PSTYLEMODE
290
     1
  9
$FINGERPRINTGUID
  2
{E591C580-08CE-4AA9-8356-3326F3F72456}
  9
$VERSIONGUID
  2
{FAEB1C32-E019-11D5-929B-00C0DF256EC4}
  9
$EXTNAMES
290
     1
  9
$PSVPSCALE
 40
0.0
  9
$OLESTARTUP
290
     0
  0
ENDSEC
  0
SECTION
  2
CLASSES
  0
CLASS
  1
ACDBDICTIONARYWDFLT
  2
AcDbDictionaryWithDefault
  3
ObjectDBX Classes
 90
        0
280
     0
281
     0
  0
CLASS
  1
VISUALSTYLE
  2
AcDbVisualStyle
  3
ObjectDBX Classes
 90
     4095
280
     0
281
     0
  0
CLASS
  1
MATERIAL
  2
AcDbMaterial
  3
ObjectDBX Classes
 90
     1153
280
     0
281
     0
  0
CLASS
  1
SCALE
  2
AcDbScale
  3
ObjectDBX Classes
 90
     1153
280
     0
281
     0
  0
CLASS
  1
SUN
  2
AcDbSun
  3
SCENEOE
 90
     1153
280
     0
281
     0
  0
CLASS
  1
ACDBPLACEHOLDER
  2
AcDbPlaceHolder
  3
ObjectDBX Classes
 90
        0
280
     0
281
     0
  0
CLASS
  1
LAYOUT
  2
AcDbLayout
  3
ObjectDBX Classes
 90
        0
280
     0
281
     0
  0
CLASS
  1
TABLESTYLE
  2
AcDbTableStyle
  3
ObjectDBX Classes
 90
     4095
280
     0
281
     0
  0
CLASS
  1
MLEADERSTYLE
  2
AcDbMLeaderStyle
  3
ACDB_MLEADERSTYLE_CLASS
 90
     4095
280
     0
281
     0
  0
CLASS
  1
RASTERVARIABLES
  2
AcDbRasterVariables
  3
ISM
 90
        0
280
     0
281
     0
  0
CLASS
  1
DIMASSOC
  2
AcDbDimAssoc
  3
"AcDbDimAssoc|Product Desc:     AcDim ARX App For Dimension|Company:          Autodesk, Inc.|WEB Address:      www.autodesk.com"
 90
        0
280
     0
281
     0
  0
ENDSEC
  0
SECTION
  2
TABLES
  0
TABLE
  2
VPORT
  5
8
330
0
100
AcDbSymbolTable
 70
     1
  0
VPORT
  5
29
330
8
100
AcDbSymbolTableRecord
100
AcDbViewportTableRecord
  2
*Active
 70
     0
 10
0.0
 20
0.0
 11
1.0
 21
1.0
 12
3.053836578439061
 22
-25.75117057294905
 13
0.0
 23
0.0
 14
10.0
 24
10.0
 15
10.0
 25
10.0
 16
0.0
 26
0.0
 36
1.0
 17
0.0
 27
0.0
 37
0.0
 40
83.89302218941282
 41
1.586073500967118
 42
50.0
 43
0.0
 44
0.0
 50
0.0
 51
0.0
 71
    16
 72
  2000
 73
     1
 74
     3
 75
     0
 76
     0
 77
     0
 78
     0
281
     0
 65
     1
110
0.0
120
0.0
130
0.0
111
1.0
121
0.0
131
0.0
112
0.0
122
1.0
132
0.0
 79
     0
146
0.0
  0
ENDTAB
  0
TABLE
  2
LTYPE
  5
5
330
0
100
AcDbSymbolTable
 70
     6
  0
LTYPE
  5
14
330
5
100
AcDbSymbolTableRecord
100
AcDbLinetypeTableRecord
  2
ByBlock
 70
     0
  3

 72
    65
 73
     0
 40
0.0
  0
LTYPE
  5
15
330
5
100
AcDbSymbolTableRecord
100
AcDbLinetypeTableRecord
  2
ByLayer
 70
     0
  3

 72
    65
 73
     0
 40
0.0
  0
LTYPE
  5
16
330
5
100
AcDbSymbolTableRecord
100
AcDbLinetypeTableRecord
  2
Continuous
 70
     0
  3
Solid line
 72
    65
 73
     0
 40
0.0
  0
LTYPE
  5
6A
330
5
100
AcDbSymbolTableRecord
100
AcDbLinetypeTableRecord
  2
HIDDEN
 70
     0
  3
Hidden __ __ __ __ __ __ __ __ __ __ __ __ __ __
 72
    65
 73
     2
 40
1.905
 49
1.27
 74
     0
 49
-0.635
 74
     0
  0
LTYPE
  5
6B
330
5
100
AcDbSymbolTableRecord
100
AcDbLinetypeTableRecord
  2
PHANTOM
 70
     0
  3
Phantom ______  __  __  ______  __  __  ______
 72
    65
 73
     6
 40
12.7
 49
6.35
 74
     0
 49
-1.27
 74
     0
 49
1.27
 74
     0
 49
-1.27
 74
     0
 49
1.27
 74
     0
 49
-1.27
 74
     0
  0
LTYPE
  5
6C
330
5
100
AcDbSymbolTableRecord
100
AcDbLinetypeTableRecord
  2
CENTER
 70
     0
  3
Center ____ _ ____ _ ____ _ ____ _ ____ _ ____
 72
    65
 73
     4
 40
10.16
 49
6.35
 74
     0
 49
-1.27
 74
     0
 49
1.27
 74
     0
 49
-1.27
 74
     0
  0
LTYPE
  5
6D
330
5
100
AcDbSymbolTableRecord
100
AcDbLinetypeTableRecord
  2
CENTERX2
 70
     0
  3
Center (2x) ________  __  ________  __  _____
 72
    65
 73
     4
 40
20.32
 49
12.7
 74
     0
 49
-2.54
 74
     0
 49
2.54
 74
     0
 49
-2.54
 74
     0
  0
LTYPE
  5
6E
330
5
100
AcDbSymbolTableRecord
100
AcDbLinetypeTableRecord
  2
DOT2
 70
     0
  3
Dot (.5x) ........................................
 72
    65
 73
     2
 40
0.635
 49
0.0
 74
     0
 49
-0.635
 74
     0
  0
ENDTAB
  0
TABLE
  2
LAYER
  5
2
102
{ACAD_XDICTIONARY
360
1F8
102
}
330
0
100
AcDbSymbolTable
 70
    18
  0
LAYER
  5
10
330
2
100
AcDbSymbolTableRecord
100
AcDbLayerTableRecord
  2
0
 70
     0
 62
     7
  6
Continuous
370
    -3
390
F
  0
LAYER
  5
6F
330
2
100
AcDbSymbolTableRecord
100
AcDbLayerTableRecord
  2
FORMAT
 70
     0
 62
     2
  6
Continuous
370
    -3
390
F
  0
LAYER
  5
70
330
2
100
AcDbSymbolTableRecord
100
AcDbLayerTableRecord
  2
외형선
 70
     0
 62
     4
  6
Continuous
370
    30
390
F
  0
LAYER
  5
71
330
2
100
AcDbSymbolTableRecord
100
AcDbLayerTableRecord
  2
숨은선
 70
     0
 62
     2
  6
HIDDEN
370
    15
390
F
  0
LAYER
  5
72
330
2
100
AcDbSymbolTableRecord
100
AcDbLayerTableRecord
  2
중심선
 70
     0
 62
     1
  6
CENTERX2
370
    -3
390
F
  0
LAYER
  5
73
330
2
100
AcDbSymbolTableRecord
100
AcDbLayerTableRecord
  2
파단선
 70
     0
 62
     4
  6
Continuous
370
    -3
390
F
  0
LAYER
  5
74
330
2
100
AcDbSymbolTableRecord
100
AcDbLayerTableRecord
  2
해칭선
 70
     0
 62
   100
  6
Continuous
370
    -3
390
F
  0
LAYER
  5
75
330
2
100
AcDbSymbolTableRecord
100
AcDbLayerTableRecord
  2
가는실선
 70
     0
 62
     4
  6
Continuous
370
    -3
390
F
  0
LAYER
  5
76
330
2
100
AcDbSymbolTableRecord
100
AcDbLayerTableRecord
  2
치수_보조선
 70
     0
 62
     4
  6
Continuous
370
    -3
390
F
  0
LAYER
  5
77
330
2
100
AcDbSymbolTableRecord
100
AcDbLayerTableRecord
  2
치수문자_일반주서
 70
     0
 62
     7
  6
Continuous
370
    15
390
F
  0
LAYER
  5
78
330
2
100
AcDbSymbolTableRecord
100
AcDbLayerTableRecord
  2
개별주서
 70
     0
 62
   100
  6
Continuous
370
    30
390
F
  0
LAYER
  5
79
330
2
100
AcDbSymbolTableRecord
100
AcDbLayerTableRecord
  2
중간선
 70
     0
 62
     2
  6
Continuous
370
    15
390
F
  0
LAYER
  5
7A
330
2
100
AcDbSymbolTableRecord
100
AcDbLayerTableRecord
  2
윤곽선
 70
     0
 62
     3
  6
Continuous
370
    40
390
F
  0
LAYER
  5
7B
330
2
100
AcDbSymbolTableRecord
100
AcDbLayerTableRecord
  2
중심마크
 70
     0
 62
   100
  6
Continuous
370
    30
390
F
  0
LAYER
  5
7C
330
2
100
AcDbSymbolTableRecord
100
AcDbLayerTableRecord
  2
가상선
 70
     0
 62
     4
  6
PHANTOM
370
    -3
390
F
  0
LAYER
  5
7D
330
2
100
AcDbSymbolTableRecord
100
AcDbLayerTableRecord
  2
특수지정선
 70
     0
 62
     5
  6
CENTERX2
370
    60
390
F
  0
LAYER
  5
7E
330
2
100
AcDbSymbolTableRecord
100
AcDbLayerTableRecord
  2
참조1
 70
     0
 62
    -4
  6
Continuous
370
    -3
390
F
  0
LAYER
  5
156
330
2
100
AcDbSymbolTableRecord
100
AcDbLayerTableRecord
  2
Defpoints
 70
     0
 62
     7
  6
Continuous
290
     0
370
    -3
390
F
  0
ENDTAB
  0
TABLE
  2
STYLE
  5
3
330
0
100
AcDbSymbolTable
 70
     2
  0
STYLE
  5
11
330
3
100
AcDbSymbolTableRecord
100
AcDbTextStyleTableRecord
  2
Standard
 70
     0
 40
0.0
 41
1.0
 50
0.0
 71
     0
 42
3.5
  3
txt
  4

  0
STYLE
  5
94
330
3
100
AcDbSymbolTableRecord
100
AcDbTextStyleTableRecord
  2
SLDTEXTSTYLE0
 70
     0
 40
0.0
 41
0.75
 50
0.0
 71
     0
 42
3.5
  3
TXT
  4

  0
ENDTAB
  0
TABLE
  2
VIEW
  5
6
330
0
100
AcDbSymbolTable
 70
     0
  0
ENDTAB
  0
TABLE
  2
UCS
  5
7
330
0
100
AcDbSymbolTable
 70
     0
  0
ENDTAB
  0
TABLE
  2
APPID
  5
9
330
0
100
AcDbSymbolTable
 70
     1
  0
APPID
  5
12
330
9
100
AcDbSymbolTableRecord
100
AcDbRegAppTableRecord
  2
ACAD
 70
     0
  0
ENDTAB
  0
TABLE
  2
DIMSTYLE
  5
A
330
0
100
AcDbSymbolTable
 70
     4
100
AcDbDimStyleTable
  0
DIMSTYLE
105
27
330
A
100
AcDbSymbolTableRecord
100
AcDbDimStyleTableRecord
  2
ISO-25
 70
     0
 41
2.5
 42
0.625
 43
3.75
 44
1.25
 73
     0
 74
     0
 77
     1
 78
     8
140
2.5
141
2.5
143
0.03937007874016
147
0.625
171
     3
172
     1
178
     0
271
     2
272
     2
274
     3
278
    44
283
     0
284
     8
340
11
  0
DIMSTYLE
105
D3
102
{ACAD_REACTORS
330
D2
330
E7
330
FC
330
10F
330
348
102
}
330
A
100
AcDbSymbolTableRecord
100
AcDbDimStyleTableRecord
  2
SLDDIMSTYLE0
 70
     0
 41
3.302
 44
0.0
 45
0.000000001
 73
     0
 74
     0
 77
     1
 78
    12
 79
     3
140
3.5
143
0.0393700787401575
147
0.875
148
0.000000001
170
     1
172
     1
173
     1
178
     0
271
     2
272
     2
276
     2
284
    12
289
     0
340
94
  0
DIMSTYLE
105
E8
330
A
100
AcDbSymbolTableRecord
100
AcDbDimStyleTableRecord
  2
SLDDIMSTYLE1
 70
     0
 41
3.302
 44
0.0
 45
0.000000001
 73
     0
 74
     0
 77
     1
 78
     4
 79
     1
140
3.5
143
0.0393700787401575
147
0.875
148
0.000000001
170
     1
173
     1
178
     0
271
     2
272
     2
276
     2
284
    12
340
94
  0
DIMSTYLE
105
110
330
A
100
AcDbSymbolTableRecord
100
AcDbDimStyleTableRecord
  2
SLDDIMSTYLE2
 70
     0
 41
3.302
 44
0.0
 45
0.000000001
 73
     0
 74
     0
 77
     1
 78
    12
 79
     3
140
3.5
143
0.0393700787401575
147
0.875
148
0.000000001
170
     1
173
     1
178
     0
271
     2
272
     2
276
     2
284
    12
340
94
  0
ENDTAB
  0
TABLE
  2
BLOCK_RECORD
  5
1
330
0
100
AcDbSymbolTable
 70
    17
  0
BLOCK_RECORD
  5
1F
330
1
100
AcDbSymbolTableRecord
100
AcDbBlockTableRecord
  2
*Model_Space
340
22
  0
BLOCK_RECORD
  5
1B
330
1
100
AcDbSymbolTableRecord
100
AcDbBlockTableRecord
  2
*Paper_Space
340
1E
  0
BLOCK_RECORD
  5
23
330
1
100
AcDbSymbolTableRecord
100
AcDbBlockTableRecord
  2
*Paper_Space0
340
26
  0
BLOCK_RECORD
  5
7F
330
1
100
AcDbSymbolTableRecord
100
AcDbBlockTableRecord
  2
블럭10
340
0
102
{BLKREFS
331
CB
102
}
  0
BLOCK_RECORD
  5
D4
330
1
100
AcDbSymbolTableRecord
100
AcDbBlockTableRecord
  2
_D
340
0
  0
BLOCK_RECORD
  5
E9
330
1
100
AcDbSymbolTableRecord
100
AcDbBlockTableRecord
  2
_D_1
340
0
  0
BLOCK_RECORD
  5
FD
330
1
100
AcDbSymbolTableRecord
100
AcDbBlockTableRecord
  2
_D_2
340
0
  0
BLOCK_RECORD
  5
111
330
1
100
AcDbSymbolTableRecord
100
AcDbBlockTableRecord
  2
_D_3
340
0
  0
BLOCK_RECORD
  5
12A
330
1
100
AcDbSymbolTableRecord
100
AcDbBlockTableRecord
  2
SW_DOWELSYMBOL_0
340
0
102
{BLKREFS
331
130
102
}
  0
BLOCK_RECORD
  5
1FC
330
1
100
AcDbSymbolTableRecord
100
AcDbBlockTableRecord
  2
*D7
340
0
  0
BLOCK_RECORD
  5
208
330
1
100
AcDbSymbolTableRecord
100
AcDbBlockTableRecord
  2
*D8
340
0
  0
BLOCK_RECORD
  5
217
330
1
100
AcDbSymbolTableRecord
100
AcDbBlockTableRecord
  2
*D9
340
0
  0
BLOCK_RECORD
  5
223
330
1
100
AcDbSymbolTableRecord
100
AcDbBlockTableRecord
  2
*D10
340
0
  0
BLOCK_RECORD
  5
270
330
1
100
AcDbSymbolTableRecord
100
AcDbBlockTableRecord
  2
*D11
340
0
  0
BLOCK_RECORD
  5
27C
330
1
100
AcDbSymbolTableRecord
100
AcDbBlockTableRecord
  2
*D12
340
0
  0
BLOCK_RECORD
  5
28B
330
1
100
AcDbSymbolTableRecord
100
AcDbBlockTableRecord
  2
*D13
340
0
  0
BLOCK_RECORD
  5
297
330
1
100
AcDbSymbolTableRecord
100
AcDbBlockTableRecord
  2
*D14
340
0
  0
BLOCK_RECORD
  5
2E6
330
1
100
AcDbSymbolTableRecord
100
AcDbBlockTableRecord
  2
*D15
340
0
  0
BLOCK_RECORD
  5
34B
330
1
100
AcDbSymbolTableRecord
100
AcDbBlockTableRecord
  2
*D16
340
0
  0
ENDTAB
  0
ENDSEC
  0
SECTION
  2
BLOCKS
  0
BLOCK
  5
20
330
1F
100
AcDbEntity
  8
0
100
AcDbBlockBegin
  2
*Model_Space
 70
     0
 10
0.0
 20
0.0
 30
0.0
  3
*Model_Space
  1
*Model_Space
  0
ENDBLK
  5
21
330
1F
100
AcDbEntity
  8
0
100
AcDbBlockEnd
  0
BLOCK
  5
1C
330
1B
100
AcDbEntity
 67
     1
  8
0
100
AcDbBlockBegin
  2
*Paper_Space
 70
     0
 10
0.0
 20
0.0
 30
0.0
  3
*Paper_Space
  1
*Paper_Space
  0
ENDBLK
  5
1D
330
1B
100
AcDbEntity
 67
     1
  8
0
100
AcDbBlockEnd
  0
BLOCK
  5
24
330
23
100
AcDbEntity
  8
0
100
AcDbBlockBegin
  2
*Paper_Space0
 70
     0
 10
0.0
 20
0.0
 30
0.0
  3
*Paper_Space0
  1
*Paper_Space0
  0
ENDBLK
  5
25
330
23
100
AcDbEntity
  8
0
100
AcDbBlockEnd
  0
BLOCK
  5
80
330
7F
100
AcDbEntity
  8
0
100
AcDbBlockBegin
  2
블럭10
 70
     2
 10
0.0
 20
0.0
 30
0.0
  3
블럭10
  1
블럭10
  0
ELLIPSE
  5
82
330
7F
100
AcDbEntity
  8
중심선
100
AcDbEllipse
 10
20.54032771741204
 20
12.0471743016438
 30
0.0
 11
6.600054785286829
 21
-1.261213355974178E-13
 31
0.0
210
0.0
220
0.0
230
1.0
 40
0.636358354079598
 41
0.9219305317359503
 42
6.513795318482858
  0
ELLIPSE
  5
83
330
7F
100
AcDbEntity
  8
중심선
100
AcDbEllipse
 10
20.54032771746488
 20
12.04717430159265
 30
0.0
 11
3.960054785062283
 21
1.540847449632565E-10
 31
0.0
210
0.0
220
0.0
230
1.0
 40
0.3939339440162632
 41
1.131841032648279
 42
5.62031148352944
  0
LINE
  5
84
330
7F
100
AcDbEntity
  8
중심선
100
AcDbLine
 10
2.268634060543552
 20
16.24717430164393
 30
0.0
 11
5.714909304380834
 21
16.24717430164393
 31
0.0
  0
LINE
  5
85
330
7F
100
AcDbEntity
  8
중심선
100
AcDbLine
 10
5.245725140726316
 20
7.84717430164391
 30
0.0
 11
8.692000384563599
 21
7.84717430164391
 31
0.0
  0
LINE
  5
86
330
7F
100
AcDbEntity
  8
중심선
100
AcDbLine
 10
15.74043728645272
 20
16.24717430164393
 30
0.0
 11
8.692000384563599
 21
7.84717430164391
 31
0.0
  0
LINE
  5
87
330
7F
100
AcDbEntity
  8
중심선
100
AcDbLine
 10
0.1404042013395286
 20
13.71084872107135
 30
0.0
 11
3.58671253028996
 21
13.71088815037384
 31
0.0
  0
LINE
  5
88
330
7F
100
AcDbEntity
  8
중심선
100
AcDbLine
 10
2.750260043222114
 20
10.84717430164391
 30
0.0
 11
6.196535287059397
 21
10.84717430164391
 31
0.0
  0
LINE
  5
89
330
7F
100
AcDbEntity
  8
중심선
100
AcDbLine
 10
12.29416204261559
 20
16.24717430164393
 30
0.0
 11
5.245725140726316
 21
7.84717430164391
 31
0.0
  0
LINE
  5
8A
330
7F
100
AcDbEntity
  8
중심선
100
AcDbLine
 10
10.72767329541681
 20
16.24717430164393
 30
0.0
 11
6.196535287059397
 21
10.84717430164391
 31
0.0
  0
LINE
  5
8B
330
7F
100
AcDbEntity
  8
중심선
100
AcDbLine
 10
7.28139805157953
 20
16.24717430164393
 30
0.0
 11
2.750260043222114
 21
10.84717430164391
 31
0.0
  0
LINE
  5
8C
330
7F
100
AcDbEntity
  8
중심선
100
AcDbLine
 10
5.714909304380834
 20
16.24717430164393
 30
0.0
 11
3.58671253028996
 21
13.71088815037384
 31
0.0
  0
LINE
  5
8D
330
7F
100
AcDbEntity
  8
중심선
100
AcDbLine
 10
2.268634060543552
 20
16.24717430164393
 30
0.0
 11
0.1404042013395286
 21
13.71084872107135
 31
0.0
  0
LINE
  5
8E
330
7F
100
AcDbEntity
  8
중심선
100
AcDbLine
 10
7.28139805157953
 20
16.24717430164393
 30
0.0
 11
10.72767329541681
 21
16.24717430164393
 31
0.0
  0
LINE
  5
8F
330
7F
100
AcDbEntity
  8
중심선
100
AcDbLine
 10
12.29416204261559
 20
16.24717430164393
 30
0.0
 11
15.74043728645272
 21
16.24717430164393
 31
0.0
  0
LINE
  5
90
330
7F
100
AcDbEntity
  8
중심선
100
AcDbLine
 10
19.22036997980202
 20
11.08717430171403
 30
0.0
 11
23.66174974927406
 21
11.08717430171406
 31
0.0
  0
LINE
  5
91
330
7F
100
AcDbEntity
  8
중심선
100
AcDbLine
 10
19.22039502424796
 20
13.00717430171391
 30
0.0
 11
19.22036997980202
 21
11.08717430171403
 31
0.0
  0
LINE
  5
92
330
7F
100
AcDbEntity
  8
중심선
100
AcDbLine
 10
19.22039502424796
 20
13.00717430171391
 30
0.0
 11
26.96566020931264
 21
13.00717430171391
 31
0.0
  0
LINE
  5
93
330
7F
100
AcDbEntity
  8
중심선
100
AcDbLine
 10
22.22332737316547
 20
13.45928029700563
 30
0.0
 11
24.52862924686651
 21
15.39360700705356
 31
0.0
  0
ATTDEF
  5
95
330
7F
100
AcDbEntity
  8
FORMAT
 62
     2
100
AcDbText
 10
4.408487351596664
 20
2.075366912832191
 30
0.0
 40
4.233333333333333
  1
E2033056
 41
0.75
  7
SLDTEXTSTYLE0
 11
4.408487351596664
 21
-0.0412997538344756
 31
0.0
100
AcDbAttributeDefinition
  3

  2
AUTOATTR0
 70
     0
 74
     1
  0
ENDBLK
  5
81
330
7F
100
AcDbEntity
  8
0
100
AcDbBlockEnd
  0
BLOCK
  5
D5
330
D4
100
AcDbEntity
  8
0
100
AcDbBlockBegin
  2
_D
 70
     0
 10
0.0
 20
0.0
 30
0.0
  3
_D
  1
_D
  0
LINE
  5
D7
330
D4
100
AcDbEntity
  8
치수문자_일반주서
 62
     0
370
    -2
100
AcDbLine
 10
-49.34662356130564
 20
11.1125
 30
0.0
 11
-62.78412356130566
 21
11.11249999999996
 31
0.0
  0
LINE
  5
D8
330
D4
100
AcDbEntity
  8
치수문자_일반주서
 62
     0
370
    -2
100
AcDbLine
 10
-49.34662356130564
 20
-11.1125
 30
0.0
 11
-62.78412356130558
 21
-11.11250000000004
 31
0.0
  0
LINE
  5
D9
330
D4
100
AcDbEntity
  8
치수문자_일반주서
 62
     0
370
    -2
100
AcDbLine
 10
-62.78412356130565
 20
7.810499999999957
 30
0.0
 11
-62.7841235613056
 21
-7.810500000000044
 31
0.0
  0
SOLID
  5
DA
330
D4
100
AcDbEntity
  8
치수문자_일반주서
 62
     0
100
AcDbTrace
 10
-62.23379022797231
 20
7.810499999999958
 30
0.0
 11
-63.33445689463898
 21
7.810499999999955
 31
0.0
 12
-62.78412356130566
 22
11.11249999999996
 32
0.0
 13
-62.78412356130566
 23
11.11249999999996
 33
0.0
  0
SOLID
  5
DB
330
D4
100
AcDbEntity
  8
치수문자_일반주서
 62
     0
100
AcDbTrace
 10
-63.33445689463893
 20
-7.810500000000046
 30
0.0
 11
-62.23379022797226
 21
-7.810500000000042
 31
0.0
 12
-62.78412356130558
 22
-11.11250000000004
 32
0.0
 13
-62.78412356130558
 23
-11.11250000000004
 33
0.0
  0
MTEXT
  5
DC
330
D4
100
AcDbEntity
  8
치수문자_일반주서
 62
     0
100
AcDbMText
 10
-67.15912356130562
 20
-0.0000000000000067
 30
0.0
 40
3.5
 41
0.0
 71
     2
 72
     1
  1
\A1;%%c22.23 [7/8]
  7
SLDTEXTSTYLE0
 11
-3.516746948643915E-15
 21
1.0
 31
0.0
 73
     1
 44
1.0
  0
POINT
  5
DD
330
D4
100
AcDbEntity
  8
Defpoints
 62
     0
100
AcDbPoint
 10
-49.28412356130564
 20
11.1125
 30
0.0
  0
POINT
  5
DE
330
D4
100
AcDbEntity
  8
Defpoints
 62
     0
100
AcDbPoint
 10
-49.28412356130564
 20
-11.1125
 30
0.0
  0
POINT
  5
DF
330
D4
100
AcDbEntity
  8
Defpoints
 62
     0
100
AcDbPoint
 10
-62.78412356130563
 20
-11.11250000000005
 30
0.0
  0
ENDBLK
  5
D6
330
D4
100
AcDbEntity
  8
0
100
AcDbBlockEnd
  0
BLOCK
  5
EA
330
E9
100
AcDbEntity
  8
0
100
AcDbBlockBegin
  2
_D_1
 70
     0
 10
0.0
 20
0.0
 30
0.0
  3
_D_1
  1
_D_1
  0
LINE
  5
EC
330
E9
100
AcDbEntity
  8
치수문자_일반주서
 62
     0
370
    -2
100
AcDbLine
 10
102.1158764386944
 20
11.17500000000002
 30
0.0
 11
102.1158764386944
 21
24.27944961506237
 31
0.0
  0
LINE
  5
ED
330
E9
100
AcDbEntity
  8
치수문자_일반주서
 62
     0
370
    -2
100
AcDbLine
 10
51.31587643869437
 20
10.9928552063843
 30
0.0
 11
51.31587643869437
 21
24.27944961506237
 31
0.0
  0
LINE
  5
EE
330
E9
100
AcDbEntity
  8
치수문자_일반주서
 62
     0
370
    -2
100
AcDbLine
 10
98.81387643869438
 20
24.27944961506237
 30
0.0
 11
54.61787643869437
 21
24.27944961506237
 31
0.0
  0
SOLID
  5
EF
330
E9
100
AcDbEntity
  8
치수문자_일반주서
 62
     0
100
AcDbTrace
 10
98.81387643869438
 20
23.72911628172903
 30
0.0
 11
98.81387643869438
 21
24.8297829483957
 31
0.0
 12
102.1158764386944
 22
24.27944961506237
 32
0.0
 13
102.1158764386944
 23
24.27944961506237
 33
0.0
  0
SOLID
  5
F0
330
E9
100
AcDbEntity
  8
치수문자_일반주서
 62
     0
100
AcDbTrace
 10
54.61787643869437
 20
24.8297829483957
 30
0.0
 11
54.61787643869437
 21
23.72911628172903
 31
0.0
 12
51.31587643869437
 22
24.27944961506237
 32
0.0
 13
51.31587643869437
 23
24.27944961506237
 33
0.0
  0
MTEXT
  5
F1
330
E9
100
AcDbEntity
  8
치수문자_일반주서
 62
     0
100
AcDbMText
 10
76.71587643869438
 20
28.65444961506237
 30
0.0
 40
3.5
 41
0.0
 71
     2
 72
     1
  1
\A1;50.8 [2]
  7
SLDTEXTSTYLE0
 73
     1
 44
1.0
  0
POINT
  5
F2
330
E9
100
AcDbEntity
  8
Defpoints
 62
     0
100
AcDbPoint
 10
102.1158764386944
 20
11.11250000000002
 30
0.0
  0
POINT
  5
F3
330
E9
100
AcDbEntity
  8
Defpoints
 62
     0
100
AcDbPoint
 10
51.31587643869437
 20
10.9303552063843
 30
0.0
  0
POINT
  5
F4
330
E9
100
AcDbEntity
  8
Defpoints
 62
     0
100
AcDbPoint
 10
51.31587643869437
 20
24.27944961506237
 30
0.0
  0
ENDBLK
  5
EB
330
E9
100
AcDbEntity
  8
0
100
AcDbBlockEnd
  0
BLOCK
  5
FE
330
FD
100
AcDbEntity
  8
0
100
AcDbBlockBegin
  2
_D_2
 70
     0
 10
0.0
 20
0.0
 30
0.0
  3
_D_2
  1
_D_2
  0
LINE
  5
100
330
FD
100
AcDbEntity
  8
치수문자_일반주서
 62
     0
370
    -2
100
AcDbLine
 10
102.1158764386944
 20
11.17500000000001
 30
0.0
 11
102.1158764386944
 21
41.0706349747236
 31
0.0
  0
LINE
  5
101
330
FD
100
AcDbEntity
  8
치수문자_일반주서
 62
     0
370
    -2
100
AcDbLine
 10
-50.28412356130564
 20
10.17499999999999
 30
0.0
 11
-50.28412356130566
 21
41.0706349747236
 31
0.0
  0
LINE
  5
102
330
FD
100
AcDbEntity
  8
치수문자_일반주서
 62
     0
370
    -2
100
AcDbLine
 10
98.81387643869438
 20
41.0706349747236
 30
0.0
 11
-46.98212356130566
 21
41.0706349747236
 31
0.0
  0
SOLID
  5
103
330
FD
100
AcDbEntity
  8
치수문자_일반주서
 62
     0
100
AcDbTrace
 10
98.81387643869438
 20
40.52030164139027
 30
0.0
 11
98.81387643869438
 21
41.62096830805694
 31
0.0
 12
102.1158764386944
 22
41.0706349747236
 32
0.0
 13
102.1158764386944
 23
41.0706349747236
 33
0.0
  0
SOLID
  5
104
330
FD
100
AcDbEntity
  8
치수문자_일반주서
 62
     0
100
AcDbTrace
 10
-46.98212356130566
 20
41.62096830805694
 30
0.0
 11
-46.98212356130566
 21
40.52030164139027
 31
0.0
 12
-50.28412356130566
 22
41.0706349747236
 32
0.0
 13
-50.28412356130566
 23
41.0706349747236
 33
0.0
  0
MTEXT
  5
105
330
FD
100
AcDbEntity
  8
치수문자_일반주서
 62
     0
100
AcDbMText
 10
25.91587643869423
 20
45.4456349747236
 30
0.0
 40
3.5
 41
0.0
 71
     2
 72
     1
  1
\A1;152.4 [6]
  7
SLDTEXTSTYLE0
 73
     1
 44
1.0
  0
POINT
  5
106
330
FD
100
AcDbEntity
  8
Defpoints
 62
     0
100
AcDbPoint
 10
102.1158764386944
 20
11.11250000000001
 30
0.0
  0
POINT
  5
107
330
FD
100
AcDbEntity
  8
Defpoints
 62
     0
100
AcDbPoint
 10
-50.28412356130564
 20
10.11249999999999
 30
0.0
  0
POINT
  5
108
330
FD
100
AcDbEntity
  8
Defpoints
 62
     0
100
AcDbPoint
 10
-50.28412356130564
 20
41.0706349747236
 30
0.0
  0
ENDBLK
  5
FF
330
FD
100
AcDbEntity
  8
0
100
AcDbBlockEnd
  0
BLOCK
  5
112
330
111
100
AcDbEntity
  8
0
100
AcDbBlockBegin
  2
_D_3
 70
     0
 10
0.0
 20
0.0
 30
0.0
  3
_D_3
  1
_D_3
  0
LINE
  5
114
330
111
100
AcDbEntity
  8
치수문자_일반주서
 62
     0
370
    -2
100
AcDbLine
 10
102.1783764386944
 20
-11.11249999999999
 30
0.0
 11
136.1209649967127
 21
-11.11249999999986
 31
0.0
  0
LINE
  5
115
330
111
100
AcDbEntity
  8
치수문자_일반주서
 62
     0
370
    -2
100
AcDbLine
 10
102.1783764386944
 20
11.11250000000002
 30
0.0
 11
136.1209649967126
 21
11.11250000000015
 31
0.0
  0
LINE
  5
116
330
111
100
AcDbEntity
  8
치수문자_일반주서
 62
     0
370
    -2
100
AcDbLine
 10
136.1209649967126
 20
11.11250000000015
 30
0.0
 11
136.1209649967124
 21
46.86989224311986
 31
0.0
  0
LINE
  5
117
330
111
100
AcDbEntity
  8
치수문자_일반주서
 62
     0
370
    -2
100
AcDbLine
 10
136.1209649967127
 20
-11.11249999999986
 30
0.0
 11
136.1209649967126
 21
11.11250000000015
 31
0.0
  0
LINE
  5
118
330
111
100
AcDbEntity
  8
치수문자_일반주서
 62
     0
370
    -2
100
AcDbLine
 10
136.1209649967127
 20
-14.41449999999986
 30
0.0
 11
136.1209649967127
 21
-17.71649999999986
 31
0.0
  0
LINE
  5
119
330
111
100
AcDbEntity
  8
치수문자_일반주서
 62
     0
370
    -2
100
AcDbLine
 10
136.1209649967126
 20
14.41450000000015
 30
0.0
 11
136.1209649967126
 21
17.71650000000015
 31
0.0
  0
SOLID
  5
11A
330
111
100
AcDbEntity
  8
치수문자_일반주서
 62
     0
100
AcDbTrace
 10
136.671298330046
 20
-14.41449999999986
 30
0.0
 11
135.5706316633793
 21
-14.41449999999986
 31
0.0
 12
136.1209649967127
 22
-11.11249999999986
 32
0.0
 13
136.1209649967127
 23
-11.11249999999986
 33
0.0
  0
SOLID
  5
11B
330
111
100
AcDbEntity
  8
치수문자_일반주서
 62
     0
100
AcDbTrace
 10
135.5706316633793
 20
14.41450000000015
 30
0.0
 11
136.6712983300459
 21
14.41450000000015
 31
0.0
 12
136.1209649967126
 22
11.11250000000015
 32
0.0
 13
136.1209649967126
 23
11.11250000000015
 33
0.0
  0
MTEXT
  5
11C
330
111
100
AcDbEntity
  8
치수문자_일반주서
 62
     0
100
AcDbMText
 10
131.7459649967125
 20
32.43239224311984
 30
0.0
 40
3.5
 41
0.0
 71
     2
 72
     1
  1
\A1;%%c22.23 [7/8]
  7
SLDTEXTSTYLE0
 11
-3.836451216702452E-15
 21
1.0
 31
0.0
 73
     1
 44
1.0
  0
POINT
  5
11D
330
111
100
AcDbEntity
  8
Defpoints
 62
     0
100
AcDbPoint
 10
102.1158764386944
 20
-11.11249999999999
 30
0.0
  0
POINT
  5
2A8
330
111
100
AcDbEntity
  8
Defpoints
 62
     0
100
AcDbPoint
 10
102.1158764386944
 20
11.11250000000002
 30
0.0
  0
POINT
  5
2A9
330
111
100
AcDbEntity
  8
Defpoints
 62
     0
100
AcDbPoint
 10
136.1209649967126
 20
11.11250000000015
 30
0.0
  0
ENDBLK
  5
113
330
111
100
AcDbEntity
  8
0
100
AcDbBlockEnd
  0
BLOCK
  5
12B
330
12A
100
AcDbEntity
  8
0
100
AcDbBlockBegin
  2
SW_DOWELSYMBOL_0
 70
     0
 10
0.0
 20
0.0
 30
0.0
  3
SW_DOWELSYMBOL_0
  1
SW_DOWELSYMBOL_0
  0
CIRCLE
  5
12D
330
12A
100
AcDbEntity
  8
해칭선
 62
     0
100
AcDbCircle
 10
0.0
 20
0.0
 30
0.0
 40
2.999999999999996
  0
HATCH
  5
12E
330
12A
100
AcDbEntity
  8
0
  6
Continuous
 62
     0
370
     0
100
AcDbHatch
 10
0.0
 20
0.0
 30
0.0
210
0.0
220
0.0
230
1.0
  2
SOLID
 70
     1
 71
     0
 91
        1
 92
        0
 93
        3
 72
     2
 10
0.0
 20
0.0
 40
2.999999999999996
 50
0.0
 51
90.0
 73
     1
 72
     1
 10
0.0
 20
2.999999999999996
 11
0.0
 21
0.0
 72
     1
 10
0.0
 20
0.0
 11
2.999999999999996
 21
0.0
 97
        0
 75
     0
 76
     1
 98
        1
 10
0.0
 20
0.0
  0
HATCH
  5
12F
330
12A
100
AcDbEntity
  8
0
  6
Continuous
 62
     0
370
     0
100
AcDbHatch
 10
0.0
 20
0.0
 30
0.0
210
0.0
220
0.0
230
1.0
  2
SOLID
 70
     1
 71
     0
 91
        1
 92
        0
 93
        3
 72
     2
 10
0.0
 20
0.0
 40
2.999999999999996
 50
180.0
 51
270.0000000000007
 73
     1
 72
     1
 10
0.0
 20
-2.999999999999996
 11
0.0
 21
0.0
 72
     1
 10
0.0
 20
0.0
 11
-2.999999999999996
 21
0.0
 97
        0
 75
     0
 76
     1
 98
        1
 10
0.0
 20
0.0
  0
ENDBLK
  5
12C
330
12A
100
AcDbEntity
  8
0
100
AcDbBlockEnd
  0
BLOCK
  5
1FD
330
1FC
100
AcDbEntity
  8
0
100
AcDbBlockBegin
  2
*D7
 70
     1
 10
0.0
 20
0.0
 30
0.0
  3
*D7
  1
*D8
  0
LINE
  5
1FF
330
1FC
100
AcDbEntity
  8
치수문자_일반주서
 62
     0
370
    -2
100
AcDbLine
 10
17.81250000000007
 20
25.65399999999991
 30
0.0
 11
4.375000000000024
 21
25.65399999999986
 31
0.0
  0
LINE
  5
200
330
1FC
100
AcDbEntity
  8
치수문자_일반주서
 62
     0
370
    -2
100
AcDbLine
 10
17.81250000000007
 20
6.603999999999898
 30
0.0
 11
4.375000000000091
 21
6.603999999999848
 31
0.0
  0
LINE
  5
201
330
1FC
100
AcDbEntity
  8
치수문자_일반주서
 62
     0
370
    -2
100
AcDbLine
 10
4.375000000000036
 20
22.35199999999986
 30
0.0
 11
4.375000000000079
 21
9.905999999999848
 31
0.0
  0
SOLID
  5
202
330
1FC
100
AcDbEntity
  8
치수문자_일반주서
 62
     0
100
AcDbTrace
 10
4.925333333333369
 20
22.35199999999987
 30
0.0
 11
3.824666666666702
 21
22.35199999999986
 31
0.0
 12
4.375000000000024
 22
25.65399999999986
 32
0.0
 13
4.375000000000024
 23
25.65399999999986
 33
0.0
  0
SOLID
  5
203
330
1FC
100
AcDbEntity
  8
치수문자_일반주서
 62
     0
100
AcDbTrace
 10
3.824666666666746
 20
9.905999999999846
 30
0.0
 11
4.925333333333413
 21
9.90599999999985
 31
0.0
 12
4.375000000000091
 22
6.603999999999848
 32
0.0
 13
4.375000000000091
 23
6.603999999999848
 33
0.0
  0
MTEXT
  5
204
330
1FC
100
AcDbEntity
  8
치수문자_일반주서
 62
     0
100
AcDbMText
 10
0.0000000000000568
 20
16.1289999999999
 30
0.0
 40
3.5
 41
0.0
 71
     2
 72
     1
  1
\A1;%%c19.05 [3/4]
  7
SLDTEXTSTYLE0
 11
-3.496765431890254E-15
 21
1.0
 31
0.0
 73
     1
 44
1.0
  0
POINT
  5
205
330
1FC
100
AcDbEntity
  8
Defpoints
 62
     0
100
AcDbPoint
 10
17.87500000000007
 20
25.65399999999991
 30
0.0
  0
POINT
  5
206
330
1FC
100
AcDbEntity
  8
Defpoints
 62
     0
100
AcDbPoint
 10
17.87500000000007
 20
6.603999999999898
 30
0.0
  0
POINT
  5
207
330
1FC
100
AcDbEntity
  8
Defpoints
 62
     0
100
AcDbPoint
 10
4.375000000000099
 20
6.603999999999847
 30
0.0
  0
ENDBLK
  5
1FE
330
1FC
100
AcDbEntity
  8
0
100
AcDbBlockEnd
  0
BLOCK
  5
209
330
208
100
AcDbEntity
  8
0
100
AcDbBlockBegin
  2
*D8
 70
     1
 10
0.0
 20
0.0
 30
0.0
  3
*D8
  1
*D9
  0
LINE
  5
20B
330
208
100
AcDbEntity
  8
치수문자_일반주서
 62
     0
370
    -2
100
AcDbLine
 10
153.3999999999995
 20
25.71649999999992
 30
0.0
 11
153.3999999999995
 21
37.48501073236535
 31
0.0
  0
LINE
  5
20C
330
208
100
AcDbEntity
  8
치수문자_일반주서
 62
     0
370
    -2
100
AcDbLine
 10
112.1250000000001
 20
25.23650731749913
 30
0.0
 11
112.1250000000001
 21
37.48501073236535
 31
0.0
  0
LINE
  5
20D
330
208
100
AcDbEntity
  8
치수문자_일반주서
 62
     0
370
    -2
100
AcDbLine
 10
112.1250000000001
 20
37.48501073236535
 30
0.0
 11
71.06462479752143
 21
37.48501073236535
 31
0.0
  0
LINE
  5
20E
330
208
100
AcDbEntity
  8
치수문자_일반주서
 62
     0
370
    -2
100
AcDbLine
 10
153.3999999999995
 20
37.48501073236535
 30
0.0
 11
112.1250000000001
 21
37.48501073236535
 31
0.0
  0
LINE
  5
20F
330
208
100
AcDbEntity
  8
치수문자_일반주서
 62
     0
370
    -2
100
AcDbLine
 10
156.7019999999995
 20
37.48501073236535
 30
0.0
 11
160.0039999999995
 21
37.48501073236535
 31
0.0
  0
LINE
  5
210
330
208
100
AcDbEntity
  8
치수문자_일반주서
 62
     0
370
    -2
100
AcDbLine
 10
108.8230000000001
 20
37.48501073236535
 30
0.0
 11
105.5210000000001
 21
37.48501073236535
 31
0.0
  0
SOLID
  5
211
330
208
100
AcDbEntity
  8
치수문자_일반주서
 62
     0
100
AcDbTrace
 10
156.7019999999995
 20
38.03534406569869
 30
0.0
 11
156.7019999999995
 21
36.93467739903202
 31
0.0
 12
153.3999999999995
 22
37.48501073236535
 32
0.0
 13
153.3999999999995
 23
37.48501073236535
 33
0.0
  0
SOLID
  5
212
330
208
100
AcDbEntity
  8
치수문자_일반주서
 62
     0
100
AcDbTrace
 10
108.8230000000001
 20
36.93467739903202
 30
0.0
 11
108.8230000000001
 21
38.03534406569869
 31
0.0
 12
112.1250000000001
 22
37.48501073236535
 32
0.0
 13
112.1250000000001
 23
37.48501073236535
 33
0.0
  0
MTEXT
  5
213
330
208
100
AcDbEntity
  8
치수문자_일반주서
 62
     0
100
AcDbMText
 10
85.93962479752143
 20
41.86001073236535
 30
0.0
 40
3.5
 41
0.0
 71
     2
 72
     1
  1
\A1;41.28 [1 5/8]
  7
SLDTEXTSTYLE0
 73
     1
 44
1.0
  0
POINT
  5
214
330
208
100
AcDbEntity
  8
Defpoints
 62
     0
100
AcDbPoint
 10
153.3999999999995
 20
25.65399999999992
 30
0.0
  0
POINT
  5
215
330
208
100
AcDbEntity
  8
Defpoints
 62
     0
100
AcDbPoint
 10
112.1250000000001
 20
25.17400731749913
 30
0.0
  0
POINT
  5
216
330
208
100
AcDbEntity
  8
Defpoints
 62
     0
100
AcDbPoint
 10
112.1250000000001
 20
37.48501073236535
 30
0.0
  0
ENDBLK
  5
20A
330
208
100
AcDbEntity
  8
0
100
AcDbBlockEnd
  0
BLOCK
  5
218
330
217
100
AcDbEntity
  8
0
100
AcDbBlockBegin
  2
*D9
 70
     1
 10
0.0
 20
0.0
 30
0.0
  3
*D9
  1
*D10
  0
LINE
  5
21A
330
217
100
AcDbEntity
  8
치수문자_일반주서
 62
     0
370
    -2
100
AcDbLine
 10
153.3999999999995
 20
25.71649999999992
 30
0.0
 11
153.3999999999995
 21
55.69319134481785
 31
0.0
  0
LINE
  5
21B
330
217
100
AcDbEntity
  8
치수문자_일반주서
 62
     0
370
    -2
100
AcDbLine
 10
16.87500000000007
 20
24.71649999999989
 30
0.0
 11
16.87500000000007
 21
55.69319134481785
 31
0.0
  0
LINE
  5
21C
330
217
100
AcDbEntity
  8
치수문자_일반주서
 62
     0
370
    -2
100
AcDbLine
 10
150.0979999999995
 20
55.69319134481785
 30
0.0
 11
20.17700000000007
 21
55.69319134481785
 31
0.0
  0
SOLID
  5
21D
330
217
100
AcDbEntity
  8
치수문자_일반주서
 62
     0
100
AcDbTrace
 10
150.0979999999995
 20
55.14285801148452
 30
0.0
 11
150.0979999999995
 21
56.24352467815119
 31
0.0
 12
153.3999999999995
 22
55.69319134481785
 32
0.0
 13
153.3999999999995
 23
55.69319134481785
 33
0.0
  0
SOLID
  5
21E
330
217
100
AcDbEntity
  8
치수문자_일반주서
 62
     0
100
AcDbTrace
 10
20.17700000000007
 20
56.24352467815119
 30
0.0
 11
20.17700000000007
 21
55.14285801148452
 31
0.0
 12
16.87500000000007
 22
55.69319134481785
 32
0.0
 13
16.87500000000007
 23
55.69319134481785
 33
0.0
  0
MTEXT
  5
21F
330
217
100
AcDbEntity
  8
치수문자_일반주서
 62
     0
100
AcDbMText
 10
85.13749999999993
 20
60.06819134481785
 30
0.0
 40
3.5
 41
0.0
 71
     2
 72
     1
  1
\A1;136.53 [5 3/8]
  7
SLDTEXTSTYLE0
 73
     1
 44
1.0
  0
POINT
  5
220
330
217
100
AcDbEntity
  8
Defpoints
 62
     0
100
AcDbPoint
 10
153.3999999999995
 20
25.65399999999992
 30
0.0
  0
POINT
  5
221
330
217
100
AcDbEntity
  8
Defpoints
 62
     0
100
AcDbPoint
 10
16.87500000000007
 20
24.65399999999989
 30
0.0
  0
POINT
  5
222
330
217
100
AcDbEntity
  8
Defpoints
 62
     0
100
AcDbPoint
 10
16.87500000000007
 20
55.69319134481785
 30
0.0
  0
ENDBLK
  5
219
330
217
100
AcDbEntity
  8
0
100
AcDbBlockEnd
  0
BLOCK
  5
224
330
223
100
AcDbEntity
  8
0
100
AcDbBlockBegin
  2
*D10
 70
     1
 10
0.0
 20
0.0
 30
0.0
  3
*D10
  1
*D11
  0
LINE
  5
226
330
223
100
AcDbEntity
  8
치수문자_일반주서
 62
     0
370
    -2
100
AcDbLine
 10
153.4625000000001
 20
6.603999999999917
 30
0.0
 11
177.6186708490788
 21
6.603999999999999
 31
0.0
  0
LINE
  5
227
330
223
100
AcDbEntity
  8
치수문자_일반주서
 62
     0
370
    -2
100
AcDbLine
 10
153.4624999999995
 20
25.65399999999992
 30
0.0
 11
177.6186708490788
 21
25.65400000000001
 31
0.0
  0
LINE
  5
228
330
223
100
AcDbEntity
  8
치수문자_일반주서
 62
     0
370
    -2
100
AcDbLine
 10
177.6186708490788
 20
25.65400000000001
 30
0.0
 11
177.6186708490787
 21
67.04220047500345
 31
0.0
  0
LINE
  5
229
330
223
100
AcDbEntity
  8
치수문자_일반주서
 62
     0
370
    -2
100
AcDbLine
 10
177.6186708490788
 20
6.603999999999999
 30
0.0
 11
177.6186708490788
 21
25.65400000000001
 31
0.0
  0
LINE
  5
22A
330
223
100
AcDbEntity
  8
치수문자_일반주서
 62
     0
370
    -2
100
AcDbLine
 10
177.6186708490788
 20
3.302
 30
0.0
 11
177.6186708490788
 21
0.0
 31
0.0
  0
LINE
  5
22B
330
223
100
AcDbEntity
  8
치수문자_일반주서
 62
     0
370
    -2
100
AcDbLine
 10
177.6186708490788
 20
28.95600000000001
 30
0.0
 11
177.6186708490788
 21
32.25800000000001
 31
0.0
  0
SOLID
  5
22C
330
223
100
AcDbEntity
  8
치수문자_일반주서
 62
     0
100
AcDbTrace
 10
178.1690041824122
 20
3.302000000000001
 30
0.0
 11
177.0683375157455
 21
3.301999999999998
 31
0.0
 12
177.6186708490788
 22
6.603999999999999
 32
0.0
 13
177.6186708490788
 23
6.603999999999999
 33
0.0
  0
SOLID
  5
22D
330
223
100
AcDbEntity
  8
치수문자_일반주서
 62
     0
100
AcDbTrace
 10
177.0683375157454
 20
28.95600000000001
 30
0.0
 11
178.1690041824121
 21
28.95600000000001
 31
0.0
 12
177.6186708490788
 22
25.65400000000001
 32
0.0
 13
177.6186708490788
 23
25.65400000000001
 33
0.0
  0
MTEXT
  5
22E
330
223
100
AcDbEntity
  8
치수문자_일반주서
 62
     0
100
AcDbMText
 10
173.2436708490787
 20
53.26095047500344
 30
0.0
 40
3.5
 41
0.0
 71
     2
 72
     1
  1
\A1;%%c19.05 [3/4]
  7
SLDTEXTSTYLE0
 11
-2.983906501879685E-15
 21
1.0
 31
0.0
 73
     1
 44
1.0
  0
POINT
  5
22F
330
223
100
AcDbEntity
  8
Defpoints
 62
     0
100
AcDbPoint
 10
153.4000000000001
 20
6.603999999999917
 30
0.0
  0
POINT
  5
230
330
223
100
AcDbEntity
  8
Defpoints
 62
     0
100
AcDbPoint
 10
153.3999999999995
 20
25.65399999999992
 30
0.0
  0
POINT
  5
231
330
223
100
AcDbEntity
  8
Defpoints
 62
     0
100
AcDbPoint
 10
177.6186708490788
 20
25.65400000000001
 30
0.0
  0
ENDBLK
  5
225
330
223
100
AcDbEntity
  8
0
100
AcDbBlockEnd
  0
BLOCK
  5
271
330
270
100
AcDbEntity
  8
0
100
AcDbBlockBegin
  2
*D11
 70
     1
 10
0.0
 20
0.0
 30
0.0
  3
*D11
  1
*D12
  0
LINE
  5
273
330
270
100
AcDbEntity
  8
치수문자_일반주서
 62
     0
370
    -2
100
AcDbLine
 10
87.60243794910541
 20
-67.7669901269214
 30
0.0
 11
74.16493794910537
 21
-67.76699012692146
 31
0.0
  0
LINE
  5
274
330
270
100
AcDbEntity
  8
치수문자_일반주서
 62
     0
370
    -2
100
AcDbLine
 10
87.60243794910541
 20
-86.81699012692141
 30
0.0
 11
74.16493794910544
 21
-86.81699012692147
 31
0.0
  0
LINE
  5
275
330
270
100
AcDbEntity
  8
치수문자_일반주서
 62
     0
370
    -2
100
AcDbLine
 10
74.16493794910538
 20
-71.06899012692145
 30
0.0
 11
74.16493794910542
 21
-83.51499012692148
 31
0.0
  0
SOLID
  5
276
330
270
100
AcDbEntity
  8
치수문자_일반주서
 62
     0
100
AcDbTrace
 10
74.7152712824387
 20
-71.06899012692145
 30
0.0
 11
73.61460461577205
 21
-71.06899012692145
 31
0.0
 12
74.16493794910537
 22
-67.76699012692146
 32
0.0
 13
74.16493794910537
 23
-67.76699012692146
 33
0.0
  0
SOLID
  5
277
330
270
100
AcDbEntity
  8
치수문자_일반주서
 62
     0
100
AcDbTrace
 10
73.6146046157721
 20
-83.51499012692148
 30
0.0
 11
74.71527128243875
 21
-83.51499012692148
 31
0.0
 12
74.16493794910544
 22
-86.81699012692147
 32
0.0
 13
74.16493794910544
 23
-86.81699012692147
 33
0.0
  0
MTEXT
  5
278
330
270
100
AcDbEntity
  8
치수문자_일반주서
 62
     0
100
AcDbMText
 10
69.7899379491054
 20
-77.2919901269214
 30
0.0
 40
3.5
 41
0.0
 71
     2
 72
     1
  1
\A1;%%c19.05 [3/4]
  7
SLDTEXTSTYLE0
 11
-3.729883127349605E-15
 21
1.0
 31
0.0
 73
     1
 44
1.0
  0
POINT
  5
279
330
270
100
AcDbEntity
  8
Defpoints
 62
     0
100
AcDbPoint
 10
87.66493794910541
 20
-67.7669901269214
 30
0.0
  0
POINT
  5
27A
330
270
100
AcDbEntity
  8
Defpoints
 62
     0
100
AcDbPoint
 10
87.66493794910541
 20
-86.81699012692141
 30
0.0
  0
POINT
  5
27B
330
270
100
AcDbEntity
  8
Defpoints
 62
     0
100
AcDbPoint
 10
74.16493794910542
 20
-86.81699012692147
 30
0.0
  0
ENDBLK
  5
272
330
270
100
AcDbEntity
  8
0
100
AcDbBlockEnd
  0
BLOCK
  5
27D
330
27C
100
AcDbEntity
  8
0
100
AcDbBlockBegin
  2
*D12
 70
     1
 10
0.0
 20
0.0
 30
0.0
  3
*D12
  1
*D13
  0
LINE
  5
27F
330
27C
100
AcDbEntity
  8
치수문자_일반주서
 62
     0
370
    -2
100
AcDbLine
 10
223.1899379491049
 20
-67.70449012692139
 30
0.0
 11
223.1899379491049
 21
-55.93597939455596
 31
0.0
  0
LINE
  5
280
330
27C
100
AcDbEntity
  8
치수문자_일반주서
 62
     0
370
    -2
100
AcDbLine
 10
181.9149379491054
 20
-68.18448280942218
 30
0.0
 11
181.9149379491054
 21
-55.93597939455596
 31
0.0
  0
LINE
  5
281
330
27C
100
AcDbEntity
  8
치수문자_일반주서
 62
     0
370
    -2
100
AcDbLine
 10
181.9149379491054
 20
-55.93597939455596
 30
0.0
 11
140.8545627466268
 21
-55.93597939455596
 31
0.0
  0
LINE
  5
282
330
27C
100
AcDbEntity
  8
치수문자_일반주서
 62
     0
370
    -2
100
AcDbLine
 10
223.1899379491049
 20
-55.93597939455596
 30
0.0
 11
181.9149379491054
 21
-55.93597939455596
 31
0.0
  0
LINE
  5
283
330
27C
100
AcDbEntity
  8
치수문자_일반주서
 62
     0
370
    -2
100
AcDbLine
 10
226.4919379491049
 20
-55.93597939455596
 30
0.0
 11
229.7939379491048
 21
-55.93597939455596
 31
0.0
  0
LINE
  5
284
330
27C
100
AcDbEntity
  8
치수문자_일반주서
 62
     0
370
    -2
100
AcDbLine
 10
178.6129379491054
 20
-55.93597939455596
 30
0.0
 11
175.3109379491054
 21
-55.93597939455596
 31
0.0
  0
SOLID
  5
285
330
27C
100
AcDbEntity
  8
치수문자_일반주서
 62
     0
100
AcDbTrace
 10
226.4919379491049
 20
-55.38564606122262
 30
0.0
 11
226.4919379491049
 21
-56.48631272788929
 31
0.0
 12
223.1899379491049
 22
-55.93597939455596
 32
0.0
 13
223.1899379491049
 23
-55.93597939455596
 33
0.0
  0
SOLID
  5
286
330
27C
100
AcDbEntity
  8
치수문자_일반주서
 62
     0
100
AcDbTrace
 10
178.6129379491054
 20
-56.48631272788929
 30
0.0
 11
178.6129379491054
 21
-55.38564606122262
 31
0.0
 12
181.9149379491054
 22
-55.93597939455596
 32
0.0
 13
181.9149379491054
 23
-55.93597939455596
 33
0.0
  0
MTEXT
  5
287
330
27C
100
AcDbEntity
  8
치수문자_일반주서
 62
     0
100
AcDbMText
 10
155.7295627466268
 20
-51.56097939455596
 30
0.0
 40
3.5
 41
0.0
 71
     2
 72
     1
  1
\A1;41.28 [1 5/8]
  7
SLDTEXTSTYLE0
 73
     1
 44
1.0
  0
POINT
  5
288
330
27C
100
AcDbEntity
  8
Defpoints
 62
     0
100
AcDbPoint
 10
223.1899379491049
 20
-67.76699012692139
 30
0.0
  0
POINT
  5
289
330
27C
100
AcDbEntity
  8
Defpoints
 62
     0
100
AcDbPoint
 10
181.9149379491054
 20
-68.24698280942218
 30
0.0
  0
POINT
  5
28A
330
27C
100
AcDbEntity
  8
Defpoints
 62
     0
100
AcDbPoint
 10
181.9149379491054
 20
-55.93597939455596
 30
0.0
  0
ENDBLK
  5
27E
330
27C
100
AcDbEntity
  8
0
100
AcDbBlockEnd
  0
BLOCK
  5
28C
330
28B
100
AcDbEntity
  8
0
100
AcDbBlockBegin
  2
*D13
 70
     1
 10
0.0
 20
0.0
 30
0.0
  3
*D13
  1
*D14
  0
LINE
  5
28E
330
28B
100
AcDbEntity
  8
치수문자_일반주서
 62
     0
370
    -2
100
AcDbLine
 10
223.1899379491049
 20
-67.7044901269214
 30
0.0
 11
223.1899379491049
 21
-37.72779878210346
 31
0.0
  0
LINE
  5
28F
330
28B
100
AcDbEntity
  8
치수문자_일반주서
 62
     0
370
    -2
100
AcDbLine
 10
86.66493794910541
 20
-68.70449012692143
 30
0.0
 11
86.66493794910544
 21
-37.72779878210346
 31
0.0
  0
LINE
  5
290
330
28B
100
AcDbEntity
  8
치수문자_일반주서
 62
     0
370
    -2
100
AcDbLine
 10
219.8879379491049
 20
-37.72779878210346
 30
0.0
 11
89.96693794910544
 21
-37.72779878210346
 31
0.0
  0
SOLID
  5
291
330
28B
100
AcDbEntity
  8
치수문자_일반주서
 62
     0
100
AcDbTrace
 10
219.8879379491049
 20
-38.27813211543679
 30
0.0
 11
219.8879379491049
 21
-37.17746544877012
 31
0.0
 12
223.1899379491049
 22
-37.72779878210346
 32
0.0
 13
223.1899379491049
 23
-37.72779878210346
 33
0.0
  0
SOLID
  5
292
330
28B
100
AcDbEntity
  8
치수문자_일반주서
 62
     0
100
AcDbTrace
 10
89.96693794910544
 20
-37.17746544877012
 30
0.0
 11
89.96693794910544
 21
-38.27813211543679
 31
0.0
 12
86.66493794910544
 22
-37.72779878210346
 32
0.0
 13
86.66493794910544
 23
-37.72779878210346
 33
0.0
  0
MTEXT
  5
293
330
28B
100
AcDbEntity
  8
치수문자_일반주서
 62
     0
100
AcDbMText
 10
154.9274379491053
 20
-33.35279878210346
 30
0.0
 40
3.5
 41
0.0
 71
     2
 72
     1
  1
\A1;136.53 [5 3/8]
  7
SLDTEXTSTYLE0
 73
     1
 44
1.0
  0
POINT
  5
294
330
28B
100
AcDbEntity
  8
Defpoints
 62
     0
100
AcDbPoint
 10
223.1899379491049
 20
-67.7669901269214
 30
0.0
  0
POINT
  5
295
330
28B
100
AcDbEntity
  8
Defpoints
 62
     0
100
AcDbPoint
 10
86.66493794910541
 20
-68.76699012692143
 30
0.0
  0
POINT
  5
296
330
28B
100
AcDbEntity
  8
Defpoints
 62
     0
100
AcDbPoint
 10
86.66493794910541
 20
-37.72779878210346
 30
0.0
  0
ENDBLK
  5
28D
330
28B
100
AcDbEntity
  8
0
100
AcDbBlockEnd
  0
BLOCK
  5
298
330
297
100
AcDbEntity
  8
0
100
AcDbBlockBegin
  2
*D14
 70
     1
 10
0.0
 20
0.0
 30
0.0
  3
*D14
  1
*D15
  0
LINE
  5
29A
330
297
100
AcDbEntity
  8
치수문자_일반주서
 62
     0
370
    -2
100
AcDbLine
 10
223.2524379491055
 20
-86.8169901269214
 30
0.0
 11
247.4086087981842
 21
-86.81699012692131
 31
0.0
  0
LINE
  5
29B
330
297
100
AcDbEntity
  8
치수문자_일반주서
 62
     0
370
    -2
100
AcDbLine
 10
223.2524379491049
 20
-67.76699012692139
 30
0.0
 11
247.4086087981841
 21
-67.7669901269213
 31
0.0
  0
LINE
  5
29C
330
297
100
AcDbEntity
  8
치수문자_일반주서
 62
     0
370
    -2
100
AcDbLine
 10
247.4086087981841
 20
-67.7669901269213
 30
0.0
 11
247.408608798184
 21
-26.37878965191787
 31
0.0
  0
LINE
  5
29D
330
297
100
AcDbEntity
  8
치수문자_일반주서
 62
     0
370
    -2
100
AcDbLine
 10
247.4086087981842
 20
-86.81699012692131
 30
0.0
 11
247.4086087981841
 21
-67.7669901269213
 31
0.0
  0
LINE
  5
29E
330
297
100
AcDbEntity
  8
치수문자_일반주서
 62
     0
370
    -2
100
AcDbLine
 10
247.4086087981842
 20
-90.11899012692132
 30
0.0
 11
247.4086087981842
 21
-93.42099012692131
 31
0.0
  0
LINE
  5
29F
330
297
100
AcDbEntity
  8
치수문자_일반주서
 62
     0
370
    -2
100
AcDbLine
 10
247.4086087981841
 20
-64.4649901269213
 30
0.0
 11
247.4086087981841
 21
-61.16299012692129
 31
0.0
  0
SOLID
  5
2A0
330
297
100
AcDbEntity
  8
치수문자_일반주서
 62
     0
100
AcDbTrace
 10
247.9589421315175
 20
-90.11899012692132
 30
0.0
 11
246.8582754648508
 21
-90.11899012692132
 31
0.0
 12
247.4086087981842
 22
-86.81699012692131
 32
0.0
 13
247.4086087981842
 23
-86.81699012692131
 33
0.0
  0
SOLID
  5
2A1
330
297
100
AcDbEntity
  8
치수문자_일반주서
 62
     0
100
AcDbTrace
 10
246.8582754648508
 20
-64.4649901269213
 30
0.0
 11
247.9589421315174
 21
-64.4649901269213
 31
0.0
 12
247.4086087981841
 22
-67.7669901269213
 32
0.0
 13
247.4086087981841
 23
-67.7669901269213
 33
0.0
  0
MTEXT
  5
2A2
330
297
100
AcDbEntity
  8
치수문자_일반주서
 62
     0
100
AcDbMText
 10
243.033608798184
 20
-40.16003965191787
 30
0.0
 40
3.5
 41
0.0
 71
     2
 72
     1
  1
\A1;%%c19.05 [3/4]
  7
SLDTEXTSTYLE0
 11
-2.983906501879684E-15
 21
1.0
 31
0.0
 73
     1
 44
1.0
  0
POINT
  5
2A3
330
297
100
AcDbEntity
  8
Defpoints
 62
     0
100
AcDbPoint
 10
223.1899379491055
 20
-86.8169901269214
 30
0.0
  0
POINT
  5
2A4
330
297
100
AcDbEntity
  8
Defpoints
 62
     0
100
AcDbPoint
 10
223.1899379491049
 20
-67.76699012692139
 30
0.0
  0
POINT
  5
2A5
330
297
100
AcDbEntity
  8
Defpoints
 62
     0
100
AcDbPoint
 10
247.4086087981841
 20
-67.7669901269213
 30
0.0
  0
ENDBLK
  5
299
330
297
100
AcDbEntity
  8
0
100
AcDbBlockEnd
  0
BLOCK
  5
2E7
330
2E6
100
AcDbEntity
  8
0
100
AcDbBlockBegin
  2
*D15
 70
     1
 10
0.0
 20
0.0
 30
0.0
  3
*D15
  1
*D17
  0
LINE
  5
2E9
330
2E6
100
AcDbEntity
  8
0
 62
     0
370
    -2
100
AcDbLine
 10
-59.00618041617676
 20
-42.70852570456495
 30
0.0
 11
-64.46484684363956
 21
-42.70852570456495
 31
0.0
  0
LINE
  5
2EA
330
2E6
100
AcDbEntity
  8
0
 62
     0
370
    -2
100
AcDbLine
 10
-59.00618041617677
 20
-64.93352570456494
 30
0.0
 11
-64.46484684363956
 21
-64.93352570456494
 31
0.0
  0
LINE
  5
2EB
330
2E6
100
AcDbEntity
  8
0
 62
     0
370
    -2
100
AcDbLine
 10
-63.46484684363956
 20
-46.01052570456495
 30
0.0
 11
-63.46484684363956
 21
-50.25535903789828
 31
0.0
  0
LINE
  5
2EC
330
2E6
100
AcDbEntity
  8
0
 62
     0
370
    -2
100
AcDbLine
 10
-63.46484684363956
 20
-61.63152570456494
 30
0.0
 11
-63.46484684363956
 21
-57.38669237123161
 31
0.0
  0
SOLID
  5
2ED
330
2E6
100
AcDbEntity
  8
0
 62
     0
100
AcDbTrace
 10
-62.91451351030623
 20
-46.01052570456495
 30
0.0
 11
-64.01518017697289
 21
-46.01052570456495
 31
0.0
 12
-63.46484684363956
 22
-42.70852570456495
 32
0.0
 13
-63.46484684363956
 23
-42.70852570456495
 33
0.0
  0
SOLID
  5
2EE
330
2E6
100
AcDbEntity
  8
0
 62
     0
100
AcDbTrace
 10
-64.01518017697289
 20
-61.63152570456494
 30
0.0
 11
-62.91451351030623
 21
-61.63152570456494
 31
0.0
 12
-63.46484684363956
 22
-64.93352570456494
 32
0.0
 13
-63.46484684363956
 23
-64.93352570456494
 33
0.0
  0
MTEXT
  5
2EF
330
2E6
100
AcDbEntity
  8
0
 62
     0
100
AcDbMText
 10
-63.46484684363956
 20
-53.82102570456495
 30
0.0
 40
3.5
 41
0.0
 71
     5
 72
     1
  1
22,23
 73
     1
 44
1.0
  0
POINT
  5
2F0
330
2E6
100
AcDbEntity
  8
Defpoints
 62
     0
100
AcDbPoint
 10
-58.00618041617676
 20
-42.70852570456495
 30
0.0
  0
POINT
  5
2F1
330
2E6
100
AcDbEntity
  8
Defpoints
 62
     0
100
AcDbPoint
 10
-58.00618041617677
 20
-64.93352570456494
 30
0.0
  0
POINT
  5
2F2
330
2E6
100
AcDbEntity
  8
Defpoints
 62
     0
100
AcDbPoint
 10
-63.46484684363956
 20
-64.93352570456494
 30
0.0
  0
ENDBLK
  5
2E8
330
2E6
100
AcDbEntity
  8
0
100
AcDbBlockEnd
  0
BLOCK
  5
34C
330
34B
100
AcDbEntity
  8
0
100
AcDbBlockBegin
  2
*D16
 70
     1
 10
0.0
 20
0.0
 30
0.0
  3
*D16
  1
*D16
  0
LINE
  5
34E
330
34B
100
AcDbEntity
  8
치수문자_일반주서
 62
     0
370
    -2
100
AcDbLine
 10
0.5158764386943844
 20
10.9845
 30
0.0
 11
0.5158764386943773
 21
33.23357520239249
 31
0.0
  0
LINE
  5
34F
330
34B
100
AcDbEntity
  8
치수문자_일반주서
 62
     0
370
    -2
100
AcDbLine
 10
102.1158764386944
 20
11.17500000000001
 30
0.0
 11
102.1158764386944
 21
33.23357520239249
 31
0.0
  0
LINE
  5
350
330
34B
100
AcDbEntity
  8
치수문자_일반주서
 62
     0
370
    -2
100
AcDbLine
 10
3.817876438694377
 20
33.23357520239249
 30
0.0
 11
98.8138764386944
 21
33.23357520239249
 31
0.0
  0
SOLID
  5
351
330
34B
100
AcDbEntity
  8
치수문자_일반주서
 62
     0
100
AcDbTrace
 10
3.817876438694377
 20
33.78390853572582
 30
0.0
 11
3.817876438694377
 21
32.68324186905915
 31
0.0
 12
0.5158764386943773
 22
33.23357520239249
 32
0.0
 13
0.5158764386943773
 23
33.23357520239249
 33
0.0
  0
SOLID
  5
352
330
34B
100
AcDbEntity
  8
치수문자_일반주서
 62
     0
100
AcDbTrace
 10
98.8138764386944
 20
32.68324186905915
 30
0.0
 11
98.8138764386944
 21
33.78390853572582
 31
0.0
 12
102.1158764386944
 22
33.23357520239249
 32
0.0
 13
102.1158764386944
 23
33.23357520239249
 33
0.0
  0
MTEXT
  5
353
330
34B
100
AcDbEntity
  8
치수문자_일반주서
 62
     0
100
AcDbMText
 10
51.31587643869439
 20
35.85857520239249
 30
0.0
 40
3.5
 41
0.0
 71
     5
 72
     1
  1
\A1;101.6 [4]
  7
SLDTEXTSTYLE0
 73
     1
 44
1.0
  0
POINT
  5
354
330
34B
100
AcDbEntity
  8
Defpoints
 62
     0
100
AcDbPoint
 10
0.5158764386943844
 20
10.922
 30
0.0
  0
POINT
  5
355
330
34B
100
AcDbEntity
  8
Defpoints
 62
     0
100
AcDbPoint
 10
102.1158764386944
 20
11.11250000000001
 30
0.0
  0
POINT
  5
356
330
34B
100
AcDbEntity
  8
Defpoints
 62
     0
100
AcDbPoint
 10
102.1158764386944
 20
33.23357520239249
 30
0.0
  0
ENDBLK
  5
34D
330
34B
100
AcDbEntity
  8
0
100
AcDbBlockEnd
  0
ENDSEC
  0
SECTION
  2
ENTITIES
  0
LINE
  5
96
330
1F
100
AcDbEntity
  8
외형선
  6
Continuous
370
    15
100
AcDbLine
 10
0.0
 20
11.1125
 30
0.0
 11
-17.04504856130549
 21
11.1125
 31
0.0
  0
LINE
  5
97
330
1F
100
AcDbEntity
  8
외형선
  6
Continuous
370
    15
100
AcDbLine
 10
-49.28412356130564
 20
-11.11250000000001
 30
0.0
 11
0.0
 21
-11.1125
 31
0.0
  0
LINE
  5
99
330
1F
100
AcDbEntity
  8
외형선
  6
Continuous
370
    15
100
AcDbLine
 10
-50.28412356130564
 20
-10.1125
 30
0.0
 11
-49.28412356130564
 21
-11.1125
 31
0.0
  0
SPLINE
  5
9A
330
1F
100
AcDbEntity
  8
0
  6
Continuous
 62
     1
370
    15
100
AcDbSpline
210
0.0
220
0.0
230
1.0
 70
     8
 71
     3
 72
     9
 73
     5
 74
     0
 42
0.000000001
 43
0.00000001
 40
0.0
 40
0.0
 40
0.0
 40
0.0
 40
0.4484970680746765
 40
1.0
 40
1.0
 40
1.0
 40
1.0
 10
73.32542989914015
 20
2.84763058981742
 30
0.0
 10
72.8629774477707
 20
3.067767646833544
 30
0.0
 10
71.83186156254388
 20
3.558600414060176
 30
0.0
 10
70.8081212622815
 20
4.094121666342713
 30
0.0
 10
70.24352548515668
 20
4.389463207084852
 30
0.0
  0
SPLINE
  5
9B
330
1F
100
AcDbEntity
  8
0
  6
Continuous
 62
     1
370
    15
100
AcDbSpline
210
0.0
220
0.0
230
1.0
 70
     8
 71
     3
 72
    19
 73
    15
 74
     0
 42
0.000000001
 43
0.00000001
 40
0.0
 40
0.0
 40
0.0
 40
0.0
 40
0.1489739793184751
 40
0.2608760453659394
 40
0.3519973102743091
 40
0.4361330317961936
 40
0.5032344857260509
 40
0.5567707208202165
 40
0.6282264986716735
 40
0.720112074958319
 40
0.7925999918301107
 40
0.8607889136422063
 40
0.9682599128024674
 40
1.0
 40
1.0
 40
1.0
 40
1.0
 10
69.65197462568939
 20
8.830425532561705
 30
0.0
 10
69.21712078605027
 20
8.80823924899228
 30
0.0
 10
68.45562572150128
 20
8.769387699577832
 30
0.0
 10
67.3804763288213
 20
8.731467943876364
 30
0.0
 10
66.50483435833125
 20
8.707451936637996
 30
0.0
 10
65.77271041804244
 20
8.692673623133249
 30
0.0
 10
65.15811663144154
 20
8.684333948596004
 30
0.0
 10
64.59211980150135
 20
8.679349604123322
 30
0.0
 10
63.93685008149556
 20
8.677275868536128
 30
0.0
 10
63.22105864592322
 20
8.68026685560098
 30
0.0
 10
62.51726867525792
 20
8.687989044416327
 30
0.0
 10
61.77082447385004
 20
8.701112965583931
 30
0.0
 10
61.14636233205476
 20
8.715336920302981
 30
0.0
 10
60.72721797723282
 20
8.729798455694832
 30
0.0
 10
60.63165318624908
 20
8.733095681557776
 30
0.0
  0
SPLINE
  5
9C
330
1F
100
AcDbEntity
  8
0
  6
Continuous
 62
     1
370
    15
100
AcDbSpline
210
0.0
220
0.0
230
1.0
 70
     8
 71
     3
 72
    33
 73
    29
 74
     0
 42
0.000000001
 43
0.00000001
 40
0.0
 40
0.0
 40
0.0
 40
0.0
 40
0.0630500107502518
 40
0.114906745175778
 40
0.1572072716518767
 40
0.1890582740577206
 40
0.2088117466915887
 40
0.2376991522431324
 40
0.2768965030800807
 40
0.3137000711731582
 40
0.3680835482679922
 40
0.41662720911602
 40
0.4705598209796891
 40
0.5225933021772431
 40
0.5531096490043775
 40
0.5892376391217805
 40
0.6300816615102524
 40
0.6634093022515835
 40
0.68594668677284
 40
0.7090132858901642
 40
0.74282082916343
 40
0.7895773863157057
 40
0.8284874914102281
 40
0.8619200718676122
 40
0.8903451680904247
 40
0.922568816066893
 40
0.9582737239397253
 40
1.0
 40
1.0
 40
1.0
 40
1.0
 10
97.98739979857217
 20
7.600421781608571
 30
0.0
 10
97.60744547366131
 20
7.568376296471641
 30
0.0
 10
96.91499016284611
 20
7.509974365197605
 30
0.0
 10
95.88182178137248
 20
7.442862732892271
 30
0.0
 10
95.03529573103151
 20
7.400796578352683
 30
0.0
 10
94.40498906395915
 20
7.373148885622271
 30
0.0
 10
93.89048695789724
 20
7.354473099513179
 30
0.0
 10
93.32127578848242
 20
7.337113329335804
 30
0.0
 10
92.63890971560897
 20
7.322313203112547
 30
0.0
 10
91.79168496657135
 20
7.312193593566124
 30
0.0
 10
90.88365172345465
 20
7.312102472175675
 30
0.0
 10
89.86361795294965
 20
7.325516886826817
 30
0.0
 10
88.85890107465531
 20
7.352013237384964
 30
0.0
 10
87.97199175506654
 20
7.387557492345577
 30
0.0
 10
87.20069078649476
 20
7.426441755800609
 30
0.0
 10
86.50184270829814
 20
7.467535890958499
 30
0.0
 10
85.78461125015613
 20
7.516631359955825
 30
0.0
 10
85.15564904543601
 20
7.565638332095441
 30
0.0
 10
84.64275503071079
 20
7.60903946708645
 30
0.0
 10
84.12453060452407
 20
7.655707916227091
 30
0.0
 10
83.44606974280967
 20
7.721403775640333
 30
0.0
 10
82.66246103164119
 20
7.804703982524431
 30
0.0
 10
81.8924045450399
 20
7.894828813785665
 30
0.0
 10
81.24626689910465
 20
7.975492275705048
 30
0.0
 10
80.61680396190482
 20
8.058371237634416
 30
0.0
 10
79.97579524754997
 20
8.143306142198691
 30
0.0
 10
79.25393939074772
 20
8.24974733495861
 30
0.0
 10
78.81206543274688
 20
8.320157091066623
 30
0.0
 10
78.5739474831193
 20
8.358099645622392
 30
0.0
  0
SPLINE
  5
9D
330
1F
100
AcDbEntity
  8
0
  6
Continuous
 62
     1
370
    15
100
AcDbSpline
210
0.0
220
0.0
230
1.0
 70
     8
 71
     3
 72
    18
 73
    14
 74
     0
 42
0.000000001
 43
0.00000001
 40
0.0
 40
0.0
 40
0.0
 40
0.0
 40
0.0976847633788175
 40
0.1812729913812852
 40
0.2886504341802352
 40
0.3775958382713132
 40
0.4719653605093259
 40
0.5632091432996311
 40
0.6527655223329826
 40
0.7170420751547588
 40
0.7851192187905955
 40
0.8947942262844323
 40
1.0
 40
1.0
 40
1.0
 40
1.0
 10
78.5739474831193
 20
-8.358099645622382
 30
0.0
 10
78.81212199323687
 20
-8.320122479192422
 30
0.0
 10
79.25410091017767
 20
-8.249648494050572
 30
0.0
 10
80.06500429841739
 20
-8.13043135169918
 30
0.0
 10
80.86548398570338
 20
-8.025108326621325
 30
0.0
 10
81.68174885333337
 20
-7.920267681022818
 30
0.0
 10
82.43007915363526
 20
-7.831225265288291
 30
0.0
 10
83.20064395963053
 20
-7.746840472569003
 30
0.0
 10
83.88640867292901
 20
-7.678155394668859
 30
0.0
 10
84.50620839451081
 20
-7.620840222931778
 30
0.0
 10
85.17802904060201
 20
-7.563410285242781
 30
0.0
 10
85.96414914695528
 20
-7.502419469174601
 30
0.0
 10
86.56092485536394
 20
-7.46589501628866
 30
0.0
 10
86.85310664000014
 20
-7.448012619809194
 30
0.0
  0
SPLINE
  5
9E
330
1F
100
AcDbEntity
  8
0
  6
Continuous
 62
     1
370
    15
100
AcDbSpline
210
0.0
220
0.0
230
1.0
 70
     8
 71
     3
 72
    30
 73
    26
 74
     0
 42
0.000000001
 43
0.00000001
 40
0.0
 40
0.0
 40
0.0
 40
0.0
 40
0.0607811452890047
 40
0.1101810148981012
 40
0.1504253216487267
 40
0.1808991319369441
 40
0.2078499295126341
 40
0.2448706829698038
 40
0.2882241306001762
 40
0.3230793883822873
 40
0.3500819599450758
 40
0.3841157303453699
 40
0.4265021143562039
 40
0.4785530229906346
 40
0.5309950510342476
 40
0.5662984241762011
 40
0.5976925439949315
 40
0.639669145243555
 40
0.6806642251067996
 40
0.7096300656654096
 40
0.7521172526410115
 40
0.8104297649853576
 40
0.8595036615729469
 40
0.9197691816211272
 40
1.0
 40
1.0
 40
1.0
 40
1.0
 10
52.92974787289589
 20
-9.248013599875952
 30
0.0
 10
53.24961577597564
 20
-9.216017448206848
 30
0.0
 10
53.82945628452605
 20
-9.15801642754538
 30
0.0
 10
54.68631241712595
 20
-9.082650515000871
 30
0.0
 10
55.36255267048652
 20
-9.028517564593665
 30
0.0
 10
55.92026761284708
 20
-8.985022279314965
 30
0.0
 10
56.43764255108709
 20
-8.947575860106904
 30
0.0
 10
57.04189633483671
 20
-8.906320749048515
 30
0.0
 10
57.69052013473907
 20
-8.8659268598699
 30
0.0
 10
58.27953763850428
 20
-8.832854514007368
 30
0.0
 10
58.80395395763031
 20
-8.8059623486838
 30
0.0
 10
59.38101333249854
 20
-8.778912795772369
 30
0.0
 10
60.09944747775061
 20
-8.749616280533267
 30
0.0
 10
60.92051169277344
 20
-8.722197624574198
 30
0.0
 10
61.70210344475733
 20
-8.70251096741474
 30
0.0
 10
62.36751686201889
 20
-8.690408689710482
 30
0.0
 10
62.97709789510989
 20
-8.682607025666789
 30
0.0
 10
63.62099628312772
 20
-8.6781185233282
 30
0.0
 10
64.2519826383878
 20
-8.677861472952904
 30
0.0
 10
64.87486126459147
 20
-8.681393996212321
 30
0.0
 10
65.58998129022127
 20
-8.689362687542586
 30
0.0
 10
66.43163894530592
 20
-8.705425494780496
 30
0.0
 10
67.3803481553165
 20
-8.731470271612492
 30
0.0
 10
68.45567403316059
 20
-8.769386822198395
 30
0.0
 10
69.21713834657172
 20
-8.808238930078772
 30
0.0
 10
69.65197462568939
 20
-8.830425532561694
 30
0.0
  0
LINE
  5
A0
330
1F
100
AcDbEntity
  8
외형선
  6
Continuous
370
    15
100
AcDbLine
 10
51.31587643869437
 20
10.9303552063843
 30
0.0
 11
51.31587643869437
 21
9.951831105122444
 31
0.0
  0
LINE
  5
A4
330
1F
100
AcDbEntity
  8
외형선
  6
Continuous
370
    15
100
AcDbLine
 10
-49.28412356130564
 20
9.461499999999994
 30
0.0
 11
-49.28412356130564
 21
-11.11249999999998
 31
0.0
  0
LINE
  5
A6
330
1F
100
AcDbEntity
  8
외형선
  6
Continuous
370
    15
100
AcDbLine
 10
-50.28412356130564
 20
9.461499999999994
 30
0.0
 11
-50.28412356130564
 21
-10.1125
 31
0.0
  0
SPLINE
  5
A9
330
1F
100
AcDbEntity
  8
외형선
  6
Continuous
370
    15
100
AcDbSpline
210
0.0
220
0.0
230
1.0
 70
    24
 71
     3
 72
    14
 73
    10
 74
     0
 42
0.000000001
 43
0.00000001
 40
0.0
 40
0.0
 40
0.0
 40
0.0
 40
0.25
 40
0.25
 40
0.5
 40
0.5
 40
0.75
 40
0.75
 40
1.0
 40
1.0
 40
1.0
 40
1.0
 10
51.31587643869437
 20
6.818120124905759
 30
0.0
 10
51.31587643869437
 20
6.171412274673472
 30
0.0
 10
51.31587643869437
 20
5.412966358607868
 30
0.0
 10
51.31587643869437
 20
3.715446107288206
 30
0.0
 10
51.31587643869437
 20
2.776845760475607
 30
0.0
 10
51.31587643869437
 20
0.8044667412924693
 30
0.0
 10
51.31587643869437
 20
-0.2282609650749918
 30
0.0
 10
51.31587643869437
 20
-2.284436869456792
 30
0.0
 10
51.31587643869437
 20
-3.306907327812789
 30
0.0
 10
51.31587643869437
 20
-4.279567328861604
 30
0.0
  0
SPLINE
  5
AB
330
1F
100
AcDbEntity
  8
외형선
  6
Continuous
370
    15
100
AcDbSpline
210
0.0
220
0.0
230
1.0
 70
    24
 71
     3
 72
    14
 73
    10
 74
     0
 42
0.000000001
 43
0.00000001
 40
0.0
 40
0.0
 40
0.0
 40
0.0
 40
0.25
 40
0.25
 40
0.4999999999999999
 40
0.4999999999999999
 40
0.75
 40
0.75
 40
1.0
 40
1.0
 40
1.0
 40
1.0
 10
51.31587643869437
 20
-4.279567328861611
 30
0.0
 10
51.31587643869437
 20
-4.978030391748494
 30
0.0
 10
51.31587643869437
 20
-5.64026810057408
 30
0.0
 10
51.31587643869437
 20
-6.835344312973309
 30
0.0
 10
51.31587643869437
 20
-7.367721071890529
 30
0.0
 10
51.31587643869437
 20
-8.258547755049605
 30
0.0
 10
51.31587643869437
 20
-8.616740435587388
 30
0.0
 10
51.31587643869437
 20
-9.139606910492466
 30
0.0
 10
51.31587643869437
 20
-9.304348286237303
 30
0.0
 10
51.31587643869437
 20
-9.376565317788742
 30
0.0
  0
SPLINE
  5
AC
330
1F
100
AcDbEntity
  8
외형선
  6
Continuous
370
    15
100
AcDbSpline
210
0.0
220
0.0
230
1.0
 70
    24
 71
     3
 72
    10
 73
     6
 74
     0
 42
0.000000001
 43
0.00000001
 40
0.0
 40
0.0
 40
0.0
 40
0.0
 40
0.5
 40
0.5
 40
1.0
 40
1.0
 40
1.0
 40
1.0
 10
51.31587643869437
 20
9.951831105122444
 30
0.0
 10
51.31587643869437
 20
9.532580403070636
 30
0.0
 10
51.31587643869437
 20
9.024056845396112
 30
0.0
 10
51.31587643869437
 20
7.937403724200707
 30
0.0
 10
51.31587643869437
 20
7.362470108922669
 30
0.0
 10
51.31587643869437
 20
6.81812012490576
 30
0.0
  0
SPLINE
  5
AD
330
1F
100
AcDbEntity
  8
외형선
  6
Continuous
370
    15
100
AcDbSpline
210
0.0
220
0.0
230
1.0
 70
    24
 71
     3
 72
     8
 73
     4
 74
     0
 42
0.000000001
 43
0.00000001
 40
0.0
 40
0.0
 40
0.0
 40
0.0
 40
1.0
 40
1.0
 40
1.0
 40
1.0
 10
51.31587643869437
 20
-9.376565317788742
 30
0.0
 10
51.31587643869437
 20
-9.914669287640029
 30
0.0
 10
51.31587643869437
 20
-10.43601752082125
 30
0.0
 10
51.31587643869437
 20
-10.93035520636891
 30
0.0
  0
SPLINE
  5
AE
330
1F
100
AcDbEntity
  8
0
  6
Continuous
 62
     1
370
    15
100
AcDbSpline
210
0.0
220
0.0
230
1.0
 70
     8
 71
     3
 72
    64
 73
    60
 74
     0
 42
0.000000001
 43
0.00000001
 40
0.0
 40
0.0
 40
0.0
 40
0.0
 40
0.0624999999999999
 40
0.0624999999999999
 40
0.0937499999999998
 40
0.0937499999999998
 40
0.1249999999999997
 40
0.1249999999999997
 40
0.1562499999999996
 40
0.1562499999999996
 40
0.1874999999999996
 40
0.1874999999999996
 40
0.2187499999999995
 40
0.2187499999999995
 40
0.2499999999999994
 40
0.2499999999999994
 40
0.2812499999999993
 40
0.2812499999999993
 40
0.3124999999999993
 40
0.3124999999999993
 40
0.3437499999999992
 40
0.3437499999999992
 40
0.3749999999999991
 40
0.3749999999999991
 40
0.4062499999999991
 40
0.4062499999999991
 40
0.4374999999999991
 40
0.4374999999999991
 40
0.4687499999999992
 40
0.4687499999999992
 40
0.4999999999999992
 40
0.4999999999999992
 40
0.5624999999999994
 40
0.5624999999999994
 40
0.6249999999999994
 40
0.6249999999999994
 40
0.6562499999999996
 40
0.6562499999999996
 40
0.6874999999999996
 40
0.6874999999999996
 40
0.7187499999999997
 40
0.7187499999999997
 40
0.7499999999999997
 40
0.7499999999999997
 40
0.7812499999999997
 40
0.7812499999999997
 40
0.8124999999999998
 40
0.8124999999999998
 40
0.8437499999999998
 40
0.8437499999999998
 40
0.8749999999999998
 40
0.8749999999999998
 40
0.9062499999999999
 40
0.9062499999999999
 40
0.9374999999999999
 40
0.9374999999999999
 40
0.96875
 40
0.96875
 40
1.0
 40
1.0
 40
1.0
 40
1.0
 10
102.1158764386944
 20
-11.11249999999997
 30
0.0
 10
101.0615488367419
 20
-11.07802263592263
 30
0.0
 10
99.99579921293434
 20
-11.00227730491596
 30
0.0
 10
98.41243243186162
 20
-10.81488329899577
 30
0.0
 10
97.88389581034838
 20
-10.74007475109779
 30
0.0
 10
96.82368748374813
 20
-10.56609439017535
 30
0.0
 10
96.29311361410348
 20
-10.46696534305499
 30
0.0
 10
95.23642923660871
 20
-10.24551887901223
 30
0.0
 10
94.70898440477819
 20
-10.12313827801391
 30
0.0
 10
93.64906783819367
 20
-9.85529811438921
 30
0.0
 10
93.11832490594605
 20
-9.709955794723989
 30
0.0
 10
92.06067823872846
 20
-9.397955685019227
 30
0.0
 10
91.53393666651138
 20
-9.231349136145045
 30
0.0
 10
90.47445757270867
 20
-8.876952924700621
 30
0.0
 10
89.94361879354076
 20
-8.689342039476891
 30
0.0
 10
88.88515451008797
 20
-8.295226510824863
 30
0.0
 10
88.35872734602472
 20
-8.088905211643178
 30
0.0
 10
87.29983123726012
 20
-7.657616057043688
 30
0.0
 10
86.76896987101554
 20
-7.432834844435114
 30
0.0
 10
85.70983301884883
 20
-6.967287076081287
 30
0.0
 10
85.18333126776349
 20
-6.726809600546025
 30
0.0
 10
84.12516338924722
 20
-6.230384898312299
 30
0.0
 10
83.59435270617783
 20
-5.974545697808773
 30
0.0
 10
82.53468864076213
 20
-5.45020230450884
 30
0.0
 10
82.00772334157435
 20
-5.182030378756051
 30
0.0
 10
80.95042860519095
 20
-4.633999366552993
 30
0.0
 10
80.41974185219425
 20
-4.354061357472453
 30
0.0
 10
79.35969617055284
 20
-3.785167150071204
 30
0.0
 10
78.83187857405699
 20
-3.49649849676513
 30
0.0
 10
77.77560149240568
 20
-2.911791306376435
 30
0.0
 10
77.24511185928458
 20
-2.615370017417239
 30
0.0
 10
75.6546895704292
 20
-1.718397782489188
 30
0.0
 10
74.60062303144261
 20
-1.111072937493364
 30
0.0
 10
72.47988005134656
 20
0.1105461070176402
 30
0.0
 10
71.42585047941013
 20
0.7224057412091172
 30
0.0
 10
69.83537718019357
 20
1.632946958176008
 30
0.0
 10
69.30494399482674
 20
1.935000427992887
 30
0.0
 10
68.24892480189129
 20
2.533126023202043
 30
0.0
 10
67.72085275055825
 20
2.829672519255516
 30
0.0
 10
66.66073907069932
 20
3.416411591258052
 30
0.0
 10
66.13009171980013
 20
3.706338227295113
 30
0.0
 10
65.073021256718
 20
4.276374033682823
 30
0.0
 10
64.54589205434031
 20
4.556623437765999
 30
0.0
 10
63.4861260305769
 20
5.107123138835966
 30
0.0
 10
62.95533768579909
 20
5.377036290430676
 30
0.0
 10
61.89736036267513
 20
5.903457649705298
 30
0.0
 10
61.3707853349526
 20
6.15988605258655
 30
0.0
 10
60.31151261104007
 20
6.659187207999538
 30
0.0
 10
59.78065650898868
 20
6.901744936268864
 30
0.0
 10
58.72191715053262
 20
7.370209393376905
 30
0.0
 10
58.19550736988037
 20
7.595927620852573
 30
0.0
 10
57.13687336352331
 20
8.030471945163432
 30
0.0
 10
56.6060227720244
 20
8.239077988779835
 30
0.0
 10
55.54666655167497
 20
8.636818432741439
 30
0.0
 10
55.02003301497056
 20
8.825750225135812
 30
0.0
 10
53.96218285137732
 20
9.183750875590412
 30
0.0
 10
53.43141103571766
 20
9.352735167542715
 30
0.0
 10
52.37158340943201
 20
9.668909881523442
 30
0.0
 10
51.84433721583486
 20
9.815949405618122
 30
0.0
 10
51.31587643869402
 20
9.951831105122539
 30
0.0
  0
SPLINE
  5
AF
330
1F
100
AcDbEntity
  8
0
  6
Continuous
 62
     1
370
    15
100
AcDbSpline
210
0.0
220
0.0
230
1.0
 70
     8
 71
     3
 72
    14
 73
    10
 74
     0
 42
0.000000001
 43
0.00000001
 40
0.0
 40
0.0
 40
0.0
 40
0.0
 40
0.116115870024622
 40
0.2611628883153496
 40
0.4062099168451594
 40
0.5512569555743682
 40
0.7008350994379173
 40
0.8504161871383419
 40
1.0
 40
1.0
 40
1.0
 40
1.0
 10
74.51959702494972
 20
-1.060613222646134
 30
0.0
 10
73.62149233115119
 20
-0.699812147355234
 30
0.0
 10
71.60151335849002
 20
0.1116863231835018
 30
0.0
 10
68.45966025392251
 20
1.383569385950152
 30
0.0
 10
65.09403630574276
 20
2.700317269426255
 30
0.0
 10
61.69337019658131
 20
3.949509041681728
 30
0.0
 10
58.25761939528756
 20
5.082768446797198
 30
0.0
 10
54.78677418929979
 20
6.078651200310223
 30
0.0
 10
52.4728493815856
 20
6.571628986491592
 30
0.0
 10
51.31587643869437
 20
6.818120124905757
 30
0.0
  0
SPLINE
  5
B0
330
1F
100
AcDbEntity
  8
외형선
  6
Continuous
370
    15
100
AcDbSpline
210
0.0
220
0.0
230
1.0
 70
    24
 71
     3
 72
    10
 73
     6
 74
     0
 42
0.000000001
 43
0.00000001
 40
0.0
 40
0.0
 40
0.0
 40
0.0
 40
0.4999999999999999
 40
0.4999999999999999
 40
1.0
 40
1.0
 40
1.0
 40
1.0
 10
51.31587643869437
 20
9.95183110512244
 30
0.0
 10
51.31587643869437
 20
9.532580403070625
 30
0.0
 10
51.31587643869437
 20
9.024056845396112
 30
0.0
 10
51.31587643869437
 20
7.937403724200712
 30
0.0
 10
51.31587643869437
 20
7.362470108922669
 30
0.0
 10
51.31587643869437
 20
6.81812012490576
 30
0.0
  0
SPLINE
  5
B1
330
1F
100
AcDbEntity
  8
0
  6
Continuous
 62
     1
370
    15
100
AcDbSpline
210
0.0
220
0.0
230
1.0
 70
     8
 71
     3
 72
    64
 73
    60
 74
     0
 42
0.000000001
 43
0.00000001
 40
0.0
 40
0.0
 40
0.0
 40
0.0
 40
0.0625000000000002
 40
0.0625000000000002
 40
0.0937500000000001
 40
0.0937500000000001
 40
0.1250000000000001
 40
0.1250000000000001
 40
0.15625
 40
0.15625
 40
0.1874999999999999
 40
0.1874999999999999
 40
0.2187499999999999
 40
0.2187499999999999
 40
0.2499999999999998
 40
0.2499999999999998
 40
0.2812499999999998
 40
0.2812499999999998
 40
0.3124999999999997
 40
0.3124999999999997
 40
0.3437499999999996
 40
0.3437499999999996
 40
0.3749999999999995
 40
0.3749999999999995
 40
0.4062499999999994
 40
0.4062499999999994
 40
0.4374999999999994
 40
0.4374999999999994
 40
0.4687499999999993
 40
0.4687499999999993
 40
0.4999999999999992
 40
0.4999999999999992
 40
0.5624999999999993
 40
0.5624999999999993
 40
0.6249999999999993
 40
0.6249999999999993
 40
0.6562499999999993
 40
0.6562499999999993
 40
0.6874999999999993
 40
0.6874999999999993
 40
0.7187499999999993
 40
0.7187499999999993
 40
0.7499999999999993
 40
0.7499999999999993
 40
0.7812499999999994
 40
0.7812499999999994
 40
0.8124999999999996
 40
0.8124999999999996
 40
0.8437499999999997
 40
0.8437499999999997
 40
0.8749999999999998
 40
0.8749999999999998
 40
0.9062499999999999
 40
0.9062499999999999
 40
0.9374999999999999
 40
0.9374999999999999
 40
0.96875
 40
0.96875
 40
1.0
 40
1.0
 40
1.0
 40
1.0
 10
102.1158764386944
 20
-10.54510540933948
 30
0.0
 10
101.0615488367419
 20
-10.35259447610281
 30
0.0
 10
99.99579921293434
 20
-10.11136597997864
 30
0.0
 10
98.41243243186162
 20
-9.683696994173117
 30
0.0
 10
97.88389581034838
 20
-9.529948802016687
 30
0.0
 10
96.82368748374813
 20
-9.200859796535727
 30
0.0
 10
96.29311361410348
 20
-9.025617969581774
 30
0.0
 10
95.23642923660873
 20
-8.65559406895094
 30
0.0
 10
94.70898440477818
 20
-8.460681795680403
 30
0.0
 10
93.64906783819367
 20
-8.051485088078987
 30
0.0
 10
93.11832490594607
 20
-7.837400173627025
 30
0.0
 10
92.06067823872849
 20
-7.392478036490835
 30
0.0
 10
91.53393666651138
 20
-7.161691621881901
 30
0.0
 10
90.47445757270864
 20
-6.683531535390429
 30
0.0
 10
89.94361879354075
 20
-6.436418696254105
 30
0.0
 10
88.885154510088
 20
-5.9286610454983
 30
0.0
 10
88.35872734602475
 20
-5.668233120647106
 30
0.0
 10
87.29983123726012
 20
-5.134132446702419
 30
0.0
 10
86.76896987101554
 20
-4.860708495914808
 30
0.0
 10
85.7098330188488
 20
-4.303898553670289
 30
0.0
 10
85.18333126776346
 20
-4.020842285199011
 30
0.0
 10
84.12516338924722
 20
-3.44534542860032
 30
0.0
 10
83.59435270617784
 20
-3.15304509405806
 30
0.0
 10
82.53468864076214
 20
-2.562309996329771
 30
0.0
 10
82.00772334157435
 20
-2.264237212635946
 30
0.0
 10
80.95042860519095
 20
-1.663011689120977
 30
0.0
 10
80.41974185219425
 20
-1.359784173366361
 30
0.0
 10
79.35969617055284
 20
-0.7511813642295933
 30
0.0
 10
78.83187857405699
 20
-0.4461054713236069
 30
0.0
 10
77.77560149240568
 20
0.1644872643614321
 30
0.0
 10
77.24511185928458
 20
0.4703958311987148
 30
0.0
 10
75.65468957042918
 20
1.385278863690006
 30
0.0
 10
74.60062303144264
 20
1.990486845015151
 30
0.0
 10
72.47988005134653
 20
3.179795840587009
 30
0.0
 10
71.42585047941013
 20
3.761526994256948
 30
0.0
 10
69.83537718019357
 20
4.606350876540483
 30
0.0
 10
69.30494399482674
 20
4.883088707012059
 30
0.0
 10
68.2489248018913
 20
5.424048396151327
 30
0.0
 10
67.72085275055827
 20
5.688706178775446
 30
0.0
 10
66.66073907069932
 20
6.205170689788181
 30
0.0
 10
66.13009171980013
 20
6.456736285018335
 30
0.0
 10
65.073021256718
 20
6.944011466715082
 30
0.0
 10
64.54589205434033
 20
7.179851667928718
 30
0.0
 10
63.4861260305769
 20
7.635529121097538
 30
0.0
 10
62.95533768579908
 20
7.855076159339906
 30
0.0
 10
61.89736036267513
 20
8.275378332604262
 30
0.0
 10
61.3707853349526
 20
8.47608361852231
 30
0.0
 10
60.31151261104007
 20
8.858599429306032
 30
0.0
 10
59.78065650898868
 20
9.040153980505742
 30
0.0
 10
58.72191715053262
 20
9.382015512633556
 30
0.0
 10
58.19550736988037
 20
9.542201273540023
 30
0.0
 10
57.13687336352331
 20
9.8411801448597
 30
0.0
 10
56.6060227720244
 20
9.97980423942812
 30
0.0
 10
55.54666655167497
 20
10.23389310224144
 30
0.0
 10
55.02003301497056
 20
10.34924649653299
 30
0.0
 10
53.96218285137732
 20
10.55659569496889
 30
0.0
 10
53.43141103571766
 20
10.64852247497285
 30
0.0
 10
52.37158340943202
 20
10.80789847994117
 30
0.0
 10
51.84433721583486
 20
10.87529025428988
 30
0.0
 10
51.31587643869403
 20
10.93035520638434
 30
0.0
  0
SPLINE
  5
B2
330
1F
100
AcDbEntity
  8
0
  6
Continuous
 62
     1
370
    15
100
AcDbSpline
210
0.0
220
0.0
230
1.0
 70
     8
 71
     3
 72
    16
 73
    12
 74
     0
 42
0.000000001
 43
0.00000001
 40
0.0
 40
0.0
 40
0.0
 40
0.0
 40
0.1166500009501296
 40
0.2333000100814667
 40
0.3499500273634136
 40
0.4666000527653685
 40
0.5832500862567251
 40
0.6999001278068736
 40
0.8165501773851986
 40
0.9332002349610816
 40
1.0
 40
1.0
 40
1.0
 40
1.0
 10
102.1158764386944
 20
-8.767454287791796
 30
0.0
 10
100.9940035124459
 20
-8.536744610892528
 30
0.0
 10
98.75025758126685
 20
-8.075325240913255
 30
0.0
 10
95.38463852232495
 20
-7.065254941047757
 30
0.0
 10
92.01901919583996
 20
-5.858921604647167
 30
0.0
 10
88.65339959966335
 20
-4.468677810556045
 30
0.0
 10
85.287779735523
 20
-2.943808269526004
 30
0.0
 10
81.92215960473823
 20
-1.327722734436138
 30
0.0
 10
78.55653920638711
 20
0.3247866099167392
 30
0.0
 10
75.67035023447806
 20
1.746134193022941
 30
0.0
 10
73.90603471513455
 20
2.567275281627363
 30
0.0
 10
73.2635927630694
 20
2.866278196979059
 30
0.0
  0
LINE
  5
B3
330
1F
100
AcDbEntity
  8
0
  6
Continuous
 62
     1
370
    15
100
AcDbLine
 10
102.1158764386941
 20
-10.54510540933949
 30
0.0
 11
102.1158764386944
 21
-8.767454287791796
 31
0.0
  0
LINE
  5
B4
330
1F
100
AcDbEntity
  8
0
  6
Continuous
 62
     1
370
    15
100
AcDbLine
 10
102.1158764386944
 20
-11.11249999999999
 30
0.0
 11
102.1158764386946
 21
-10.54510540933946
 31
0.0
  0
SPLINE
  5
B5
330
1F
100
AcDbEntity
  8
0
  6
Continuous
 62
     1
370
    15
100
AcDbSpline
210
0.0
220
0.0
230
1.0
 70
     8
 71
     3
 72
    10
 73
     6
 74
     0
 42
0.000000001
 43
0.00000001
 40
0.0
 40
0.0
 40
0.0
 40
0.0
 40
0.5
 40
0.5
 40
1.0
 40
1.0
 40
1.0
 40
1.0
 10
102.1158764386944
 20
-2.969737237754416
 30
0.0
 10
101.2603013866481
 20
-2.297114754807676
 30
0.0
 10
100.4158240882605
 20
-1.604994341206962
 30
0.0
 10
98.74873686743844
 20
-0.1823341551849903
 30
0.0
 10
97.92610831682143
 20
0.5481728889002377
 30
0.0
 10
97.11587643869439
 20
1.300459967754861
 30
0.0
  0
LINE
  5
B6
330
1F
100
AcDbEntity
  8
0
  6
Continuous
 62
     1
370
    15
100
AcDbLine
 10
97.11587643869439
 20
2.937719435296598
 30
0.0
 11
102.1158764386944
 21
0.0000000000000123
 31
0.0
  0
LINE
  5
B7
330
1F
100
AcDbEntity
  8
0
  6
Continuous
 62
     1
370
    15
100
AcDbLine
 10
102.1158764386944
 20
0.0000000000000123
 30
0.0
 11
102.1158764386944
 21
-2.969737237754417
 31
0.0
  0
SPLINE
  5
B8
330
1F
100
AcDbEntity
  8
0
  6
Continuous
 62
     1
370
    15
100
AcDbSpline
210
0.0
220
0.0
230
1.0
 70
     8
 71
     3
 72
    15
 73
    11
 74
     0
 42
0.000000001
 43
0.00000001
 40
0.0
 40
0.0
 40
0.0
 40
0.0
 40
0.133406472838125
 40
0.2668097225457227
 40
0.4002060584725865
 40
0.533591798455603
 40
0.6669632733244287
 40
0.8003194717165124
 40
0.9336863374470817
 40
1.0
 40
1.0
 40
1.0
 40
1.0
 10
97.11587643869422
 20
2.283536363151207
 30
0.0
 10
95.89432736932689
 20
2.820770167905567
 30
0.0
 10
93.45125874349375
 20
3.895224797724173
 30
0.0
 10
89.78674508182077
 20
5.343948923067717
 30
0.0
 10
86.12244689135063
 20
6.605851679943258
 30
0.0
 10
82.45847709864793
 20
7.626078778548163
 30
0.0
 10
78.79493105802143
 20
8.376350140200447
 30
0.0
 10
75.1316072890448
 20
8.804654650227292
 30
0.0
 10
72.08234109126542
 20
8.95624921333841
 30
0.0
 10
70.25385203565102
 20
8.825589842858772
 30
0.0
 10
69.64661302612892
 20
8.78219802354697
 30
0.0
  0
SPLINE
  5
B9
330
1F
100
AcDbEntity
  8
0
  6
Continuous
 62
     1
370
    15
100
AcDbSpline
210
0.0
220
0.0
230
1.0
 70
    24
 71
     3
 72
     8
 73
     4
 74
     0
 42
0.000000001
 43
0.00000001
 40
0.0
 40
0.0
 40
0.0
 40
0.0
 40
1.0
 40
1.0
 40
1.0
 40
1.0
 10
97.11587643869436
 20
1.300459967747722
 30
0.0
 10
97.11587643869436
 20
1.631923426801008
 30
0.0
 10
97.11587643869436
 20
1.960107858709895
 30
0.0
 10
97.11587643869436
 20
2.283536363151137
 30
0.0
  0
SPLINE
  5
BA
330
1F
100
AcDbEntity
  8
0
  6
Continuous
 62
     1
370
    15
100
AcDbSpline
210
0.0
220
0.0
230
1.0
 70
    24
 71
     3
 72
    10
 73
     6
 74
     0
 42
0.000000001
 43
0.00000001
 40
0.0
 40
0.0
 40
0.0
 40
0.0
 40
0.5
 40
0.5
 40
1.0
 40
1.0
 40
1.0
 40
1.0
 10
102.1158764386944
 20
-8.767454287791793
 30
0.0
 10
102.1158764386944
 20
-8.095360560304776
 30
0.0
 10
102.1158764386944
 20
-7.246144364910622
 30
0.0
 10
102.1158764386944
 20
-5.271798438561921
 30
0.0
 10
102.1158764386944
 20
-4.148378960907671
 30
0.0
 10
102.1158764386944
 20
-2.969737237754773
 30
0.0
  0
SPLINE
  5
BB
330
1F
100
AcDbEntity
  8
0
  6
Continuous
 62
     1
370
    15
100
AcDbSpline
210
0.0
220
0.0
230
1.0
 70
    24
 71
     3
 72
    10
 73
     6
 74
     0
 42
0.000000001
 43
0.00000001
 40
0.0
 40
0.0
 40
0.0
 40
0.0
 40
0.5
 40
0.5
 40
1.0
 40
1.0
 40
1.0
 40
1.0
 10
97.11587643869436
 20
2.283536363151136
 30
0.0
 10
97.11587643869436
 20
3.059531527112054
 30
0.0
 10
97.11587643869439
 20
3.796003738630722
 30
0.0
 10
97.11587643869439
 20
5.10961880204383
 30
0.0
 10
97.11587643869436
 20
5.685937379830203
 30
0.0
 10
97.11587643869436
 20
6.150941962892361
 30
0.0
  0
SPLINE
  5
BC
330
1F
100
AcDbEntity
  8
0
  6
Continuous
 62
     1
370
    15
100
AcDbSpline
210
0.0
220
0.0
230
1.0
 70
     8
 71
     3
 72
     9
 73
     5
 74
     0
 42
0.000000001
 43
0.00000001
 40
0.0
 40
0.0
 40
0.0
 40
0.0
 40
0.8142733420432055
 40
1.0
 40
1.0
 40
1.0
 40
1.0
 10
102.1158764386944
 20
7.778750000000002
 30
0.0
 10
100.9940029685065
 20
7.770915307898456
 30
0.0
 10
99.61624268548798
 20
7.761293610002892
 30
0.0
 10
98.2384823869053
 20
7.608215972322363
 30
0.0
 10
97.98259557118399
 20
7.579785374268038
 30
0.0
  0
SPLINE
  5
BD
330
1F
100
AcDbEntity
  8
0
  6
Continuous
 62
     1
370
    15
100
AcDbSpline
210
0.0
220
0.0
230
1.0
 70
     8
 71
     3
 72
     8
 73
     4
 74
     0
 42
0.000000001
 43
0.00000001
 40
0.0
 40
0.0
 40
0.0
 40
0.0
 40
1.0
 40
1.0
 40
1.0
 40
1.0
 10
102.1158764386944
 20
7.778750000000008
 30
0.0
 10
100.43336843376
 20
7.322596428023179
 30
0.0
 10
98.76422646874943
 20
6.785187056975855
 30
0.0
 10
97.11587643869439
 20
6.150941962891947
 30
0.0
  0
SPLINE
  5
BE
330
1F
100
AcDbEntity
  8
0
  6
Continuous
 62
     1
370
    15
100
AcDbSpline
210
0.0
220
0.0
230
1.0
 70
     8
 71
     3
 72
    14
 73
    10
 74
     0
 42
0.000000001
 43
0.00000001
 40
0.0
 40
0.0
 40
0.0
 40
0.0
 40
0.1263609554112614
 40
0.2607550670201264
 40
0.4086057324873195
 40
0.5564915311842613
 40
0.7043727368675343
 40
0.8522096507783832
 40
1.0
 40
1.0
 40
1.0
 40
1.0
 10
78.5761211138475
 20
-8.349038538154577
 30
0.0
 10
77.42798463792015
 20
-8.507486012173231
 30
0.0
 10
75.05872110430485
 20
-8.834453955494288
 30
0.0
 10
71.3461059978388
 20
-8.941343968153737
 30
0.0
 10
67.43745938153006
 20
-8.718562176328428
 30
0.0
 10
63.40618804736618
 20
-8.101119247972926
 30
0.0
 10
59.37503542863364
 20
-7.128251802182881
 30
0.0
 10
55.34494066768595
 20
-5.856850659951498
 30
0.0
 10
52.65875681342182
 20
-4.805273227383722
 30
0.0
 10
51.31587643869373
 20
-4.279567328861348
 30
0.0
  0
SPLINE
  5
BF
330
1F
100
AcDbEntity
  8
외형선
  6
Continuous
370
    15
100
AcDbSpline
210
0.0
220
0.0
230
1.0
 70
    24
 71
     3
 72
    14
 73
    10
 74
     0
 42
0.000000001
 43
0.00000001
 40
0.0
 40
0.0
 40
0.0
 40
0.0
 40
0.25
 40
0.25
 40
0.5
 40
0.5
 40
0.75
 40
0.75
 40
1.0
 40
1.0
 40
1.0
 40
1.0
 10
51.31587643869437
 20
6.818120124905759
 30
0.0
 10
51.31587643869437
 20
6.171412274673472
 30
0.0
 10
51.31587643869437
 20
5.412966358607868
 30
0.0
 10
51.31587643869437
 20
3.715446107288206
 30
0.0
 10
51.31587643869437
 20
2.776845760475607
 30
0.0
 10
51.31587643869437
 20
0.8044667412924693
 30
0.0
 10
51.31587643869437
 20
-0.2282609650749918
 30
0.0
 10
51.31587643869437
 20
-2.284436869456792
 30
0.0
 10
51.31587643869437
 20
-3.306907327812789
 30
0.0
 10
51.31587643869437
 20
-4.279567328861604
 30
0.0
  0
LINE
  5
C0
330
1F
100
AcDbEntity
  8
0
  6
Continuous
 62
     1
370
    15
100
AcDbLine
 10
52.93816283268988
 20
-9.209915145984066
 30
0.0
 11
51.31587643869436
 21
-9.376565317788746
 31
0.0
  0
SPLINE
  5
C1
330
1F
100
AcDbEntity
  8
외형선
  6
Continuous
370
    15
100
AcDbSpline
210
0.0
220
0.0
230
1.0
 70
    24
 71
     3
 72
    14
 73
    10
 74
     0
 42
0.000000001
 43
0.00000001
 40
0.0
 40
0.0
 40
0.0
 40
0.0
 40
0.25
 40
0.25
 40
0.4999999999999999
 40
0.4999999999999999
 40
0.75
 40
0.75
 40
1.0
 40
1.0
 40
1.0
 40
1.0
 10
51.31587643869437
 20
-4.279567328861611
 30
0.0
 10
51.31587643869437
 20
-4.978030391748494
 30
0.0
 10
51.31587643869437
 20
-5.64026810057408
 30
0.0
 10
51.31587643869437
 20
-6.835344312973309
 30
0.0
 10
51.31587643869437
 20
-7.367721071890529
 30
0.0
 10
51.31587643869437
 20
-8.258547755049605
 30
0.0
 10
51.31587643869437
 20
-8.616740435587388
 30
0.0
 10
51.31587643869437
 20
-9.139606910492466
 30
0.0
 10
51.31587643869437
 20
-9.304348286237303
 30
0.0
 10
51.31587643869437
 20
-9.376565317788742
 30
0.0
  0
LINE
  5
C2
330
1F
100
AcDbEntity
  8
0
  6
Continuous
 62
     1
370
    15
100
AcDbLine
 10
102.1158764386944
 20
0.0000000000000123
 30
0.0
 11
102.1158764386944
 21
7.778750000000009
 31
0.0
  0
SPLINE
  5
C3
330
1F
100
AcDbEntity
  8
0
  6
Continuous
 62
     1
370
    15
100
AcDbSpline
210
0.0
220
0.0
230
1.0
 70
     8
 71
     3
 72
    12
 73
     8
 74
     0
 42
0.000000001
 43
0.00000001
 40
0.0
 40
0.0
 40
0.0
 40
0.0
 40
0.1630676808830659
 40
0.3722889463994372
 40
0.5815174180626941
 40
0.7907541016434236
 40
1.0
 40
1.0
 40
1.0
 40
1.0
 10
86.8529647952349
 20
7.447954644899944
 30
0.0
 10
87.68258117113675
 20
7.797945151319368
 30
0.0
 10
89.57662298756327
 20
8.596985133853536
 30
0.0
 10
92.53514841067746
 20
9.57864990933228
 30
0.0
 10
95.72858366195051
 20
10.39364870811059
 30
0.0
 10
98.92216756899032
 20
10.93862405366144
 30
0.0
 10
101.0512911880495
 20
11.04827913586352
 30
0.0
 10
102.1158764386944
 20
11.11250000000001
 30
0.0
  0
SPLINE
  5
C4
330
1F
100
AcDbEntity
  8
0
  6
Continuous
 62
     1
370
    15
100
AcDbSpline
210
0.0
220
0.0
230
1.0
 70
    24
 71
     3
 72
    10
 73
     6
 74
     0
 42
0.000000001
 43
0.00000001
 40
0.0
 40
0.0
 40
0.0
 40
0.0
 40
0.5
 40
0.5
 40
1.0
 40
1.0
 40
1.0
 40
1.0
 10
102.1158764386944
 20
7.778750000000005
 30
0.0
 10
102.1158764386944
 20
8.250278453771282
 30
0.0
 10
102.1158764386944
 20
8.798238185285847
 30
0.0
 10
102.1158764386944
 20
9.947856226177507
 30
0.0
 10
102.1158764386944
 20
10.54657855534387
 30
0.0
 10
102.1158764386944
 20
11.11250000000002
 30
0.0
  0
SPLINE
  5
C5
330
1F
100
AcDbEntity
  8
0
  6
Continuous
 62
     1
370
    15
100
AcDbSpline
210
0.0
220
0.0
230
1.0
 70
     8
 71
     3
 72
    10
 73
     6
 74
     0
 42
0.000000001
 43
0.00000001
 40
0.0
 40
0.0
 40
0.0
 40
0.0
 40
0.3144490982776362
 40
0.6572190398250082
 40
0.9999999999999999
 40
0.9999999999999999
 40
0.9999999999999999
 40
0.9999999999999999
 10
60.63187336952842
 20
-8.733024396559983
 30
0.0
 10
59.65541119520823
 20
-9.064349617151532
 30
0.0
 10
57.6145418266927
 20
-9.756840848768064
 30
0.0
 10
54.50921183452174
 20
-10.50757042729276
 30
0.0
 10
52.38033297621973
 20
-10.78942543663376
 30
0.0
 10
51.31587643869403
 20
-10.93035520638434
 30
0.0
  0
SPLINE
  5
C6
330
1F
100
AcDbEntity
  8
외형선
  6
Continuous
370
    15
100
AcDbSpline
210
0.0
220
0.0
230
1.0
 70
    24
 71
     3
 72
     8
 73
     4
 74
     0
 42
0.000000001
 43
0.00000001
 40
0.0
 40
0.0
 40
0.0
 40
0.0
 40
1.0
 40
1.0
 40
1.0
 40
1.0
 10
51.31587643869437
 20
-9.376565317788742
 30
0.0
 10
51.31587643869437
 20
-9.914669287640029
 30
0.0
 10
51.31587643869437
 20
-10.43601752082126
 30
0.0
 10
51.31587643869437
 20
-10.93035520636891
 30
0.0
  0
LINE
  5
C7
330
1F
100
AcDbEntity
  8
중심선
100
AcDbLine
 10
-53.28412356130564
 20
0.0000000000000016
 30
0.0
 11
105.1158764386944
 21
0.000000000000021
 31
0.0
  0
LINE
  5
C8
330
1F
100
AcDbEntity
  8
참조1
100
AcDbLine
 10
28.76513775272553
 20
0.0010749287239034
 30
0.0
 11
28.76513775272553
 21
-39.9989250712761
 31
0.0
  0
LINE
  5
C9
330
1F
100
AcDbEntity
  8
참조1
100
AcDbLine
 10
28.76513775272553
 20
-39.9989250712761
 30
0.0
 11
19.1650752174259
 21
-39.99892507127608
 31
0.0
  0
CIRCLE
  5
CA
330
1F
100
AcDbEntity
  8
해칭선
100
AcDbCircle
 10
0.0
 20
0.0000000000000018
 30
0.0
 40
2.999999999999996
  0
INSERT
  5
CB
330
1F
100
AcDbEntity
  8
0
  6
Continuous
 62
     7
100
AcDbBlockReference
 66
     1
  2
블럭10
 10
11.97560350656917
 20
-52.04717430164393
 30
0.0
  0
ATTRIB
  5
CC
330
CB
100
AcDbEntity
  8
FORMAT
 62
     2
100
AcDbText
 10
2.79430821782789
 20
-49.97180738881174
 30
0.0
 40
4.233333333333333
  1
E2033056 [ 2 FLUTE ]
 41
0.75
  7
SLDTEXTSTYLE0
 11
2.79430821782789
 21
-52.08847405547841
 31
0.0
100
AcDbAttribute
  2
AUTOATTR0
 70
     0
 74
     1
  0
SEQEND
  5
CD
330
CB
100
AcDbEntity
  8
0
  6
Continuous
 62
     7
  0
HATCH
  5
CE
330
1F
100
AcDbEntity
  8
중심선
100
AcDbHatch
 10
0.0
 20
0.0
 30
0.0
210
0.0
220
0.0
230
1.0
  2
SOLID
 70
     1
 71
     0
 91
        1
 92
        0
 93
        4
 72
     1
 10
17.69051281095001
 20
-35.79999999999998
 11
14.24423756711272
 21
-35.79999999999998
 72
     1
 10
14.24423756711272
 20
-35.79999999999998
 11
12.1160077079087
 21
-38.33632558057256
 72
     1
 10
12.1160077079087
 20
-38.33632558057256
 11
15.56231603685913
 21
-38.33628615127007
 72
     1
 10
15.56231603685913
 20
-38.33628615127007
 11
17.69051281095001
 21
-35.79999999999998
 97
        0
 75
     0
 76
     1
 98
        1
 10
36.46661512466321
 20
-0.001074928723888
  0
HATCH
  5
CF
330
1F
100
AcDbEntity
  8
중심선
100
AcDbHatch
 10
0.0
 20
0.0
 30
0.0
210
0.0
220
0.0
230
1.0
  2
SOLID
 70
     1
 71
     0
 91
        1
 92
        0
 93
        4
 72
     1
 10
22.70327680198598
 20
-35.79999999999998
 11
19.2570015581487
 21
-35.79999999999998
 72
     1
 10
19.2570015581487
 20
-35.79999999999998
 11
14.72586354979129
 21
-41.2
 72
     1
 10
14.72586354979129
 20
-41.2
 11
18.17213879362857
 21
-41.2
 72
     1
 10
18.17213879362857
 20
-41.2
 11
22.70327680198598
 21
-35.79999999999998
 97
        0
 75
     0
 76
     1
 98
        1
 10
36.46661512466321
 20
-0.001074928723888
  0
HATCH
  5
D0
330
1F
100
AcDbEntity
  8
중심선
100
AcDbHatch
 10
0.0
 20
0.0
 30
0.0
210
0.0
220
0.0
230
1.0
  2
SOLID
 70
     1
 71
     0
 91
        1
 92
        0
 93
        4
 72
     1
 10
27.71604079302185
 20
-35.80000000000002
 11
24.26976554918474
 21
-35.79999999999998
 72
     1
 10
24.26976554918474
 20
-35.79999999999998
 11
17.22132864729549
 21
-44.2
 72
     1
 10
17.22132864729549
 20
-44.2
 11
20.66760389113277
 21
-44.2
 72
     1
 10
20.66760389113277
 20
-44.2
 11
27.71604079302185
 21
-35.80000000000002
 97
        0
 75
     0
 76
     1
 98
        1
 10
36.46661512466321
 20
-0.001074928723888
  0
HATCH
  5
D1
330
1F
100
AcDbEntity
  8
중심선
100
AcDbHatch
 10
0.0
 20
0.0
 30
0.0
210
0.0
220
0.0
230
1.0
  2
SOLID
 70
     1
 71
     0
 91
        1
 92
        0
 93
        6
 72
     3
 10
32.51593122403405
 20
-40.00000000005127
 11
3.960054785062283
 21
1.540882976769353E-10
 40
0.3939339440162628
 50
17.09539180608439
 51
320.0019657685082
 73
     0
 72
     1
 10
34.19893087973462
 20
-38.58789400463833
 11
36.50423275343569
 21
-36.65356729459037
 72
     3
 10
32.51593122398121
 20
-40.00000000000015
 11
6.600054785286829
 21
-1.278976924368180E-13
 40
0.636358354079598
 50
39.99873849337413
 51
368.4976242363724
 73
     1
 72
     1
 10
38.94126371588181
 20
-39.03999999993002
 11
31.19599853081712
 21
-39.03999999993002
 72
     1
 10
31.19599853081712
 20
-39.03999999993002
 11
31.19597348637119
 21
-40.95999999992991
 72
     1
 10
31.19597348637119
 20
-40.95999999992991
 11
35.63735325584323
 21
-40.95999999992988
 97
        0
 75
     0
 76
     1
 98
        1
 10
36.46661512466321
 20
-0.001074928723888
  0
DIMENSION
  5
D2
330
1F
100
AcDbEntity
  8
치수문자_일반주서
100
AcDbDimension
  2
_D
 10
-62.78412356130558
 20
-11.11250000000004
 30
0.0
 11
-62.78412356130563
 21
0.0000000000000086
 31
0.0
 70
   160
  1
%%c<>
 71
     2
 42
22.225
 52
-270.0
  3
SLDDIMSTYLE0
100
AcDbAlignedDimension
 13
-49.28412356130564
 23
11.1125
 33
0.0
 14
-49.28412356130564
 24
-11.1125
 34
0.0
 50
90.0000000000002
100
AcDbRotatedDimension
1001
ACAD
1000
DSTYLE
1002
{
1070
   171
1070
     6
1070
   273
1070
     7
1002
}
  0
DIMENSION
  5
E7
330
1F
100
AcDbEntity
  8
치수문자_일반주서
100
AcDbDimension
  2
_D_1
 10
51.31587643869437
 20
24.27944961506237
 30
0.0
 11
76.71587643869438
 21
24.27944961506237
 31
0.0
 70
   160
  1
<>
 71
     2
 42
50.80000000000001
  3
SLDDIMSTYLE0
100
AcDbAlignedDimension
 13
102.1158764386944
 23
11.11250000000002
 33
0.0
 14
51.31587643869437
 24
10.9303552063843
 34
0.0
 50
0.000000000000004
100
AcDbRotatedDimension
1001
ACAD
1000
DSTYLE
1002
{
1070
   171
1070
     6
1070
   273
1070
     7
1002
}
  0
DIMENSION
  5
FC
330
1F
100
AcDbEntity
  8
치수문자_일반주서
100
AcDbDimension
  2
_D_2
 10
-50.28412356130566
 20
41.0706349747236
 30
0.0
 11
25.91587643869423
 21
41.0706349747236
 31
0.0
 70
   160
  1
<>
 71
     2
 42
152.4
  3
SLDDIMSTYLE0
100
AcDbAlignedDimension
 13
102.1158764386944
 23
11.11250000000001
 33
0.0
 14
-50.28412356130564
 24
10.11249999999999
 34
0.0
 50
0.0000000000000027
100
AcDbRotatedDimension
1001
ACAD
1000
DSTYLE
1002
{
1070
   171
1070
     6
1070
   273
1070
     7
1002
}
  0
DIMENSION
  5
10F
330
1F
100
AcDbEntity
  8
치수문자_일반주서
100
AcDbDimension
  2
_D_3
 10
136.1209649967126
 20
11.11250000000015
 30
0.0
 11
136.1209649967125
 21
32.43239224311986
 31
0.0
 70
   160
  1
%%c<>
 71
     2
 42
22.22500000000001
 52
-270.0
  3
SLDDIMSTYLE0
100
AcDbAlignedDimension
 13
102.1158764386944
 23
-11.11249999999999
 33
0.0
 14
102.1158764386944
 24
11.11250000000002
 34
0.0
 50
90.0000000000002
100
AcDbRotatedDimension
1001
ACAD
1000
DSTYLE
1002
{
1070
   171
1070
     6
1070
   273
1070
     7
1002
}
  0
LINE
  5
123
330
1F
100
AcDbEntity
  8
참조1
100
AcDbLine
 10
117.1374158470801
 20
7.441074928723911
 30
0.0
 11
117.1374158470801
 21
-7.438925071276095
 31
0.0
  0
LINE
  5
124
330
1F
100
AcDbEntity
  8
참조1
100
AcDbLine
 10
129.8374158470802
 20
5.441074928723911
 30
0.0
 11
117.1374158470801
 21
5.441074928723911
 31
0.0
  0
SOLID
  5
125
330
1F
100
AcDbEntity
  8
참조1
100
AcDbTrace
 10
117.1374158470801
 20
5.441074928723911
 30
0.0
 11
123.4874158470801
 21
4.425074928723911
 31
0.0
 12
123.4874158470801
 22
6.457074928723911
 32
0.0
 13
123.4874158470801
 23
6.457074928723911
 33
0.0
  0
LINE
  5
126
330
1F
100
AcDbEntity
  8
참조1
100
AcDbLine
 10
129.8374158470802
 20
-5.438925071276095
 30
0.0
 11
117.1374158470801
 21
-5.438925071276095
 31
0.0
  0
SOLID
  5
127
330
1F
100
AcDbEntity
  8
참조1
100
AcDbTrace
 10
117.1374158470801
 20
-5.438925071276095
 30
0.0
 11
123.4874158470801
 21
-6.454925071276095
 31
0.0
 12
123.4874158470801
 22
-4.422925071276095
 32
0.0
 13
123.4874158470801
 23
-4.422925071276095
 33
0.0
  0
MTEXT
  5
128
330
1F
100
AcDbEntity
  8
참조1
100
AcDbMText
 10
126.5217659797061
 20
11.01136670591223
 30
0.0
 40
3.5
 41
0.0
 71
     1
 72
     1
  1
A
  7
SLDTEXTSTYLE0
 73
     1
 44
1.0
  0
MTEXT
  5
129
330
1F
100
AcDbEntity
  8
참조1
100
AcDbMText
 10
126.5217659797061
 20
0.1313667059122334
 30
0.0
 40
3.5
 41
0.0
 71
     1
 72
     1
  1
A
  7
SLDTEXTSTYLE0
 73
     1
 44
1.0
  0
INSERT
  5
130
330
1F
100
AcDbEntity
  8
해칭선
100
AcDbBlockReference
  2
SW_DOWELSYMBOL_0
 10
0.0
 20
0.0000000000000018
 30
0.0
  0
LINE
  5
2DC
330
1F
100
AcDbEntity
  8
외형선
  6
Continuous
370
    15
100
AcDbLine
 10
-30.27844856130564
 20
9.461499999999994
 30
0.0
 11
-18.69604856130564
 21
9.461499999999994
 31
0.0
  0
LINE
  5
2DD
330
1F
100
AcDbEntity
  8
외형선
  6
Continuous
370
    15
100
AcDbLine
 10
-30.27844856130564
 20
9.461499999999994
 30
0.0
 11
-31.92944856130566
 21
11.11249999999997
 31
0.0
  0
LINE
  5
2DE
330
1F
100
AcDbEntity
  8
외형선
  6
Continuous
370
    15
100
AcDbLine
 10
-18.69604856130564
 20
9.461499999999994
 30
0.0
 11
-17.04504856130551
 21
11.11249999999997
 31
0.0
  0
LINE
  5
2E0
330
1F
100
AcDbEntity
  8
외형선
  6
Continuous
370
    15
100
AcDbLine
 10
-50.28412356130564
 20
9.461499999999994
 30
0.0
 11
-37.58412356130565
 21
9.461499999999994
 31
0.0
  0
LINE
  5
2E1
330
1F
100
AcDbEntity
  8
외형선
  6
Continuous
370
    15
100
AcDbLine
 10
-37.58412356130565
 20
9.461499999999994
 30
0.0
 11
-35.93312356130564
 21
11.11249999999996
 31
0.0
  0
LINE
  5
2F3
330
1F
100
AcDbEntity
  8
외형선
  6
Continuous
370
    15
100
AcDbLine
 10
-31.92944856130568
 20
11.1125
 30
0.0
 11
-35.9331235613056
 21
11.1125
 31
0.0
  0
LINE
  5
33D
330
1F
100
AcDbEntity
  8
외형선
  6
Continuous
370
    15
100
AcDbLine
 10
0.0
 20
-11.1125
 30
0.0
 11
0.0
 21
11.1125
 31
0.0
  0
LINE
  5
33E
330
1F
100
AcDbEntity
  8
외형선
  6
Continuous
370
    15
100
AcDbLine
 10
0.0
 20
10.922
 30
0.0
 11
0.0
 21
-10.922
 31
0.0
  0
LINE
  5
33F
330
1F
100
AcDbEntity
  8
외형선
  6
Continuous
370
    15
100
AcDbLine
 10
0.5158764386943844
 20
10.922
 30
0.0
 11
51.20101094926682
 21
10.922
 31
0.0
  0
ARC
  5
340
330
1F
100
AcDbEntity
  8
외형선
  6
Continuous
370
    15
100
AcDbCircle
 10
0.5158764386943844
 20
11.71575
 30
0.0
 40
0.7937499999999997
100
AcDbArc
 50
229.4641978886834
 51
270.0
  0
ARC
  5
341
330
1F
100
AcDbEntity
  8
외형선
  6
Continuous
370
    15
100
AcDbCircle
 10
51.20101094926682
 20
11.71575000000004
 30
0.0
 40
0.7937500000000002
100
AcDbArc
 50
270.0
 51
278.320626868718
  0
ARC
  5
343
330
1F
100
AcDbEntity
  8
외형선
  6
Continuous
370
    15
100
AcDbCircle
 10
51.20101094926682
 20
-11.71575000000004
 30
0.0
 40
0.7937500000000002
100
AcDbArc
 50
81.67937313128189
 51
90.0
  0
LINE
  5
344
330
1F
100
AcDbEntity
  8
외형선
  6
Continuous
370
    15
100
AcDbLine
 10
0.5158764386943844
 20
-10.922
 30
0.0
 11
51.20101094926682
 21
-10.922
 31
0.0
  0
ARC
  5
345
330
1F
100
AcDbEntity
  8
외형선
  6
Continuous
370
    15
100
AcDbCircle
 10
0.5158764386943844
 20
-11.71575
 30
0.0
 40
0.7937499999999997
100
AcDbArc
 50
90.0
 51
130.5358021113167
  0
LINE
  5
346
330
1F
100
AcDbEntity
  8
외형선
  6
Continuous
370
    15
100
AcDbLine
 10
51.20101094926682
 20
10.92200000000004
 30
0.0
 11
51.20101094926682
 21
-10.922
 31
0.0
  0
LINE
  5
347
330
1F
100
AcDbEntity
  8
외형선
  6
Continuous
370
    15
100
AcDbLine
 10
0.5158764386943844
 20
-10.922
 30
0.0
 11
0.5158764386943844
 21
10.922
 31
0.0
  0
DIMENSION
  5
348
330
1F
100
AcDbEntity
  8
치수문자_일반주서
100
AcDbDimension
  2
*D16
 10
102.1158764386944
 20
33.23357520239249
 30
0.0
 11
51.31587643869439
 21
35.85857520239249
 31
0.0
 70
    32
 71
     5
 42
101.6
  3
SLDDIMSTYLE0
100
AcDbAlignedDimension
 13
0.5158764386943844
 23
10.922
 33
0.0
 14
102.1158764386944
 24
11.11250000000001
 34
0.0
100
AcDbRotatedDimension
1001
ACAD
1000
DSTYLE
1002
{
1070
   171
1070
     6
1070
   273
1070
     7
1002
}
  0
ENDSEC
  0
SECTION
  2
OBJECTS
  0
DICTIONARY
  5
C
330
0
100
AcDbDictionary
281
     1
  3
ACAD_GROUP
350
D
  3
ACAD_IMAGE_VARS
350
154
  3
ACAD_LAYOUT
350
1A
  3
ACAD_MLINESTYLE
350
17
  3
ACAD_PLOTSETTINGS
350
19
  3
ACAD_PLOTSTYLENAME
350
E
  3
ACAD_SCALELIST
350
47
  3
APPDATA
350
152
  3
DWGPROPS
350
37B
  0
DICTIONARY
  5
1F8
330
2
100
AcDbDictionary
280
     1
281
     1
  3
ACAD_LAYERSTATES
360
1F9
  0
DICTIONARY
  5
D
102
{ACAD_REACTORS
330
C
102
}
330
C
100
AcDbDictionary
281
     1
  0
RASTERVARIABLES
  5
154
102
{ACAD_REACTORS
330
C
102
}
330
C
100
AcDbRasterVariables
 90
        0
 70
     1
 71
     1
 72
     1
  0
DICTIONARY
  5
1A
102
{ACAD_REACTORS
330
C
102
}
330
C
100
AcDbDictionary
281
     1
  3
Layout1
350
1E
  3
Layout2
350
26
  3
Model
350
22
  0
DICTIONARY
  5
17
102
{ACAD_REACTORS
330
C
102
}
330
C
100
AcDbDictionary
281
     1
  3
Standard
350
18
  0
DICTIONARY
  5
19
102
{ACAD_REACTORS
330
C
102
}
330
C
100
AcDbDictionary
281
     1
  0
ACDBDICTIONARYWDFLT
  5
E
102
{ACAD_REACTORS
330
C
102
}
330
C
100
AcDbDictionary
281
     1
  3
Normal
350
F
100
AcDbDictionaryWithDefault
340
F
  0
DICTIONARY
  5
47
102
{ACAD_REACTORS
330
C
102
}
330
C
100
AcDbDictionary
281
     1
  3
A0
350
48
  3
A1
350
49
  3
A2
350
4A
  3
A3
350
4B
  3
A4
350
4C
  3
A5
350
4D
  3
A6
350
4E
  3
A7
350
4F
  3
A8
350
50
  3
A9
350
51
  3
B0
350
52
  3
B1
350
53
  3
B2
350
54
  3
B3
350
55
  3
B4
350
56
  3
B5
350
57
  3
B6
350
58
  3
B7
350
59
  3
B8
350
5A
  3
B9
350
5B
  3
C0
350
5C
  3
C1
350
5D
  3
C2
350
5E
  3
C3
350
5F
  3
C4
350
60
  3
C5
350
61
  3
C6
350
62
  3
C7
350
63
  3
C8
350
64
  3
C9
350
65
  3
D0
350
66
  3
D1
350
67
  3
D2
350
68
  0
DICTIONARY
  5
152
102
{ACAD_REACTORS
330
C
102
}
330
C
100
AcDbDictionary
281
     1
  0
XRECORD
  5
37B
102
{ACAD_REACTORS
330
C
102
}
330
C
100
AcDbXrecord
280
     1
  1
DWGPROPS COOKIE
  2

  3

  4

  6

  7

  8
12016016
  9

300
=
301
=
302
=
303
=
304
=
305
=
306
=
307
=
308
=
309
=
 40
0.0
 41
2458311.104569572
 42
2458323.060122338
  1

 90
        0
  0
DICTIONARY
  5
1F9
102
{ACAD_REACTORS
330
1F8
102
}
330
1F8
100
AcDbDictionary
281
     1
  0
LAYOUT
  5
1E
102
{ACAD_REACTORS
330
1A
102
}
330
1A
100
AcDbPlotSettings
  1

  2
none_device
  4

  6

 40
0.0
 41
0.0
 42
0.0
 43
0.0
 44
0.0
 45
0.0
 46
0.0
 47
0.0
 48
0.0
 49
0.0
140
0.0
141
0.0
142
1.0
143
1.0
 70
   688
 72
     1
 73
     0
 74
     5
  7

 75
    16
147
1.0
148
0.0
149
0.0
100
AcDbLayout
  1
Layout1
 70
     1
 71
     1
 10
0.0
 20
0.0
 11
420.0
 21
297.0
 12
0.0
 22
0.0
 32
0.0
 14
1.000000000000000E+20
 24
1.000000000000000E+20
 34
1.000000000000000E+20
 15
-1.000000000000000E+20
 25
-1.000000000000000E+20
 35
-1.000000000000000E+20
146
0.0
 13
0.0
 23
0.0
 33
0.0
 16
1.0
 26
0.0
 36
0.0
 17
0.0
 27
1.0
 37
0.0
 76
     0
330
1B
  0
LAYOUT
  5
26
102
{ACAD_REACTORS
330
1A
102
}
330
1A
100
AcDbPlotSettings
  1

  2
none_device
  4

  6

 40
0.0
 41
0.0
 42
0.0
 43
0.0
 44
0.0
 45
0.0
 46
0.0
 47
0.0
 48
0.0
 49
0.0
140
0.0
141
0.0
142
1.0
143
1.0
 70
   688
 72
     1
 73
     0
 74
     5
  7

 75
    16
147
1.0
148
0.0
149
0.0
100
AcDbLayout
  1
Layout2
 70
     1
 71
     2
 10
0.0
 20
0.0
 11
0.0
 21
0.0
 12
0.0
 22
0.0
 32
0.0
 14
0.0
 24
0.0
 34
0.0
 15
0.0
 25
0.0
 35
0.0
146
0.0
 13
0.0
 23
0.0
 33
0.0
 16
1.0
 26
0.0
 36
0.0
 17
0.0
 27
1.0
 37
0.0
 76
     0
330
23
  0
LAYOUT
  5
22
102
{ACAD_REACTORS
330
1A
102
}
330
1A
100
AcDbPlotSettings
  1

  2
none_device
  4
ANSI_A_(11.00_x_8.50_Inches)
  6

 40
6.35
 41
19.05
 42
6.35000508
 43
19.05000254
 44
279.4
 45
215.9
 46
123.4777749213137
 47
53.25600183144449
 48
0.0
 49
0.0
140
0.0
141
0.0
142
0.0459484139365805
143
1.0
 70
  1696
 72
     0
 73
     0
 74
     0
  7

 75
     0
147
0.0235690232323232
148
0.0
149
0.0
100
AcDbLayout
  1
Model
 70
     1
 71
     0
 10
0.0
 20
0.0
 11
420.0
 21
297.0
 12
0.0
 22
0.0
 32
0.0
 14
-67.15912356130566
 24
-49.97180738881174
 34
0.0
 15
136.671298330046
 25
46.86989224311986
 35
0.0
146
0.0
 13
0.0
 23
0.0
 33
0.0
 16
1.0
 26
0.0
 36
0.0
 17
0.0
 27
1.0
 37
0.0
 76
     0
330
1F
331
29
  0
MLINESTYLE
  5
18
102
{ACAD_REACTORS
330
17
102
}
330
17
100
AcDbMlineStyle
  2
Standard
 70
     0
  3

 62
   256
 51
90.0
 52
90.0
 71
     2
 49
0.5
 62
   256
  6
BYLAYER
 49
-0.5
 62
   256
  6
BYLAYER
  0
ACDBPLACEHOLDER
  5
F
102
{ACAD_REACTORS
330
E
102
}
330
E
  0
SCALE
  5
48
102
{ACAD_REACTORS
330
47
102
}
330
47
100
AcDbScale
 70
     0
300
1:1
140
1.0
141
1.0
290
     1
  0
SCALE
  5
49
102
{ACAD_REACTORS
330
47
102
}
330
47
100
AcDbScale
 70
     0
300
1:2
140
1.0
141
2.0
290
     0
  0
SCALE
  5
4A
102
{ACAD_REACTORS
330
47
102
}
330
47
100
AcDbScale
 70
     0
300
1:4
140
1.0
141
4.0
290
     0
  0
SCALE
  5
4B
102
{ACAD_REACTORS
330
47
102
}
330
47
100
AcDbScale
 70
     0
300
1:5
140
1.0
141
5.0
290
     0
  0
SCALE
  5
4C
102
{ACAD_REACTORS
330
47
102
}
330
47
100
AcDbScale
 70
     0
300
1:8
140
1.0
141
8.0
290
     0
  0
SCALE
  5
4D
102
{ACAD_REACTORS
330
47
102
}
330
47
100
AcDbScale
 70
     0
300
1:10
140
1.0
141
10.0
290
     0
  0
SCALE
  5
4E
102
{ACAD_REACTORS
330
47
102
}
330
47
100
AcDbScale
 70
     0
300
1:16
140
1.0
141
16.0
290
     0
  0
SCALE
  5
4F
102
{ACAD_REACTORS
330
47
102
}
330
47
100
AcDbScale
 70
     0
300
1:20
140
1.0
141
20.0
290
     0
  0
SCALE
  5
50
102
{ACAD_REACTORS
330
47
102
}
330
47
100
AcDbScale
 70
     0
300
1:30
140
1.0
141
30.0
290
     0
  0
SCALE
  5
51
102
{ACAD_REACTORS
330
47
102
}
330
47
100
AcDbScale
 70
     0
300
1:40
140
1.0
141
40.0
290
     0
  0
SCALE
  5
52
102
{ACAD_REACTORS
330
47
102
}
330
47
100
AcDbScale
 70
     0
300
1:50
140
1.0
141
50.0
290
     0
  0
SCALE
  5
53
102
{ACAD_REACTORS
330
47
102
}
330
47
100
AcDbScale
 70
     0
300
1:100
140
1.0
141
100.0
290
     0
  0
SCALE
  5
54
102
{ACAD_REACTORS
330
47
102
}
330
47
100
AcDbScale
 70
     0
300
2:1
140
2.0
141
1.0
290
     0
  0
SCALE
  5
55
102
{ACAD_REACTORS
330
47
102
}
330
47
100
AcDbScale
 70
     0
300
4:1
140
4.0
141
1.0
290
     0
  0
SCALE
  5
56
102
{ACAD_REACTORS
330
47
102
}
330
47
100
AcDbScale
 70
     0
300
8:1
140
8.0
141
1.0
290
     0
  0
SCALE
  5
57
102
{ACAD_REACTORS
330
47
102
}
330
47
100
AcDbScale
 70
     0
300
10:1
140
10.0
141
1.0
290
     0
  0
SCALE
  5
58
102
{ACAD_REACTORS
330
47
102
}
330
47
100
AcDbScale
 70
     0
300
100:1
140
100.0
141
1.0
290
     0
  0
SCALE
  5
59
102
{ACAD_REACTORS
330
47
102
}
330
47
100
AcDbScale
 70
     0
300
1/128" = 1'-0"
140
0.0078125
141
12.0
290
     0
  0
SCALE
  5
5A
102
{ACAD_REACTORS
330
47
102
}
330
47
100
AcDbScale
 70
     0
300
1/64" = 1'-0"
140
0.015625
141
12.0
290
     0
  0
SCALE
  5
5B
102
{ACAD_REACTORS
330
47
102
}
330
47
100
AcDbScale
 70
     0
300
1/32" = 1'-0"
140
0.03125
141
12.0
290
     0
  0
SCALE
  5
5C
102
{ACAD_REACTORS
330
47
102
}
330
47
100
AcDbScale
 70
     0
300
1/16" = 1'-0"
140
0.0625
141
12.0
290
     0
  0
SCALE
  5
5D
102
{ACAD_REACTORS
330
47
102
}
330
47
100
AcDbScale
 70
     0
300
3/32" = 1'-0"
140
0.09375
141
12.0
290
     0
  0
SCALE
  5
5E
102
{ACAD_REACTORS
330
47
102
}
330
47
100
AcDbScale
 70
     0
300
1/8" = 1'-0"
140
0.125
141
12.0
290
     0
  0
SCALE
  5
5F
102
{ACAD_REACTORS
330
47
102
}
330
47
100
AcDbScale
 70
     0
300
3/16" = 1'-0"
140
0.1875
141
12.0
290
     0
  0
SCALE
  5
60
102
{ACAD_REACTORS
330
47
102
}
330
47
100
AcDbScale
 70
     0
300
1/4" = 1'-0"
140
0.25
141
12.0
290
     0
  0
SCALE
  5
61
102
{ACAD_REACTORS
330
47
102
}
330
47
100
AcDbScale
 70
     0
300
3/8" = 1'-0"
140
0.375
141
12.0
290
     0
  0
SCALE
  5
62
102
{ACAD_REACTORS
330
47
102
}
330
47
100
AcDbScale
 70
     0
300
1/2" = 1'-0"
140
0.5
141
12.0
290
     0
  0
SCALE
  5
63
102
{ACAD_REACTORS
330
47
102
}
330
47
100
AcDbScale
 70
     0
300
3/4" = 1'-0"
140
0.75
141
12.0
290
     0
  0
SCALE
  5
64
102
{ACAD_REACTORS
330
47
102
}
330
47
100
AcDbScale
 70
     0
300
1" = 1'-0"
140
1.0
141
12.0
290
     0
  0
SCALE
  5
65
102
{ACAD_REACTORS
330
47
102
}
330
47
100
AcDbScale
 70
     0
300
1-1/2" = 1'-0"
140
1.5
141
12.0
290
     0
  0
SCALE
  5
66
102
{ACAD_REACTORS
330
47
102
}
330
47
100
AcDbScale
 70
     0
300
3" = 1'-0"
140
3.0
141
12.0
290
     0
  0
SCALE
  5
67
102
{ACAD_REACTORS
330
47
102
}
330
47
100
AcDbScale
 70
     0
300
6" = 1'-0"
140
6.0
141
12.0
290
     0
  0
SCALE
  5
68
102
{ACAD_REACTORS
330
47
102
}
330
47
100
AcDbScale
 70
     0
300
1'-0" = 1'-0"
140
12.0
141
12.0
290
     0
  0
ENDSEC
  0
EOF
