  0
SECTION
  2
HEADER
  9
$ACADVER
  1
AC1015
  9
$ACADMAINTVER
 70
     6
  9
$DWGCODEPAGE
  3
ANSI_949
  9
$INSBASE
 10
0.0
 20
0.0
 30
0.0
  9
$EXTMIN
 10
1.000000000000000E+20
 20
1.000000000000000E+20
 30
1.000000000000000E+20
  9
$EXTMAX
 10
-1.000000000000000E+20
 20
-1.000000000000000E+20
 30
-1.000000000000000E+20
  9
$LIMMIN
 10
0.0
 20
0.0
  9
$LIMMAX
 10
420.0
 20
297.0
  9
$ORTHOMODE
 70
     1
  9
$REGENMODE
 70
     1
  9
$FILLMODE
 70
     1
  9
$QTEXTMODE
 70
     0
  9
$MIRRTEXT
 70
     1
  9
$LTSCALE
 40
1.0
  9
$ATTMODE
 70
     1
  9
$TEXTSIZE
 40
3.5
  9
$TRACEWID
 40
1.0
  9
$TEXTSTYLE
  7
Standard
  9
$CLAYER
  8
0
  9
$CELTYPE
  6
ByLayer
  9
$CECOLOR
 62
   256
  9
$CELTSCALE
 40
1.0
  9
$DISPSILH
 70
     0
  9
$DIMSCALE
 40
1.0
  9
$DIMASZ
 40
3.302
  9
$DIMEXO
 40
1.0
  9
$DIMDLI
 40
3.75
  9
$DIMRND
 40
0.0
  9
$DIMDLE
 40
0.0
  9
$DIMEXE
 40
1.0
  9
$DIMTP
 40
0.0
  9
$DIMTM
 40
0.0
  9
$DIMTXT
 40
3.5
  9
$DIMCEN
 40
2.5
  9
$DIMTSZ
 40
0.0
  9
$DIMTOL
 70
     0
  9
$DIMLIM
 70
     0
  9
$DIMTIH
 70
     1
  9
$DIMTOH
 70
     1
  9
$DIMSE1
 70
     0
  9
$DIMSE2
 70
     0
  9
$DIMTAD
 70
     1
  9
$DIMZIN
 70
     0
  9
$DIMBLK
  1

  9
$DIMASO
 70
     1
  9
$DIMSHO
 70
     1
  9
$DIMPOST
  1

  9
$DIMAPOST
  1

  9
$DIMALT
 70
     0
  9
$DIMALTD
 70
     3
  9
$DIMALTF
 40
0.0393700787401575
  9
$DIMLFAC
 40
1.0
  9
$DIMTOFL
 70
     1
  9
$DIMTVP
 40
0.0
  9
$DIMTIX
 70
     0
  9
$DIMSOXD
 70
     0
  9
$DIMSAH
 70
     0
  9
$DIMBLK1
  1

  9
$DIMBLK2
  1

  9
$DIMSTYLE
  2
ISO-25
  9
$DIMCLRD
 70
     0
  9
$DIMCLRE
 70
     0
  9
$DIMCLRT
 70
     0
  9
$DIMTFAC
 40
1.0
  9
$DIMGAP
 40
1.524
  9
$DIMJUST
 70
     0
  9
$DIMSD1
 70
     0
  9
$DIMSD2
 70
     0
  9
$DIMTOLJ
 70
     0
  9
$DIMTZIN
 70
     0
  9
$DIMALTZ
 70
     0
  9
$DIMALTTZ
 70
     0
  9
$DIMUPT
 70
     0
  9
$DIMDEC
 70
     2
  9
$DIMTDEC
 70
     2
  9
$DIMALTU
 70
     2
  9
$DIMALTTD
 70
     3
  9
$DIMTXSTY
  7
Standard
  9
$DIMAUNIT
 70
     0
  9
$DIMADEC
 70
     2
  9
$DIMALTRND
 40
0.0
  9
$DIMAZIN
 70
     0
  9
$DIMDSEP
 70
    44
  9
$DIMATFIT
 70
     3
  9
$DIMFRAC
 70
     0
  9
$DIMLDRBLK
  1

  9
$DIMLUNIT
 70
     2
  9
$DIMLWD
 70
    -2
  9
$DIMLWE
 70
    -2
  9
$DIMTMOVE
 70
     0
  9
$LUNITS
 70
     2
  9
$LUPREC
 70
     2
  9
$SKETCHINC
 40
1.0
  9
$FILLETRAD
 40
10.0
  9
$AUNITS
 70
     0
  9
$AUPREC
 70
     2
  9
$MENU
  1
.
  9
$ELEVATION
 40
0.0
  9
$PELEVATION
 40
0.0
  9
$THICKNESS
 40
0.0
  9
$LIMCHECK
 70
     0
  9
$CHAMFERA
 40
0.0
  9
$CHAMFERB
 40
0.0
  9
$CHAMFERC
 40
0.0
  9
$CHAMFERD
 40
0.0
  9
$SKPOLY
 70
     0
  9
$TDCREATE
 40
2458312.673774259
  9
$TDUCREATE
 40
2458312.298774259
  9
$TDUPDATE
 40
2458320.500701042
  9
$TDUUPDATE
 40
2458320.125701042
  9
$TDINDWG
 40
0.0011576389
  9
$TDUSRTIMER
 40
2458320.124544225
  9
$USRTIMER
 70
     1
  9
$ANGBASE
 50
0.0
  9
$ANGDIR
 70
     0
  9
$PDMODE
 70
     0
  9
$PDSIZE
 40
-1.0
  9
$PLINEWID
 40
0.0
  9
$SPLFRAME
 70
     0
  9
$SPLINETYPE
 70
     6
  9
$SPLINESEGS
 70
     8
  9
$HANDSEED
  5
2A2
  9
$SURFTAB1
 70
     6
  9
$SURFTAB2
 70
     6
  9
$SURFTYPE
 70
     6
  9
$SURFU
 70
     6
  9
$SURFV
 70
     6
  9
$UCSBASE
  2

  9
$UCSNAME
  2

  9
$UCSORG
 10
0.0
 20
0.0
 30
0.0
  9
$UCSXDIR
 10
1.0
 20
0.0
 30
0.0
  9
$UCSYDIR
 10
0.0
 20
1.0
 30
0.0
  9
$UCSORTHOREF
  2

  9
$UCSORTHOVIEW
 70
     0
  9
$UCSORGTOP
 10
0.0
 20
0.0
 30
0.0
  9
$UCSORGBOTTOM
 10
0.0
 20
0.0
 30
0.0
  9
$UCSORGLEFT
 10
0.0
 20
0.0
 30
0.0
  9
$UCSORGRIGHT
 10
0.0
 20
0.0
 30
0.0
  9
$UCSORGFRONT
 10
0.0
 20
0.0
 30
0.0
  9
$UCSORGBACK
 10
0.0
 20
0.0
 30
0.0
  9
$PUCSBASE
  2

  9
$PUCSNAME
  2

  9
$PUCSORG
 10
0.0
 20
0.0
 30
0.0
  9
$PUCSXDIR
 10
1.0
 20
0.0
 30
0.0
  9
$PUCSYDIR
 10
0.0
 20
1.0
 30
0.0
  9
$PUCSORTHOREF
  2

  9
$PUCSORTHOVIEW
 70
     0
  9
$PUCSORGTOP
 10
0.0
 20
0.0
 30
0.0
  9
$PUCSORGBOTTOM
 10
0.0
 20
0.0
 30
0.0
  9
$PUCSORGLEFT
 10
0.0
 20
0.0
 30
0.0
  9
$PUCSORGRIGHT
 10
0.0
 20
0.0
 30
0.0
  9
$PUCSORGFRONT
 10
0.0
 20
0.0
 30
0.0
  9
$PUCSORGBACK
 10
0.0
 20
0.0
 30
0.0
  9
$USERI1
 70
     0
  9
$USERI2
 70
     0
  9
$USERI3
 70
     0
  9
$USERI4
 70
     0
  9
$USERI5
 70
     0
  9
$USERR1
 40
0.0
  9
$USERR2
 40
0.0
  9
$USERR3
 40
0.0
  9
$USERR4
 40
0.0
  9
$USERR5
 40
0.0
  9
$WORLDVIEW
 70
     1
  9
$SHADEDGE
 70
     3
  9
$SHADEDIF
 70
    70
  9
$TILEMODE
 70
     1
  9
$MAXACTVP
 70
    64
  9
$PINSBASE
 10
0.0
 20
0.0
 30
0.0
  9
$PLIMCHECK
 70
     0
  9
$PEXTMIN
 10
1.000000000000000E+20
 20
1.000000000000000E+20
 30
1.000000000000000E+20
  9
$PEXTMAX
 10
-1.000000000000000E+20
 20
-1.000000000000000E+20
 30
-1.000000000000000E+20
  9
$PLIMMIN
 10
0.0
 20
0.0
  9
$PLIMMAX
 10
0.0
 20
0.0
  9
$UNITMODE
 70
     0
  9
$VISRETAIN
 70
     1
  9
$PLINEGEN
 70
     0
  9
$PSLTSCALE
 70
     1
  9
$TREEDEPTH
 70
  3020
  9
$CMLSTYLE
  2
Standard
  9
$CMLJUST
 70
     0
  9
$CMLSCALE
 40
20.0
  9
$PROXYGRAPHICS
 70
     1
  9
$MEASUREMENT
 70
     1
  9
$CELWEIGHT
370
    -1
  9
$ENDCAPS
280
     0
  9
$JOINSTYLE
280
     0
  9
$LWDISPLAY
290
     1
  9
$INSUNITS
 70
     4
  9
$HYPERLINKBASE
  1

  9
$STYLESHEET
  1

  9
$XEDIT
290
     1
  9
$CEPSNTYPE
380
     0
  9
$PSTYLEMODE
290
     1
  9
$FINGERPRINTGUID
  2
{5A6D8AE1-DB5D-49B7-ABF8-3526E1A72884}
  9
$VERSIONGUID
  2
{FAEB1C32-E019-11D5-929B-00C0DF256EC4}
  9
$EXTNAMES
290
     1
  9
$PSVPSCALE
 40
0.0
  9
$OLESTARTUP
290
     0
  0
ENDSEC
  0
SECTION
  2
CLASSES
  0
CLASS
  1
ACDBDICTIONARYWDFLT
  2
AcDbDictionaryWithDefault
  3
ObjectDBX Classes
 90
        0
280
     0
281
     0
  0
CLASS
  1
VISUALSTYLE
  2
AcDbVisualStyle
  3
ObjectDBX Classes
 90
     4095
280
     0
281
     0
  0
CLASS
  1
MATERIAL
  2
AcDbMaterial
  3
ObjectDBX Classes
 90
     1153
280
     0
281
     0
  0
CLASS
  1
SCALE
  2
AcDbScale
  3
ObjectDBX Classes
 90
     1153
280
     0
281
     0
  0
CLASS
  1
SUN
  2
AcDbSun
  3
SCENEOE
 90
     1153
280
     0
281
     0
  0
CLASS
  1
ACDBPLACEHOLDER
  2
AcDbPlaceHolder
  3
ObjectDBX Classes
 90
        0
280
     0
281
     0
  0
CLASS
  1
LAYOUT
  2
AcDbLayout
  3
ObjectDBX Classes
 90
        0
280
     0
281
     0
  0
CLASS
  1
TABLESTYLE
  2
AcDbTableStyle
  3
ObjectDBX Classes
 90
     4095
280
     0
281
     0
  0
CLASS
  1
MLEADERSTYLE
  2
AcDbMLeaderStyle
  3
ACDB_MLEADERSTYLE_CLASS
 90
     4095
280
     0
281
     0
  0
CLASS
  1
RASTERVARIABLES
  2
AcDbRasterVariables
  3
ISM
 90
        0
280
     0
281
     0
  0
ENDSEC
  0
SECTION
  2
TABLES
  0
TABLE
  2
VPORT
  5
8
330
0
100
AcDbSymbolTable
 70
     1
  0
VPORT
  5
29
330
8
100
AcDbSymbolTableRecord
100
AcDbViewportTableRecord
  2
*Active
 70
     0
 10
0.0
 20
0.0
 11
1.0
 21
1.0
 12
47.46104987585524
 22
13.03035142350334
 13
0.0
 23
0.0
 14
10.0
 24
10.0
 15
10.0
 25
10.0
 16
0.0
 26
0.0
 36
1.0
 17
0.0
 27
0.0
 37
0.0
 40
101.6507271865588
 41
1.632093933463796
 42
50.0
 43
0.0
 44
0.0
 50
0.0
 51
0.0
 71
    16
 72
  2000
 73
     1
 74
     3
 75
     0
 76
     0
 77
     0
 78
     0
281
     0
 65
     1
110
0.0
120
0.0
130
0.0
111
1.0
121
0.0
131
0.0
112
0.0
122
1.0
132
0.0
 79
     0
146
0.0
  0
ENDTAB
  0
TABLE
  2
LTYPE
  5
5
330
0
100
AcDbSymbolTable
 70
     6
  0
LTYPE
  5
14
330
5
100
AcDbSymbolTableRecord
100
AcDbLinetypeTableRecord
  2
ByBlock
 70
     0
  3

 72
    65
 73
     0
 40
0.0
  0
LTYPE
  5
15
330
5
100
AcDbSymbolTableRecord
100
AcDbLinetypeTableRecord
  2
ByLayer
 70
     0
  3

 72
    65
 73
     0
 40
0.0
  0
LTYPE
  5
16
330
5
100
AcDbSymbolTableRecord
100
AcDbLinetypeTableRecord
  2
Continuous
 70
     0
  3
Solid line
 72
    65
 73
     0
 40
0.0
  0
LTYPE
  5
6A
330
5
100
AcDbSymbolTableRecord
100
AcDbLinetypeTableRecord
  2
HIDDEN
 70
     0
  3
Hidden __ __ __ __ __ __ __ __ __ __ __ __ __ __
 72
    65
 73
     2
 40
1.905
 49
1.27
 74
     0
 49
-0.635
 74
     0
  0
LTYPE
  5
6B
330
5
100
AcDbSymbolTableRecord
100
AcDbLinetypeTableRecord
  2
PHANTOM
 70
     0
  3
Phantom ______  __  __  ______  __  __  ______
 72
    65
 73
     6
 40
12.7
 49
6.35
 74
     0
 49
-1.27
 74
     0
 49
1.27
 74
     0
 49
-1.27
 74
     0
 49
1.27
 74
     0
 49
-1.27
 74
     0
  0
LTYPE
  5
6C
330
5
100
AcDbSymbolTableRecord
100
AcDbLinetypeTableRecord
  2
CENTER
 70
     0
  3
Center ____ _ ____ _ ____ _ ____ _ ____ _ ____
 72
    65
 73
     4
 40
10.16
 49
6.35
 74
     0
 49
-1.27
 74
     0
 49
1.27
 74
     0
 49
-1.27
 74
     0
  0
LTYPE
  5
6D
330
5
100
AcDbSymbolTableRecord
100
AcDbLinetypeTableRecord
  2
CENTERX2
 70
     0
  3
Center (2x) ________  __  ________  __  _____
 72
    65
 73
     4
 40
20.32
 49
12.7
 74
     0
 49
-2.54
 74
     0
 49
2.54
 74
     0
 49
-2.54
 74
     0
  0
LTYPE
  5
6E
330
5
100
AcDbSymbolTableRecord
100
AcDbLinetypeTableRecord
  2
DOT2
 70
     0
  3
Dot (.5x) ........................................
 72
    65
 73
     2
 40
0.635
 49
0.0
 74
     0
 49
-0.635
 74
     0
  0
ENDTAB
  0
TABLE
  2
LAYER
  5
2
102
{ACAD_XDICTIONARY
360
1F4
102
}
330
0
100
AcDbSymbolTable
 70
    18
  0
LAYER
  5
10
330
2
100
AcDbSymbolTableRecord
100
AcDbLayerTableRecord
  2
0
 70
     0
 62
     7
  6
Continuous
370
    -3
390
F
  0
LAYER
  5
6F
330
2
100
AcDbSymbolTableRecord
100
AcDbLayerTableRecord
  2
FORMAT
 70
     0
 62
     2
  6
Continuous
370
    -3
390
F
  0
LAYER
  5
70
330
2
100
AcDbSymbolTableRecord
100
AcDbLayerTableRecord
  2
외형선
 70
     0
 62
     4
  6
Continuous
370
    30
390
F
  0
LAYER
  5
71
330
2
100
AcDbSymbolTableRecord
100
AcDbLayerTableRecord
  2
숨은선
 70
     0
 62
     2
  6
HIDDEN
370
    15
390
F
  0
LAYER
  5
72
330
2
100
AcDbSymbolTableRecord
100
AcDbLayerTableRecord
  2
중심선
 70
     0
 62
     1
  6
CENTERX2
370
    -3
390
F
  0
LAYER
  5
73
330
2
100
AcDbSymbolTableRecord
100
AcDbLayerTableRecord
  2
파단선
 70
     0
 62
     4
  6
Continuous
370
    -3
390
F
  0
LAYER
  5
74
330
2
100
AcDbSymbolTableRecord
100
AcDbLayerTableRecord
  2
해칭선
 70
     0
 62
   100
  6
Continuous
370
    -3
390
F
  0
LAYER
  5
75
330
2
100
AcDbSymbolTableRecord
100
AcDbLayerTableRecord
  2
가는실선
 70
     0
 62
     4
  6
Continuous
370
    -3
390
F
  0
LAYER
  5
76
330
2
100
AcDbSymbolTableRecord
100
AcDbLayerTableRecord
  2
치수_보조선
 70
     0
 62
     4
  6
Continuous
370
    -3
390
F
  0
LAYER
  5
77
330
2
100
AcDbSymbolTableRecord
100
AcDbLayerTableRecord
  2
치수문자_일반주서
 70
     0
 62
     7
  6
Continuous
370
    15
390
F
  0
LAYER
  5
78
330
2
100
AcDbSymbolTableRecord
100
AcDbLayerTableRecord
  2
개별주서
 70
     0
 62
   100
  6
Continuous
370
    30
390
F
  0
LAYER
  5
79
330
2
100
AcDbSymbolTableRecord
100
AcDbLayerTableRecord
  2
중간선
 70
     0
 62
     2
  6
Continuous
370
    15
390
F
  0
LAYER
  5
7A
330
2
100
AcDbSymbolTableRecord
100
AcDbLayerTableRecord
  2
윤곽선
 70
     0
 62
     3
  6
Continuous
370
    40
390
F
  0
LAYER
  5
7B
330
2
100
AcDbSymbolTableRecord
100
AcDbLayerTableRecord
  2
중심마크
 70
     0
 62
   100
  6
Continuous
370
    30
390
F
  0
LAYER
  5
7C
330
2
100
AcDbSymbolTableRecord
100
AcDbLayerTableRecord
  2
가상선
 70
     0
 62
     4
  6
PHANTOM
370
    -3
390
F
  0
LAYER
  5
7D
330
2
100
AcDbSymbolTableRecord
100
AcDbLayerTableRecord
  2
특수지정선
 70
     0
 62
     5
  6
CENTERX2
370
    60
390
F
  0
LAYER
  5
7E
330
2
100
AcDbSymbolTableRecord
100
AcDbLayerTableRecord
  2
참조1
 70
     0
 62
    -4
  6
Continuous
370
    -3
390
F
  0
LAYER
  5
153
330
2
100
AcDbSymbolTableRecord
100
AcDbLayerTableRecord
  2
Defpoints
 70
     0
 62
     7
  6
Continuous
290
     0
370
    -3
390
F
  0
ENDTAB
  0
TABLE
  2
STYLE
  5
3
330
0
100
AcDbSymbolTable
 70
     2
  0
STYLE
  5
11
330
3
100
AcDbSymbolTableRecord
100
AcDbTextStyleTableRecord
  2
Standard
 70
     0
 40
0.0
 41
1.0
 50
0.0
 71
     0
 42
3.5
  3
txt
  4

  0
STYLE
  5
94
330
3
100
AcDbSymbolTableRecord
100
AcDbTextStyleTableRecord
  2
SLDTEXTSTYLE0
 70
     0
 40
0.0
 41
0.75
 50
0.0
 71
     0
 42
3.5
  3
TXT
  4

  0
ENDTAB
  0
TABLE
  2
VIEW
  5
6
330
0
100
AcDbSymbolTable
 70
     0
  0
ENDTAB
  0
TABLE
  2
UCS
  5
7
330
0
100
AcDbSymbolTable
 70
     0
  0
ENDTAB
  0
TABLE
  2
APPID
  5
9
330
0
100
AcDbSymbolTable
 70
     1
  0
APPID
  5
12
330
9
100
AcDbSymbolTableRecord
100
AcDbRegAppTableRecord
  2
ACAD
 70
     0
  0
ENDTAB
  0
TABLE
  2
DIMSTYLE
  5
A
330
0
100
AcDbSymbolTable
 70
     4
100
AcDbDimStyleTable
  0
DIMSTYLE
105
27
330
A
100
AcDbSymbolTableRecord
100
AcDbDimStyleTableRecord
  2
ISO-25
 70
     0
 41
2.5
 42
0.625
 43
3.75
 44
1.25
 73
     0
 74
     0
 77
     1
 78
     8
140
2.5
141
2.5
143
0.03937007874016
147
0.625
171
     3
172
     1
178
     0
271
     2
272
     2
274
     3
278
    44
283
     0
284
     8
340
11
  0
DIMSTYLE
105
D0
330
A
100
AcDbSymbolTableRecord
100
AcDbDimStyleTableRecord
  2
SLDDIMSTYLE0
 70
     0
 41
3.302
 44
0.0
 45
0.000000001
 73
     0
 74
     0
 77
     1
 78
     4
 79
     1
140
3.5
143
0.0393700787401575
147
0.875
148
0.000000001
170
     1
173
     1
178
     0
271
     2
272
     2
276
     2
284
    12
340
94
  0
DIMSTYLE
105
E5
102
{ACAD_REACTORS
330
E4
330
10D
330
1B3
330
1C0
330
1CD
330
1DA
330
CF
330
F8
102
}
330
A
100
AcDbSymbolTableRecord
100
AcDbDimStyleTableRecord
  2
SLDDIMSTYLE1
 70
     0
 41
3.302
 44
0.0
 45
0.000000001
 73
     0
 74
     0
 77
     1
 78
    12
 79
     3
140
3.5
143
0.0393700787401575
147
0.875
148
0.000000001
170
     1
173
     1
178
     0
271
     2
272
     2
276
     2
284
    12
340
94
  0
DIMSTYLE
105
F9
330
A
100
AcDbSymbolTableRecord
100
AcDbDimStyleTableRecord
  2
SLDDIMSTYLE2
 70
     0
 41
3.302
 44
0.0
 45
0.000000001
 73
     0
 74
     0
 77
     1
 78
    12
 79
     3
140
3.5
143
0.0393700787401575
147
0.875
148
0.000000001
170
     1
172
     1
173
     1
178
     0
271
     2
272
     2
276
     2
284
    12
289
     0
340
94
  0
ENDTAB
  0
TABLE
  2
BLOCK_RECORD
  5
1
330
0
100
AcDbSymbolTable
 70
    16
  0
BLOCK_RECORD
  5
1F
330
1
100
AcDbSymbolTableRecord
100
AcDbBlockTableRecord
  2
*Model_Space
340
22
  0
BLOCK_RECORD
  5
1B
330
1
100
AcDbSymbolTableRecord
100
AcDbBlockTableRecord
  2
*Paper_Space
340
1E
  0
BLOCK_RECORD
  5
23
330
1
100
AcDbSymbolTableRecord
100
AcDbBlockTableRecord
  2
*Paper_Space0
340
26
  0
BLOCK_RECORD
  5
7F
330
1
100
AcDbSymbolTableRecord
100
AcDbBlockTableRecord
  2
블럭10
340
0
102
{BLKREFS
331
C8
102
}
  0
BLOCK_RECORD
  5
D1
330
1
100
AcDbSymbolTableRecord
100
AcDbBlockTableRecord
  2
_D
340
0
  0
BLOCK_RECORD
  5
E6
330
1
100
AcDbSymbolTableRecord
100
AcDbBlockTableRecord
  2
_D_1
340
0
  0
BLOCK_RECORD
  5
FA
330
1
100
AcDbSymbolTableRecord
100
AcDbBlockTableRecord
  2
_D_2
340
0
  0
BLOCK_RECORD
  5
10E
330
1
100
AcDbSymbolTableRecord
100
AcDbBlockTableRecord
  2
_D_3
340
0
  0
BLOCK_RECORD
  5
127
330
1
100
AcDbSymbolTableRecord
100
AcDbBlockTableRecord
  2
SW_DOWELSYMBOL_0
340
0
102
{BLKREFS
331
12D
331
1E8
331
0
102
}
  0
BLOCK_RECORD
  5
1F8
330
1
100
AcDbSymbolTableRecord
100
AcDbBlockTableRecord
  2
*D8
340
0
  0
BLOCK_RECORD
  5
204
330
1
100
AcDbSymbolTableRecord
100
AcDbBlockTableRecord
  2
*D9
340
0
  0
BLOCK_RECORD
  5
210
330
1
100
AcDbSymbolTableRecord
100
AcDbBlockTableRecord
  2
*D10
340
0
  0
BLOCK_RECORD
  5
21C
330
1
100
AcDbSymbolTableRecord
100
AcDbBlockTableRecord
  2
*D11
340
0
  0
BLOCK_RECORD
  5
26B
330
1
100
AcDbSymbolTableRecord
100
AcDbBlockTableRecord
  2
*D12
340
0
  0
BLOCK_RECORD
  5
277
330
1
100
AcDbSymbolTableRecord
100
AcDbBlockTableRecord
  2
*D13
340
0
  0
BLOCK_RECORD
  5
283
330
1
100
AcDbSymbolTableRecord
100
AcDbBlockTableRecord
  2
*D14
340
0
  0
BLOCK_RECORD
  5
28F
330
1
100
AcDbSymbolTableRecord
100
AcDbBlockTableRecord
  2
*D15
340
0
  0
ENDTAB
  0
ENDSEC
  0
SECTION
  2
BLOCKS
  0
BLOCK
  5
20
330
1F
100
AcDbEntity
  8
0
100
AcDbBlockBegin
  2
*Model_Space
 70
     0
 10
0.0
 20
0.0
 30
0.0
  3
*Model_Space
  1
*Model_Space
  0
ENDBLK
  5
21
330
1F
100
AcDbEntity
  8
0
100
AcDbBlockEnd
  0
BLOCK
  5
1C
330
1B
100
AcDbEntity
 67
     1
  8
0
100
AcDbBlockBegin
  2
*Paper_Space
 70
     0
 10
0.0
 20
0.0
 30
0.0
  3
*Paper_Space
  1
*Paper_Space
  0
ENDBLK
  5
1D
330
1B
100
AcDbEntity
 67
     1
  8
0
100
AcDbBlockEnd
  0
BLOCK
  5
24
330
23
100
AcDbEntity
  8
0
100
AcDbBlockBegin
  2
*Paper_Space0
 70
     0
 10
0.0
 20
0.0
 30
0.0
  3
*Paper_Space0
  1
*Paper_Space0
  0
ENDBLK
  5
25
330
23
100
AcDbEntity
  8
0
100
AcDbBlockEnd
  0
BLOCK
  5
80
330
7F
100
AcDbEntity
  8
0
100
AcDbBlockBegin
  2
블럭10
 70
     2
 10
0.0
 20
0.0
 30
0.0
  3
블럭10
  1
블럭10
  0
ELLIPSE
  5
82
330
7F
100
AcDbEntity
  8
중심선
100
AcDbEllipse
 10
20.54032771741204
 20
12.0471743016438
 30
0.0
 11
6.600054785286829
 21
-1.261213355974178E-13
 31
0.0
210
0.0
220
0.0
230
1.0
 40
0.636358354079598
 41
0.9219305317359503
 42
6.513795318482858
  0
ELLIPSE
  5
83
330
7F
100
AcDbEntity
  8
중심선
100
AcDbEllipse
 10
20.54032771746488
 20
12.04717430159265
 30
0.0
 11
3.960054785062283
 21
1.540847449632565E-10
 31
0.0
210
0.0
220
0.0
230
1.0
 40
0.3939339440162632
 41
1.131841032648279
 42
5.62031148352944
  0
LINE
  5
84
330
7F
100
AcDbEntity
  8
중심선
100
AcDbLine
 10
2.268634060543552
 20
16.24717430164393
 30
0.0
 11
5.714909304380834
 21
16.24717430164393
 31
0.0
  0
LINE
  5
85
330
7F
100
AcDbEntity
  8
중심선
100
AcDbLine
 10
5.245725140726316
 20
7.84717430164391
 30
0.0
 11
8.692000384563599
 21
7.84717430164391
 31
0.0
  0
LINE
  5
86
330
7F
100
AcDbEntity
  8
중심선
100
AcDbLine
 10
15.74043728645272
 20
16.24717430164393
 30
0.0
 11
8.692000384563599
 21
7.84717430164391
 31
0.0
  0
LINE
  5
87
330
7F
100
AcDbEntity
  8
중심선
100
AcDbLine
 10
0.1404042013395286
 20
13.71084872107135
 30
0.0
 11
3.58671253028996
 21
13.71088815037384
 31
0.0
  0
LINE
  5
88
330
7F
100
AcDbEntity
  8
중심선
100
AcDbLine
 10
2.750260043222114
 20
10.84717430164391
 30
0.0
 11
6.196535287059397
 21
10.84717430164391
 31
0.0
  0
LINE
  5
89
330
7F
100
AcDbEntity
  8
중심선
100
AcDbLine
 10
12.29416204261559
 20
16.24717430164393
 30
0.0
 11
5.245725140726316
 21
7.84717430164391
 31
0.0
  0
LINE
  5
8A
330
7F
100
AcDbEntity
  8
중심선
100
AcDbLine
 10
10.72767329541681
 20
16.24717430164393
 30
0.0
 11
6.196535287059397
 21
10.84717430164391
 31
0.0
  0
LINE
  5
8B
330
7F
100
AcDbEntity
  8
중심선
100
AcDbLine
 10
7.28139805157953
 20
16.24717430164393
 30
0.0
 11
2.750260043222114
 21
10.84717430164391
 31
0.0
  0
LINE
  5
8C
330
7F
100
AcDbEntity
  8
중심선
100
AcDbLine
 10
5.714909304380834
 20
16.24717430164393
 30
0.0
 11
3.58671253028996
 21
13.71088815037384
 31
0.0
  0
LINE
  5
8D
330
7F
100
AcDbEntity
  8
중심선
100
AcDbLine
 10
2.268634060543552
 20
16.24717430164393
 30
0.0
 11
0.1404042013395286
 21
13.71084872107135
 31
0.0
  0
LINE
  5
8E
330
7F
100
AcDbEntity
  8
중심선
100
AcDbLine
 10
7.28139805157953
 20
16.24717430164393
 30
0.0
 11
10.72767329541681
 21
16.24717430164393
 31
0.0
  0
LINE
  5
8F
330
7F
100
AcDbEntity
  8
중심선
100
AcDbLine
 10
12.29416204261559
 20
16.24717430164393
 30
0.0
 11
15.74043728645272
 21
16.24717430164393
 31
0.0
  0
LINE
  5
90
330
7F
100
AcDbEntity
  8
중심선
100
AcDbLine
 10
19.22036997980202
 20
11.08717430171403
 30
0.0
 11
23.66174974927406
 21
11.08717430171406
 31
0.0
  0
LINE
  5
91
330
7F
100
AcDbEntity
  8
중심선
100
AcDbLine
 10
19.22039502424796
 20
13.00717430171391
 30
0.0
 11
19.22036997980202
 21
11.08717430171403
 31
0.0
  0
LINE
  5
92
330
7F
100
AcDbEntity
  8
중심선
100
AcDbLine
 10
19.22039502424796
 20
13.00717430171391
 30
0.0
 11
26.96566020931264
 21
13.00717430171391
 31
0.0
  0
LINE
  5
93
330
7F
100
AcDbEntity
  8
중심선
100
AcDbLine
 10
22.22332737316547
 20
13.45928029700563
 30
0.0
 11
24.52862924686651
 21
15.39360700705356
 31
0.0
  0
ATTDEF
  5
95
330
7F
100
AcDbEntity
  8
FORMAT
 62
     2
100
AcDbText
 10
4.408487351596664
 20
2.075366912832191
 30
0.0
 40
4.233333333333333
  1
E2034040
 41
0.75
  7
SLDTEXTSTYLE0
 11
4.408487351596664
 21
-0.0412997538344756
 31
0.0
100
AcDbAttributeDefinition
  3

  2
AUTOATTR0
 70
     0
 74
     1
  0
ENDBLK
  5
81
330
7F
100
AcDbEntity
  8
0
100
AcDbBlockEnd
  0
BLOCK
  5
D2
330
D1
100
AcDbEntity
  8
0
100
AcDbBlockBegin
  2
_D
 70
     0
 10
0.0
 20
0.0
 30
0.0
  3
_D
  1
_D
  0
LINE
  5
D4
330
D1
100
AcDbEntity
  8
치수문자_일반주서
 62
     0
370
    -2
100
AcDbLine
 10
75.50000000000003
 20
8.000000000000009
 30
0.0
 11
75.50000000000003
 21
21.08914845620487
 31
0.0
  0
LINE
  5
D5
330
D1
100
AcDbEntity
  8
치수문자_일반주서
 62
     0
370
    -2
100
AcDbLine
 10
12.00000000000004
 20
7.999758068935703
 30
0.0
 11
12.00000000000004
 21
21.08914845620487
 31
0.0
  0
LINE
  5
D6
330
D1
100
AcDbEntity
  8
치수문자_일반주서
 62
     0
370
    -2
100
AcDbLine
 10
72.19800000000004
 20
21.08914845620487
 30
0.0
 11
15.30200000000004
 21
21.08914845620487
 31
0.0
  0
SOLID
  5
D7
330
D1
100
AcDbEntity
  8
치수문자_일반주서
 62
     0
100
AcDbTrace
 10
72.19800000000004
 20
20.53881512287154
 30
0.0
 11
72.19800000000004
 21
21.63948178953821
 31
0.0
 12
75.50000000000003
 22
21.08914845620487
 32
0.0
 13
75.50000000000003
 23
21.08914845620487
 33
0.0
  0
SOLID
  5
D8
330
D1
100
AcDbEntity
  8
치수문자_일반주서
 62
     0
100
AcDbTrace
 10
15.30200000000004
 20
21.63948178953821
 30
0.0
 11
15.30200000000004
 21
20.53881512287154
 31
0.0
 12
12.00000000000004
 22
21.08914845620487
 32
0.0
 13
12.00000000000004
 23
21.08914845620487
 33
0.0
  0
MTEXT
  5
D9
330
D1
100
AcDbEntity
  8
치수문자_일반주서
 62
     0
100
AcDbMText
 10
43.75000000000003
 20
25.46414845620487
 30
0.0
 40
3.5
 41
0.0
 71
     2
 72
     1
  1
\A1;63.5 [2 1/2]
  7
SLDTEXTSTYLE0
 73
     1
 44
1.0
  0
POINT
  5
DA
330
D1
100
AcDbEntity
  8
Defpoints
 62
     0
100
AcDbPoint
 10
75.50000000000003
 20
7.937500000000009
 30
0.0
  0
POINT
  5
DB
330
D1
100
AcDbEntity
  8
Defpoints
 62
     0
100
AcDbPoint
 10
12.00000000000004
 20
7.937258068935703
 30
0.0
  0
POINT
  5
DC
330
D1
100
AcDbEntity
  8
Defpoints
 62
     0
100
AcDbPoint
 10
12.00000000000004
 20
21.08914845620487
 30
0.0
  0
ENDBLK
  5
D3
330
D1
100
AcDbEntity
  8
0
100
AcDbBlockEnd
  0
BLOCK
  5
E7
330
E6
100
AcDbEntity
  8
0
100
AcDbBlockBegin
  2
_D_1
 70
     0
 10
0.0
 20
0.0
 30
0.0
  3
_D_1
  1
_D_1
  0
LINE
  5
E9
330
E6
100
AcDbEntity
  8
치수문자_일반주서
 62
     0
370
    -2
100
AcDbLine
 10
75.50000000000003
 20
8.000000000000009
 30
0.0
 11
75.50000000000003
 21
36.81035365400765
 31
0.0
  0
LINE
  5
EA
330
E6
100
AcDbEntity
  8
치수문자_일반주서
 62
     0
370
    -2
100
AcDbLine
 10
-41.97499999999995
 20
6.412500000000001
 30
0.0
 11
-41.97499999999995
 21
36.81035365400765
 31
0.0
  0
LINE
  5
EB
330
E6
100
AcDbEntity
  8
치수문자_일반주서
 62
     0
370
    -2
100
AcDbLine
 10
72.19800000000004
 20
36.81035365400765
 30
0.0
 11
-38.67299999999995
 21
36.81035365400765
 31
0.0
  0
SOLID
  5
EC
330
E6
100
AcDbEntity
  8
치수문자_일반주서
 62
     0
100
AcDbTrace
 10
72.19800000000004
 20
36.26002032067431
 30
0.0
 11
72.19800000000004
 21
37.36068698734098
 31
0.0
 12
75.50000000000003
 22
36.81035365400765
 32
0.0
 13
75.50000000000003
 23
36.81035365400765
 33
0.0
  0
SOLID
  5
ED
330
E6
100
AcDbEntity
  8
치수문자_일반주서
 62
     0
100
AcDbTrace
 10
-38.67299999999995
 20
37.36068698734098
 30
0.0
 11
-38.67299999999995
 21
36.26002032067431
 31
0.0
 12
-41.97499999999995
 22
36.81035365400765
 32
0.0
 13
-41.97499999999995
 23
36.81035365400765
 33
0.0
  0
MTEXT
  5
EE
330
E6
100
AcDbEntity
  8
치수문자_일반주서
 62
     0
100
AcDbMText
 10
16.76250000000005
 20
41.18535365400765
 30
0.0
 40
3.5
 41
0.0
 71
     2
 72
     1
  1
\A1;117.48 [4 5/8]
  7
SLDTEXTSTYLE0
 73
     1
 44
1.0
  0
POINT
  5
EF
330
E6
100
AcDbEntity
  8
Defpoints
 62
     0
100
AcDbPoint
 10
75.50000000000003
 20
7.937500000000009
 30
0.0
  0
POINT
  5
F0
330
E6
100
AcDbEntity
  8
Defpoints
 62
     0
100
AcDbPoint
 10
-41.97499999999995
 20
6.350000000000001
 30
0.0
  0
POINT
  5
F1
330
E6
100
AcDbEntity
  8
Defpoints
 62
     0
100
AcDbPoint
 10
-41.97499999999995
 20
36.81035365400765
 30
0.0
  0
ENDBLK
  5
E8
330
E6
100
AcDbEntity
  8
0
100
AcDbBlockEnd
  0
BLOCK
  5
FB
330
FA
100
AcDbEntity
  8
0
100
AcDbBlockBegin
  2
_D_2
 70
     0
 10
0.0
 20
0.0
 30
0.0
  3
_D_2
  1
_D_2
  0
LINE
  5
FD
330
FA
100
AcDbEntity
  8
치수문자_일반주서
 62
     0
370
    -2
100
AcDbLine
 10
-40.44999999999996
 20
7.937500000000012
 30
0.0
 11
-52.64077283782719
 21
7.937499999999966
 31
0.0
  0
LINE
  5
FE
330
FA
100
AcDbEntity
  8
치수문자_일반주서
 62
     0
370
    -2
100
AcDbLine
 10
-40.44999999999996
 20
-7.937500000000016
 30
0.0
 11
-52.64077283782713
 21
-7.937500000000062
 31
0.0
  0
LINE
  5
FF
330
FA
100
AcDbEntity
  8
치수문자_일반주서
 62
     0
370
    -2
100
AcDbLine
 10
-52.64077283782717
 20
4.635499999999967
 30
0.0
 11
-52.64077283782714
 21
-4.635500000000063
 31
0.0
  0
SOLID
  5
100
330
FA
100
AcDbEntity
  8
치수문자_일반주서
 62
     0
100
AcDbTrace
 10
-52.09043950449384
 20
4.635499999999968
 30
0.0
 11
-53.19110617116051
 21
4.635499999999965
 31
0.0
 12
-52.64077283782719
 22
7.937499999999966
 32
0.0
 13
-52.64077283782719
 23
7.937499999999966
 33
0.0
  0
SOLID
  5
101
330
FA
100
AcDbEntity
  8
치수문자_일반주서
 62
     0
100
AcDbTrace
 10
-53.19110617116048
 20
-4.635500000000064
 30
0.0
 11
-52.09043950449381
 21
-4.635500000000061
 31
0.0
 12
-52.64077283782713
 22
-7.937500000000062
 32
0.0
 13
-52.64077283782713
 23
-7.937500000000062
 33
0.0
  0
MTEXT
  5
102
330
FA
100
AcDbEntity
  8
치수문자_일반주서
 62
     0
100
AcDbMText
 10
-57.01577283782716
 20
-0.0000000000000026
 30
0.0
 40
3.5
 41
0.0
 71
     2
 72
     1
  1
\A1;%%c15.88 [5/8]
  7
SLDTEXTSTYLE0
 11
-3.580687802255617E-15
 21
1.0
 31
0.0
 73
     1
 44
1.0
  0
POINT
  5
103
330
FA
100
AcDbEntity
  8
Defpoints
 62
     0
100
AcDbPoint
 10
-40.38749999999996
 20
7.937500000000012
 30
0.0
  0
POINT
  5
104
330
FA
100
AcDbEntity
  8
Defpoints
 62
     0
100
AcDbPoint
 10
-40.38749999999996
 20
-7.937500000000016
 30
0.0
  0
POINT
  5
105
330
FA
100
AcDbEntity
  8
Defpoints
 62
     0
100
AcDbPoint
 10
-52.64077283782713
 20
-7.937500000000062
 30
0.0
  0
ENDBLK
  5
FC
330
FA
100
AcDbEntity
  8
0
100
AcDbBlockEnd
  0
BLOCK
  5
10F
330
10E
100
AcDbEntity
  8
0
100
AcDbBlockBegin
  2
_D_3
 70
     0
 10
0.0
 20
0.0
 30
0.0
  3
_D_3
  1
_D_3
  0
LINE
  5
111
330
10E
100
AcDbEntity
  8
치수문자_일반주서
 62
     0
370
    -2
100
AcDbLine
 10
75.56250000000004
 20
7.937500000000009
 30
0.0
 11
91.28418285193538
 21
7.937500000000064
 31
0.0
  0
LINE
  5
112
330
10E
100
AcDbEntity
  8
치수문자_일반주서
 62
     0
370
    -2
100
AcDbLine
 10
75.56250000000003
 20
-7.937499999999991
 30
0.0
 11
91.28418285193544
 21
-7.937499999999936
 31
0.0
  0
LINE
  5
113
330
10E
100
AcDbEntity
  8
치수문자_일반주서
 62
     0
370
    -2
100
AcDbLine
 10
91.28418285193538
 20
7.937500000000064
 30
0.0
 11
91.28418285193524
 21
44.58183487003652
 31
0.0
  0
LINE
  5
114
330
10E
100
AcDbEntity
  8
치수문자_일반주서
 62
     0
370
    -2
100
AcDbLine
 10
91.2841828519354
 20
4.635500000000064
 30
0.0
 11
91.28418285193543
 21
-4.635499999999936
 31
0.0
  0
SOLID
  5
115
330
10E
100
AcDbEntity
  8
치수문자_일반주서
 62
     0
100
AcDbTrace
 10
91.83451618526873
 20
4.635500000000066
 30
0.0
 11
90.73384951860207
 21
4.635500000000063
 31
0.0
 12
91.28418285193538
 22
7.937500000000064
 32
0.0
 13
91.28418285193538
 23
7.937500000000064
 33
0.0
  0
SOLID
  5
116
330
10E
100
AcDbEntity
  8
치수문자_일반주서
 62
     0
100
AcDbTrace
 10
90.7338495186021
 20
-4.635499999999938
 30
0.0
 11
91.83451618526875
 21
-4.635499999999935
 31
0.0
 12
91.28418285193544
 22
-7.937499999999936
 32
0.0
 13
91.28418285193544
 23
-7.937499999999936
 33
0.0
  0
MTEXT
  5
117
330
10E
100
AcDbEntity
  8
치수문자_일반주서
 62
     0
100
AcDbMText
 10
86.9091828519353
 20
30.5818348700365
 30
0.0
 40
3.5
 41
0.0
 71
     2
 72
     1
  1
\A1;%%c15.88 [5/8]
  7
SLDTEXTSTYLE0
 11
-3.580687802255623E-15
 21
1.0
 31
0.0
 73
     1
 44
1.0
  0
POINT
  5
118
330
10E
100
AcDbEntity
  8
Defpoints
 62
     0
100
AcDbPoint
 10
75.50000000000004
 20
7.937500000000009
 30
0.0
  0
POINT
  5
119
330
10E
100
AcDbEntity
  8
Defpoints
 62
     0
100
AcDbPoint
 10
75.50000000000003
 20
-7.937499999999991
 30
0.0
  0
POINT
  5
11A
330
10E
100
AcDbEntity
  8
Defpoints
 62
     0
100
AcDbPoint
 10
91.28418285193544
 20
-7.937499999999932
 30
0.0
  0
ENDBLK
  5
110
330
10E
100
AcDbEntity
  8
0
100
AcDbBlockEnd
  0
BLOCK
  5
128
330
127
100
AcDbEntity
  8
0
100
AcDbBlockBegin
  2
SW_DOWELSYMBOL_0
 70
     0
 10
0.0
 20
0.0
 30
0.0
  3
SW_DOWELSYMBOL_0
  1
SW_DOWELSYMBOL_0
  0
CIRCLE
  5
12A
330
127
100
AcDbEntity
  8
해칭선
 62
     0
100
AcDbCircle
 10
0.0
 20
0.0
 30
0.0
 40
3.000000000000001
  0
HATCH
  5
12B
330
127
100
AcDbEntity
  8
0
  6
Continuous
 62
     0
370
     0
100
AcDbHatch
 10
0.0
 20
0.0
 30
0.0
210
0.0
220
0.0
230
1.0
  2
SOLID
 70
     1
 71
     0
 91
        1
 92
        0
 93
        3
 72
     2
 10
0.0
 20
0.0
 40
3.000000000000001
 50
0.0
 51
90.0
 73
     1
 72
     1
 10
0.0
 20
3.000000000000001
 11
0.0
 21
0.0
 72
     1
 10
0.0
 20
0.0
 11
3.000000000000003
 21
0.0
 97
        0
 75
     0
 76
     1
 98
        1
 10
0.0
 20
0.0
  0
HATCH
  5
12C
330
127
100
AcDbEntity
  8
0
  6
Continuous
 62
     0
370
     0
100
AcDbHatch
 10
0.0
 20
0.0
 30
0.0
210
0.0
220
0.0
230
1.0
  2
SOLID
 70
     1
 71
     0
 91
        1
 92
        0
 93
        3
 72
     2
 10
0.0
 20
0.0
 40
3.000000000000001
 50
180.0
 51
270.0000000000008
 73
     1
 72
     1
 10
0.0
 20
-3.000000000000001
 11
0.0
 21
0.0
 72
     1
 10
0.0
 20
0.0
 11
-3.000000000000001
 21
0.0
 97
        0
 75
     0
 76
     1
 98
        1
 10
0.0
 20
0.0
  0
ENDBLK
  5
129
330
127
100
AcDbEntity
  8
0
100
AcDbBlockEnd
  0
BLOCK
  5
1F9
330
1F8
100
AcDbEntity
  8
0
100
AcDbBlockBegin
  2
*D8
 70
     1
 10
0.0
 20
0.0
 30
0.0
  3
*D8
  1
*D8
  0
LINE
  5
1FB
330
1F8
100
AcDbEntity
  8
치수문자_일반주서
 62
     0
370
    -2
100
AcDbLine
 10
132.5157728378272
 20
20.72812500000001
 30
0.0
 11
132.5157728378272
 21
33.81873292769207
 31
0.0
  0
LINE
  5
1FC
330
1F8
100
AcDbEntity
  8
치수문자_일반주서
 62
     0
370
    -2
100
AcDbLine
 10
69.01577283782726
 20
20.52045385116342
 30
0.0
 11
69.01577283782726
 21
33.81873292769207
 31
0.0
  0
LINE
  5
1FD
330
1F8
100
AcDbEntity
  8
치수문자_일반주서
 62
     0
370
    -2
100
AcDbLine
 10
129.2137728378272
 20
33.81873292769207
 30
0.0
 11
72.31777283782725
 21
33.81873292769207
 31
0.0
  0
SOLID
  5
1FE
330
1F8
100
AcDbEntity
  8
치수문자_일반주서
 62
     0
100
AcDbTrace
 10
129.2137728378272
 20
33.26839959435873
 30
0.0
 11
129.2137728378272
 21
34.3690662610254
 31
0.0
 12
132.5157728378272
 22
33.81873292769207
 32
0.0
 13
132.5157728378272
 23
33.81873292769207
 33
0.0
  0
SOLID
  5
1FF
330
1F8
100
AcDbEntity
  8
치수문자_일반주서
 62
     0
100
AcDbTrace
 10
72.31777283782725
 20
34.3690662610254
 30
0.0
 11
72.31777283782725
 21
33.26839959435873
 31
0.0
 12
69.01577283782726
 22
33.81873292769207
 32
0.0
 13
69.01577283782726
 23
33.81873292769207
 33
0.0
  0
MTEXT
  5
200
330
1F8
100
AcDbEntity
  8
치수문자_일반주서
 62
     0
100
AcDbMText
 10
98.02277916961641
 20
38.19373292769207
 30
0.0
 40
3.5
 41
0.0
 71
     2
 72
     1
  1
\A1;63.5 [2 1/2]
  7
SLDTEXTSTYLE0
 73
     1
 44
1.0
  0
POINT
  5
201
330
1F8
100
AcDbEntity
  8
Defpoints
 62
     0
100
AcDbPoint
 10
132.5157728378272
 20
20.66562500000001
 30
0.0
  0
POINT
  5
202
330
1F8
100
AcDbEntity
  8
Defpoints
 62
     0
100
AcDbPoint
 10
69.01577283782726
 20
20.45795385116342
 30
0.0
  0
POINT
  5
203
330
1F8
100
AcDbEntity
  8
Defpoints
 62
     0
100
AcDbPoint
 10
69.01577283782726
 20
33.81873292769207
 30
0.0
  0
ENDBLK
  5
1FA
330
1F8
100
AcDbEntity
  8
0
100
AcDbBlockEnd
  0
BLOCK
  5
205
330
204
100
AcDbEntity
  8
0
100
AcDbBlockBegin
  2
*D9
 70
     1
 10
0.0
 20
0.0
 30
0.0
  3
*D9
  1
*D9
  0
LINE
  5
207
330
204
100
AcDbEntity
  8
치수문자_일반주서
 62
     0
370
    -2
100
AcDbLine
 10
132.5157728378272
 20
20.72812500000001
 30
0.0
 11
132.5157728378272
 21
49.53993812549484
 31
0.0
  0
LINE
  5
208
330
204
100
AcDbEntity
  8
치수문자_일반주서
 62
     0
370
    -2
100
AcDbLine
 10
15.04077283782723
 20
19.5375
 30
0.0
 11
15.04077283782723
 21
49.53993812549484
 31
0.0
  0
LINE
  5
209
330
204
100
AcDbEntity
  8
치수문자_일반주서
 62
     0
370
    -2
100
AcDbLine
 10
129.2137728378272
 20
49.53993812549484
 30
0.0
 11
18.34277283782723
 21
49.53993812549484
 31
0.0
  0
SOLID
  5
20A
330
204
100
AcDbEntity
  8
치수문자_일반주서
 62
     0
100
AcDbTrace
 10
129.2137728378272
 20
48.98960479216151
 30
0.0
 11
129.2137728378272
 21
50.09027145882818
 31
0.0
 12
132.5157728378272
 22
49.53993812549484
 32
0.0
 13
132.5157728378272
 23
49.53993812549484
 33
0.0
  0
SOLID
  5
20B
330
204
100
AcDbEntity
  8
치수문자_일반주서
 62
     0
100
AcDbTrace
 10
18.34277283782723
 20
50.09027145882818
 30
0.0
 11
18.34277283782723
 21
48.98960479216151
 31
0.0
 12
15.04077283782723
 22
49.53993812549484
 32
0.0
 13
15.04077283782723
 23
49.53993812549484
 33
0.0
  0
MTEXT
  5
20C
330
204
100
AcDbEntity
  8
치수문자_일반주서
 62
     0
100
AcDbMText
 10
73.77827283782723
 20
53.91493812549484
 30
0.0
 40
3.5
 41
0.0
 71
     2
 72
     1
  1
\A1;117.48 [4 5/8]
  7
SLDTEXTSTYLE0
 73
     1
 44
1.0
  0
POINT
  5
20D
330
204
100
AcDbEntity
  8
Defpoints
 62
     0
100
AcDbPoint
 10
132.5157728378272
 20
20.66562500000001
 30
0.0
  0
POINT
  5
20E
330
204
100
AcDbEntity
  8
Defpoints
 62
     0
100
AcDbPoint
 10
15.04077283782723
 20
19.475
 30
0.0
  0
POINT
  5
20F
330
204
100
AcDbEntity
  8
Defpoints
 62
     0
100
AcDbPoint
 10
15.04077283782723
 20
49.53993812549484
 30
0.0
  0
ENDBLK
  5
206
330
204
100
AcDbEntity
  8
0
100
AcDbBlockEnd
  0
BLOCK
  5
211
330
210
100
AcDbEntity
  8
0
100
AcDbBlockBegin
  2
*D10
 70
     1
 10
0.0
 20
0.0
 30
0.0
  3
*D10
  1
*D10
  0
LINE
  5
213
330
210
100
AcDbEntity
  8
치수문자_일반주서
 62
     0
370
    -2
100
AcDbLine
 10
16.56577283782723
 20
21.06250000000001
 30
0.0
 11
4.375000000000001
 21
21.06249999999996
 31
0.0
  0
LINE
  5
214
330
210
100
AcDbEntity
  8
치수문자_일반주서
 62
     0
370
    -2
100
AcDbLine
 10
16.56577283782723
 20
5.187499999999982
 30
0.0
 11
4.375000000000056
 21
5.187499999999936
 31
0.0
  0
LINE
  5
215
330
210
100
AcDbEntity
  8
치수문자_일반주서
 62
     0
370
    -2
100
AcDbLine
 10
4.375000000000012
 20
17.76049999999996
 30
0.0
 11
4.375000000000044
 21
8.489499999999936
 31
0.0
  0
SOLID
  5
216
330
210
100
AcDbEntity
  8
치수문자_일반주서
 62
     0
100
AcDbTrace
 10
4.925333333333346
 20
17.76049999999997
 30
0.0
 11
3.824666666666679
 21
17.76049999999996
 31
0.0
 12
4.375000000000001
 22
21.06249999999996
 32
0.0
 13
4.375000000000001
 23
21.06249999999996
 33
0.0
  0
SOLID
  5
217
330
210
100
AcDbEntity
  8
치수문자_일반주서
 62
     0
100
AcDbTrace
 10
3.824666666666711
 20
8.489499999999934
 30
0.0
 11
4.925333333333378
 21
8.489499999999937
 31
0.0
 12
4.375000000000056
 22
5.187499999999936
 32
0.0
 13
4.375000000000056
 23
5.187499999999936
 33
0.0
  0
MTEXT
  5
218
330
210
100
AcDbEntity
  8
치수문자_일반주서
 62
     0
100
AcDbMText
 10
0.0000000000000284
 20
13.125
 30
0.0
 40
3.5
 41
0.0
 71
     2
 72
     1
  1
\A1;%%c15.88 [5/8]
  7
SLDTEXTSTYLE0
 11
-3.468791308435129E-15
 21
1.0
 31
0.0
 73
     1
 44
1.0
  0
POINT
  5
219
330
210
100
AcDbEntity
  8
Defpoints
 62
     0
100
AcDbPoint
 10
16.62827283782723
 20
21.06250000000001
 30
0.0
  0
POINT
  5
21A
330
210
100
AcDbEntity
  8
Defpoints
 62
     0
100
AcDbPoint
 10
16.62827283782723
 20
5.187499999999982
 30
0.0
  0
POINT
  5
21B
330
210
100
AcDbEntity
  8
Defpoints
 62
     0
100
AcDbPoint
 10
4.375000000000057
 20
5.187499999999936
 30
0.0
  0
ENDBLK
  5
212
330
210
100
AcDbEntity
  8
0
100
AcDbBlockEnd
  0
BLOCK
  5
21D
330
21C
100
AcDbEntity
  8
0
100
AcDbBlockBegin
  2
*D11
 70
     1
 10
0.0
 20
0.0
 30
0.0
  3
*D11
  1
*D11
  0
LINE
  5
21F
330
21C
100
AcDbEntity
  8
치수문자_일반주서
 62
     0
370
    -2
100
AcDbLine
 10
132.5782728378272
 20
20.66562500000001
 30
0.0
 11
150.6850962269779
 21
20.66562500000007
 31
0.0
  0
LINE
  5
220
330
21C
100
AcDbEntity
  8
치수문자_일반주서
 62
     0
370
    -2
100
AcDbLine
 10
132.5782728378272
 20
5.584375000000007
 30
0.0
 11
150.6850962269779
 21
5.584375000000072
 31
0.0
  0
LINE
  5
221
330
21C
100
AcDbEntity
  8
치수문자_일반주서
 62
     0
370
    -2
100
AcDbLine
 10
150.6850962269779
 20
20.66562500000007
 30
0.0
 11
150.6850962269777
 21
57.49189504174333
 31
0.0
  0
LINE
  5
222
330
21C
100
AcDbEntity
  8
치수문자_일반주서
 62
     0
370
    -2
100
AcDbLine
 10
150.6850962269779
 20
17.36362500000007
 30
0.0
 11
150.6850962269779
 21
8.886375000000072
 31
0.0
  0
SOLID
  5
223
330
21C
100
AcDbEntity
  8
치수문자_일반주서
 62
     0
100
AcDbTrace
 10
151.2354295603112
 20
17.36362500000008
 30
0.0
 11
150.1347628936446
 21
17.36362500000007
 31
0.0
 12
150.6850962269779
 22
20.66562500000007
 32
0.0
 13
150.6850962269779
 23
20.66562500000007
 33
0.0
  0
SOLID
  5
224
330
21C
100
AcDbEntity
  8
치수문자_일반주서
 62
     0
100
AcDbTrace
 10
150.1347628936446
 20
8.88637500000007
 30
0.0
 11
151.2354295603113
 21
8.886375000000074
 31
0.0
 12
150.6850962269779
 22
5.584375000000072
 32
0.0
 13
150.6850962269779
 23
5.584375000000072
 33
0.0
  0
MTEXT
  5
225
330
21C
100
AcDbEntity
  8
치수문자_일반주서
 62
     0
100
AcDbMText
 10
146.3100962269778
 20
41.52314504174331
 30
0.0
 40
3.5
 41
0.0
 71
     2
 72
     1
  1
\A1;%%c15.08 [19/32]
  7
SLDTEXTSTYLE0
 11
-3.769145055005919E-15
 21
1.0
 31
0.0
 73
     1
 44
1.0
  0
POINT
  5
226
330
21C
100
AcDbEntity
  8
Defpoints
 62
     0
100
AcDbPoint
 10
132.5157728378272
 20
20.66562500000001
 30
0.0
  0
POINT
  5
227
330
21C
100
AcDbEntity
  8
Defpoints
 62
     0
100
AcDbPoint
 10
132.5157728378272
 20
5.584375000000007
 30
0.0
  0
POINT
  5
228
330
21C
100
AcDbEntity
  8
Defpoints
 62
     0
100
AcDbPoint
 10
150.6850962269779
 20
5.584375000000074
 30
0.0
  0
ENDBLK
  5
21E
330
21C
100
AcDbEntity
  8
0
100
AcDbBlockEnd
  0
BLOCK
  5
26C
330
26B
100
AcDbEntity
  8
0
100
AcDbBlockBegin
  2
*D12
 70
     1
 10
0.0
 20
0.0
 30
0.0
  3
*D12
  1
*D12
  0
LINE
  5
26E
330
26B
100
AcDbEntity
  8
치수문자_일반주서
 62
     0
370
    -2
100
AcDbLine
 10
251.7038993993175
 20
-41.16789777302785
 30
0.0
 11
251.7038993993175
 21
-28.07728984533578
 31
0.0
  0
LINE
  5
26F
330
26B
100
AcDbEntity
  8
치수문자_일반주서
 62
     0
370
    -2
100
AcDbLine
 10
188.2038993993175
 20
-41.37556892186443
 30
0.0
 11
188.2038993993175
 21
-28.07728984533578
 31
0.0
  0
LINE
  5
270
330
26B
100
AcDbEntity
  8
치수문자_일반주서
 62
     0
370
    -2
100
AcDbLine
 10
248.4018993993175
 20
-28.07728984533578
 30
0.0
 11
191.5058993993175
 21
-28.07728984533578
 31
0.0
  0
SOLID
  5
271
330
26B
100
AcDbEntity
  8
치수문자_일반주서
 62
     0
100
AcDbTrace
 10
248.4018993993175
 20
-28.62762317866912
 30
0.0
 11
248.4018993993175
 21
-27.52695651200245
 31
0.0
 12
251.7038993993175
 22
-28.07728984533578
 32
0.0
 13
251.7038993993175
 23
-28.07728984533578
 33
0.0
  0
SOLID
  5
272
330
26B
100
AcDbEntity
  8
치수문자_일반주서
 62
     0
100
AcDbTrace
 10
191.5058993993175
 20
-27.52695651200245
 30
0.0
 11
191.5058993993175
 21
-28.62762317866912
 31
0.0
 12
188.2038993993175
 22
-28.07728984533578
 32
0.0
 13
188.2038993993175
 23
-28.07728984533578
 33
0.0
  0
MTEXT
  5
273
330
26B
100
AcDbEntity
  8
치수문자_일반주서
 62
     0
100
AcDbMText
 10
217.2109057311067
 20
-23.70228984533578
 30
0.0
 40
3.5
 41
0.0
 71
     2
 72
     1
  1
\A1;63.5 [2 1/2]
  7
SLDTEXTSTYLE0
 73
     1
 44
1.0
  0
POINT
  5
274
330
26B
100
AcDbEntity
  8
Defpoints
 62
     0
100
AcDbPoint
 10
251.7038993993175
 20
-41.23039777302785
 30
0.0
  0
POINT
  5
275
330
26B
100
AcDbEntity
  8
Defpoints
 62
     0
100
AcDbPoint
 10
188.2038993993175
 20
-41.43806892186443
 30
0.0
  0
POINT
  5
276
330
26B
100
AcDbEntity
  8
Defpoints
 62
     0
100
AcDbPoint
 10
188.2038993993175
 20
-28.07728984533578
 30
0.0
  0
ENDBLK
  5
26D
330
26B
100
AcDbEntity
  8
0
100
AcDbBlockEnd
  0
BLOCK
  5
278
330
277
100
AcDbEntity
  8
0
100
AcDbBlockBegin
  2
*D13
 70
     1
 10
0.0
 20
0.0
 30
0.0
  3
*D13
  1
*D13
  0
LINE
  5
27A
330
277
100
AcDbEntity
  8
치수문자_일반주서
 62
     0
370
    -2
100
AcDbLine
 10
251.7038993993175
 20
-41.16789777302785
 30
0.0
 11
251.7038993993175
 21
-12.35608464753301
 31
0.0
  0
LINE
  5
27B
330
277
100
AcDbEntity
  8
치수문자_일반주서
 62
     0
370
    -2
100
AcDbLine
 10
134.2288993993175
 20
-42.35852277302785
 30
0.0
 11
134.2288993993175
 21
-12.35608464753301
 31
0.0
  0
LINE
  5
27C
330
277
100
AcDbEntity
  8
치수문자_일반주서
 62
     0
370
    -2
100
AcDbLine
 10
248.4018993993175
 20
-12.35608464753301
 30
0.0
 11
137.5308993993175
 21
-12.35608464753301
 31
0.0
  0
SOLID
  5
27D
330
277
100
AcDbEntity
  8
치수문자_일반주서
 62
     0
100
AcDbTrace
 10
248.4018993993175
 20
-12.90641798086634
 30
0.0
 11
248.4018993993175
 21
-11.80575131419968
 31
0.0
 12
251.7038993993175
 22
-12.35608464753301
 32
0.0
 13
251.7038993993175
 23
-12.35608464753301
 33
0.0
  0
SOLID
  5
27E
330
277
100
AcDbEntity
  8
치수문자_일반주서
 62
     0
100
AcDbTrace
 10
137.5308993993175
 20
-11.80575131419968
 30
0.0
 11
137.5308993993175
 21
-12.90641798086634
 31
0.0
 12
134.2288993993175
 22
-12.35608464753301
 32
0.0
 13
134.2288993993175
 23
-12.35608464753301
 33
0.0
  0
MTEXT
  5
27F
330
277
100
AcDbEntity
  8
치수문자_일반주서
 62
     0
100
AcDbMText
 10
192.9663993993175
 20
-7.98108464753301
 30
0.0
 40
3.5
 41
0.0
 71
     2
 72
     1
  1
\A1;117.48 [4 5/8]
  7
SLDTEXTSTYLE0
 73
     1
 44
1.0
  0
POINT
  5
280
330
277
100
AcDbEntity
  8
Defpoints
 62
     0
100
AcDbPoint
 10
251.7038993993175
 20
-41.23039777302785
 30
0.0
  0
POINT
  5
281
330
277
100
AcDbEntity
  8
Defpoints
 62
     0
100
AcDbPoint
 10
134.2288993993175
 20
-42.42102277302785
 30
0.0
  0
POINT
  5
282
330
277
100
AcDbEntity
  8
Defpoints
 62
     0
100
AcDbPoint
 10
134.2288993993175
 20
-12.35608464753301
 30
0.0
  0
ENDBLK
  5
279
330
277
100
AcDbEntity
  8
0
100
AcDbBlockEnd
  0
BLOCK
  5
284
330
283
100
AcDbEntity
  8
0
100
AcDbBlockBegin
  2
*D14
 70
     1
 10
0.0
 20
0.0
 30
0.0
  3
*D14
  1
*D14
  0
LINE
  5
286
330
283
100
AcDbEntity
  8
치수문자_일반주서
 62
     0
370
    -2
100
AcDbLine
 10
135.7538993993175
 20
-40.83352277302784
 30
0.0
 11
123.5631265614903
 21
-40.83352277302788
 31
0.0
  0
LINE
  5
287
330
283
100
AcDbEntity
  8
치수문자_일반주서
 62
     0
370
    -2
100
AcDbLine
 10
135.7538993993175
 20
-56.70852277302787
 30
0.0
 11
123.5631265614903
 21
-56.70852277302791
 31
0.0
  0
LINE
  5
288
330
283
100
AcDbEntity
  8
치수문자_일반주서
 62
     0
370
    -2
100
AcDbLine
 10
123.5631265614903
 20
-44.13552277302788
 30
0.0
 11
123.5631265614903
 21
-53.40652277302791
 31
0.0
  0
SOLID
  5
289
330
283
100
AcDbEntity
  8
치수문자_일반주서
 62
     0
100
AcDbTrace
 10
124.1134598948236
 20
-44.13552277302788
 30
0.0
 11
123.012793228157
 21
-44.13552277302788
 31
0.0
 12
123.5631265614903
 22
-40.83352277302788
 32
0.0
 13
123.5631265614903
 23
-40.83352277302788
 33
0.0
  0
SOLID
  5
28A
330
283
100
AcDbEntity
  8
치수문자_일반주서
 62
     0
100
AcDbTrace
 10
123.012793228157
 20
-53.40652277302791
 30
0.0
 11
124.1134598948236
 21
-53.40652277302791
 31
0.0
 12
123.5631265614903
 22
-56.70852277302791
 32
0.0
 13
123.5631265614903
 23
-56.70852277302791
 33
0.0
  0
MTEXT
  5
28B
330
283
100
AcDbEntity
  8
치수문자_일반주서
 62
     0
100
AcDbMText
 10
119.1881265614903
 20
-48.77102277302785
 30
0.0
 40
3.5
 41
0.0
 71
     2
 72
     1
  1
\A1;%%c15.88 [5/8]
  7
SLDTEXTSTYLE0
 11
-3.580687802255617E-15
 21
1.0
 31
0.0
 73
     1
 44
1.0
  0
POINT
  5
28C
330
283
100
AcDbEntity
  8
Defpoints
 62
     0
100
AcDbPoint
 10
135.8163993993175
 20
-40.83352277302784
 30
0.0
  0
POINT
  5
28D
330
283
100
AcDbEntity
  8
Defpoints
 62
     0
100
AcDbPoint
 10
135.8163993993175
 20
-56.70852277302787
 30
0.0
  0
POINT
  5
28E
330
283
100
AcDbEntity
  8
Defpoints
 62
     0
100
AcDbPoint
 10
123.5631265614903
 20
-56.70852277302791
 30
0.0
  0
ENDBLK
  5
285
330
283
100
AcDbEntity
  8
0
100
AcDbBlockEnd
  0
BLOCK
  5
290
330
28F
100
AcDbEntity
  8
0
100
AcDbBlockBegin
  2
*D15
 70
     1
 10
0.0
 20
0.0
 30
0.0
  3
*D15
  1
*D15
  0
LINE
  5
292
330
28F
100
AcDbEntity
  8
치수문자_일반주서
 62
     0
370
    -2
100
AcDbLine
 10
251.7663993993175
 20
-41.23039777302785
 30
0.0
 11
269.8732227884681
 21
-41.23039777302778
 31
0.0
  0
LINE
  5
293
330
28F
100
AcDbEntity
  8
치수문자_일반주서
 62
     0
370
    -2
100
AcDbLine
 10
251.7663993993175
 20
-56.31164777302784
 30
0.0
 11
269.8732227884682
 21
-56.31164777302777
 31
0.0
  0
LINE
  5
294
330
28F
100
AcDbEntity
  8
치수문자_일반주서
 62
     0
370
    -2
100
AcDbLine
 10
269.8732227884681
 20
-41.23039777302778
 30
0.0
 11
269.873222788468
 21
-4.404127731284525
 31
0.0
  0
LINE
  5
295
330
28F
100
AcDbEntity
  8
치수문자_일반주서
 62
     0
370
    -2
100
AcDbLine
 10
269.8732227884681
 20
-44.53239777302777
 30
0.0
 11
269.8732227884682
 21
-53.00964777302777
 31
0.0
  0
SOLID
  5
296
330
28F
100
AcDbEntity
  8
치수문자_일반주서
 62
     0
100
AcDbTrace
 10
270.4235561218015
 20
-44.53239777302777
 30
0.0
 11
269.3228894551348
 21
-44.53239777302777
 31
0.0
 12
269.8732227884681
 22
-41.23039777302778
 32
0.0
 13
269.8732227884681
 23
-41.23039777302778
 33
0.0
  0
SOLID
  5
297
330
28F
100
AcDbEntity
  8
치수문자_일반주서
 62
     0
100
AcDbTrace
 10
269.3228894551348
 20
-53.00964777302777
 30
0.0
 11
270.4235561218015
 21
-53.00964777302777
 31
0.0
 12
269.8732227884682
 22
-56.31164777302777
 32
0.0
 13
269.8732227884682
 23
-56.31164777302777
 33
0.0
  0
MTEXT
  5
298
330
28F
100
AcDbEntity
  8
치수문자_일반주서
 62
     0
100
AcDbMText
 10
265.4982227884681
 20
-20.37287773128454
 30
0.0
 40
3.5
 41
0.0
 71
     2
 72
     1
  1
\A1;%%c15.08 [19/32]
  7
SLDTEXTSTYLE0
 11
-3.769145055005920E-15
 21
1.0
 31
0.0
 73
     1
 44
1.0
  0
POINT
  5
299
330
28F
100
AcDbEntity
  8
Defpoints
 62
     0
100
AcDbPoint
 10
251.7038993993175
 20
-41.23039777302785
 30
0.0
  0
POINT
  5
29A
330
28F
100
AcDbEntity
  8
Defpoints
 62
     0
100
AcDbPoint
 10
251.7038993993175
 20
-56.31164777302784
 30
0.0
  0
POINT
  5
29B
330
28F
100
AcDbEntity
  8
Defpoints
 62
     0
100
AcDbPoint
 10
269.8732227884682
 20
-56.31164777302777
 30
0.0
  0
ENDBLK
  5
291
330
28F
100
AcDbEntity
  8
0
100
AcDbBlockEnd
  0
ENDSEC
  0
SECTION
  2
ENTITIES
  0
LINE
  5
96
330
1F
100
AcDbEntity
  8
외형선
  6
Continuous
370
    15
100
AcDbLine
 10
11.89252569611941
 20
-7.937500000000002
 30
0.0
 11
12.00000000000004
 21
-7.937500000000002
 31
0.0
  0
LINE
  5
97
330
1F
100
AcDbEntity
  8
외형선
  6
Continuous
370
    15
100
AcDbLine
 10
-40.38749999999996
 20
-7.937500000000002
 30
0.0
 11
11.49984901956938
 21
-7.937500000000002
 31
0.0
  0
LINE
  5
98
330
1F
100
AcDbEntity
  8
외형선
  6
Continuous
370
    15
100
AcDbLine
 10
11.49984901956938
 20
7.937499999999998
 30
0.0
 11
-11.02192500000004
 21
7.937499999999998
 31
0.0
  0
LINE
  5
99
330
1F
100
AcDbEntity
  8
외형선
  6
Continuous
370
    15
100
AcDbLine
 10
12.00000000000004
 20
7.937499999999998
 30
0.0
 11
11.89252569611931
 21
7.937499999999998
 31
0.0
  0
LINE
  5
9A
330
1F
100
AcDbEntity
  8
외형선
  6
Continuous
370
    15
100
AcDbLine
 10
-40.38749999999996
 20
7.937499999999996
 30
0.0
 11
-41.97499999999995
 21
6.350000000000001
 31
0.0
  0
LINE
  5
9B
330
1F
100
AcDbEntity
  8
외형선
  6
Continuous
370
    15
100
AcDbLine
 10
-41.97499999999995
 20
-6.350000000000005
 30
0.0
 11
-40.38749999999996
 21
-7.9375
 31
0.0
  0
LINE
  5
9C
330
1F
100
AcDbEntity
  8
0
  6
Continuous
 62
     1
370
    15
100
AcDbLine
 10
55.08267317700955
 20
-7.937500000000005
 30
0.0
 11
59.92230794948914
 21
-7.937500000000005
 31
0.0
  0
LINE
  5
9D
330
1F
100
AcDbEntity
  8
0
  6
Continuous
 62
     1
370
    15
100
AcDbLine
 10
16.73274638710062
 20
7.937500000000002
 30
0.0
 11
12.00000000000004
 21
7.937500000000002
 31
0.0
  0
LINE
  5
9E
330
1F
100
AcDbEntity
  8
0
  6
Continuous
 62
     1
370
    15
100
AcDbLine
 10
38.32678744253499
 20
7.937500000000002
 30
0.0
 11
33.48669132663402
 21
7.937500000000002
 31
0.0
  0
LINE
  5
9F
330
1F
100
AcDbEntity
  8
0
  6
Continuous
 62
     1
370
    15
100
AcDbLine
 10
64.0298119878376
 20
-2.336176987399761
 30
0.0
 11
64.11336578122508
 21
-2.381254812377361
 31
0.0
  0
LINE
  5
A0
330
1F
100
AcDbEntity
  8
0
  6
Continuous
 62
     1
370
    15
100
AcDbLine
 10
33.48669132663399
 20
-7.937500000000005
 30
0.0
 11
38.32678744253491
 21
-7.937500000000005
 31
0.0
  0
LINE
  5
A1
330
1F
100
AcDbEntity
  8
0
  6
Continuous
 62
     1
370
    15
100
AcDbLine
 10
12.00000000000004
 20
-7.937500000000005
 30
0.0
 11
16.7327463871006
 21
-7.937500000000005
 31
0.0
  0
LINE
  5
A2
330
1F
100
AcDbEntity
  8
0
  6
Continuous
 62
     1
370
    15
100
AcDbLine
 10
59.92230794948915
 20
7.937500000000002
 30
0.0
 11
55.0826731770097
 21
7.937500000000002
 31
0.0
  0
SPLINE
  5
A3
330
1F
100
AcDbEntity
  8
외형선
  6
Continuous
370
    15
100
AcDbSpline
210
0.0
220
0.0
230
1.0
 70
     8
 71
     3
 72
     8
 73
     4
 74
     0
 42
0.000000001
 43
0.00000001
 40
0.0
 40
0.0
 40
0.0
 40
0.0
 40
1.0
 40
1.0
 40
1.0
 40
1.0
 10
12.00000000000005
 20
-7.471883173452171
 30
0.0
 10
11.83320715512114
 20
-7.439438253975602
 30
0.0
 10
11.66643518006682
 20
-7.405349776113071
 30
0.0
 10
11.49984901956939
 20
-7.369653495820892
 30
0.0
  0
SPLINE
  5
A4
330
1F
100
AcDbEntity
  8
외형선
  6
Continuous
370
    15
100
AcDbSpline
210
0.0
220
0.0
230
1.0
 70
     8
 71
     3
 72
     8
 73
     4
 74
     0
 42
0.000000001
 43
0.00000001
 40
0.0
 40
0.0
 40
0.0
 40
0.0
 40
1.0
 40
1.0
 40
1.0
 40
1.0
 10
12.00000000000005
 20
-0.0619725513672657
 30
0.0
 10
11.83320715512114
 20
0.0341688041631585
 30
0.0
 10
11.66643518006681
 20
0.130319777225967
 30
0.0
 10
11.49984901956938
 20
0.2263852435142853
 30
0.0
  0
SPLINE
  5
A5
330
1F
100
AcDbEntity
  8
외형선
  6
Continuous
370
    15
100
AcDbSpline
210
0.0
220
0.0
230
1.0
 70
    24
 71
     3
 72
    20
 73
    16
 74
     0
 42
0.000000001
 43
0.00000001
 40
0.0
 40
0.0
 40
0.0
 40
0.0
 40
0.0977262149619989
 40
0.1752342533980239
 40
0.2527422918340489
 40
0.3302503302700744
 40
0.4077583687061
 40
0.4852664071421254
 40
0.5627744455781508
 40
0.6402824840141759
 40
0.7177905224502009
 40
0.7952985608862251
 40
0.8728065993222492
 40
0.9503146377582761
 40
1.0
 40
1.0
 40
1.0
 40
1.0
 10
12.00000000000005
 20
-7.47188317345217
 30
0.0
 10
12.00000000000006
 20
-7.190275128447434
 30
0.0
 10
12.0000000000001
 20
-6.685319773976057
 30
0.0
 10
12.00000000000006
 20
-5.856897371987015
 30
0.0
 10
12.00000000000004
 20
-5.065741121525689
 30
0.0
 10
12.00000000000003
 20
-4.259274233942731
 30
0.0
 10
12.00000000000005
 20
-3.462549244150196
 30
0.0
 10
12.00000000000004
 20
-2.698473700881732
 30
0.0
 10
12.00000000000003
 20
-1.987152923985666
 30
0.0
 10
12.00000000000004
 20
-1.351236790354045
 30
0.0
 10
12.00000000000007
 20
-0.8058706190000188
 30
0.0
 10
12.00000000000002
 20
-0.3687667874178543
 30
0.0
 10
12.00000000000001
 20
-0.0546540604406345
 30
0.0
 10
12.00000000000002
 20
0.1242508103223037
 30
0.0
 10
12.00000000000004
 20
0.141697797700235
 30
0.0
 10
12.00000000000003
 20
0.148513087513073
 30
0.0
  0
LINE
  5
A6
330
1F
100
AcDbEntity
  8
외형선
  6
Continuous
370
    15
100
AcDbLine
 10
11.49984901956938
 20
-7.937500000000002
 30
0.0
 11
11.49984901956938
 21
-7.934269582777589
 31
0.0
  0
SPLINE
  5
A7
330
1F
100
AcDbEntity
  8
외형선
  6
Continuous
370
    15
100
AcDbSpline
210
0.0
220
0.0
230
1.0
 70
     8
 71
     3
 72
     8
 73
     4
 74
     0
 42
0.000000001
 43
0.00000001
 40
0.0
 40
0.0
 40
0.0
 40
0.0
 40
1.0
 40
1.0
 40
1.0
 40
1.0
 10
12.00000000000005
 20
7.937258068935205
 30
0.0
 10
11.83320715512114
 20
7.938008721747849
 30
0.0
 10
11.66643518006681
 20
7.937011975078234
 30
0.0
 10
11.49984901956938
 20
7.93427097920905
 30
0.0
  0
LINE
  5
A8
330
1F
100
AcDbEntity
  8
외형선
  6
Continuous
370
    15
100
AcDbLine
 10
11.49984901956939
 20
2.948184615955816
 30
0.0
 11
11.49984901956938
 21
7.937499999999998
 31
0.0
  0
SPLINE
  5
A9
330
1F
100
AcDbEntity
  8
외형선
  6
Continuous
370
    15
100
AcDbSpline
210
0.0
220
0.0
230
1.0
 70
     8
 71
     3
 72
     8
 73
     4
 74
     0
 42
0.000000001
 43
0.00000001
 40
0.0
 40
0.0
 40
0.0
 40
0.0
 40
1.0
 40
1.0
 40
1.0
 40
1.0
 10
12.00000000000005
 20
2.67859442474641
 30
0.0
 10
11.83320715512114
 20
2.769098849627357
 30
0.0
 10
11.66643518006682
 20
2.859009798915326
 30
0.0
 10
11.49984901956939
 20
2.948239067907338
 30
0.0
  0
LINE
  5
AA
330
1F
100
AcDbEntity
  8
외형선
  6
Continuous
370
    15
100
AcDbLine
 10
11.49984901956939
 20
-7.369675279158616
 30
0.0
 11
11.49984901956938
 21
0.2264341798632553
 31
0.0
  0
LINE
  5
AB
330
1F
100
AcDbEntity
  8
외형선
  6
Continuous
370
    15
100
AcDbLine
 10
11.89252569611941
 20
-7.936616191979034
 30
0.0
 11
11.49984901956938
 21
-7.934270979209055
 31
0.0
  0
LINE
  5
AC
330
1F
100
AcDbEntity
  8
외형선
  6
Continuous
370
    15
100
AcDbLine
 10
-40.38749999999996
 20
-0.000000000000002
 30
0.0
 11
-40.38749999999996
 21
7.937499999999998
 31
0.0
  0
LINE
  5
AD
330
1F
100
AcDbEntity
  8
외형선
  6
Continuous
370
    15
100
AcDbLine
 10
-40.38749999999996
 20
-7.937500000000002
 30
0.0
 11
-40.38749999999996
 21
-0.000000000000002
 31
0.0
  0
LINE
  5
AE
330
1F
100
AcDbEntity
  8
외형선
  6
Continuous
370
    15
100
AcDbLine
 10
12.00000000000004
 20
-7.937500000000002
 30
0.0
 11
12.00000000000004
 21
-7.471883173452169
 31
0.0
  0
LINE
  5
AF
330
1F
100
AcDbEntity
  8
외형선
  6
Continuous
370
    15
100
AcDbLine
 10
12.00000000000002
 20
-0.0619725513673077
 30
0.0
 11
12.00000000000004
 21
2.678594424746415
 31
0.0
  0
LINE
  5
B0
330
1F
100
AcDbEntity
  8
외형선
  6
Continuous
370
    15
100
AcDbLine
 10
12.00000000000002
 20
7.937258068935352
 30
0.0
 11
12.00000000000004
 21
7.937499999999998
 31
0.0
  0
LINE
  5
B1
330
1F
100
AcDbEntity
  8
외형선
  6
Continuous
370
    15
100
AcDbLine
 10
-41.97499999999995
 20
-0.000000000000002
 30
0.0
 11
-41.97499999999995
 21
6.350000000000001
 31
0.0
  0
LINE
  5
B2
330
1F
100
AcDbEntity
  8
외형선
  6
Continuous
370
    15
100
AcDbLine
 10
-41.97499999999995
 20
-6.350000000000005
 30
0.0
 11
-41.97499999999995
 21
-0.000000000000002
 31
0.0
  0
SPLINE
  5
B3
330
1F
100
AcDbEntity
  8
외형선
  6
Continuous
370
    15
100
AcDbSpline
210
0.0
220
0.0
230
1.0
 70
    24
 71
     3
 72
    15
 73
    11
 74
     0
 42
0.000000001
 43
0.00000001
 40
0.0
 40
0.0
 40
0.0
 40
0.0
 40
0.0575893862106882
 40
0.1988955672652061
 40
0.3362193493366757
 40
0.477525530391192
 40
0.6148493124626664
 40
0.7561554935171879
 40
0.8767452337609499
 40
1.0
 40
1.0
 40
1.0
 40
1.0
 10
12.00000000000006
 20
2.760338243523508
 30
0.0
 10
12.00000000000006
 20
2.82626768015585
 30
0.0
 10
12.00000000000005
 20
3.053967149820126
 30
0.0
 10
12.00000000000006
 20
3.546919845308292
 30
0.0
 10
12.0
 20
4.221934114889565
 30
0.0
 10
12.00000000000001
 20
4.960680336440662
 30
0.0
 10
11.99999999999998
 20
5.747740473124428
 30
0.0
 10
12.00000000000006
 20
6.515803630113716
 30
0.0
 10
12.00000000000003
 20
7.256602768766409
 30
0.0
 10
12.00000000000002
 20
7.708725853958024
 30
0.0
 10
12.00000000000002
 20
7.937258068935352
 30
0.0
  0
SPLINE
  5
B4
330
1F
100
AcDbEntity
  8
0
  6
Continuous
 62
     1
370
    15
100
AcDbSpline
210
0.0
220
0.0
230
1.0
 70
     8
 71
     3
 72
    21
 73
    17
 74
     0
 42
0.000000001
 43
0.00000001
 40
0.0
 40
0.0
 40
0.0
 40
0.0
 40
0.0744298968159606
 40
0.1488602543133751
 40
0.2232913709975337
 40
0.2977235451149743
 40
0.3721570745519747
 40
0.4465922567333083
 40
0.5234239959933178
 40
0.6002558979674909
 40
0.6770879693614846
 40
0.7539202168763335
 40
0.8307526472082709
 40
0.9075852670485441
 40
0.9844180830832356
 40
1.0
 40
1.0
 40
1.0
 40
1.0
 10
12.00000000000004
 20
2.678594424746418
 30
0.0
 10
12.86105201119317
 20
2.201470044317941
 30
0.0
 10
14.58316136303318
 20
1.247218330314973
 30
0.0
 10
17.16634020705031
 20
-0.2533347449253923
 30
0.0
 10
19.7495511112307
 20
-1.738205375889746
 30
0.0
 10
22.33280410441476
 20
-3.16370389694853
 30
0.0
 10
24.91612088022551
 20
-4.477350153067053
 30
0.0
 10
27.52718154777255
 20
-5.645892289193317
 30
0.0
 10
30.16610854620405
 20
-6.621000012015627
 30
0.0
 10
32.83273403508687
 20
-7.357929216979846
 30
0.0
 10
35.49937536389042
 20
-7.819307544073838
 30
0.0
 10
38.16602168132428
 20
-7.985950190254434
 30
0.0
 10
40.8326762095447
 20
-7.858618752311723
 30
0.0
 10
43.4993385838888
 20
-7.415919664717769
 30
0.0
 10
45.4573858098591
 20
-6.943195819208376
 30
0.0
 10
46.52654603999279
 20
-6.554521202228515
 30
0.0
 10
46.70681562845118
 20
-6.488987326881858
 30
0.0
  0
SPLINE
  5
B5
330
1F
100
AcDbEntity
  8
0
  6
Continuous
 62
     1
370
    15
100
AcDbSpline
210
0.0
220
0.0
230
1.0
 70
     8
 71
     3
 72
    24
 73
    20
 74
     0
 42
0.000000001
 43
0.00000001
 40
0.0
 40
0.0
 40
0.0
 40
0.0
 40
0.0212750991898892
 40
0.0831713090096456
 40
0.1450673446449653
 40
0.2069632114687305
 40
0.2688589148584193
 40
0.3307544601959609
 40
0.3926498528675926
 40
0.4545450982637139
 40
0.5164402017787371
 40
0.5783351688109466
 40
0.6402300047623485
 40
0.7001941996966188
 40
0.7601570631975484
 40
0.820118834867385
 40
0.8800797546801612
 40
0.9400400629001319
 40
1.0
 40
1.0
 40
1.0
 40
1.0
 10
55.08267317700957
 20
-7.903852490039111
 30
0.0
 10
54.77713873897183
 20
-7.913014987064231
 30
0.0
 10
53.58270486431321
 20
-7.948834179471964
 30
0.0
 10
51.49937565091449
 20
-7.704852778963914
 30
0.0
 10
48.8326879091326
 20
-7.179465575205987
 30
0.0
 10
46.16600900388305
 20
-6.364487856446771
 30
0.0
 10
43.49933850572714
 20
-5.316264417944529
 30
0.0
 10
40.83267623048795
 20
-4.067201091863661
 30
0.0
 10
38.16602167571257
 20
-2.665994200946808
 30
0.0
 10
35.49937536539406
 20
-1.16469835157033
 30
0.0
 10
32.83273403468397
 20
0.3802470572635082
 30
0.0
 10
30.16610854631215
 20
1.910943805535827
 30
0.0
 10
27.52718154774457
 20
3.354778998410695
 30
0.0
 10
24.91612088023292
 20
4.661687558138726
 30
0.0
 10
22.33280410441279
 20
5.790233424975767
 30
0.0
 10
19.74955111123128
 20
6.716358756248773
 30
0.0
 10
17.16634020705021
 20
7.400655348067978
 30
0.0
 10
14.58316136303331
 20
7.844473448949819
 30
0.0
 10
12.86105201119328
 20
7.906329926082995
 30
0.0
 10
12.00000000000011
 20
7.937258068935209
 30
0.0
  0
SPLINE
  5
B6
330
1F
100
AcDbEntity
  8
외형선
  6
Continuous
370
    15
100
AcDbSpline
210
0.0
220
0.0
230
1.0
 70
    24
 71
     3
 72
    15
 73
    11
 74
     0
 42
0.000000001
 43
0.00000001
 40
0.0
 40
0.0
 40
0.0
 40
0.0
 40
0.1424350860838931
 40
0.2893115053457447
 40
0.4269301910643776
 40
0.5685398279918028
 40
0.7061585137104369
 40
0.8477681506378629
 40
0.9853868363564954
 40
1.0
 40
1.0
 40
1.0
 40
1.0
 10
12.00000000000004
 20
7.937258068935703
 30
0.0
 10
12.00000000000002
 20
7.673096096159905
 30
0.0
 10
12.00000000000002
 20
7.136535196032717
 30
0.0
 10
12.00000000000009
 20
6.312876351650401
 30
0.0
 10
12.00000000000005
 20
5.499251114374005
 30
0.0
 10
12.00000000000003
 20
4.730443212549345
 30
0.0
 10
12.00000000000008
 20
4.001493858290348
 30
0.0
 10
11.99999999999998
 20
3.360369581442106
 30
0.0
 10
12.00000000000001
 20
2.940846727443287
 30
0.0
 10
12.00000000000004
 20
2.776139001655715
 30
0.0
 10
12.00000000000004
 20
2.760328243523508
 30
0.0
  0
SPLINE
  5
B7
330
1F
100
AcDbEntity
  8
0
  6
Continuous
 62
     1
370
    15
100
AcDbSpline
210
0.0
220
0.0
230
1.0
 70
     8
 71
     3
 72
    28
 73
    24
 74
     0
 42
0.000000001
 43
0.00000001
 40
0.0
 40
0.0
 40
0.0
 40
0.0
 40
0.0084080403745958
 40
0.0585011437573911
 40
0.1085949588064502
 40
0.1586896860030874
 40
0.208785525518019
 40
0.2604942789169958
 40
0.3122031418247075
 40
0.3639121187541479
 40
0.4156212142151997
 40
0.4673304327145146
 40
0.5190397787553885
 40
0.5707492568376412
 40
0.6224588714574937
 40
0.6741686271074498
 40
0.7258785282761697
 40
0.7775885794483545
 40
0.829298785104622
 40
0.8810091497213891
 40
0.932719677770746
 40
0.9844303737203455
 40
1.0
 40
1.0
 40
1.0
 40
1.0
 10
16.73274638710062
 20
7.917960591000271
 30
0.0
 10
16.8772750316228
 20
7.924157399336896
 30
0.0
 10
17.88287094143787
 20
7.9672733168619
 30
0.0
 10
19.74955138940973
 20
7.776683060982353
 30
0.0
 10
22.33280402987883
 20
7.335160207810379
 30
0.0
 10
24.91612090018367
 20
6.609666813306804
 30
0.0
 10
27.52718154220724
 20
5.648168250338531
 30
0.0
 10
30.16610854781407
 20
4.467751770423398
 30
0.0
 10
32.83273403428768
 20
3.107896410486171
 30
0.0
 10
35.49937536547728
 20
1.631342477665864
 30
0.0
 10
38.16602167577604
 20
0.0936430076118589
 30
0.0
 10
40.83267623015081
 20
-1.447580066087878
 30
0.0
 10
43.49933850701248
 20
-2.93451152118651
 30
0.0
 10
46.16600899907881
 20
-4.311390916799619
 30
0.0
 10
48.83268792706421
 20
-5.526570110077352
 30
0.0
 10
51.49937558399201
 20
-6.534505415535871
 30
0.0
 10
54.16607224421578
 20
-7.297278954664842
 30
0.0
 10
56.83277818297191
 20
-7.786712731825269
 30
0.0
 10
59.49949368910258
 20
-7.982844490144283
 30
0.0
 10
62.16621899456368
 20
-7.884308602615293
 30
0.0
 10
64.83295454362532
 20
-7.472439688105662
 30
0.0
 10
66.87842626386389
 20
-6.992043362001973
 30
0.0
 10
68.03498676889811
 20
-6.578674068750085
 30
0.0
 10
68.30263136744553
 20
-6.483014517812049
 30
0.0
  0
SPLINE
  5
B8
330
1F
100
AcDbEntity
  8
0
  6
Continuous
 62
     1
370
    15
100
AcDbSpline
210
0.0
220
0.0
230
1.0
 70
     8
 71
     3
 72
    26
 73
    22
 74
     0
 42
0.000000001
 43
0.00000001
 40
0.0
 40
0.0
 40
0.0
 40
0.0
 40
0.0529229277415106
 40
0.1058456699600243
 40
0.1587682312135029
 40
0.2116906160648233
 40
0.2646128290816503
 40
0.3175348748363216
 40
0.3704567579057198
 40
0.4233784828711527
 40
0.4763000543182285
 40
0.5292214768367327
 40
0.5821427550205068
 40
0.6350638934673216
 40
0.6879848967787537
 40
0.7409057695600632
 40
0.7938265164200689
 40
0.8467471419710203
 40
0.8996676508284778
 40
0.9525880476111841
 40
1.0
 40
1.0
 40
1.0
 40
1.0
 10
75.50000000000004
 20
-7.937499999999991
 30
0.0
 10
74.6110736743057
 20
-7.835619098608191
 30
0.0
 10
72.83322413907639
 20
-7.690236410134688
 30
0.0
 10
70.16645681231778
 20
-7.104265997579486
 30
0.0
 10
67.49970028749382
 20
-6.273146504682325
 30
0.0
 10
64.83295446297727
 20
-5.201049129511853
 30
0.0
 10
62.16621901617309
 20
-3.935418269031361
 30
0.0
 10
59.49949368331237
 20
-2.521783059271165
 30
0.0
 10
56.83277818452341
 20
-1.013681146879019
 30
0.0
 10
54.16607224379995
 20
0.5324659171023021
 30
0.0
 10
51.49937558410386
 20
2.058633355498702
 30
0.0
 10
48.83268792703262
 20
3.50759421917463
 30
0.0
 10
46.16600899909342
 20
4.82500145570704
 30
0.0
 10
43.49933850698564
 20
5.961457848129744
 30
0.0
 10
40.83267623024358
 20
6.874305745827459
 30
0.0
 10
38.16602167543162
 20
7.529446330301265
 30
0.0
 10
35.49937536676211
 20
7.90180320124021
 30
0.0
 10
32.83273402949257
 20
7.979303981761615
 30
0.0
 10
30.16610856570955
 20
7.751983348004178
 30
0.0
 10
27.59197841515845
 20
7.271967100402091
 30
0.0
 10
25.9068082153642
 20
6.748253225565542
 30
0.0
 10
25.11048270380753
 20
6.500772751878394
 30
0.0
  0
LINE
  5
B9
330
1F
100
AcDbEntity
  8
0
  6
Continuous
 62
     1
370
    15
100
AcDbLine
 10
75.50000000000003
 20
-7.937499999999991
 30
0.0
 11
75.50000000000004
 21
-7.188845709717485
 31
0.0
  0
SPLINE
  5
BA
330
1F
100
AcDbEntity
  8
0
  6
Continuous
 62
     1
370
    15
100
AcDbSpline
210
0.0
220
0.0
230
1.0
 70
     8
 71
     3
 72
    21
 73
    17
 74
     0
 42
0.000000001
 43
0.00000001
 40
0.0
 40
0.0
 40
0.0
 40
0.0
 40
0.0674113375801324
 40
0.1391476909844097
 40
0.2108842275696349
 40
0.282620953573413
 40
0.3543578752281932
 40
0.4260949987610911
 40
0.497832330393731
 40
0.5695698763420725
 40
0.6413076428162461
 40
0.7130456360203806
 40
0.7847838621524493
 40
0.8565223274040893
 40
0.9282610379604446
 40
1.0
 40
1.0
 40
1.0
 40
1.0
 10
38.32678744253499
 20
7.929062974828454
 30
0.0
 10
39.16208295402545
 20
7.907065415192888
 30
0.0
 10
40.88626535250374
 20
7.861658963689941
 30
0.0
 10
43.49933853220077
 20
7.42469421147166
 30
0.0
 10
46.16600899233698
 20
6.725015753278911
 30
0.0
 10
48.83268792884296
 20
5.766501334824362
 30
0.0
 10
51.4993755836188
 20
4.593490970791485
 30
0.0
 10
54.16607224392989
 20
3.247730299094417
 30
0.0
 10
56.83277818448856
 20
1.780284122816711
 30
0.0
 10
59.4994936833217
 20
0.2460601769630044
 30
0.0
 10
62.16621901617064
 20
-1.297484697559516
 30
0.0
 10
64.83295446297791
 20
-2.791999891354792
 30
0.0
 10
67.49970028749368
 20
-4.183192944669043
 30
0.0
 10
70.16645681231779
 20
-5.41231119228215
 30
0.0
 10
72.83322413907644
 20
-6.457800306635801
 30
0.0
 10
74.61107367430574
 20
-6.945163623945172
 30
0.0
 10
75.50000000000006
 20
-7.188845709717486
 30
0.0
  0
LINE
  5
BB
330
1F
100
AcDbEntity
  8
0
  6
Continuous
 62
     1
370
    15
100
AcDbLine
 10
75.50000000000004
 20
-7.188845709717485
 30
0.0
 11
75.50000000000004
 21
0.6800957097175774
 31
0.0
  0
SPLINE
  5
BC
330
1F
100
AcDbEntity
  8
0
  6
Continuous
 62
     1
370
    15
100
AcDbSpline
210
0.0
220
0.0
230
1.0
 70
     8
 71
     3
 72
    18
 73
    14
 74
     0
 42
0.000000001
 43
0.00000001
 40
0.0
 40
0.0
 40
0.0
 40
0.0
 40
0.0926181019726132
 40
0.1852358792695408
 40
0.2778533398674727
 40
0.3704704917516999
 40
0.4630873429158932
 40
0.5557039013619006
 40
0.6483201750995246
 40
0.7409361721463112
 40
0.8335519005273334
 40
0.9261673682749736
 40
1.0
 40
1.0
 40
1.0
 40
1.0
 10
75.50000000000006
 20
0.6800957097175775
 30
0.0
 10
74.61107367430596
 20
1.18893654316619
 30
0.0
 10
72.83322413907709
 20
2.20661642630578
 30
0.0
 10
70.16645681231506
 20
3.643544668033649
 30
0.0
 10
67.49970028750373
 20
4.945648466307079
 30
0.0
 10
64.83295446294044
 20
6.061784634169903
 30
0.0
 10
62.16621901631048
 20
6.950666920857556
 30
0.0
 10
59.49949368279964
 20
7.578974383831817
 30
0.0
 10
56.83277818643703
 20
7.922509023962475
 30
0.0
 10
54.16607223665825
 20
7.970911019599604
 30
0.0
 10
51.49937561075677
 20
7.712908021515664
 30
0.0
 10
49.01295751517574
 20
7.228599606697136
 30
0.0
 10
47.41543892828672
 20
6.71625282920788
 30
0.0
 10
46.70681562845128
 20
6.488987326881852
 30
0.0
  0
SPLINE
  5
BD
330
1F
100
AcDbEntity
  8
0
  6
Continuous
 62
     1
370
    15
100
AcDbSpline
210
0.0
220
0.0
230
1.0
 70
     8
 71
     3
 72
    10
 73
     6
 74
     0
 42
0.000000001
 43
0.00000001
 40
0.0
 40
0.0
 40
0.0
 40
0.0
 40
0.3705210988481206
 40
0.7410408988228112
 40
1.0
 40
1.0
 40
1.0
 40
1.0
 10
75.50000000000004
 20
7.937500000000009
 30
0.0
 10
74.611073686771
 20
7.833904461374183
 30
0.0
 10
72.8332241764721
 20
7.685092504443374
 30
0.0
 10
70.43410143291008
 20
7.181069974007192
 30
0.0
 10
68.92390552601574
 20
6.686481516110451
 30
0.0
 10
68.30263136744553
 20
6.483014517812046
 30
0.0
  0
SPLINE
  5
BE
330
1F
100
AcDbEntity
  8
0
  6
Continuous
 62
     1
370
    15
100
AcDbSpline
210
0.0
220
0.0
230
1.0
 70
     8
 71
     3
 72
    16
 73
    12
 74
     0
 42
0.000000001
 43
0.00000001
 40
0.0
 40
0.0
 40
0.0
 40
0.0
 40
0.0304346618320602
 40
0.1545376473619248
 40
0.2786403700671957
 40
0.3988720459701028
 40
0.5191010522722241
 40
0.6393278693899123
 40
0.7595529784849695
 40
0.8797768613011102
 40
1.0
 40
1.0
 40
1.0
 40
1.0
 10
33.486691326634
 20
-7.909901697204502
 30
0.0
 10
33.26870540857257
 20
-7.918225648018258
 30
0.0
 10
32.16184142824883
 20
-7.960492054085545
 30
0.0
 10
30.16610882604767
 20
-7.740422334425533
 30
0.0
 10
27.52718147538795
 20
-7.25093341048811
 30
0.0
 10
24.91612089936003
 20
-6.481183953287936
 30
0.0
 10
22.33280409928796
 20
-5.497567355225664
 30
0.0
 10
19.74955111260395
 20
-4.318780622650548
 30
0.0
 10
17.16634020668419
 20
-2.988356680612674
 30
0.0
 10
14.5831613631248
 20
-1.552773499764856
 30
0.0
 10
12.86105201122377
 20
-0.5589051755836493
 30
0.0
 10
12.00000000000011
 20
-0.0619725513672945
 30
0.0
  0
LINE
  5
BF
330
1F
100
AcDbEntity
  8
0
  6
Continuous
 62
     1
370
    15
100
AcDbLine
 10
75.50000000000004
 20
3.365175123507856
 30
0.0
 11
75.50000000000003
 21
7.937500000000009
 31
0.0
  0
SPLINE
  5
C0
330
1F
100
AcDbEntity
  8
0
  6
Continuous
 62
     1
370
    15
100
AcDbSpline
210
0.0
220
0.0
230
1.0
 70
     8
 71
     3
 72
    13
 73
     9
 74
     0
 42
0.000000001
 43
0.00000001
 40
0.0
 40
0.0
 40
0.0
 40
0.0
 40
0.1970306951370304
 40
0.3940626097892151
 40
0.5910965341592458
 40
0.7881332577648466
 40
0.9851735691700603
 40
1.0
 40
1.0
 40
1.0
 40
1.0
 10
12.00000000000004
 20
-7.471883173452171
 30
0.0
 10
12.86105199899817
 20
-7.614283578750172
 30
0.0
 10
14.58316132644812
 20
-7.899085270728902
 30
0.0
 10
17.1663403533923
 20
-7.976129650278849
 30
0.0
 10
19.74955056243877
 20
-7.797631251702573
 30
0.0
 10
22.3328061532854
 20
-7.315670630292679
 30
0.0
 10
24.11978704036031
 20
-6.866735502177198
 30
0.0
 10
25.04568816002391
 20
-6.524707841454659
 30
0.0
 10
25.11048270380755
 20
-6.500772751878398
 30
0.0
  0
SPLINE
  5
C1
330
1F
100
AcDbEntity
  8
0
  6
Continuous
 62
     1
370
    15
100
AcDbSpline
210
0.0
220
0.0
230
1.0
 70
     8
 71
     3
 72
    13
 73
     9
 74
     0
 42
0.000000001
 43
0.00000001
 40
0.0
 40
0.0
 40
0.0
 40
0.0
 40
0.1440465185451952
 40
0.3152360736217852
 40
0.4864261845381417
 40
0.6576168660694708
 40
0.8288081329754834
 40
1.0
 40
1.0
 40
1.0
 40
1.0
 10
59.92230794948914
 20
7.91761683702189
 30
0.0
 10
60.67027737090996
 20
7.905269317754122
 30
0.0
 10
62.30715791463429
 20
7.878247606072009
 30
0.0
 10
64.83295449136811
 20
7.478227071445142
 30
0.0
 10
67.49970027988911
 20
6.806722091561632
 30
0.0
 10
70.16645681434568
 20
5.869291804786879
 30
0.0
 10
72.83322413856949
 20
4.722983699848781
 30
0.0
 10
74.61107367413676
 20
3.817778511159994
 30
0.0
 10
75.50000000000006
 20
3.365175123507856
 30
0.0
  0
SPLINE
  5
C2
330
1F
100
AcDbEntity
  8
외형선
  6
Continuous
370
    15
100
AcDbSpline
210
0.0
220
0.0
230
1.0
 70
    24
 71
     3
 72
    21
 73
    17
 74
     0
 42
0.000000001
 43
0.00000001
 40
0.0
 40
0.0
 40
0.0
 40
0.0
 40
0.0232574940862901
 40
0.0987441519177194
 40
0.1742308097491485
 40
0.2497174675805783
 40
0.3252041254120079
 40
0.4006907832434367
 40
0.4761774410748655
 40
0.551664098906296
 40
0.6271507567377266
 40
0.7026374145691558
 40
0.7781240724005851
 40
0.8536107302320148
 40
0.9290973880634447
 40
0.9999999999999999
 40
0.9999999999999999
 40
0.9999999999999999
 40
0.9999999999999999
 10
12.00000000000006
 20
0.1528151762745595
 30
0.0
 10
12.00000000000007
 20
0.158505030364178
 30
0.0
 10
12.00000000000007
 20
0.1826623972124899
 30
0.0
 10
12.00000000000005
 20
0.0830110088664322
 30
0.0
 10
12.00000000000002
 20
-0.1380830617263571
 30
0.0
 10
12.00000000000003
 20
-0.4985693864482305
 30
0.0
 10
11.99999999999999
 20
-0.9701519379653676
 30
0.0
 10
12.00000000000002
 20
-1.547457191832442
 30
0.0
 10
12.00000000000008
 20
-2.2092618962944
 30
0.0
 10
12.00000000000006
 20
-2.940196597144489
 30
0.0
 10
12.00000000000007
 20
-3.717119743372184
 30
0.0
 10
12.00000000000002
 20
-4.519340246635973
 30
0.0
 10
12.00000000000009
 20
-5.324025101459779
 30
0.0
 10
12.00000000000004
 20
-6.106081600527543
 30
0.0
 10
11.99999999999999
 20
-6.836501936088456
 30
0.0
 10
12.00000000000003
 20
-7.264557483457808
 30
0.0
 10
12.00000000000004
 20
-7.471883173452171
 30
0.0
  0
LINE
  5
C3
330
1F
100
AcDbEntity
  8
0
  6
Continuous
 62
     1
370
    15
100
AcDbLine
 10
75.50000000000004
 20
0.6800957097175769
 30
0.0
 11
75.50000000000004
 21
3.365175123507856
 31
0.0
  0
LINE
  5
C4
330
1F
100
AcDbEntity
  8
중심선
 48
0.8
100
AcDbLine
 10
-44.97499999999995
 20
-0.0000000000000059
 30
0.0
 11
78.50000000000004
 21
0.0000000000000088
 31
0.0
  0
LINE
  5
C5
330
1F
100
AcDbEntity
  8
참조1
100
AcDbLine
 10
22.89310364977728
 20
0.0010749287238892
 30
0.0
 11
22.89310364977729
 21
-39.99892507127611
 31
0.0
  0
LINE
  5
C6
330
1F
100
AcDbEntity
  8
참조1
100
AcDbLine
 10
22.89310364977729
 20
-39.99892507127611
 30
0.0
 11
-21.63450316453139
 21
-39.9989250712761
 31
0.0
  0
CIRCLE
  5
C7
330
1F
100
AcDbEntity
  8
해칭선
100
AcDbCircle
 10
0.0
 20
0.0
 30
0.0
 40
3.000000000000001
  0
INSERT
  5
C8
330
1F
100
AcDbEntity
  8
0
  6
Continuous
 62
     7
100
AcDbBlockReference
 66
     1
  2
블럭10
 10
8.952830717652082
 20
-52.04609937292004
 30
0.0
  0
ATTRIB
  5
C9
330
C8
100
AcDbEntity
  8
FORMAT
 62
     2
100
AcDbText
 10
-0.2284645710891979
 20
-49.97073246008785
 30
0.0
 40
4.233333333333333
  1
E2034040 [ 4 FLUTE ]
 41
0.75
  7
SLDTEXTSTYLE0
 11
-0.2284645710891979
 21
-52.08739912675452
 31
0.0
100
AcDbAttribute
  2
AUTOATTR0
 70
     0
 74
     1
  0
SEQEND
  5
CA
330
C8
100
AcDbEntity
  8
0
  6
Continuous
 62
     7
  0
HATCH
  5
CB
330
1F
100
AcDbEntity
  8
중심선
100
AcDbHatch
 10
0.0
 20
0.0
 30
0.0
210
0.0
220
0.0
230
1.0
  2
SOLID
 70
     1
 71
     0
 91
        1
 92
        0
 93
        4
 72
     1
 10
14.66774002203292
 20
-35.7989250712761
 11
11.22146477819563
 21
-35.7989250712761
 72
     1
 10
11.22146477819563
 20
-35.7989250712761
 11
9.09323491899161
 21
-38.3352506518487
 72
     1
 10
9.09323491899161
 20
-38.3352506518487
 11
12.53954324794204
 21
-38.33521122254621
 72
     1
 10
12.53954324794204
 20
-38.33521122254621
 11
14.66774002203292
 21
-35.7989250712761
 97
        0
 75
     0
 76
     1
 98
        1
 10
0.0
 20
0.0
  0
HATCH
  5
CC
330
1F
100
AcDbEntity
  8
중심선
100
AcDbHatch
 10
0.0
 20
0.0
 30
0.0
210
0.0
220
0.0
230
1.0
  2
SOLID
 70
     1
 71
     0
 91
        1
 92
        0
 93
        4
 72
     1
 10
19.68050401306889
 20
-35.7989250712761
 11
16.23422876923161
 21
-35.79892507127608
 72
     1
 10
16.23422876923161
 20
-35.79892507127608
 11
11.7030907608742
 21
-41.19892507127612
 72
     1
 10
11.7030907608742
 20
-41.19892507127612
 11
15.14936600471148
 21
-41.19892507127612
 72
     1
 10
15.14936600471148
 20
-41.19892507127612
 11
19.68050401306889
 21
-35.7989250712761
 97
        0
 75
     0
 76
     1
 98
        1
 10
0.0
 20
0.0
  0
HATCH
  5
CD
330
1F
100
AcDbEntity
  8
중심선
100
AcDbHatch
 10
0.0
 20
0.0
 30
0.0
210
0.0
220
0.0
230
1.0
  2
SOLID
 70
     1
 71
     0
 91
        1
 92
        0
 93
        4
 72
     1
 10
24.69326800410479
 20
-35.79892507127608
 11
21.24699276026764
 21
-35.7989250712761
 72
     1
 10
21.24699276026764
 20
-35.7989250712761
 11
14.1985558583784
 21
-44.19892507127612
 72
     1
 10
14.1985558583784
 20
-44.19892507127612
 11
17.64483110221568
 21
-44.19892507127612
 72
     1
 10
17.64483110221568
 20
-44.19892507127612
 11
24.69326800410479
 21
-35.79892507127608
 97
        0
 75
     0
 76
     1
 98
        1
 10
0.0
 20
0.0
  0
HATCH
  5
CE
330
1F
100
AcDbEntity
  8
중심선
100
AcDbHatch
 10
0.0
 20
0.0
 30
0.0
210
0.0
220
0.0
230
1.0
  2
SOLID
 70
     1
 71
     0
 91
        1
 92
        0
 93
        6
 72
     3
 10
29.49315843511696
 20
-39.99892507132738
 11
3.960054785062284
 21
1.540850780301639E-10
 40
0.3939339440162633
 50
17.09539180608432
 51
320.0019657685075
 73
     0
 72
     1
 10
31.17615809081753
 20
-38.58681907591441
 11
33.48145996451859
 21
-36.65249236586649
 72
     3
 10
29.49315843506411
 20
-39.99892507127625
 11
6.600054785286829
 21
-1.249000902703301E-13
 40
0.6363583540795982
 50
39.9987384933741
 51
368.4976242363725
 73
     1
 72
     1
 10
35.91849092696472
 20
-39.03892507120613
 11
28.17322574190004
 21
-39.03892507120613
 72
     1
 10
28.17322574190004
 20
-39.03892507120613
 11
28.1732006974541
 21
-40.95892507120602
 72
     1
 10
28.1732006974541
 20
-40.95892507120602
 11
32.61458046692614
 21
-40.95892507120599
 97
        0
 75
     0
 76
     1
 98
        1
 10
0.0
 20
0.0
  0
DIMENSION
  5
CF
330
1F
100
AcDbEntity
  8
치수문자_일반주서
100
AcDbDimension
  2
_D
 10
12.00000000000004
 20
21.08914845620487
 30
0.0
 11
43.75000000000003
 21
21.08914845620487
 31
0.0
 70
   160
  1
<>
 71
     2
 42
63.49999999999999
  3
SLDDIMSTYLE1
100
AcDbAlignedDimension
 13
75.50000000000003
 23
7.937500000000009
 33
0.0
 14
12.00000000000004
 24
7.937258068935703
 34
0.0
 50
0.0000000000000032
100
AcDbRotatedDimension
1001
ACAD
1000
DSTYLE
1002
{
1070
   171
1070
     6
1070
   273
1070
     7
1002
}
  0
DIMENSION
  5
E4
330
1F
100
AcDbEntity
  8
치수문자_일반주서
100
AcDbDimension
  2
_D_1
 10
-41.97499999999995
 20
36.81035365400765
 30
0.0
 11
16.76250000000005
 21
36.81035365400765
 31
0.0
 70
   160
  1
<>
 71
     2
 42
117.475
  3
SLDDIMSTYLE1
100
AcDbAlignedDimension
 13
75.50000000000003
 23
7.937500000000009
 33
0.0
 14
-41.97499999999995
 24
6.350000000000001
 34
0.0
 50
0.0000000000000035
100
AcDbRotatedDimension
1001
ACAD
1000
DSTYLE
1002
{
1070
   171
1070
     6
1070
   273
1070
     7
1002
}
  0
DIMENSION
  5
F8
330
1F
100
AcDbEntity
  8
치수문자_일반주서
100
AcDbDimension
  2
_D_2
 10
-52.64077283782713
 20
-7.937500000000062
 30
0.0
 11
-52.64077283782716
 21
0.0000000000000129
 31
0.0
 70
   160
  1
%%c<>
 71
     2
 42
15.87500000000003
 52
-270.0
  3
SLDDIMSTYLE1
100
AcDbAlignedDimension
 13
-40.38749999999996
 23
7.937500000000012
 33
0.0
 14
-40.38749999999996
 24
-7.937500000000016
 34
0.0
 50
90.0000000000002
100
AcDbRotatedDimension
1001
ACAD
1000
DSTYLE
1002
{
1070
   171
1070
     6
1070
   273
1070
     7
1002
}
  0
DIMENSION
  5
10D
330
1F
100
AcDbEntity
  8
치수문자_일반주서
100
AcDbDimension
  2
_D_3
 10
91.28418285193544
 20
-7.937499999999936
 30
0.0
 11
91.2841828519353
 21
30.58183487003652
 31
0.0
 70
   160
  1
%%c<>
 71
     2
 42
15.875
 52
-270.0
  3
SLDDIMSTYLE1
100
AcDbAlignedDimension
 13
75.50000000000004
 23
7.937500000000009
 33
0.0
 14
75.50000000000003
 24
-7.937499999999991
 34
0.0
 50
90.0000000000002
100
AcDbRotatedDimension
1001
ACAD
1000
DSTYLE
1002
{
1070
   171
1070
     6
1070
   273
1070
     7
1002
}
  0
LINE
  5
120
330
1F
100
AcDbEntity
  8
참조1
100
AcDbLine
 10
76.33783746512287
 20
7.441074928723896
 30
0.0
 11
76.33783746512287
 21
-7.438925071276109
 31
0.0
  0
LINE
  5
121
330
1F
100
AcDbEntity
  8
참조1
100
AcDbLine
 10
89.03783746512288
 20
5.441074928723896
 30
0.0
 11
76.33783746512287
 21
5.441074928723896
 31
0.0
  0
SOLID
  5
122
330
1F
100
AcDbEntity
  8
참조1
100
AcDbTrace
 10
76.33783746512287
 20
5.441074928723896
 30
0.0
 11
82.68783746512287
 21
4.425074928723896
 31
0.0
 12
82.68783746512287
 22
6.457074928723896
 32
0.0
 13
82.68783746512287
 23
6.457074928723896
 33
0.0
  0
LINE
  5
123
330
1F
100
AcDbEntity
  8
참조1
100
AcDbLine
 10
89.03783746512288
 20
-5.438925071276109
 30
0.0
 11
76.33783746512287
 21
-5.438925071276109
 31
0.0
  0
SOLID
  5
124
330
1F
100
AcDbEntity
  8
참조1
100
AcDbTrace
 10
76.33783746512287
 20
-5.438925071276109
 30
0.0
 11
82.68783746512287
 21
-6.454925071276109
 31
0.0
 12
82.68783746512287
 22
-4.422925071276109
 32
0.0
 13
82.68783746512287
 23
-4.422925071276109
 33
0.0
  0
MTEXT
  5
125
330
1F
100
AcDbEntity
  8
참조1
100
AcDbMText
 10
85.72218759774887
 20
11.01136670591222
 30
0.0
 40
3.5
 41
0.0
 71
     1
 72
     1
  1
A
  7
SLDTEXTSTYLE0
 73
     1
 44
1.0
  0
MTEXT
  5
126
330
1F
100
AcDbEntity
  8
참조1
100
AcDbMText
 10
85.72218759774887
 20
0.1313667059122201
 30
0.0
 40
3.5
 41
0.0
 71
     1
 72
     1
  1
A
  7
SLDTEXTSTYLE0
 73
     1
 44
1.0
  0
INSERT
  5
12D
330
1F
100
AcDbEntity
  8
해칭선
100
AcDbBlockReference
  2
SW_DOWELSYMBOL_0
 10
0.0
 20
0.0
 30
0.0
  0
LINE
  5
266
330
1F
100
AcDbEntity
  8
외형선
  6
Continuous
370
    15
100
AcDbLine
 10
-22.85832499999998
 20
6.286499999999961
 30
0.0
 11
-12.67292499999996
 21
6.286499999999961
 31
0.0
  0
LINE
  5
267
330
1F
100
AcDbEntity
  8
외형선
  6
Continuous
370
    15
100
AcDbLine
 10
-22.85832499999998
 20
6.286500000000061
 30
0.0
 11
-24.50932499999993
 21
7.937499999999972
 31
0.0
  0
LINE
  5
268
330
1F
100
AcDbEntity
  8
외형선
  6
Continuous
370
    15
100
AcDbLine
 10
-12.67292500000007
 20
6.286500000000061
 30
0.0
 11
-11.02192500000006
 21
7.937499999999972
 31
0.0
  0
LINE
  5
29C
330
1F
100
AcDbEntity
  8
외형선
  6
Continuous
370
    15
100
AcDbLine
 10
-24.50932499999995
 20
7.937499999999998
 30
0.0
 11
-40.38749999999996
 21
7.937499999999998
 31
0.0
  0
ENDSEC
  0
SECTION
  2
OBJECTS
  0
DICTIONARY
  5
C
330
0
100
AcDbDictionary
281
     1
  3
ACAD_GROUP
350
D
  3
ACAD_IMAGE_VARS
350
151
  3
ACAD_LAYOUT
350
1A
  3
ACAD_MLINESTYLE
350
17
  3
ACAD_PLOTSETTINGS
350
19
  3
ACAD_PLOTSTYLENAME
350
E
  3
ACAD_SCALELIST
350
47
  3
APPDATA
350
14F
  3
DWGPROPS
350
2A1
  0
DICTIONARY
  5
1F4
330
2
100
AcDbDictionary
280
     1
281
     1
  3
ACAD_LAYERSTATES
360
1F5
  0
DICTIONARY
  5
D
102
{ACAD_REACTORS
330
C
102
}
330
C
100
AcDbDictionary
281
     1
  0
RASTERVARIABLES
  5
151
102
{ACAD_REACTORS
330
C
102
}
330
C
100
AcDbRasterVariables
 90
        0
 70
     1
 71
     1
 72
     1
  0
DICTIONARY
  5
1A
102
{ACAD_REACTORS
330
C
102
}
330
C
100
AcDbDictionary
281
     1
  3
Layout1
350
1E
  3
Layout2
350
26
  3
Model
350
22
  0
DICTIONARY
  5
17
102
{ACAD_REACTORS
330
C
102
}
330
C
100
AcDbDictionary
281
     1
  3
Standard
350
18
  0
DICTIONARY
  5
19
102
{ACAD_REACTORS
330
C
102
}
330
C
100
AcDbDictionary
281
     1
  0
ACDBDICTIONARYWDFLT
  5
E
102
{ACAD_REACTORS
330
C
102
}
330
C
100
AcDbDictionary
281
     1
  3
Normal
350
F
100
AcDbDictionaryWithDefault
340
F
  0
DICTIONARY
  5
47
102
{ACAD_REACTORS
330
C
102
}
330
C
100
AcDbDictionary
281
     1
  3
A0
350
48
  3
A1
350
49
  3
A2
350
4A
  3
A3
350
4B
  3
A4
350
4C
  3
A5
350
4D
  3
A6
350
4E
  3
A7
350
4F
  3
A8
350
50
  3
A9
350
51
  3
B0
350
52
  3
B1
350
53
  3
B2
350
54
  3
B3
350
55
  3
B4
350
56
  3
B5
350
57
  3
B6
350
58
  3
B7
350
59
  3
B8
350
5A
  3
B9
350
5B
  3
C0
350
5C
  3
C1
350
5D
  3
C2
350
5E
  3
C3
350
5F
  3
C4
350
60
  3
C5
350
61
  3
C6
350
62
  3
C7
350
63
  3
C8
350
64
  3
C9
350
65
  3
D0
350
66
  3
D1
350
67
  3
D2
350
68
  0
DICTIONARY
  5
14F
102
{ACAD_REACTORS
330
C
102
}
330
C
100
AcDbDictionary
281
     1
  0
XRECORD
  5
2A1
102
{ACAD_REACTORS
330
C
102
}
330
C
100
AcDbXrecord
280
     1
  1
DWGPROPS COOKIE
  2

  3

  4

  6

  7

  8
12017012
  9

300
=
301
=
302
=
303
=
304
=
305
=
306
=
307
=
308
=
309
=
 40
0.0
 41
2458312.298774259
 42
2458320.125701042
  1

 90
        0
  0
DICTIONARY
  5
1F5
102
{ACAD_REACTORS
330
1F4
102
}
330
1F4
100
AcDbDictionary
281
     1
  0
LAYOUT
  5
1E
102
{ACAD_REACTORS
330
1A
102
}
330
1A
100
AcDbPlotSettings
  1

  2
none_device
  4

  6

 40
0.0
 41
0.0
 42
0.0
 43
0.0
 44
0.0
 45
0.0
 46
0.0
 47
0.0
 48
0.0
 49
0.0
140
0.0
141
0.0
142
1.0
143
1.0
 70
   688
 72
     1
 73
     0
 74
     5
  7

 75
    16
147
1.0
148
0.0
149
0.0
100
AcDbLayout
  1
Layout1
 70
     1
 71
     1
 10
0.0
 20
0.0
 11
420.0
 21
297.0
 12
0.0
 22
0.0
 32
0.0
 14
1.000000000000000E+20
 24
1.000000000000000E+20
 34
1.000000000000000E+20
 15
-1.000000000000000E+20
 25
-1.000000000000000E+20
 35
-1.000000000000000E+20
146
0.0
 13
0.0
 23
0.0
 33
0.0
 16
1.0
 26
0.0
 36
0.0
 17
0.0
 27
1.0
 37
0.0
 76
     0
330
1B
  0
LAYOUT
  5
26
102
{ACAD_REACTORS
330
1A
102
}
330
1A
100
AcDbPlotSettings
  1

  2
none_device
  4

  6

 40
0.0
 41
0.0
 42
0.0
 43
0.0
 44
0.0
 45
0.0
 46
0.0
 47
0.0
 48
0.0
 49
0.0
140
0.0
141
0.0
142
1.0
143
1.0
 70
   688
 72
     1
 73
     0
 74
     5
  7

 75
    16
147
1.0
148
0.0
149
0.0
100
AcDbLayout
  1
Layout2
 70
     1
 71
     2
 10
0.0
 20
0.0
 11
0.0
 21
0.0
 12
0.0
 22
0.0
 32
0.0
 14
0.0
 24
0.0
 34
0.0
 15
0.0
 25
0.0
 35
0.0
146
0.0
 13
0.0
 23
0.0
 33
0.0
 16
1.0
 26
0.0
 36
0.0
 17
0.0
 27
1.0
 37
0.0
 76
     0
330
23
  0
LAYOUT
  5
22
102
{ACAD_REACTORS
330
1A
102
}
330
1A
100
AcDbPlotSettings
  1

  2
none_device
  4
ANSI_A_(11.00_x_8.50_Inches)
  6

 40
6.35
 41
19.05
 42
6.35000508
 43
19.05000254
 44
279.4
 45
215.9
 46
57.41528890531648
 47
76.19003030245277
 48
0.0
 49
0.0
140
0.0
141
0.0
142
0.0428501538111966
143
1.0
 70
  1696
 72
     0
 73
     0
 74
     0
  7

 75
     0
147
0.0235690232323232
148
0.0
149
0.0
100
AcDbLayout
  1
Model
 70
     1
 71
     0
 10
0.0
 20
0.0
 11
420.0
 21
297.0
 12
0.0
 22
0.0
 32
0.0
 14
1.000000000000000E+20
 24
1.000000000000000E+20
 34
1.000000000000000E+20
 15
-1.000000000000000E+20
 25
-1.000000000000000E+20
 35
-1.000000000000000E+20
146
0.0
 13
0.0
 23
0.0
 33
0.0
 16
1.0
 26
0.0
 36
0.0
 17
0.0
 27
1.0
 37
0.0
 76
     0
330
1F
331
29
  0
MLINESTYLE
  5
18
102
{ACAD_REACTORS
330
17
102
}
330
17
100
AcDbMlineStyle
  2
Standard
 70
     0
  3

 62
   256
 51
90.0
 52
90.0
 71
     2
 49
0.5
 62
   256
  6
BYLAYER
 49
-0.5
 62
   256
  6
BYLAYER
  0
ACDBPLACEHOLDER
  5
F
102
{ACAD_REACTORS
330
E
102
}
330
E
  0
SCALE
  5
48
102
{ACAD_REACTORS
330
47
102
}
330
47
100
AcDbScale
 70
     0
300
1:1
140
1.0
141
1.0
290
     1
  0
SCALE
  5
49
102
{ACAD_REACTORS
330
47
102
}
330
47
100
AcDbScale
 70
     0
300
1:2
140
1.0
141
2.0
290
     0
  0
SCALE
  5
4A
102
{ACAD_REACTORS
330
47
102
}
330
47
100
AcDbScale
 70
     0
300
1:4
140
1.0
141
4.0
290
     0
  0
SCALE
  5
4B
102
{ACAD_REACTORS
330
47
102
}
330
47
100
AcDbScale
 70
     0
300
1:5
140
1.0
141
5.0
290
     0
  0
SCALE
  5
4C
102
{ACAD_REACTORS
330
47
102
}
330
47
100
AcDbScale
 70
     0
300
1:8
140
1.0
141
8.0
290
     0
  0
SCALE
  5
4D
102
{ACAD_REACTORS
330
47
102
}
330
47
100
AcDbScale
 70
     0
300
1:10
140
1.0
141
10.0
290
     0
  0
SCALE
  5
4E
102
{ACAD_REACTORS
330
47
102
}
330
47
100
AcDbScale
 70
     0
300
1:16
140
1.0
141
16.0
290
     0
  0
SCALE
  5
4F
102
{ACAD_REACTORS
330
47
102
}
330
47
100
AcDbScale
 70
     0
300
1:20
140
1.0
141
20.0
290
     0
  0
SCALE
  5
50
102
{ACAD_REACTORS
330
47
102
}
330
47
100
AcDbScale
 70
     0
300
1:30
140
1.0
141
30.0
290
     0
  0
SCALE
  5
51
102
{ACAD_REACTORS
330
47
102
}
330
47
100
AcDbScale
 70
     0
300
1:40
140
1.0
141
40.0
290
     0
  0
SCALE
  5
52
102
{ACAD_REACTORS
330
47
102
}
330
47
100
AcDbScale
 70
     0
300
1:50
140
1.0
141
50.0
290
     0
  0
SCALE
  5
53
102
{ACAD_REACTORS
330
47
102
}
330
47
100
AcDbScale
 70
     0
300
1:100
140
1.0
141
100.0
290
     0
  0
SCALE
  5
54
102
{ACAD_REACTORS
330
47
102
}
330
47
100
AcDbScale
 70
     0
300
2:1
140
2.0
141
1.0
290
     0
  0
SCALE
  5
55
102
{ACAD_REACTORS
330
47
102
}
330
47
100
AcDbScale
 70
     0
300
4:1
140
4.0
141
1.0
290
     0
  0
SCALE
  5
56
102
{ACAD_REACTORS
330
47
102
}
330
47
100
AcDbScale
 70
     0
300
8:1
140
8.0
141
1.0
290
     0
  0
SCALE
  5
57
102
{ACAD_REACTORS
330
47
102
}
330
47
100
AcDbScale
 70
     0
300
10:1
140
10.0
141
1.0
290
     0
  0
SCALE
  5
58
102
{ACAD_REACTORS
330
47
102
}
330
47
100
AcDbScale
 70
     0
300
100:1
140
100.0
141
1.0
290
     0
  0
SCALE
  5
59
102
{ACAD_REACTORS
330
47
102
}
330
47
100
AcDbScale
 70
     0
300
1/128" = 1'-0"
140
0.0078125
141
12.0
290
     0
  0
SCALE
  5
5A
102
{ACAD_REACTORS
330
47
102
}
330
47
100
AcDbScale
 70
     0
300
1/64" = 1'-0"
140
0.015625
141
12.0
290
     0
  0
SCALE
  5
5B
102
{ACAD_REACTORS
330
47
102
}
330
47
100
AcDbScale
 70
     0
300
1/32" = 1'-0"
140
0.03125
141
12.0
290
     0
  0
SCALE
  5
5C
102
{ACAD_REACTORS
330
47
102
}
330
47
100
AcDbScale
 70
     0
300
1/16" = 1'-0"
140
0.0625
141
12.0
290
     0
  0
SCALE
  5
5D
102
{ACAD_REACTORS
330
47
102
}
330
47
100
AcDbScale
 70
     0
300
3/32" = 1'-0"
140
0.09375
141
12.0
290
     0
  0
SCALE
  5
5E
102
{ACAD_REACTORS
330
47
102
}
330
47
100
AcDbScale
 70
     0
300
1/8" = 1'-0"
140
0.125
141
12.0
290
     0
  0
SCALE
  5
5F
102
{ACAD_REACTORS
330
47
102
}
330
47
100
AcDbScale
 70
     0
300
3/16" = 1'-0"
140
0.1875
141
12.0
290
     0
  0
SCALE
  5
60
102
{ACAD_REACTORS
330
47
102
}
330
47
100
AcDbScale
 70
     0
300
1/4" = 1'-0"
140
0.25
141
12.0
290
     0
  0
SCALE
  5
61
102
{ACAD_REACTORS
330
47
102
}
330
47
100
AcDbScale
 70
     0
300
3/8" = 1'-0"
140
0.375
141
12.0
290
     0
  0
SCALE
  5
62
102
{ACAD_REACTORS
330
47
102
}
330
47
100
AcDbScale
 70
     0
300
1/2" = 1'-0"
140
0.5
141
12.0
290
     0
  0
SCALE
  5
63
102
{ACAD_REACTORS
330
47
102
}
330
47
100
AcDbScale
 70
     0
300
3/4" = 1'-0"
140
0.75
141
12.0
290
     0
  0
SCALE
  5
64
102
{ACAD_REACTORS
330
47
102
}
330
47
100
AcDbScale
 70
     0
300
1" = 1'-0"
140
1.0
141
12.0
290
     0
  0
SCALE
  5
65
102
{ACAD_REACTORS
330
47
102
}
330
47
100
AcDbScale
 70
     0
300
1-1/2" = 1'-0"
140
1.5
141
12.0
290
     0
  0
SCALE
  5
66
102
{ACAD_REACTORS
330
47
102
}
330
47
100
AcDbScale
 70
     0
300
3" = 1'-0"
140
3.0
141
12.0
290
     0
  0
SCALE
  5
67
102
{ACAD_REACTORS
330
47
102
}
330
47
100
AcDbScale
 70
     0
300
6" = 1'-0"
140
6.0
141
12.0
290
     0
  0
SCALE
  5
68
102
{ACAD_REACTORS
330
47
102
}
330
47
100
AcDbScale
 70
     0
300
1'-0" = 1'-0"
140
12.0
141
12.0
290
     0
  0
ENDSEC
  0
EOF
