  0
SECTION
  2
HEADER
  9
$ACADVER
  1
AC1015
  9
$ACADMAINTVER
 70
     6
  9
$DWGCODEPAGE
  3
ANSI_949
  9
$INSBASE
 10
0.0
 20
0.0
 30
0.0
  9
$EXTMIN
 10
1.000000000000000E+20
 20
1.000000000000000E+20
 30
1.000000000000000E+20
  9
$EXTMAX
 10
-1.000000000000000E+20
 20
-1.000000000000000E+20
 30
-1.000000000000000E+20
  9
$LIMMIN
 10
0.0
 20
0.0
  9
$LIMMAX
 10
420.0
 20
297.0
  9
$ORTHOMODE
 70
     1
  9
$REGENMODE
 70
     1
  9
$FILLMODE
 70
     1
  9
$QTEXTMODE
 70
     0
  9
$MIRRTEXT
 70
     1
  9
$LTSCALE
 40
1.0
  9
$ATTMODE
 70
     1
  9
$TEXTSIZE
 40
3.5
  9
$TRACEWID
 40
1.0
  9
$TEXTSTYLE
  7
Standard
  9
$CLAYER
  8
0
  9
$CELTYPE
  6
ByLayer
  9
$CECOLOR
 62
   256
  9
$CELTSCALE
 40
1.0
  9
$DISPSILH
 70
     0
  9
$DIMSCALE
 40
1.0
  9
$DIMASZ
 40
3.302
  9
$DIMEXO
 40
1.0
  9
$DIMDLI
 40
3.75
  9
$DIMRND
 40
0.0
  9
$DIMDLE
 40
0.0
  9
$DIMEXE
 40
1.0
  9
$DIMTP
 40
0.0
  9
$DIMTM
 40
0.0
  9
$DIMTXT
 40
3.5
  9
$DIMCEN
 40
2.5
  9
$DIMTSZ
 40
0.0
  9
$DIMTOL
 70
     0
  9
$DIMLIM
 70
     0
  9
$DIMTIH
 70
     1
  9
$DIMTOH
 70
     1
  9
$DIMSE1
 70
     0
  9
$DIMSE2
 70
     0
  9
$DIMTAD
 70
     1
  9
$DIMZIN
 70
     0
  9
$DIMBLK
  1

  9
$DIMASO
 70
     1
  9
$DIMSHO
 70
     1
  9
$DIMPOST
  1

  9
$DIMAPOST
  1

  9
$DIMALT
 70
     0
  9
$DIMALTD
 70
     3
  9
$DIMALTF
 40
0.0393700787401575
  9
$DIMLFAC
 40
1.0
  9
$DIMTOFL
 70
     1
  9
$DIMTVP
 40
0.0
  9
$DIMTIX
 70
     0
  9
$DIMSOXD
 70
     0
  9
$DIMSAH
 70
     0
  9
$DIMBLK1
  1

  9
$DIMBLK2
  1

  9
$DIMSTYLE
  2
ISO-25
  9
$DIMCLRD
 70
     0
  9
$DIMCLRE
 70
     0
  9
$DIMCLRT
 70
     0
  9
$DIMTFAC
 40
1.0
  9
$DIMGAP
 40
1.524
  9
$DIMJUST
 70
     0
  9
$DIMSD1
 70
     0
  9
$DIMSD2
 70
     0
  9
$DIMTOLJ
 70
     0
  9
$DIMTZIN
 70
     0
  9
$DIMALTZ
 70
     0
  9
$DIMALTTZ
 70
     0
  9
$DIMUPT
 70
     0
  9
$DIMDEC
 70
     2
  9
$DIMTDEC
 70
     2
  9
$DIMALTU
 70
     2
  9
$DIMALTTD
 70
     3
  9
$DIMTXSTY
  7
Standard
  9
$DIMAUNIT
 70
     0
  9
$DIMADEC
 70
     2
  9
$DIMALTRND
 40
0.0
  9
$DIMAZIN
 70
     0
  9
$DIMDSEP
 70
    44
  9
$DIMATFIT
 70
     3
  9
$DIMFRAC
 70
     0
  9
$DIMLDRBLK
  1

  9
$DIMLUNIT
 70
     2
  9
$DIMLWD
 70
    -2
  9
$DIMLWE
 70
    -2
  9
$DIMTMOVE
 70
     0
  9
$LUNITS
 70
     2
  9
$LUPREC
 70
     2
  9
$SKETCHINC
 40
1.0
  9
$FILLETRAD
 40
10.0
  9
$AUNITS
 70
     0
  9
$AUPREC
 70
     2
  9
$MENU
  1
.
  9
$ELEVATION
 40
0.0
  9
$PELEVATION
 40
0.0
  9
$THICKNESS
 40
0.0
  9
$LIMCHECK
 70
     0
  9
$CHAMFERA
 40
0.0
  9
$CHAMFERB
 40
0.0
  9
$CHAMFERC
 40
0.0
  9
$CHAMFERD
 40
0.0
  9
$SKPOLY
 70
     0
  9
$TDCREATE
 40
2458312.674833218
  9
$TDUCREATE
 40
2458312.299833218
  9
$TDUPDATE
 40
2458320.509369305
  9
$TDUUPDATE
 40
2458320.134369305
  9
$TDINDWG
 40
0.0013598611
  9
$TDUSRTIMER
 40
2458320.133009977
  9
$USRTIMER
 70
     1
  9
$ANGBASE
 50
0.0
  9
$ANGDIR
 70
     0
  9
$PDMODE
 70
     0
  9
$PDSIZE
 40
-1.0
  9
$PLINEWID
 40
0.0
  9
$SPLFRAME
 70
     0
  9
$SPLINETYPE
 70
     6
  9
$SPLINESEGS
 70
     8
  9
$HANDSEED
  5
30A
  9
$SURFTAB1
 70
     6
  9
$SURFTAB2
 70
     6
  9
$SURFTYPE
 70
     6
  9
$SURFU
 70
     6
  9
$SURFV
 70
     6
  9
$UCSBASE
  2

  9
$UCSNAME
  2

  9
$UCSORG
 10
0.0
 20
0.0
 30
0.0
  9
$UCSXDIR
 10
1.0
 20
0.0
 30
0.0
  9
$UCSYDIR
 10
0.0
 20
1.0
 30
0.0
  9
$UCSORTHOREF
  2

  9
$UCSORTHOVIEW
 70
     0
  9
$UCSORGTOP
 10
0.0
 20
0.0
 30
0.0
  9
$UCSORGBOTTOM
 10
0.0
 20
0.0
 30
0.0
  9
$UCSORGLEFT
 10
0.0
 20
0.0
 30
0.0
  9
$UCSORGRIGHT
 10
0.0
 20
0.0
 30
0.0
  9
$UCSORGFRONT
 10
0.0
 20
0.0
 30
0.0
  9
$UCSORGBACK
 10
0.0
 20
0.0
 30
0.0
  9
$PUCSBASE
  2

  9
$PUCSNAME
  2

  9
$PUCSORG
 10
0.0
 20
0.0
 30
0.0
  9
$PUCSXDIR
 10
1.0
 20
0.0
 30
0.0
  9
$PUCSYDIR
 10
0.0
 20
1.0
 30
0.0
  9
$PUCSORTHOREF
  2

  9
$PUCSORTHOVIEW
 70
     0
  9
$PUCSORGTOP
 10
0.0
 20
0.0
 30
0.0
  9
$PUCSORGBOTTOM
 10
0.0
 20
0.0
 30
0.0
  9
$PUCSORGLEFT
 10
0.0
 20
0.0
 30
0.0
  9
$PUCSORGRIGHT
 10
0.0
 20
0.0
 30
0.0
  9
$PUCSORGFRONT
 10
0.0
 20
0.0
 30
0.0
  9
$PUCSORGBACK
 10
0.0
 20
0.0
 30
0.0
  9
$USERI1
 70
     0
  9
$USERI2
 70
     0
  9
$USERI3
 70
     0
  9
$USERI4
 70
     0
  9
$USERI5
 70
     0
  9
$USERR1
 40
0.0
  9
$USERR2
 40
0.0
  9
$USERR3
 40
0.0
  9
$USERR4
 40
0.0
  9
$USERR5
 40
0.0
  9
$WORLDVIEW
 70
     1
  9
$SHADEDGE
 70
     3
  9
$SHADEDIF
 70
    70
  9
$TILEMODE
 70
     1
  9
$MAXACTVP
 70
    64
  9
$PINSBASE
 10
0.0
 20
0.0
 30
0.0
  9
$PLIMCHECK
 70
     0
  9
$PEXTMIN
 10
1.000000000000000E+20
 20
1.000000000000000E+20
 30
1.000000000000000E+20
  9
$PEXTMAX
 10
-1.000000000000000E+20
 20
-1.000000000000000E+20
 30
-1.000000000000000E+20
  9
$PLIMMIN
 10
0.0
 20
0.0
  9
$PLIMMAX
 10
0.0
 20
0.0
  9
$UNITMODE
 70
     0
  9
$VISRETAIN
 70
     1
  9
$PLINEGEN
 70
     0
  9
$PSLTSCALE
 70
     1
  9
$TREEDEPTH
 70
  3020
  9
$CMLSTYLE
  2
Standard
  9
$CMLJUST
 70
     0
  9
$CMLSCALE
 40
20.0
  9
$PROXYGRAPHICS
 70
     1
  9
$MEASUREMENT
 70
     1
  9
$CELWEIGHT
370
    -1
  9
$ENDCAPS
280
     0
  9
$JOINSTYLE
280
     0
  9
$LWDISPLAY
290
     1
  9
$INSUNITS
 70
     4
  9
$HYPERLINKBASE
  1

  9
$STYLESHEET
  1

  9
$XEDIT
290
     1
  9
$CEPSNTYPE
380
     0
  9
$PSTYLEMODE
290
     1
  9
$FINGERPRINTGUID
  2
{254FE4FF-2CD6-4694-BFF1-DE1ED88517F5}
  9
$VERSIONGUID
  2
{FAEB1C32-E019-11D5-929B-00C0DF256EC4}
  9
$EXTNAMES
290
     1
  9
$PSVPSCALE
 40
0.0
  9
$OLESTARTUP
290
     0
  0
ENDSEC
  0
SECTION
  2
CLASSES
  0
CLASS
  1
ACDBDICTIONARYWDFLT
  2
AcDbDictionaryWithDefault
  3
ObjectDBX Classes
 90
        0
280
     0
281
     0
  0
CLASS
  1
VISUALSTYLE
  2
AcDbVisualStyle
  3
ObjectDBX Classes
 90
     4095
280
     0
281
     0
  0
CLASS
  1
MATERIAL
  2
AcDbMaterial
  3
ObjectDBX Classes
 90
     1153
280
     0
281
     0
  0
CLASS
  1
SCALE
  2
AcDbScale
  3
ObjectDBX Classes
 90
     1153
280
     0
281
     0
  0
CLASS
  1
SUN
  2
AcDbSun
  3
SCENEOE
 90
     1153
280
     0
281
     0
  0
CLASS
  1
ACDBPLACEHOLDER
  2
AcDbPlaceHolder
  3
ObjectDBX Classes
 90
        0
280
     0
281
     0
  0
CLASS
  1
LAYOUT
  2
AcDbLayout
  3
ObjectDBX Classes
 90
        0
280
     0
281
     0
  0
CLASS
  1
TABLESTYLE
  2
AcDbTableStyle
  3
ObjectDBX Classes
 90
     4095
280
     0
281
     0
  0
CLASS
  1
MLEADERSTYLE
  2
AcDbMLeaderStyle
  3
ACDB_MLEADERSTYLE_CLASS
 90
     4095
280
     0
281
     0
  0
CLASS
  1
RASTERVARIABLES
  2
AcDbRasterVariables
  3
ISM
 90
        0
280
     0
281
     0
  0
ENDSEC
  0
SECTION
  2
TABLES
  0
TABLE
  2
VPORT
  5
8
330
0
100
AcDbSymbolTable
 70
     1
  0
VPORT
  5
29
330
8
100
AcDbSymbolTableRecord
100
AcDbViewportTableRecord
  2
*Active
 70
     0
 10
0.0
 20
0.0
 11
1.0
 21
1.0
 12
43.45436569887812
 22
-3.986244129219479
 13
0.0
 23
0.0
 14
10.0
 24
10.0
 15
10.0
 25
10.0
 16
0.0
 26
0.0
 36
1.0
 17
0.0
 27
0.0
 37
0.0
 40
162.4826159434378
 41
1.632093933463796
 42
50.0
 43
0.0
 44
0.0
 50
0.0
 51
0.0
 71
    16
 72
  2000
 73
     1
 74
     3
 75
     0
 76
     0
 77
     0
 78
     0
281
     0
 65
     1
110
0.0
120
0.0
130
0.0
111
1.0
121
0.0
131
0.0
112
0.0
122
1.0
132
0.0
 79
     0
146
0.0
  0
ENDTAB
  0
TABLE
  2
LTYPE
  5
5
330
0
100
AcDbSymbolTable
 70
     6
  0
LTYPE
  5
14
330
5
100
AcDbSymbolTableRecord
100
AcDbLinetypeTableRecord
  2
ByBlock
 70
     0
  3

 72
    65
 73
     0
 40
0.0
  0
LTYPE
  5
15
330
5
100
AcDbSymbolTableRecord
100
AcDbLinetypeTableRecord
  2
ByLayer
 70
     0
  3

 72
    65
 73
     0
 40
0.0
  0
LTYPE
  5
16
330
5
100
AcDbSymbolTableRecord
100
AcDbLinetypeTableRecord
  2
Continuous
 70
     0
  3
Solid line
 72
    65
 73
     0
 40
0.0
  0
LTYPE
  5
6A
330
5
100
AcDbSymbolTableRecord
100
AcDbLinetypeTableRecord
  2
HIDDEN
 70
     0
  3
Hidden __ __ __ __ __ __ __ __ __ __ __ __ __ __
 72
    65
 73
     2
 40
1.905
 49
1.27
 74
     0
 49
-0.635
 74
     0
  0
LTYPE
  5
6B
330
5
100
AcDbSymbolTableRecord
100
AcDbLinetypeTableRecord
  2
PHANTOM
 70
     0
  3
Phantom ______  __  __  ______  __  __  ______
 72
    65
 73
     6
 40
12.7
 49
6.35
 74
     0
 49
-1.27
 74
     0
 49
1.27
 74
     0
 49
-1.27
 74
     0
 49
1.27
 74
     0
 49
-1.27
 74
     0
  0
LTYPE
  5
6C
330
5
100
AcDbSymbolTableRecord
100
AcDbLinetypeTableRecord
  2
CENTER
 70
     0
  3
Center ____ _ ____ _ ____ _ ____ _ ____ _ ____
 72
    65
 73
     4
 40
10.16
 49
6.35
 74
     0
 49
-1.27
 74
     0
 49
1.27
 74
     0
 49
-1.27
 74
     0
  0
LTYPE
  5
6D
330
5
100
AcDbSymbolTableRecord
100
AcDbLinetypeTableRecord
  2
CENTERX2
 70
     0
  3
Center (2x) ________  __  ________  __  _____
 72
    65
 73
     4
 40
20.32
 49
12.7
 74
     0
 49
-2.54
 74
     0
 49
2.54
 74
     0
 49
-2.54
 74
     0
  0
LTYPE
  5
6E
330
5
100
AcDbSymbolTableRecord
100
AcDbLinetypeTableRecord
  2
DOT2
 70
     0
  3
Dot (.5x) ........................................
 72
    65
 73
     2
 40
0.635
 49
0.0
 74
     0
 49
-0.635
 74
     0
  0
ENDTAB
  0
TABLE
  2
LAYER
  5
2
102
{ACAD_XDICTIONARY
360
1EC
102
}
330
0
100
AcDbSymbolTable
 70
    18
  0
LAYER
  5
10
330
2
100
AcDbSymbolTableRecord
100
AcDbLayerTableRecord
  2
0
 70
     0
 62
     7
  6
Continuous
370
    -3
390
F
  0
LAYER
  5
6F
330
2
100
AcDbSymbolTableRecord
100
AcDbLayerTableRecord
  2
FORMAT
 70
     0
 62
     2
  6
Continuous
370
    -3
390
F
  0
LAYER
  5
70
330
2
100
AcDbSymbolTableRecord
100
AcDbLayerTableRecord
  2
외형선
 70
     0
 62
     4
  6
Continuous
370
    30
390
F
  0
LAYER
  5
71
330
2
100
AcDbSymbolTableRecord
100
AcDbLayerTableRecord
  2
숨은선
 70
     0
 62
     2
  6
HIDDEN
370
    15
390
F
  0
LAYER
  5
72
330
2
100
AcDbSymbolTableRecord
100
AcDbLayerTableRecord
  2
중심선
 70
     0
 62
     1
  6
CENTERX2
370
    -3
390
F
  0
LAYER
  5
73
330
2
100
AcDbSymbolTableRecord
100
AcDbLayerTableRecord
  2
파단선
 70
     0
 62
     4
  6
Continuous
370
    -3
390
F
  0
LAYER
  5
74
330
2
100
AcDbSymbolTableRecord
100
AcDbLayerTableRecord
  2
해칭선
 70
     0
 62
   100
  6
Continuous
370
    -3
390
F
  0
LAYER
  5
75
330
2
100
AcDbSymbolTableRecord
100
AcDbLayerTableRecord
  2
가는실선
 70
     0
 62
     4
  6
Continuous
370
    -3
390
F
  0
LAYER
  5
76
330
2
100
AcDbSymbolTableRecord
100
AcDbLayerTableRecord
  2
치수_보조선
 70
     0
 62
     4
  6
Continuous
370
    -3
390
F
  0
LAYER
  5
77
330
2
100
AcDbSymbolTableRecord
100
AcDbLayerTableRecord
  2
치수문자_일반주서
 70
     0
 62
     7
  6
Continuous
370
    15
390
F
  0
LAYER
  5
78
330
2
100
AcDbSymbolTableRecord
100
AcDbLayerTableRecord
  2
개별주서
 70
     0
 62
   100
  6
Continuous
370
    30
390
F
  0
LAYER
  5
79
330
2
100
AcDbSymbolTableRecord
100
AcDbLayerTableRecord
  2
중간선
 70
     0
 62
     2
  6
Continuous
370
    15
390
F
  0
LAYER
  5
7A
330
2
100
AcDbSymbolTableRecord
100
AcDbLayerTableRecord
  2
윤곽선
 70
     0
 62
     3
  6
Continuous
370
    40
390
F
  0
LAYER
  5
7B
330
2
100
AcDbSymbolTableRecord
100
AcDbLayerTableRecord
  2
중심마크
 70
     0
 62
   100
  6
Continuous
370
    30
390
F
  0
LAYER
  5
7C
330
2
100
AcDbSymbolTableRecord
100
AcDbLayerTableRecord
  2
가상선
 70
     0
 62
     4
  6
PHANTOM
370
    -3
390
F
  0
LAYER
  5
7D
330
2
100
AcDbSymbolTableRecord
100
AcDbLayerTableRecord
  2
특수지정선
 70
     0
 62
     5
  6
CENTERX2
370
    60
390
F
  0
LAYER
  5
7E
330
2
100
AcDbSymbolTableRecord
100
AcDbLayerTableRecord
  2
참조1
 70
     0
 62
    -4
  6
Continuous
370
    -3
390
F
  0
LAYER
  5
153
330
2
100
AcDbSymbolTableRecord
100
AcDbLayerTableRecord
  2
Defpoints
 70
     0
 62
     7
  6
Continuous
290
     0
370
    -3
390
F
  0
ENDTAB
  0
TABLE
  2
STYLE
  5
3
330
0
100
AcDbSymbolTable
 70
     2
  0
STYLE
  5
11
330
3
100
AcDbSymbolTableRecord
100
AcDbTextStyleTableRecord
  2
Standard
 70
     0
 40
0.0
 41
1.0
 50
0.0
 71
     0
 42
3.5
  3
txt
  4

  0
STYLE
  5
94
330
3
100
AcDbSymbolTableRecord
100
AcDbTextStyleTableRecord
  2
SLDTEXTSTYLE0
 70
     0
 40
0.0
 41
0.75
 50
0.0
 71
     0
 42
3.5
  3
TXT
  4

  0
ENDTAB
  0
TABLE
  2
VIEW
  5
6
330
0
100
AcDbSymbolTable
 70
     0
  0
ENDTAB
  0
TABLE
  2
UCS
  5
7
330
0
100
AcDbSymbolTable
 70
     0
  0
ENDTAB
  0
TABLE
  2
APPID
  5
9
330
0
100
AcDbSymbolTable
 70
     1
  0
APPID
  5
12
330
9
100
AcDbSymbolTableRecord
100
AcDbRegAppTableRecord
  2
ACAD
 70
     0
  0
ENDTAB
  0
TABLE
  2
DIMSTYLE
  5
A
330
0
100
AcDbSymbolTable
 70
     4
100
AcDbDimStyleTable
  0
DIMSTYLE
105
27
330
A
100
AcDbSymbolTableRecord
100
AcDbDimStyleTableRecord
  2
ISO-25
 70
     0
 41
2.5
 42
0.625
 43
3.75
 44
1.25
 73
     0
 74
     0
 77
     1
 78
     8
140
2.5
141
2.5
143
0.03937007874016
147
0.625
171
     3
172
     1
178
     0
271
     2
272
     2
274
     3
278
    44
283
     0
284
     8
340
11
  0
DIMSTYLE
105
D0
330
A
100
AcDbSymbolTableRecord
100
AcDbDimStyleTableRecord
  2
SLDDIMSTYLE0
 70
     0
 41
3.302
 44
0.0
 45
0.000000001
 73
     0
 74
     0
 77
     1
 78
     4
 79
     1
140
3.5
143
0.0393700787401575
147
0.875
148
0.000000001
170
     1
173
     1
178
     0
271
     2
272
     2
276
     2
284
    12
340
94
  0
DIMSTYLE
105
E5
102
{ACAD_REACTORS
330
E4
330
10D
330
1AB
330
1B8
330
1C5
330
1D2
330
CF
330
F8
102
}
330
A
100
AcDbSymbolTableRecord
100
AcDbDimStyleTableRecord
  2
SLDDIMSTYLE1
 70
     0
 41
3.302
 44
0.0
 45
0.000000001
 73
     0
 74
     0
 77
     1
 78
    12
 79
     3
140
3.5
143
0.0393700787401575
147
0.875
148
0.000000001
170
     1
173
     1
178
     0
271
     2
272
     2
276
     2
284
    12
340
94
  0
DIMSTYLE
105
F9
330
A
100
AcDbSymbolTableRecord
100
AcDbDimStyleTableRecord
  2
SLDDIMSTYLE2
 70
     0
 41
3.302
 44
0.0
 45
0.000000001
 73
     0
 74
     0
 77
     1
 78
    12
 79
     3
140
3.5
143
0.0393700787401575
147
0.875
148
0.000000001
170
     1
172
     1
173
     1
178
     0
271
     2
272
     2
276
     2
284
    12
289
     0
340
94
  0
ENDTAB
  0
TABLE
  2
BLOCK_RECORD
  5
1
330
0
100
AcDbSymbolTable
 70
    18
  0
BLOCK_RECORD
  5
1F
330
1
100
AcDbSymbolTableRecord
100
AcDbBlockTableRecord
  2
*Model_Space
340
22
  0
BLOCK_RECORD
  5
1B
330
1
100
AcDbSymbolTableRecord
100
AcDbBlockTableRecord
  2
*Paper_Space
340
1E
  0
BLOCK_RECORD
  5
23
330
1
100
AcDbSymbolTableRecord
100
AcDbBlockTableRecord
  2
*Paper_Space0
340
26
  0
BLOCK_RECORD
  5
7F
330
1
100
AcDbSymbolTableRecord
100
AcDbBlockTableRecord
  2
블럭10
340
0
102
{BLKREFS
331
C8
102
}
  0
BLOCK_RECORD
  5
D1
330
1
100
AcDbSymbolTableRecord
100
AcDbBlockTableRecord
  2
_D
340
0
  0
BLOCK_RECORD
  5
E6
330
1
100
AcDbSymbolTableRecord
100
AcDbBlockTableRecord
  2
_D_1
340
0
  0
BLOCK_RECORD
  5
FA
330
1
100
AcDbSymbolTableRecord
100
AcDbBlockTableRecord
  2
_D_2
340
0
  0
BLOCK_RECORD
  5
10E
330
1
100
AcDbSymbolTableRecord
100
AcDbBlockTableRecord
  2
_D_3
340
0
  0
BLOCK_RECORD
  5
127
330
1
100
AcDbSymbolTableRecord
100
AcDbBlockTableRecord
  2
SW_DOWELSYMBOL_0
340
0
102
{BLKREFS
331
12D
331
1E0
331
0
102
}
  0
BLOCK_RECORD
  5
1F0
330
1
100
AcDbSymbolTableRecord
100
AcDbBlockTableRecord
  2
*D8
340
0
  0
BLOCK_RECORD
  5
1FC
330
1
100
AcDbSymbolTableRecord
100
AcDbBlockTableRecord
  2
*D9
340
0
  0
BLOCK_RECORD
  5
208
330
1
100
AcDbSymbolTableRecord
100
AcDbBlockTableRecord
  2
*D10
340
0
  0
BLOCK_RECORD
  5
214
330
1
100
AcDbSymbolTableRecord
100
AcDbBlockTableRecord
  2
*D11
340
0
  0
BLOCK_RECORD
  5
25B
330
1
100
AcDbSymbolTableRecord
100
AcDbBlockTableRecord
  2
*D12
340
0
  0
BLOCK_RECORD
  5
267
330
1
100
AcDbSymbolTableRecord
100
AcDbBlockTableRecord
  2
*D13
340
0
  0
BLOCK_RECORD
  5
273
330
1
100
AcDbSymbolTableRecord
100
AcDbBlockTableRecord
  2
*D14
340
0
  0
BLOCK_RECORD
  5
27F
330
1
100
AcDbSymbolTableRecord
100
AcDbBlockTableRecord
  2
*D15
340
0
  0
ENDTAB
  0
ENDSEC
  0
SECTION
  2
BLOCKS
  0
BLOCK
  5
20
330
1F
100
AcDbEntity
  8
0
100
AcDbBlockBegin
  2
*Model_Space
 70
     0
 10
0.0
 20
0.0
 30
0.0
  3
*Model_Space
  1
*Model_Space
  0
ENDBLK
  5
21
330
1F
100
AcDbEntity
  8
0
100
AcDbBlockEnd
  0
BLOCK
  5
1C
330
1B
100
AcDbEntity
 67
     1
  8
0
100
AcDbBlockBegin
  2
*Paper_Space
 70
     0
 10
0.0
 20
0.0
 30
0.0
  3
*Paper_Space
  1
*Paper_Space
  0
ENDBLK
  5
1D
330
1B
100
AcDbEntity
 67
     1
  8
0
100
AcDbBlockEnd
  0
BLOCK
  5
24
330
23
100
AcDbEntity
  8
0
100
AcDbBlockBegin
  2
*Paper_Space0
 70
     0
 10
0.0
 20
0.0
 30
0.0
  3
*Paper_Space0
  1
*Paper_Space0
  0
ENDBLK
  5
25
330
23
100
AcDbEntity
  8
0
100
AcDbBlockEnd
  0
BLOCK
  5
80
330
7F
100
AcDbEntity
  8
0
100
AcDbBlockBegin
  2
블럭10
 70
     2
 10
0.0
 20
0.0
 30
0.0
  3
블럭10
  1
블럭10
  0
ELLIPSE
  5
82
330
7F
100
AcDbEntity
  8
중심선
100
AcDbEllipse
 10
20.54032771741204
 20
12.0471743016438
 30
0.0
 11
6.600054785286829
 21
-1.261213355974178E-13
 31
0.0
210
0.0
220
0.0
230
1.0
 40
0.636358354079598
 41
0.9219305317359503
 42
6.513795318482858
  0
ELLIPSE
  5
83
330
7F
100
AcDbEntity
  8
중심선
100
AcDbEllipse
 10
20.54032771746488
 20
12.04717430159265
 30
0.0
 11
3.960054785062283
 21
1.540847449632565E-10
 31
0.0
210
0.0
220
0.0
230
1.0
 40
0.3939339440162632
 41
1.131841032648279
 42
5.62031148352944
  0
LINE
  5
84
330
7F
100
AcDbEntity
  8
중심선
100
AcDbLine
 10
2.268634060543552
 20
16.24717430164393
 30
0.0
 11
5.714909304380834
 21
16.24717430164393
 31
0.0
  0
LINE
  5
85
330
7F
100
AcDbEntity
  8
중심선
100
AcDbLine
 10
5.245725140726316
 20
7.84717430164391
 30
0.0
 11
8.692000384563599
 21
7.84717430164391
 31
0.0
  0
LINE
  5
86
330
7F
100
AcDbEntity
  8
중심선
100
AcDbLine
 10
15.74043728645272
 20
16.24717430164393
 30
0.0
 11
8.692000384563599
 21
7.84717430164391
 31
0.0
  0
LINE
  5
87
330
7F
100
AcDbEntity
  8
중심선
100
AcDbLine
 10
0.1404042013395286
 20
13.71084872107135
 30
0.0
 11
3.58671253028996
 21
13.71088815037384
 31
0.0
  0
LINE
  5
88
330
7F
100
AcDbEntity
  8
중심선
100
AcDbLine
 10
2.750260043222114
 20
10.84717430164391
 30
0.0
 11
6.196535287059397
 21
10.84717430164391
 31
0.0
  0
LINE
  5
89
330
7F
100
AcDbEntity
  8
중심선
100
AcDbLine
 10
12.29416204261559
 20
16.24717430164393
 30
0.0
 11
5.245725140726316
 21
7.84717430164391
 31
0.0
  0
LINE
  5
8A
330
7F
100
AcDbEntity
  8
중심선
100
AcDbLine
 10
10.72767329541681
 20
16.24717430164393
 30
0.0
 11
6.196535287059397
 21
10.84717430164391
 31
0.0
  0
LINE
  5
8B
330
7F
100
AcDbEntity
  8
중심선
100
AcDbLine
 10
7.28139805157953
 20
16.24717430164393
 30
0.0
 11
2.750260043222114
 21
10.84717430164391
 31
0.0
  0
LINE
  5
8C
330
7F
100
AcDbEntity
  8
중심선
100
AcDbLine
 10
5.714909304380834
 20
16.24717430164393
 30
0.0
 11
3.58671253028996
 21
13.71088815037384
 31
0.0
  0
LINE
  5
8D
330
7F
100
AcDbEntity
  8
중심선
100
AcDbLine
 10
2.268634060543552
 20
16.24717430164393
 30
0.0
 11
0.1404042013395286
 21
13.71084872107135
 31
0.0
  0
LINE
  5
8E
330
7F
100
AcDbEntity
  8
중심선
100
AcDbLine
 10
7.28139805157953
 20
16.24717430164393
 30
0.0
 11
10.72767329541681
 21
16.24717430164393
 31
0.0
  0
LINE
  5
8F
330
7F
100
AcDbEntity
  8
중심선
100
AcDbLine
 10
12.29416204261559
 20
16.24717430164393
 30
0.0
 11
15.74043728645272
 21
16.24717430164393
 31
0.0
  0
LINE
  5
90
330
7F
100
AcDbEntity
  8
중심선
100
AcDbLine
 10
19.22036997980202
 20
11.08717430171403
 30
0.0
 11
23.66174974927406
 21
11.08717430171406
 31
0.0
  0
LINE
  5
91
330
7F
100
AcDbEntity
  8
중심선
100
AcDbLine
 10
19.22039502424796
 20
13.00717430171391
 30
0.0
 11
19.22036997980202
 21
11.08717430171403
 31
0.0
  0
LINE
  5
92
330
7F
100
AcDbEntity
  8
중심선
100
AcDbLine
 10
19.22039502424796
 20
13.00717430171391
 30
0.0
 11
26.96566020931264
 21
13.00717430171391
 31
0.0
  0
LINE
  5
93
330
7F
100
AcDbEntity
  8
중심선
100
AcDbLine
 10
22.22332737316547
 20
13.45928029700563
 30
0.0
 11
24.52862924686651
 21
15.39360700705356
 31
0.0
  0
ATTDEF
  5
95
330
7F
100
AcDbEntity
  8
FORMAT
 62
     2
100
AcDbText
 10
4.408487351596664
 20
2.075366912832191
 30
0.0
 40
4.233333333333333
  1
E2034056
 41
0.75
  7
SLDTEXTSTYLE0
 11
4.408487351596664
 21
-0.0412997538344756
 31
0.0
100
AcDbAttributeDefinition
  3

  2
AUTOATTR0
 70
     0
 74
     1
  0
ENDBLK
  5
81
330
7F
100
AcDbEntity
  8
0
100
AcDbBlockEnd
  0
BLOCK
  5
D2
330
D1
100
AcDbEntity
  8
0
100
AcDbBlockBegin
  2
_D
 70
     0
 10
0.0
 20
0.0
 30
0.0
  3
_D
  1
_D
  0
LINE
  5
D4
330
D1
100
AcDbEntity
  8
치수문자_일반주서
 62
     0
370
    -2
100
AcDbLine
 10
100.8999999999999
 20
11.17500000000001
 30
0.0
 11
100.8999999999999
 21
24.2524726843074
 31
0.0
  0
LINE
  5
D5
330
D1
100
AcDbEntity
  8
치수문자_일반주서
 62
     0
370
    -2
100
AcDbLine
 10
11.9999999999999
 20
11.17466262504229
 30
0.0
 11
11.9999999999999
 21
24.2524726843074
 31
0.0
  0
LINE
  5
D6
330
D1
100
AcDbEntity
  8
치수문자_일반주서
 62
     0
370
    -2
100
AcDbLine
 10
97.59799999999996
 20
24.2524726843074
 30
0.0
 11
15.3019999999999
 21
24.2524726843074
 31
0.0
  0
SOLID
  5
D7
330
D1
100
AcDbEntity
  8
치수문자_일반주서
 62
     0
100
AcDbTrace
 10
97.59799999999996
 20
23.70213935097406
 30
0.0
 11
97.59799999999996
 21
24.80280601764073
 31
0.0
 12
100.8999999999999
 22
24.2524726843074
 32
0.0
 13
100.8999999999999
 23
24.2524726843074
 33
0.0
  0
SOLID
  5
D8
330
D1
100
AcDbEntity
  8
치수문자_일반주서
 62
     0
100
AcDbTrace
 10
15.3019999999999
 20
24.80280601764073
 30
0.0
 11
15.3019999999999
 21
23.70213935097406
 31
0.0
 12
11.9999999999999
 22
24.2524726843074
 32
0.0
 13
11.9999999999999
 23
24.2524726843074
 33
0.0
  0
MTEXT
  5
D9
330
D1
100
AcDbEntity
  8
치수문자_일반주서
 62
     0
100
AcDbMText
 10
53.12769453565157
 20
28.6274726843074
 30
0.0
 40
3.5
 41
0.0
 71
     2
 72
     1
  1
\A1;88.9 [3 1/2]
  7
SLDTEXTSTYLE0
 73
     1
 44
1.0
  0
POINT
  5
DA
330
D1
100
AcDbEntity
  8
Defpoints
 62
     0
100
AcDbPoint
 10
100.8999999999999
 20
11.11250000000001
 30
0.0
  0
POINT
  5
DB
330
D1
100
AcDbEntity
  8
Defpoints
 62
     0
100
AcDbPoint
 10
11.9999999999999
 20
11.11216262504229
 30
0.0
  0
POINT
  5
DC
330
D1
100
AcDbEntity
  8
Defpoints
 62
     0
100
AcDbPoint
 10
11.9999999999999
 20
24.2524726843074
 30
0.0
  0
ENDBLK
  5
D3
330
D1
100
AcDbEntity
  8
0
100
AcDbBlockEnd
  0
BLOCK
  5
E7
330
E6
100
AcDbEntity
  8
0
100
AcDbBlockBegin
  2
_D_1
 70
     0
 10
0.0
 20
0.0
 30
0.0
  3
_D_1
  1
_D_1
  0
LINE
  5
E9
330
E6
100
AcDbEntity
  8
치수문자_일반주서
 62
     0
370
    -2
100
AcDbLine
 10
100.8999999999999
 20
11.17500000000001
 30
0.0
 11
100.8999999999999
 21
39.97367788211007
 31
0.0
  0
LINE
  5
EA
330
E6
100
AcDbEntity
  8
치수문자_일반주서
 62
     0
370
    -2
100
AcDbLine
 10
-45.15000000000009
 20
11.175
 30
0.0
 11
-45.15000000000009
 21
39.97367788211007
 31
0.0
  0
LINE
  5
EB
330
E6
100
AcDbEntity
  8
치수문자_일반주서
 62
     0
370
    -2
100
AcDbLine
 10
97.59799999999996
 20
39.97367788211007
 30
0.0
 11
-41.84800000000009
 21
39.97367788211007
 31
0.0
  0
SOLID
  5
EC
330
E6
100
AcDbEntity
  8
치수문자_일반주서
 62
     0
100
AcDbTrace
 10
97.59799999999996
 20
39.42334454877674
 30
0.0
 11
97.59799999999996
 21
40.52401121544341
 31
0.0
 12
100.8999999999999
 22
39.97367788211007
 32
0.0
 13
100.8999999999999
 23
39.97367788211007
 33
0.0
  0
SOLID
  5
ED
330
E6
100
AcDbEntity
  8
치수문자_일반주서
 62
     0
100
AcDbTrace
 10
-41.84800000000009
 20
40.52401121544341
 30
0.0
 11
-41.84800000000009
 21
39.42334454877674
 31
0.0
 12
-45.15000000000009
 22
39.97367788211007
 32
0.0
 13
-45.15000000000009
 23
39.97367788211007
 33
0.0
  0
MTEXT
  5
EE
330
E6
100
AcDbEntity
  8
치수문자_일반주서
 62
     0
100
AcDbMText
 10
27.87499999999991
 20
44.34867788211007
 30
0.0
 40
3.5
 41
0.0
 71
     2
 72
     1
  1
\A1;146.05 [5 3/4]
  7
SLDTEXTSTYLE0
 73
     1
 44
1.0
  0
POINT
  5
EF
330
E6
100
AcDbEntity
  8
Defpoints
 62
     0
100
AcDbPoint
 10
100.8999999999999
 20
11.11250000000001
 30
0.0
  0
POINT
  5
F0
330
E6
100
AcDbEntity
  8
Defpoints
 62
     0
100
AcDbPoint
 10
-45.15000000000009
 20
11.1125
 30
0.0
  0
POINT
  5
F1
330
E6
100
AcDbEntity
  8
Defpoints
 62
     0
100
AcDbPoint
 10
-45.15000000000009
 20
39.97367788211007
 30
0.0
  0
ENDBLK
  5
E8
330
E6
100
AcDbEntity
  8
0
100
AcDbBlockEnd
  0
BLOCK
  5
FB
330
FA
100
AcDbEntity
  8
0
100
AcDbBlockBegin
  2
_D_2
 70
     0
 10
0.0
 20
0.0
 30
0.0
  3
_D_2
  1
_D_2
  0
LINE
  5
FD
330
FA
100
AcDbEntity
  8
치수문자_일반주서
 62
     0
370
    -2
100
AcDbLine
 10
-45.21250000000009
 20
11.1125
 30
0.0
 11
-55.18077283782733
 21
11.11249999999996
 31
0.0
  0
LINE
  5
FE
330
FA
100
AcDbEntity
  8
치수문자_일반주서
 62
     0
370
    -2
100
AcDbLine
 10
-42.99000000000011
 20
-11.1125
 30
0.0
 11
-55.18077283782726
 21
-11.11250000000005
 31
0.0
  0
LINE
  5
FF
330
FA
100
AcDbEntity
  8
치수문자_일반주서
 62
     0
370
    -2
100
AcDbLine
 10
-55.18077283782732
 20
7.81049999999996
 30
0.0
 11
-55.18077283782727
 21
-7.810500000000047
 31
0.0
  0
SOLID
  5
100
330
FA
100
AcDbEntity
  8
치수문자_일반주서
 62
     0
100
AcDbTrace
 10
-54.63043950449399
 20
7.810499999999962
 30
0.0
 11
-55.73110617116065
 21
7.810499999999958
 31
0.0
 12
-55.18077283782733
 22
11.11249999999996
 32
0.0
 13
-55.18077283782733
 23
11.11249999999996
 33
0.0
  0
SOLID
  5
101
330
FA
100
AcDbEntity
  8
치수문자_일반주서
 62
     0
100
AcDbTrace
 10
-55.7311061711606
 20
-7.810500000000049
 30
0.0
 11
-54.63043950449394
 21
-7.810500000000046
 31
0.0
 12
-55.18077283782726
 22
-11.11250000000005
 32
0.0
 13
-55.18077283782726
 23
-11.11250000000005
 33
0.0
  0
MTEXT
  5
102
330
FA
100
AcDbEntity
  8
치수문자_일반주서
 62
     0
100
AcDbMText
 10
-59.5557728378273
 20
-0.0000000000000199
 30
0.0
 40
3.5
 41
0.0
 71
     2
 72
     1
  1
\A1;%%c22.23 [7/8]
  7
SLDTEXTSTYLE0
 11
-3.516746948643915E-15
 21
1.0
 31
0.0
 73
     1
 44
1.0
  0
POINT
  5
103
330
FA
100
AcDbEntity
  8
Defpoints
 62
     0
100
AcDbPoint
 10
-45.15000000000009
 20
11.1125
 30
0.0
  0
POINT
  5
104
330
FA
100
AcDbEntity
  8
Defpoints
 62
     0
100
AcDbPoint
 10
-42.92750000000011
 20
-11.1125
 30
0.0
  0
POINT
  5
105
330
FA
100
AcDbEntity
  8
Defpoints
 62
     0
100
AcDbPoint
 10
-55.18077283782726
 20
-11.11250000000005
 30
0.0
  0
ENDBLK
  5
FC
330
FA
100
AcDbEntity
  8
0
100
AcDbBlockEnd
  0
BLOCK
  5
10F
330
10E
100
AcDbEntity
  8
0
100
AcDbBlockBegin
  2
_D_3
 70
     0
 10
0.0
 20
0.0
 30
0.0
  3
_D_3
  1
_D_3
  0
LINE
  5
111
330
10E
100
AcDbEntity
  8
치수문자_일반주서
 62
     0
370
    -2
100
AcDbLine
 10
100.9624999999999
 20
11.11250000000001
 30
0.0
 11
116.483195957824
 21
11.11250000000007
 31
0.0
  0
LINE
  5
112
330
10E
100
AcDbEntity
  8
치수문자_일반주서
 62
     0
370
    -2
100
AcDbLine
 10
100.9624999999999
 20
-11.11249999999999
 30
0.0
 11
116.483195957824
 21
-11.11249999999993
 31
0.0
  0
LINE
  5
113
330
10E
100
AcDbEntity
  8
치수문자_일반주서
 62
     0
370
    -2
100
AcDbLine
 10
116.483195957824
 20
11.11250000000007
 30
0.0
 11
116.4831959578239
 21
43.31113479835854
 31
0.0
  0
LINE
  5
114
330
10E
100
AcDbEntity
  8
치수문자_일반주서
 62
     0
370
    -2
100
AcDbLine
 10
116.483195957824
 20
7.810500000000069
 30
0.0
 11
116.483195957824
 21
-7.810499999999934
 31
0.0
  0
SOLID
  5
115
330
10E
100
AcDbEntity
  8
치수문자_일반주서
 62
     0
100
AcDbTrace
 10
117.0335292911573
 20
7.81050000000007
 30
0.0
 11
115.9328626244907
 21
7.810500000000067
 31
0.0
 12
116.483195957824
 22
11.11250000000007
 32
0.0
 13
116.483195957824
 23
11.11250000000007
 33
0.0
  0
SOLID
  5
116
330
10E
100
AcDbEntity
  8
치수문자_일반주서
 62
     0
100
AcDbTrace
 10
115.9328626244907
 20
-7.810499999999935
 30
0.0
 11
117.0335292911574
 21
-7.810499999999932
 31
0.0
 12
116.483195957824
 22
-11.11249999999993
 32
0.0
 13
116.483195957824
 23
-11.11249999999993
 33
0.0
  0
MTEXT
  5
117
330
10E
100
AcDbEntity
  8
치수문자_일반주서
 62
     0
100
AcDbMText
 10
112.1081959578239
 20
28.87363479835853
 30
0.0
 40
3.5
 41
0.0
 71
     2
 72
     1
  1
\A1;%%c22.23 [7/8]
  7
SLDTEXTSTYLE0
 11
-3.197042680585377E-15
 21
1.0
 31
0.0
 73
     1
 44
1.0
  0
POINT
  5
118
330
10E
100
AcDbEntity
  8
Defpoints
 62
     0
100
AcDbPoint
 10
100.8999999999999
 20
11.11250000000001
 30
0.0
  0
POINT
  5
119
330
10E
100
AcDbEntity
  8
Defpoints
 62
     0
100
AcDbPoint
 10
100.8999999999999
 20
-11.11249999999999
 30
0.0
  0
POINT
  5
11A
330
10E
100
AcDbEntity
  8
Defpoints
 62
     0
100
AcDbPoint
 10
116.483195957824
 20
-11.11249999999993
 30
0.0
  0
ENDBLK
  5
110
330
10E
100
AcDbEntity
  8
0
100
AcDbBlockEnd
  0
BLOCK
  5
128
330
127
100
AcDbEntity
  8
0
100
AcDbBlockBegin
  2
SW_DOWELSYMBOL_0
 70
     0
 10
0.0
 20
0.0
 30
0.0
  3
SW_DOWELSYMBOL_0
  1
SW_DOWELSYMBOL_0
  0
CIRCLE
  5
12A
330
127
100
AcDbEntity
  8
해칭선
 62
     0
100
AcDbCircle
 10
0.0
 20
0.0
 30
0.0
 40
3.000000000000001
  0
HATCH
  5
12B
330
127
100
AcDbEntity
  8
0
  6
Continuous
 62
     0
370
     0
100
AcDbHatch
 10
0.0
 20
0.0
 30
0.0
210
0.0
220
0.0
230
1.0
  2
SOLID
 70
     1
 71
     0
 91
        1
 92
        0
 93
        3
 72
     2
 10
0.0
 20
0.0
 40
3.000000000000001
 50
0.0
 51
90.0
 73
     1
 72
     1
 10
0.0
 20
3.000000000000001
 11
0.0
 21
0.0
 72
     1
 10
0.0
 20
0.0
 11
3.000000000000003
 21
0.0
 97
        0
 75
     0
 76
     1
 98
        1
 10
0.0
 20
0.0
  0
HATCH
  5
12C
330
127
100
AcDbEntity
  8
0
  6
Continuous
 62
     0
370
     0
100
AcDbHatch
 10
0.0
 20
0.0
 30
0.0
210
0.0
220
0.0
230
1.0
  2
SOLID
 70
     1
 71
     0
 91
        1
 92
        0
 93
        3
 72
     2
 10
0.0
 20
0.0
 40
3.000000000000001
 50
180.0
 51
270.0000000000008
 73
     1
 72
     1
 10
0.0
 20
-3.000000000000001
 11
0.0
 21
0.0
 72
     1
 10
0.0
 20
0.0
 11
-3.000000000000001
 21
0.0
 97
        0
 75
     0
 76
     1
 98
        1
 10
0.0
 20
0.0
  0
ENDBLK
  5
129
330
127
100
AcDbEntity
  8
0
100
AcDbBlockEnd
  0
BLOCK
  5
1F1
330
1F0
100
AcDbEntity
  8
0
100
AcDbBlockBegin
  2
*D8
 70
     1
 10
0.0
 20
0.0
 30
0.0
  3
*D8
  1
*D8
  0
LINE
  5
1F3
330
1F0
100
AcDbEntity
  8
치수문자_일반주서
 62
     0
370
    -2
100
AcDbLine
 10
148.0732728378272
 20
22.49375000000002
 30
0.0
 11
148.0732728378272
 21
35.57706057025619
 31
0.0
  0
LINE
  5
1F4
330
1F0
100
AcDbEntity
  8
치수문자_일반주서
 62
     0
370
    -2
100
AcDbLine
 10
71.87327283782722
 20
22.49345998204711
 30
0.0
 11
71.87327283782722
 21
35.57706057025619
 31
0.0
  0
LINE
  5
1F5
330
1F0
100
AcDbEntity
  8
치수문자_일반주서
 62
     0
370
    -2
100
AcDbLine
 10
144.7712728378272
 20
35.57706057025619
 30
0.0
 11
75.17527283782721
 21
35.57706057025619
 31
0.0
  0
SOLID
  5
1F6
330
1F0
100
AcDbEntity
  8
치수문자_일반주서
 62
     0
100
AcDbTrace
 10
144.7712728378272
 20
35.02672723692285
 30
0.0
 11
144.7712728378272
 21
36.12739390358952
 31
0.0
 12
148.0732728378272
 22
35.57706057025619
 32
0.0
 13
148.0732728378272
 23
35.57706057025619
 33
0.0
  0
SOLID
  5
1F7
330
1F0
100
AcDbEntity
  8
치수문자_일반주서
 62
     0
100
AcDbTrace
 10
75.17527283782721
 20
36.12739390358952
 30
0.0
 11
75.17527283782721
 21
35.02672723692285
 31
0.0
 12
71.87327283782722
 22
35.57706057025619
 32
0.0
 13
71.87327283782722
 23
35.57706057025619
 33
0.0
  0
MTEXT
  5
1F8
330
1F0
100
AcDbEntity
  8
치수문자_일반주서
 62
     0
100
AcDbMText
 10
109.9732728378272
 20
39.95206057025619
 30
0.0
 40
3.5
 41
0.0
 71
     2
 72
     1
  1
\A1;76.2 [3]
  7
SLDTEXTSTYLE0
 73
     1
 44
1.0
  0
POINT
  5
1F9
330
1F0
100
AcDbEntity
  8
Defpoints
 62
     0
100
AcDbPoint
 10
148.0732728378272
 20
22.43125000000002
 30
0.0
  0
POINT
  5
1FA
330
1F0
100
AcDbEntity
  8
Defpoints
 62
     0
100
AcDbPoint
 10
71.87327283782722
 20
22.43095998204711
 30
0.0
  0
POINT
  5
1FB
330
1F0
100
AcDbEntity
  8
Defpoints
 62
     0
100
AcDbPoint
 10
71.87327283782722
 20
35.57706057025619
 30
0.0
  0
ENDBLK
  5
1F2
330
1F0
100
AcDbEntity
  8
0
100
AcDbBlockEnd
  0
BLOCK
  5
1FD
330
1FC
100
AcDbEntity
  8
0
100
AcDbBlockBegin
  2
*D9
 70
     1
 10
0.0
 20
0.0
 30
0.0
  3
*D9
  1
*D9
  0
LINE
  5
1FF
330
1FC
100
AcDbEntity
  8
치수문자_일반주서
 62
     0
370
    -2
100
AcDbLine
 10
148.0732728378272
 20
22.49375000000002
 30
0.0
 11
148.0732728378272
 21
51.29826576805887
 31
0.0
  0
LINE
  5
200
330
1FC
100
AcDbEntity
  8
치수문자_일반주서
 62
     0
370
    -2
100
AcDbLine
 10
14.72327283782725
 20
20.58875000000001
 30
0.0
 11
14.72327283782725
 21
51.29826576805887
 31
0.0
  0
LINE
  5
201
330
1FC
100
AcDbEntity
  8
치수문자_일반주서
 62
     0
370
    -2
100
AcDbLine
 10
144.7712728378272
 20
51.29826576805887
 30
0.0
 11
18.02527283782725
 21
51.29826576805887
 31
0.0
  0
SOLID
  5
202
330
1FC
100
AcDbEntity
  8
치수문자_일반주서
 62
     0
100
AcDbTrace
 10
144.7712728378272
 20
50.74793243472553
 30
0.0
 11
144.7712728378272
 21
51.8485991013922
 31
0.0
 12
148.0732728378272
 22
51.29826576805887
 32
0.0
 13
148.0732728378272
 23
51.29826576805887
 33
0.0
  0
SOLID
  5
203
330
1FC
100
AcDbEntity
  8
치수문자_일반주서
 62
     0
100
AcDbTrace
 10
18.02527283782725
 20
51.8485991013922
 30
0.0
 11
18.02527283782725
 21
50.74793243472553
 31
0.0
 12
14.72327283782725
 22
51.29826576805887
 32
0.0
 13
14.72327283782725
 23
51.29826576805887
 33
0.0
  0
MTEXT
  5
204
330
1FC
100
AcDbEntity
  8
치수문자_일반주서
 62
     0
100
AcDbMText
 10
81.39827283782724
 20
55.67326576805887
 30
0.0
 40
3.5
 41
0.0
 71
     2
 72
     1
  1
\A1;133.35 [5 1/4]
  7
SLDTEXTSTYLE0
 73
     1
 44
1.0
  0
POINT
  5
205
330
1FC
100
AcDbEntity
  8
Defpoints
 62
     0
100
AcDbPoint
 10
148.0732728378272
 20
22.43125000000002
 30
0.0
  0
POINT
  5
206
330
1FC
100
AcDbEntity
  8
Defpoints
 62
     0
100
AcDbPoint
 10
14.72327283782725
 20
20.52625000000001
 30
0.0
  0
POINT
  5
207
330
1FC
100
AcDbEntity
  8
Defpoints
 62
     0
100
AcDbPoint
 10
14.72327283782725
 20
51.29826576805887
 30
0.0
  0
ENDBLK
  5
1FE
330
1FC
100
AcDbEntity
  8
0
100
AcDbBlockEnd
  0
BLOCK
  5
209
330
208
100
AcDbEntity
  8
0
100
AcDbBlockBegin
  2
*D10
 70
     1
 10
0.0
 20
0.0
 30
0.0
  3
*D10
  1
*D10
  0
LINE
  5
20B
330
208
100
AcDbEntity
  8
치수문자_일반주서
 62
     0
370
    -2
100
AcDbLine
 10
16.56577283782723
 20
22.43125000000001
 30
0.0
 11
4.37500000000001
 21
22.43124999999996
 31
0.0
  0
LINE
  5
20C
330
208
100
AcDbEntity
  8
치수문자_일반주서
 62
     0
370
    -2
100
AcDbLine
 10
16.56577283782723
 20
3.381249999999997
 30
0.0
 11
4.375000000000076
 21
3.381249999999952
 31
0.0
  0
LINE
  5
20D
330
208
100
AcDbEntity
  8
치수문자_일반주서
 62
     0
370
    -2
100
AcDbLine
 10
4.375000000000021
 20
19.12924999999996
 30
0.0
 11
4.375000000000065
 21
6.683249999999951
 31
0.0
  0
SOLID
  5
20E
330
208
100
AcDbEntity
  8
치수문자_일반주서
 62
     0
100
AcDbTrace
 10
4.925333333333355
 20
19.12924999999997
 30
0.0
 11
3.824666666666688
 21
19.12924999999996
 31
0.0
 12
4.37500000000001
 22
22.43124999999996
 32
0.0
 13
4.37500000000001
 23
22.43124999999996
 33
0.0
  0
SOLID
  5
20F
330
208
100
AcDbEntity
  8
치수문자_일반주서
 62
     0
100
AcDbTrace
 10
3.824666666666732
 20
6.68324999999995
 30
0.0
 11
4.925333333333398
 21
6.683249999999953
 31
0.0
 12
4.375000000000076
 22
3.381249999999952
 32
0.0
 13
4.375000000000076
 23
3.381249999999952
 33
0.0
  0
MTEXT
  5
210
330
208
100
AcDbEntity
  8
치수문자_일반주서
 62
     0
100
AcDbMText
 10
0.0000000000000426
 20
12.90625
 30
0.0
 40
3.5
 41
0.0
 71
     2
 72
     1
  1
\A1;%%c19.05 [3/4]
  7
SLDTEXTSTYLE0
 11
-3.496765431890255E-15
 21
1.0
 31
0.0
 73
     1
 44
1.0
  0
POINT
  5
211
330
208
100
AcDbEntity
  8
Defpoints
 62
     0
100
AcDbPoint
 10
16.62827283782723
 20
22.43125000000001
 30
0.0
  0
POINT
  5
212
330
208
100
AcDbEntity
  8
Defpoints
 62
     0
100
AcDbPoint
 10
16.62827283782723
 20
3.381249999999998
 30
0.0
  0
POINT
  5
213
330
208
100
AcDbEntity
  8
Defpoints
 62
     0
100
AcDbPoint
 10
4.375000000000078
 20
3.381249999999952
 30
0.0
  0
ENDBLK
  5
20A
330
208
100
AcDbEntity
  8
0
100
AcDbBlockEnd
  0
BLOCK
  5
215
330
214
100
AcDbEntity
  8
0
100
AcDbBlockBegin
  2
*D11
 70
     1
 10
0.0
 20
0.0
 30
0.0
  3
*D11
  1
*D11
  0
LINE
  5
217
330
214
100
AcDbEntity
  8
치수문자_일반주서
 62
     0
370
    -2
100
AcDbLine
 10
148.1357728378272
 20
22.43125000000002
 30
0.0
 11
166.3446322656224
 21
22.43125000000008
 31
0.0
  0
LINE
  5
218
330
214
100
AcDbEntity
  8
치수문자_일반주서
 62
     0
370
    -2
100
AcDbLine
 10
148.1357728378272
 20
3.381250000000016
 30
0.0
 11
166.3446322656225
 21
3.38125000000008
 31
0.0
  0
LINE
  5
219
330
214
100
AcDbEntity
  8
치수문자_일반주서
 62
     0
370
    -2
100
AcDbLine
 10
166.3446322656224
 20
22.43125000000008
 30
0.0
 11
166.3446322656224
 21
53.32322268430735
 31
0.0
  0
LINE
  5
21A
330
214
100
AcDbEntity
  8
치수문자_일반주서
 62
     0
370
    -2
100
AcDbLine
 10
166.3446322656224
 20
19.12925000000008
 30
0.0
 11
166.3446322656225
 21
6.683250000000079
 31
0.0
  0
SOLID
  5
21B
330
214
100
AcDbEntity
  8
치수문자_일반주서
 62
     0
100
AcDbTrace
 10
166.8949655989558
 20
19.12925000000008
 30
0.0
 11
165.7942989322891
 21
19.12925000000008
 31
0.0
 12
166.3446322656224
 22
22.43125000000008
 32
0.0
 13
166.3446322656224
 23
22.43125000000008
 33
0.0
  0
SOLID
  5
21C
330
214
100
AcDbEntity
  8
치수문자_일반주서
 62
     0
100
AcDbTrace
 10
165.7942989322892
 20
6.683250000000077
 30
0.0
 11
166.8949655989558
 21
6.683250000000081
 31
0.0
 12
166.3446322656225
 22
3.38125000000008
 32
0.0
 13
166.3446322656225
 23
3.38125000000008
 33
0.0
  0
MTEXT
  5
21D
330
214
100
AcDbEntity
  8
치수문자_일반주서
 62
     0
100
AcDbMText
 10
161.9696322656224
 20
39.54197268430733
 30
0.0
 40
3.5
 41
0.0
 71
     2
 72
     1
  1
\A1;%%c19.05 [3/4]
  7
SLDTEXTSTYLE0
 11
-2.983906501879686E-15
 21
1.0
 31
0.0
 73
     1
 44
1.0
  0
POINT
  5
21E
330
214
100
AcDbEntity
  8
Defpoints
 62
     0
100
AcDbPoint
 10
148.0732728378272
 20
22.43125000000002
 30
0.0
  0
POINT
  5
21F
330
214
100
AcDbEntity
  8
Defpoints
 62
     0
100
AcDbPoint
 10
148.0732728378272
 20
3.381250000000016
 30
0.0
  0
POINT
  5
220
330
214
100
AcDbEntity
  8
Defpoints
 62
     0
100
AcDbPoint
 10
166.3446322656225
 20
3.381250000000084
 30
0.0
  0
ENDBLK
  5
216
330
214
100
AcDbEntity
  8
0
100
AcDbBlockEnd
  0
BLOCK
  5
25C
330
25B
100
AcDbEntity
  8
0
100
AcDbBlockBegin
  2
*D12
 70
     1
 10
0.0
 20
0.0
 30
0.0
  3
*D12
  1
*D12
  0
LINE
  5
25E
330
25B
100
AcDbEntity
  8
치수문자_일반주서
 62
     0
370
    -2
100
AcDbLine
 10
297.6180503873326
 20
-62.89353216983007
 30
0.0
 11
297.6180503873326
 21
-49.8102215995739
 31
0.0
  0
LINE
  5
25F
330
25B
100
AcDbEntity
  8
치수문자_일반주서
 62
     0
370
    -2
100
AcDbLine
 10
221.4180503873326
 20
-62.89382218778297
 30
0.0
 11
221.4180503873326
 21
-49.8102215995739
 31
0.0
  0
LINE
  5
260
330
25B
100
AcDbEntity
  8
치수문자_일반주서
 62
     0
370
    -2
100
AcDbLine
 10
294.3160503873326
 20
-49.8102215995739
 30
0.0
 11
224.7200503873325
 21
-49.8102215995739
 31
0.0
  0
SOLID
  5
261
330
25B
100
AcDbEntity
  8
치수문자_일반주서
 62
     0
100
AcDbTrace
 10
294.3160503873326
 20
-50.36055493290723
 30
0.0
 11
294.3160503873326
 21
-49.25988826624057
 31
0.0
 12
297.6180503873326
 22
-49.8102215995739
 32
0.0
 13
297.6180503873326
 23
-49.8102215995739
 33
0.0
  0
SOLID
  5
262
330
25B
100
AcDbEntity
  8
치수문자_일반주서
 62
     0
100
AcDbTrace
 10
224.7200503873325
 20
-49.25988826624057
 30
0.0
 11
224.7200503873325
 21
-50.36055493290723
 31
0.0
 12
221.4180503873326
 22
-49.8102215995739
 32
0.0
 13
221.4180503873326
 23
-49.8102215995739
 33
0.0
  0
MTEXT
  5
263
330
25B
100
AcDbEntity
  8
치수문자_일반주서
 62
     0
100
AcDbMText
 10
259.5180503873326
 20
-45.4352215995739
 30
0.0
 40
3.5
 41
0.0
 71
     2
 72
     1
  1
\A1;76.2 [3]
  7
SLDTEXTSTYLE0
 73
     1
 44
1.0
  0
POINT
  5
264
330
25B
100
AcDbEntity
  8
Defpoints
 62
     0
100
AcDbPoint
 10
297.6180503873326
 20
-62.95603216983007
 30
0.0
  0
POINT
  5
265
330
25B
100
AcDbEntity
  8
Defpoints
 62
     0
100
AcDbPoint
 10
221.4180503873326
 20
-62.95632218778297
 30
0.0
  0
POINT
  5
266
330
25B
100
AcDbEntity
  8
Defpoints
 62
     0
100
AcDbPoint
 10
221.4180503873326
 20
-49.8102215995739
 30
0.0
  0
ENDBLK
  5
25D
330
25B
100
AcDbEntity
  8
0
100
AcDbBlockEnd
  0
BLOCK
  5
268
330
267
100
AcDbEntity
  8
0
100
AcDbBlockBegin
  2
*D13
 70
     1
 10
0.0
 20
0.0
 30
0.0
  3
*D13
  1
*D13
  0
LINE
  5
26A
330
267
100
AcDbEntity
  8
치수문자_일반주서
 62
     0
370
    -2
100
AcDbLine
 10
297.6180503873326
 20
-62.89353216983007
 30
0.0
 11
297.6180503873326
 21
-34.08901640177122
 31
0.0
  0
LINE
  5
26B
330
267
100
AcDbEntity
  8
치수문자_일반주서
 62
     0
370
    -2
100
AcDbLine
 10
164.2680503873326
 20
-64.79853216983008
 30
0.0
 11
164.2680503873326
 21
-34.08901640177122
 31
0.0
  0
LINE
  5
26C
330
267
100
AcDbEntity
  8
치수문자_일반주서
 62
     0
370
    -2
100
AcDbLine
 10
294.3160503873326
 20
-34.08901640177122
 30
0.0
 11
167.5700503873326
 21
-34.08901640177122
 31
0.0
  0
SOLID
  5
26D
330
267
100
AcDbEntity
  8
치수문자_일반주서
 62
     0
100
AcDbTrace
 10
294.3160503873326
 20
-34.63934973510455
 30
0.0
 11
294.3160503873326
 21
-33.53868306843788
 31
0.0
 12
297.6180503873326
 22
-34.08901640177122
 32
0.0
 13
297.6180503873326
 23
-34.08901640177122
 33
0.0
  0
SOLID
  5
26E
330
267
100
AcDbEntity
  8
치수문자_일반주서
 62
     0
100
AcDbTrace
 10
167.5700503873326
 20
-33.53868306843788
 30
0.0
 11
167.5700503873326
 21
-34.63934973510455
 31
0.0
 12
164.2680503873326
 22
-34.08901640177122
 32
0.0
 13
164.2680503873326
 23
-34.08901640177122
 33
0.0
  0
MTEXT
  5
26F
330
267
100
AcDbEntity
  8
치수문자_일반주서
 62
     0
100
AcDbMText
 10
230.9430503873326
 20
-29.71401640177122
 30
0.0
 40
3.5
 41
0.0
 71
     2
 72
     1
  1
\A1;133.35 [5 1/4]
  7
SLDTEXTSTYLE0
 73
     1
 44
1.0
  0
POINT
  5
270
330
267
100
AcDbEntity
  8
Defpoints
 62
     0
100
AcDbPoint
 10
297.6180503873326
 20
-62.95603216983007
 30
0.0
  0
POINT
  5
271
330
267
100
AcDbEntity
  8
Defpoints
 62
     0
100
AcDbPoint
 10
164.2680503873326
 20
-64.86103216983008
 30
0.0
  0
POINT
  5
272
330
267
100
AcDbEntity
  8
Defpoints
 62
     0
100
AcDbPoint
 10
164.2680503873326
 20
-34.08901640177122
 30
0.0
  0
ENDBLK
  5
269
330
267
100
AcDbEntity
  8
0
100
AcDbBlockEnd
  0
BLOCK
  5
274
330
273
100
AcDbEntity
  8
0
100
AcDbBlockBegin
  2
*D14
 70
     1
 10
0.0
 20
0.0
 30
0.0
  3
*D14
  1
*D14
  0
LINE
  5
276
330
273
100
AcDbEntity
  8
치수문자_일반주서
 62
     0
370
    -2
100
AcDbLine
 10
166.1105503873326
 20
-62.95603216983008
 30
0.0
 11
153.9197775495054
 21
-62.95603216983012
 31
0.0
  0
LINE
  5
277
330
273
100
AcDbEntity
  8
치수문자_일반주서
 62
     0
370
    -2
100
AcDbLine
 10
166.1105503873326
 20
-82.00603216983009
 30
0.0
 11
153.9197775495054
 21
-82.00603216983014
 31
0.0
  0
LINE
  5
278
330
273
100
AcDbEntity
  8
치수문자_일반주서
 62
     0
370
    -2
100
AcDbLine
 10
153.9197775495054
 20
-66.25803216983013
 30
0.0
 11
153.9197775495054
 21
-78.70403216983013
 31
0.0
  0
SOLID
  5
279
330
273
100
AcDbEntity
  8
치수문자_일반주서
 62
     0
100
AcDbTrace
 10
154.4701108828387
 20
-66.25803216983013
 30
0.0
 11
153.369444216172
 21
-66.25803216983013
 31
0.0
 12
153.9197775495054
 22
-62.95603216983012
 32
0.0
 13
153.9197775495054
 23
-62.95603216983012
 33
0.0
  0
SOLID
  5
27A
330
273
100
AcDbEntity
  8
치수문자_일반주서
 62
     0
100
AcDbTrace
 10
153.3694442161721
 20
-78.70403216983013
 30
0.0
 11
154.4701108828388
 21
-78.70403216983013
 31
0.0
 12
153.9197775495054
 22
-82.00603216983014
 32
0.0
 13
153.9197775495054
 23
-82.00603216983014
 33
0.0
  0
MTEXT
  5
27B
330
273
100
AcDbEntity
  8
치수문자_일반주서
 62
     0
100
AcDbMText
 10
149.5447775495054
 20
-72.48103216983009
 30
0.0
 40
3.5
 41
0.0
 71
     2
 72
     1
  1
\A1;%%c19.05 [3/4]
  7
SLDTEXTSTYLE0
 11
-2.983906501879684E-15
 21
1.0
 31
0.0
 73
     1
 44
1.0
  0
POINT
  5
27C
330
273
100
AcDbEntity
  8
Defpoints
 62
     0
100
AcDbPoint
 10
166.1730503873326
 20
-62.95603216983008
 30
0.0
  0
POINT
  5
27D
330
273
100
AcDbEntity
  8
Defpoints
 62
     0
100
AcDbPoint
 10
166.1730503873326
 20
-82.00603216983009
 30
0.0
  0
POINT
  5
27E
330
273
100
AcDbEntity
  8
Defpoints
 62
     0
100
AcDbPoint
 10
153.9197775495054
 20
-82.00603216983014
 30
0.0
  0
ENDBLK
  5
275
330
273
100
AcDbEntity
  8
0
100
AcDbBlockEnd
  0
BLOCK
  5
280
330
27F
100
AcDbEntity
  8
0
100
AcDbBlockBegin
  2
*D15
 70
     1
 10
0.0
 20
0.0
 30
0.0
  3
*D15
  1
*D15
  0
LINE
  5
282
330
27F
100
AcDbEntity
  8
치수문자_일반주서
 62
     0
370
    -2
100
AcDbLine
 10
297.6805503873326
 20
-62.95603216983007
 30
0.0
 11
315.8894098151277
 21
-62.95603216983
 31
0.0
  0
LINE
  5
283
330
27F
100
AcDbEntity
  8
치수문자_일반주서
 62
     0
370
    -2
100
AcDbLine
 10
297.6805503873326
 20
-82.00603216983006
 30
0.0
 11
315.8894098151278
 21
-82.00603216983
 31
0.0
  0
LINE
  5
284
330
27F
100
AcDbEntity
  8
치수문자_일반주서
 62
     0
370
    -2
100
AcDbLine
 10
315.8894098151277
 20
-62.95603216983
 30
0.0
 11
315.8894098151276
 21
-32.06405948552274
 31
0.0
  0
LINE
  5
285
330
27F
100
AcDbEntity
  8
치수문자_일반주서
 62
     0
370
    -2
100
AcDbLine
 10
315.8894098151277
 20
-66.25803216982999
 30
0.0
 11
315.8894098151278
 21
-78.70403216982999
 31
0.0
  0
SOLID
  5
286
330
27F
100
AcDbEntity
  8
치수문자_일반주서
 62
     0
100
AcDbTrace
 10
316.4397431484611
 20
-66.25803216982999
 30
0.0
 11
315.3390764817944
 21
-66.25803216982999
 31
0.0
 12
315.8894098151277
 22
-62.95603216983
 32
0.0
 13
315.8894098151277
 23
-62.95603216983
 33
0.0
  0
SOLID
  5
287
330
27F
100
AcDbEntity
  8
치수문자_일반주서
 62
     0
100
AcDbTrace
 10
315.3390764817945
 20
-78.70403216982999
 30
0.0
 11
316.4397431484612
 21
-78.70403216982999
 31
0.0
 12
315.8894098151278
 22
-82.00603216983
 32
0.0
 13
315.8894098151278
 23
-82.00603216983
 33
0.0
  0
MTEXT
  5
288
330
27F
100
AcDbEntity
  8
치수문자_일반주서
 62
     0
100
AcDbMText
 10
311.5144098151277
 20
-45.84530948552275
 30
0.0
 40
3.5
 41
0.0
 71
     2
 72
     1
  1
\A1;%%c19.05 [3/4]
  7
SLDTEXTSTYLE0
 11
-2.983906501879686E-15
 21
1.0
 31
0.0
 73
     1
 44
1.0
  0
POINT
  5
289
330
27F
100
AcDbEntity
  8
Defpoints
 62
     0
100
AcDbPoint
 10
297.6180503873326
 20
-62.95603216983007
 30
0.0
  0
POINT
  5
28A
330
27F
100
AcDbEntity
  8
Defpoints
 62
     0
100
AcDbPoint
 10
297.6180503873326
 20
-82.00603216983006
 30
0.0
  0
POINT
  5
28B
330
27F
100
AcDbEntity
  8
Defpoints
 62
     0
100
AcDbPoint
 10
315.8894098151278
 20
-82.00603216983
 30
0.0
  0
ENDBLK
  5
281
330
27F
100
AcDbEntity
  8
0
100
AcDbBlockEnd
  0
ENDSEC
  0
SECTION
  2
ENTITIES
  0
LINE
  5
96
330
1F
100
AcDbEntity
  8
외형선
  6
Continuous
370
    15
100
AcDbLine
 10
11.84983740750338
 20
-11.1125
 30
0.0
 11
11.99999999999991
 21
-11.1125
 31
0.0
  0
LINE
  5
97
330
1F
100
AcDbEntity
  8
외형선
  6
Continuous
370
    15
100
AcDbLine
 10
-42.9275000000001
 20
-11.1125
 30
0.0
 11
11.4999079384838
 21
-11.1125
 31
0.0
  0
LINE
  5
98
330
1F
100
AcDbEntity
  8
외형선
  6
Continuous
370
    15
100
AcDbLine
 10
11.4999079384838
 20
11.1125
 30
0.0
 11
-11.91092499999993
 21
11.1125
 31
0.0
  0
LINE
  5
99
330
1F
100
AcDbEntity
  8
외형선
  6
Continuous
370
    15
100
AcDbLine
 10
11.99999999999991
 20
11.1125
 30
0.0
 11
11.84983740750329
 21
11.1125
 31
0.0
  0
LINE
  5
9B
330
1F
100
AcDbEntity
  8
외형선
  6
Continuous
370
    15
100
AcDbLine
 10
-45.15000000000009
 20
-8.890000000000011
 30
0.0
 11
-42.9275000000001
 21
-11.1125
 31
0.0
  0
LINE
  5
9C
330
1F
100
AcDbEntity
  8
0
  6
Continuous
 62
     1
370
    15
100
AcDbLine
 10
72.31686133016083
 20
-11.11250000000001
 30
0.0
 11
79.09168866903096
 21
-11.11250000000001
 31
0.0
  0
LINE
  5
9D
330
1F
100
AcDbEntity
  8
0
  6
Continuous
 62
     1
370
    15
100
AcDbLine
 10
18.62443527311452
 20
11.11250000000001
 30
0.0
 11
11.99999999999991
 21
11.11250000000001
 31
0.0
  0
LINE
  5
9E
330
1F
100
AcDbEntity
  8
0
  6
Continuous
 62
     1
370
    15
100
AcDbLine
 10
48.86064149507747
 20
11.11250000000001
 30
0.0
 11
42.08446070728731
 21
11.11250000000001
 31
0.0
  0
LINE
  5
9F
330
1F
100
AcDbEntity
  8
0
  6
Continuous
 62
     1
370
    15
100
AcDbLine
 10
96.76571024132487
 20
3.29142759375102
 30
0.0
 11
96.68741495679443
 21
3.333751929362249
 31
0.0
  0
LINE
  5
A0
330
1F
100
AcDbEntity
  8
0
  6
Continuous
 62
     1
370
    15
100
AcDbLine
 10
42.08446070728736
 20
-11.11250000000001
 30
0.0
 11
48.86064149507736
 21
-11.11250000000001
 31
0.0
  0
LINE
  5
A1
330
1F
100
AcDbEntity
  8
0
  6
Continuous
 62
     1
370
    15
100
AcDbLine
 10
11.99999999999991
 20
-11.11250000000001
 30
0.0
 11
18.62443527311452
 21
-11.11250000000001
 31
0.0
  0
LINE
  5
A2
330
1F
100
AcDbEntity
  8
0
  6
Continuous
 62
     1
370
    15
100
AcDbLine
 10
79.09168866903094
 20
11.11250000000001
 30
0.0
 11
72.31686133016103
 21
11.11250000000001
 31
0.0
  0
SPLINE
  5
A3
330
1F
100
AcDbEntity
  8
외형선
  6
Continuous
370
    15
100
AcDbSpline
210
0.0
220
0.0
230
1.0
 70
     8
 71
     3
 72
     8
 73
     4
 74
     0
 42
0.000000001
 43
0.00000001
 40
0.0
 40
0.0
 40
0.0
 40
0.0
 40
1.0
 40
1.0
 40
1.0
 40
1.0
 10
11.99999999999991
 20
-10.46057896300233
 30
0.0
 10
11.83329506095284
 20
-10.42813850933275
 30
0.0
 10
11.66656964408388
 20
-10.3945224073891
 30
0.0
 10
11.4999079384838
 20
-10.35974793560338
 30
0.0
  0
SPLINE
  5
A4
330
1F
100
AcDbEntity
  8
외형선
  6
Continuous
370
    15
100
AcDbSpline
210
0.0
220
0.0
230
1.0
 70
     8
 71
     3
 72
     8
 73
     4
 74
     0
 42
0.000000001
 43
0.00000001
 40
0.0
 40
0.0
 40
0.0
 40
0.0
 40
1.0
 40
1.0
 40
1.0
 40
1.0
 10
11.99999999999989
 20
-0.0865912503006733
 30
0.0
 10
11.83329506095283
 20
0.0095327737233377
 30
0.0
 10
11.66656964408388
 20
0.1056704517584577
 30
0.0
 10
11.49990793848381
 20
0.2017732379761105
 30
0.0
  0
SPLINE
  5
A5
330
1F
100
AcDbEntity
  8
외형선
  6
Continuous
370
    15
100
AcDbSpline
210
0.0
220
0.0
230
1.0
 70
    24
 71
     3
 72
    20
 73
    16
 74
     0
 42
0.000000001
 43
0.00000001
 40
0.0
 40
0.0
 40
0.0
 40
0.0
 40
0.0978080027884221
 40
0.1753190362088992
 40
0.2528300696293763
 40
0.3303411030498533
 40
0.4078521364703301
 40
0.4853631698908073
 40
0.5628742033112845
 40
0.6403852367317607
 40
0.717896270152237
 40
0.7954073035727132
 40
0.8729183369931894
 40
0.9504293704136678
 40
1.0
 40
1.0
 40
1.0
 40
1.0
 10
11.99999999999991
 20
-10.46057896300233
 30
0.0
 10
11.9999999999999
 20
-10.06600236195478
 30
0.0
 10
11.99999999999988
 20
-9.358731101586839
 30
0.0
 10
11.99999999999994
 20
-8.198514417177316
 30
0.0
 10
11.99999999999991
 20
-7.090863998607338
 30
0.0
 10
11.9999999999999
 20
-5.961808021175949
 30
0.0
 10
11.99999999999985
 20
-4.846419711199796
 30
0.0
 10
11.99999999999991
 20
-3.776769822295089
 30
0.0
 10
11.99999999999994
 20
-2.781003262642022
 30
0.0
 10
11.99999999999992
 20
-1.890828058606447
 30
0.0
 10
11.99999999999989
 20
-1.127445562484032
 30
0.0
 10
11.99999999999991
 20
-0.5156431104332418
 30
0.0
 10
11.99999999999985
 20
-0.0760628141284506
 30
0.0
 10
11.9999999999999
 20
0.1741658445762261
 30
0.0
 10
11.99999999999989
 20
0.1984969103752606
 30
0.0
 10
11.99999999999991
 20
0.207987707250495
 30
0.0
  0
LINE
  5
A6
330
1F
100
AcDbEntity
  8
외형선
  6
Continuous
370
    15
100
AcDbLine
 10
11.4999079384838
 20
-11.1125
 30
0.0
 11
11.4999079384838
 21
-11.11066660158085
 31
0.0
  0
SPLINE
  5
A7
330
1F
100
AcDbEntity
  8
외형선
  6
Continuous
370
    15
100
AcDbSpline
210
0.0
220
0.0
230
1.0
 70
     8
 71
     3
 72
     8
 73
     4
 74
     0
 42
0.000000001
 43
0.00000001
 40
0.0
 40
0.0
 40
0.0
 40
0.0
 40
1.0
 40
1.0
 40
1.0
 40
1.0
 10
11.99999999999989
 20
11.1121626250416
 30
0.0
 10
11.83329506095283
 20
11.11291166910305
 30
0.0
 10
11.66656964408388
 20
11.11241327512012
 30
0.0
 10
11.49990793848381
 20
11.1106680181903
 30
0.0
  0
LINE
  5
A8
330
1F
100
AcDbEntity
  8
외형선
  6
Continuous
370
    15
100
AcDbLine
 10
11.4999079384838
 20
4.020281275792152
 30
0.0
 11
11.4999079384838
 21
11.1125
 31
0.0
  0
SPLINE
  5
A9
330
1F
100
AcDbEntity
  8
외형선
  6
Continuous
370
    15
100
AcDbSpline
210
0.0
220
0.0
230
1.0
 70
     8
 71
     3
 72
     8
 73
     4
 74
     0
 42
0.000000001
 43
0.00000001
 40
0.0
 40
0.0
 40
0.0
 40
0.0
 40
1.0
 40
1.0
 40
1.0
 40
1.0
 10
11.99999999999991
 20
3.750192529563436
 30
0.0
 10
11.83329506095284
 20
3.840680131074845
 30
0.0
 10
11.66656964408388
 20
3.930750432643458
 30
0.0
 10
11.4999079384838
 20
4.020358063750255
 30
0.0
  0
LINE
  5
AA
330
1F
100
AcDbEntity
  8
외형선
  6
Continuous
370
    15
100
AcDbLine
 10
11.4999079384838
 20
-10.35977773475451
 30
0.0
 11
11.4999079384838
 21
0.2018512286706649
 31
0.0
  0
LINE
  5
AB
330
1F
100
AcDbEntity
  8
외형선
  6
Continuous
370
    15
100
AcDbLine
 10
11.8498374075034
 20
-11.11171383959423
 30
0.0
 11
11.49990793848381
 21
-11.1106680181903
 31
0.0
  0
LINE
  5
AC
330
1F
100
AcDbEntity
  8
외형선
  6
Continuous
370
    15
100
AcDbLine
 10
-42.9275000000001
 20
-0.0000000000000021
 30
0.0
 11
-42.9275000000001
 21
9.461499999999988
 31
0.0
  0
LINE
  5
AD
330
1F
100
AcDbEntity
  8
외형선
  6
Continuous
370
    15
100
AcDbLine
 10
-42.9275000000001
 20
-11.1125
 30
0.0
 11
-42.9275000000001
 21
-0.0000000000000021
 31
0.0
  0
LINE
  5
AE
330
1F
100
AcDbEntity
  8
외형선
  6
Continuous
370
    15
100
AcDbLine
 10
11.99999999999991
 20
-11.1125
 30
0.0
 11
11.99999999999991
 21
-10.46057896300233
 31
0.0
  0
LINE
  5
AF
330
1F
100
AcDbEntity
  8
외형선
  6
Continuous
370
    15
100
AcDbLine
 10
11.99999999999992
 20
-0.0865912503006891
 30
0.0
 11
11.99999999999991
 21
3.750192529563436
 31
0.0
  0
LINE
  5
B0
330
1F
100
AcDbEntity
  8
외형선
  6
Continuous
370
    15
100
AcDbLine
 10
11.99999999999992
 20
11.1121626250416
 30
0.0
 11
11.99999999999991
 21
11.1125
 31
0.0
  0
LINE
  5
B1
330
1F
100
AcDbEntity
  8
외형선
  6
Continuous
370
    15
100
AcDbLine
 10
-45.15000000000009
 20
-0.0000000000000021
 30
0.0
 11
-45.15000000000009
 21
9.461499999999985
 31
0.0
  0
LINE
  5
B2
330
1F
100
AcDbEntity
  8
외형선
  6
Continuous
370
    15
100
AcDbLine
 10
-45.15000000000009
 20
-8.890000000000011
 30
0.0
 11
-45.15000000000009
 21
-0.0000000000000021
 31
0.0
  0
SPLINE
  5
B3
330
1F
100
AcDbEntity
  8
외형선
  6
Continuous
370
    15
100
AcDbSpline
210
0.0
220
0.0
230
1.0
 70
    24
 71
     3
 72
    15
 73
    11
 74
     0
 42
0.000000001
 43
0.00000001
 40
0.0
 40
0.0
 40
0.0
 40
0.0
 40
0.0600496151303348
 40
0.2010079396471919
 40
0.337993668740277
 40
0.4789519932571334
 40
0.6159377223502221
 40
0.7568960468670834
 40
0.8771210971322982
 40
1.0
 40
1.0
 40
1.0
 40
1.0
 10
11.99999999999994
 20
3.852330447676217
 30
0.0
 10
11.99999999999994
 20
3.948753198283081
 30
0.0
 10
11.99999999999994
 20
4.271515274152075
 30
0.0
 10
11.99999999999988
 20
4.966440236220332
 30
0.0
 10
11.99999999999996
 20
5.911769975052855
 30
0.0
 10
11.99999999999986
 20
6.946025451979941
 30
0.0
 10
11.99999999999988
 20
8.047966116425496
 30
0.0
 10
11.99999999999994
 20
9.123079464244757
 30
0.0
 10
11.99999999999993
 20
10.1598035911247
 30
0.0
 10
11.99999999999992
 20
10.79240766574467
 30
0.0
 10
11.99999999999992
 20
11.1121626250416
 30
0.0
  0
SPLINE
  5
B4
330
1F
100
AcDbEntity
  8
0
  6
Continuous
 62
     1
370
    15
100
AcDbSpline
210
0.0
220
0.0
230
1.0
 70
     8
 71
     3
 72
    30
 73
    26
 74
     0
 42
0.000000001
 43
0.00000001
 40
0.0
 40
0.0
 40
0.0
 40
0.0
 40
0.0379385677014011
 40
0.0811736458877391
 40
0.1244109201264725
 40
0.16765101703988
 40
0.2108945612002525
 40
0.255125798322492
 40
0.2993563648864475
 40
0.3435850133766863
 40
0.3878119573518352
 40
0.4320374109778239
 40
0.4762615889521114
 40
0.5204847064275117
 40
0.5647069789356719
 40
0.6089286223102603
 40
0.6531498526099211
 40
0.6973708860410643
 40
0.7415919388805361
 40
0.7858132273982381
 40
0.8300349677797518
 40
0.8742573760490274
 40
0.9184806679911962
 40
0.9627050590755634
 40
1.0
 40
1.0
 40
1.0
 40
1.0
 10
18.62443527311452
 20
11.0968182108121
 30
0.0
 10
19.53740773889342
 20
11.08148205404123
 30
0.0
 10
21.49081051955919
 20
11.04866869722723
 30
0.0
 10
24.48472178531602
 20
10.64333423143187
 30
0.0
 10
27.60624298408674
 20
9.96925478646693
 30
0.0
 10
30.7280090818706
 20
9.026039522824668
 30
0.0
 10
33.87374503434057
 20
7.838984650466759
 30
0.0
 10
37.04337797900854
 20
6.430834722569963
 30
0.0
 10
40.236696034624
 20
4.835728523504351
 30
0.0
 10
43.42988090886056
 20
3.107808940106036
 30
0.0
 10
46.62291873775977
 20
1.294602211165147
 30
0.0
 10
49.81582731772296
 20
-0.5541269155762316
 30
0.0
 10
53.00862544190679
 20
-2.387620311578968
 30
0.0
 10
56.20133169058053
 20
-4.155546846204171
 30
0.0
 10
59.39396474647641
 20
-5.809375469190084
 30
0.0
 10
62.58654330136588
 20
-7.303709959700176
 30
0.0
 10
65.77908607265357
 20
-8.597528465710662
 30
0.0
 10
68.97161178852396
 20
-9.655328499853626
 30
0.0
 10
72.1641391887716
 20
-10.44802781506555
 30
0.0
 10
75.35668699427947
 20
-10.95403467407165
 30
0.0
 10
78.54927398619017
 20
-11.15882359319055
 30
0.0
 10
81.74191867765663
 20
-11.0591284367373
 30
0.0
 10
84.93464050564965
 20
-10.64887106326213
 30
0.0
 10
87.96066495075878
 20
-10.00753054095305
 30
0.0
 10
89.92246133768617
 20
-9.381919781820734
 30
0.0
 10
90.81997949139641
 20
-9.095704037302466
 30
0.0
  0
SPLINE
  5
B5
330
1F
100
AcDbEntity
  8
0
  6
Continuous
 62
     1
370
    15
100
AcDbSpline
210
0.0
220
0.0
230
1.0
 70
     8
 71
     3
 72
    30
 73
    26
 74
     0
 42
0.000000001
 43
0.00000001
 40
0.0
 40
0.0
 40
0.0
 40
0.0
 40
0.0452646224441459
 40
0.0905272428375686
 40
0.1357880796101091
 40
0.1810473518269704
 40
0.2263052791112575
 40
0.271562081566089
 40
0.31681797969635
 40
0.3620731943301277
 40
0.4073279465399116
 40
0.4525824575636004
 40
0.4978369487253829
 40
0.5430916413565542
 40
0.5883467567163274
 40
0.633602515912698
 40
0.6788591398234258
 40
0.7241168490171916
 40
0.7693758636749901
 40
0.8146364035118194
 40
0.8598986876987255
 40
0.9051629347852598
 40
0.9504278681012093
 40
0.9946820257987428
 40
1.0
 40
1.0
 40
1.0
 40
1.0
 10
100.8999999999999
 20
-11.11249999999999
 30
0.0
 10
99.83553842721925
 20
-10.98959847392038
 30
0.0
 10
97.7066623627104
 20
-10.82552945350436
 30
0.0
 10
94.51345033890003
 20
-10.2007353654462
 30
0.0
 10
91.3203870283543
 20
-9.317703863093218
 30
0.0
 10
88.12745674197843
 20
-8.173017664894342
 30
0.0
 10
84.93464013264922
 20
-6.80552545967935
 30
0.0
 10
81.7419187775986
 20
-5.250788468457831
 30
0.0
 10
78.54927395941151
 20
-3.552023915656331
 30
0.0
 10
75.3566870014546
 20
-1.755725316099562
 30
0.0
 10
72.16413918684948
 20
0.0887575614053142
 30
0.0
 10
68.97161178903757
 20
1.930802013616336
 30
0.0
 10
65.77908607252127
 20
3.7198397431074
 30
0.0
 10
62.58654330138148
 20
5.406761018127143
 30
0.0
 10
59.39396474654635
 20
6.945256308509993
 30
0.0
 10
56.20133169028547
 20
8.293092921497546
 30
0.0
 10
53.00862544301712
 20
9.413255349720648
 30
0.0
 10
49.81582731357643
 20
10.27502898581029
 30
0.0
 10
46.62291875323612
 20
10.85459013286051
 30
0.0
 10
43.42988085109884
 20
11.13660471265461
 30
0.0
 10
40.23669625020655
 20
11.11112457649467
 30
0.0
 10
37.04337717440076
 20
10.78702157555942
 30
0.0
 10
33.87374800888274
 20
10.14745330995784
 30
0.0
 10
31.64354469838786
 20
9.56716425190629
 30
0.0
 10
30.47782260330484
 20
9.14489724790072
 30
0.0
 10
30.35276685544749
 20
9.099597500899153
 30
0.0
  0
SPLINE
  5
B6
330
1F
100
AcDbEntity
  8
0
  6
Continuous
 62
     1
370
    15
100
AcDbSpline
210
0.0
220
0.0
230
1.0
 70
     8
 71
     3
 72
    23
 73
    19
 74
     0
 42
0.000000001
 43
0.00000001
 40
0.0
 40
0.0
 40
0.0
 40
0.0
 40
0.0642353855304189
 40
0.1284712293334965
 40
0.192708467540096
 40
0.2569480352658865
 40
0.3211908659314585
 40
0.385437890585072
 40
0.4496900372290736
 40
0.5154097183746361
 40
0.5811284031909192
 40
0.6468442380938542
 40
0.7125575403932377
 40
0.77826862830121
 40
0.8439778208196675
 40
0.9096854376270833
 40
0.9753917989648083
 40
1.0
 40
1.0
 40
1.0
 40
1.0
 10
11.99999999999992
 20
3.750192529563432
 30
0.0
 10
13.04035776970208
 20
3.175215189870032
 30
0.0
 10
15.12108073130084
 20
2.025256408438977
 30
0.0
 10
18.24219467849344
 20
0.2207919490362561
 30
0.0
 10
21.363390249725
 20
-1.582415920282472
 30
0.0
 10
24.48472153666473
 20
-3.346016208419127
 30
0.0
 10
27.60624305071718
 20
-5.02132962449951
 30
0.0
 10
30.72800906402091
 20
-6.565041323232897
 30
0.0
 10
33.8737450392733
 20
-7.946827280342266
 30
0.0
 10
37.04337797756685
 20
-9.125222611679758
 30
0.0
 10
40.23669603541038
 20
-10.06189397924751
 30
0.0
 10
43.42988090715689
 20
-10.72222128289061
 30
0.0
 10
46.62291874378769
 20
-11.08845735497324
 30
0.0
 10
49.81582729531605
 20
-11.14909810030067
 30
0.0
 10
53.00862552550336
 20
-10.9079620521191
 30
0.0
 10
56.20133137861079
 20
-10.3512544690911
 30
0.0
 10
58.72833676287306
 20
-9.733269155838691
 30
0.0
 10
60.19110697286634
 20
-9.222164166037961
 30
0.0
 10
60.58967108534215
 20
-9.0829023016315
 30
0.0
  0
SPLINE
  5
B7
330
1F
100
AcDbEntity
  8
0
  6
Continuous
 62
     1
370
    15
100
AcDbSpline
210
0.0
220
0.0
230
1.0
 70
     8
 71
     3
 72
    27
 73
    23
 74
     0
 42
0.000000001
 43
0.00000001
 40
0.0
 40
0.0
 40
0.0
 40
0.0
 40
0.0025321051467414
 40
0.0554618340854438
 40
0.1083915397936373
 40
0.1613214811406634
 40
0.2142519169115558
 40
0.2671831057144844
 40
0.3201153058883351
 40
0.3730487754104941
 40
0.4259837718049102
 40
0.478920552050502
 40
0.5318593724899802
 40
0.5848004887391557
 40
0.6377424076030568
 40
0.6895021221233376
 40
0.7412577105128334
 40
0.7930099203440236
 40
0.8447595016430878
 40
0.8965072063472898
 40
0.9482537877594
 40
1.0
 40
1.0
 40
1.0
 40
1.0
 10
72.31686133016083
 20
-11.1055498455537
 30
0.0
 10
72.26595224631316
 20
-11.10785008933775
 30
0.0
 10
71.15086776199135
 20
-11.15823336006069
 30
0.0
 10
68.97161210685911
 20
-10.97368482992152
 30
0.0
 10
65.7790859873555
 20
-10.5314032701783
 30
0.0
 10
62.58654332422165
 20
-9.765349903430609
 30
0.0
 10
59.3939647403523
 20
-8.740491533547383
 30
0.0
 10
56.20133169222105
 20
-7.473184192277385
 30
0.0
 10
53.00862544146889
 20
-6.001367615695409
 30
0.0
 10
49.81582731783391
 20
-4.364595816185024
 30
0.0
 10
46.62291873775373
 20
-2.608023646229993
 30
0.0
 10
43.42988090877377
 20
-0.779811419816712
 30
0.0
 10
40.23669603497711
 20
1.06984081312821
 30
0.0
 10
37.04337797768297
 20
2.890115478252787
 30
0.0
 10
33.87374503924298
 20
4.618120532841473
 30
0.0
 10
30.728009064029
 20
6.209199850523071
 30
0.0
 10
27.60624305071503
 20
7.625434884846845
 30
0.0
 10
24.48472153666534
 20
8.841090084395388
 30
0.0
 10
21.3633902497249
 20
9.826202945528133
 30
0.0
 10
18.24219467849358
 20
10.5478219393383
 30
0.0
 10
15.12108073130091
 20
11.01357105191493
 30
0.0
 10
13.04035776970215
 20
11.07929884548575
 30
0.0
 10
12.0
 20
11.11216262504161
 30
0.0
  0
SPLINE
  5
B8
330
1F
100
AcDbEntity
  8
외형선
  6
Continuous
370
    15
100
AcDbSpline
210
0.0
220
0.0
230
1.0
 70
    24
 71
     3
 72
    15
 73
    11
 74
     0
 42
0.000000001
 43
0.00000001
 40
0.0
 40
0.0
 40
0.0
 40
0.0
 40
0.1421332703684022
 40
0.2887032672572755
 40
0.4259599282112614
 40
0.5671970416313391
 40
0.7044537025853261
 40
0.8456908160054045
 40
0.9829474769593922
 40
1.0
 40
1.0
 40
1.0
 40
1.0
 10
11.9999999999999
 20
11.11216262504229
 30
0.0
 10
11.99999999999992
 20
10.74214130197715
 30
0.0
 10
11.99999999999994
 20
9.990548345262107
 30
0.0
 10
11.99999999999991
 20
8.836991759809397
 30
0.0
 10
11.99999999999994
 20
7.697737886547006
 30
0.0
 10
11.99999999999984
 20
6.621443611387734
 30
0.0
 10
11.99999999999997
 20
5.601116192315237
 30
0.0
 10
11.99999999999985
 20
4.703293300869016
 30
0.0
 10
11.99999999999996
 20
4.112100247793972
 30
0.0
 10
11.99999999999991
 20
3.878171620050932
 30
0.0
 10
11.99999999999992
 20
3.852320447676218
 30
0.0
  0
LINE
  5
B9
330
1F
100
AcDbEntity
  8
0
  6
Continuous
 62
     1
370
    15
100
AcDbLine
 10
100.8999999999999
 20
-11.11249999999999
 30
0.0
 11
100.8999999999999
 21
-10.06438399360447
 31
0.0
  0
SPLINE
  5
BA
330
1F
100
AcDbEntity
  8
0
  6
Continuous
 62
     1
370
    15
100
AcDbSpline
210
0.0
220
0.0
230
1.0
 70
     8
 71
     3
 72
    24
 73
    20
 74
     0
 42
0.000000001
 43
0.00000001
 40
0.0
 40
0.0
 40
0.0
 40
0.0
 40
0.0183554600848586
 40
0.0797087943974438
 40
0.1410606574527723
 40
0.2024113482634161
 40
0.2637611662609491
 40
0.3251104111890595
 40
0.3864593829964355
 40
0.4478083817294823
 40
0.5091577074249719
 40
0.5705076600026959
 40
0.6318585391582107
 40
0.6932106442557536
 40
0.7545642742214084
 40
0.815919727436612
 40
0.877277301632072
 40
0.9386372937821786
 40
1.0
 40
1.0
 40
1.0
 40
1.0
 10
48.86064149507747
 20
11.0804700694144
 30
0.0
 10
49.17904617422189
 20
11.08966751821798
 30
0.0
 10
50.56172211847908
 20
11.12960754436147
 30
0.0
 10
53.00862453337482
 20
10.89120948609439
 30
0.0
 10
56.20133193401588
 20
10.36508577831485
 30
0.0
 10
59.39396468124046
 20
9.531915748278278
 30
0.0
 10
62.58654331887992
 20
8.443096747993534
 30
0.0
 10
65.7790860678326
 20
7.120879728162559
 30
0.0
 10
68.97161179029389
 20
5.603610230567598
 30
0.0
 10
72.16413918651284
 20
3.932389615509048
 30
0.0
 10
75.35668700154483
 20
2.153243271129682
 30
0.0
 10
78.54927395938735
 20
0.3149609165154015
 30
0.0
 10
81.74191877760502
 20
-1.531949722754748
 30
0.0
 10
84.93464013264744
 20
-3.336920357406254
 30
0.0
 10
88.12745674197893
 20
-5.04991465924582
 30
0.0
 10
91.32038702835416
 20
-6.625709090038102
 30
0.0
 10
94.51345033890006
 20
-8.014296779321995
 30
0.0
 10
97.70666236271046
 20
-9.202702781999824
 30
0.0
 10
99.83553842721928
 20
-9.777152688330174
 30
0.0
 10
100.8999999999999
 20
-10.06438399360447
 30
0.0
  0
LINE
  5
BB
330
1F
100
AcDbEntity
  8
0
  6
Continuous
 62
     1
370
    15
100
AcDbLine
 10
100.8999999999999
 20
-10.06438399360447
 30
0.0
 11
100.8999999999999
 21
0.9521339936046105
 31
0.0
  0
SPLINE
  5
BC
330
1F
100
AcDbEntity
  8
0
  6
Continuous
 62
     1
370
    15
100
AcDbSpline
210
0.0
220
0.0
230
1.0
 70
     8
 71
     3
 72
    20
 73
    16
 74
     0
 42
0.000000001
 43
0.00000001
 40
0.0
 40
0.0
 40
0.0
 40
0.0
 40
0.0792173731635657
 40
0.1584312425488899
 40
0.2376419904288666
 40
0.3168500001883338
 40
0.3960556561885104
 40
0.4752593436306849
 40
0.5544614484192749
 40
0.6336623570243323
 40
0.7128624563436362
 40
0.7920621335644478
 40
0.8712617760250434
 40
0.9504617710761369
 40
1.0
 40
1.0
 40
1.0
 40
1.0
 10
100.8999999999999
 20
0.95213399360461
 30
0.0
 10
99.83553842721916
 20
1.561837476218038
 30
0.0
 10
97.70666236271009
 20
2.781217474307374
 30
0.0
 10
94.51345033890145
 20
4.526944556524644
 30
0.0
 10
91.32038702834889
 20
6.150224669154374
 30
0.0
 10
88.12745674199859
 20
7.60412561637695
 30
0.0
 10
84.93464013257407
 20
8.849371894286739
 30
0.0
 10
81.74191877787894
 20
9.851633848678148
 30
0.0
 10
78.54927395836545
 20
10.58338103566991
 30
0.0
 10
75.3566870053585
 20
11.024777178488
 30
0.0
 10
72.16413917228006
 20
11.16275189948423
 30
0.0
 10
68.97161184341093
 20
10.99710734538853
 30
0.0
 10
65.77908586959683
 20
10.51900237788121
 30
0.0
 10
62.98510736687828
 20
9.882350067296096
 30
0.0
 10
61.25529836790105
 20
9.305047322940846
 30
0.0
 10
60.58967108534227
 20
9.082902301631496
 30
0.0
  0
SPLINE
  5
BD
330
1F
100
AcDbEntity
  8
0
  6
Continuous
 62
     1
370
    15
100
AcDbSpline
210
0.0
220
0.0
230
1.0
 70
     8
 71
     3
 72
    11
 73
     7
 74
     0
 42
0.000000001
 43
0.00000001
 40
0.0
 40
0.0
 40
0.0
 40
0.0
 40
0.3167998554436252
 40
0.6335856988543332
 40
0.9503590589876565
 40
1.0
 40
1.0
 40
1.0
 40
1.0
 10
100.8999999999999
 20
11.11250000000001
 30
0.0
 10
99.83553832401044
 20
10.99080055512248
 30
0.0
 10
97.70666205308852
 20
10.8291356439427
 30
0.0
 10
94.51345157730363
 20
10.18631158485969
 30
0.0
 10
92.21790730807429
 20
9.600740036916724
 30
0.0
 10
90.9867709297816
 20
9.155961569778018
 30
0.0
 10
90.81997949139641
 20
9.095704037302465
 30
0.0
  0
SPLINE
  5
BE
330
1F
100
AcDbEntity
  8
0
  6
Continuous
 62
     1
370
    15
100
AcDbSpline
210
0.0
220
0.0
230
1.0
 70
     8
 71
     3
 72
    17
 73
    13
 74
     0
 42
0.000000001
 43
0.00000001
 40
0.0
 40
0.0
 40
0.0
 40
0.0
 40
0.0614164020434729
 40
0.1675590020422786
 40
0.2737032112178414
 40
0.3774771975561839
 40
0.4812429113404043
 40
0.5850018513920665
 40
0.6887555214522021
 40
0.7925054290934102
 40
0.8962530846260188
 40
1.0
 40
1.0
 40
1.0
 40
1.0
 10
42.08446070728737
 20
-11.075242482205
 30
0.0
 10
41.46855374939795
 20
-11.07991314130233
 30
0.0
 10
39.78820856828824
 20
-11.09265584441079
 30
0.0
 10
37.04337721707274
 20
-10.77428484905812
 30
0.0
 10
33.87374523798952
 20
-10.16462364763616
 30
0.0
 10
30.72800901128873
 20
-9.274132200154483
 30
0.0
 10
27.60624306484527
 20
-8.150554536221806
 30
0.0
 10
24.48472153287959
 20
-6.812129231789908
 30
0.0
 10
21.36339025073887
 20
-5.295225045711446
 30
0.0
 10
18.24219467822319
 20
-3.639267987485274
 30
0.0
 10
15.12108073136849
 20
-1.888003195395698
 30
0.0
 10
13.04035776972469
 20
-0.687060470695636
 30
0.0
 10
12.0
 20
-0.086591250300729
 30
0.0
  0
LINE
  5
BF
330
1F
100
AcDbEntity
  8
0
  6
Continuous
 62
     1
370
    15
100
AcDbLine
 10
100.8999999999999
 20
4.710416927862482
 30
0.0
 11
100.8999999999999
 21
11.11250000000001
 31
0.0
  0
SPLINE
  5
C0
330
1F
100
AcDbEntity
  8
0
  6
Continuous
 62
     1
370
    15
100
AcDbSpline
210
0.0
220
0.0
230
1.0
 70
     8
 71
     3
 72
    13
 73
     9
 74
     0
 42
0.000000001
 43
0.00000001
 40
0.0
 40
0.0
 40
0.0
 40
0.0
 40
0.1700623032410499
 40
0.340125819752687
 40
0.5101930279285464
 40
0.6802664034745519
 40
0.8503484176089312
 40
1.0
 40
1.0
 40
1.0
 40
1.0
 10
11.9999999999999
 20
-10.46057896300233
 30
0.0
 10
13.04035776518015
 20
-10.63679502201969
 30
0.0
 10
15.12108071773506
 20
-10.98922839722757
 30
0.0
 10
18.24219473275734
 20
-11.15553611654309
 30
0.0
 10
21.36339004622739
 20
-11.0504385848783
 30
0.0
 10
24.4847222964354
 20
-10.64392557695843
 30
0.0
 10
27.48118621140728
 20
-10.00887583500696
 30
0.0
 10
29.437236057615
 20
-9.389497880470689
 30
0.0
 10
30.35276685544749
 20
-9.099597500899156
 30
0.0
  0
SPLINE
  5
C1
330
1F
100
AcDbEntity
  8
0
  6
Continuous
 62
     1
370
    15
100
AcDbSpline
210
0.0
220
0.0
230
1.0
 70
     8
 71
     3
 72
    14
 73
    10
 74
     0
 42
0.000000001
 43
0.00000001
 40
0.0
 40
0.0
 40
0.0
 40
0.0
 40
0.1215250769903393
 40
0.267926098159772
 40
0.4143307580348098
 40
0.5607397686260193
 40
0.7071538403911675
 40
0.8535736819832654
 40
0.9999999999999999
 40
0.9999999999999999
 40
0.9999999999999999
 40
0.9999999999999999
 10
79.09168866903094
 20
11.09096612590368
 30
0.0
 10
79.97509167912516
 20
11.07934155158528
 30
0.0
 10
81.92272855752809
 20
11.05371287545498
 30
0.0
 10
84.93464031669578
 20
10.64785064490698
 30
0.0
 10
88.12745669266243
 20
9.95731205964422
 30
0.0
 10
91.32038704156457
 20
8.985426842696734
 30
0.0
 10
94.51345033537707
 20
7.766651706919813
 30
0.0
 10
97.7066623635913
 20
6.343279343247547
 30
0.0
 10
99.83553842751287
 20
5.25526458366856
 30
0.0
 10
100.8999999999999
 20
4.711245172910994
 30
0.0
  0
SPLINE
  5
C2
330
1F
100
AcDbEntity
  8
외형선
  6
Continuous
370
    15
100
AcDbSpline
210
0.0
220
0.0
230
1.0
 70
    24
 71
     3
 72
    21
 73
    17
 74
     0
 42
0.000000001
 43
0.00000001
 40
0.0
 40
0.0
 40
0.0
 40
0.0
 40
0.0233501231289879
 40
0.0988360301439103
 40
0.1743219371588325
 40
0.2498078441737552
 40
0.3252937511886779
 40
0.4007796582036013
 40
0.4762655652185248
 40
0.5517514722334478
 40
0.627237379248371
 40
0.7027232862632937
 40
0.7782091932782164
 40
0.8536951002931399
 40
0.9291810073080635
 40
1.0
 40
1.0
 40
1.0
 40
1.0
 10
11.99999999999992
 20
0.2140131981025853
 30
0.0
 10
11.99999999999991
 20
0.2219999302056543
 30
0.0
 10
11.99999999999992
 20
0.2558060429413207
 30
0.0
 10
11.99999999999991
 20
0.1160915397704224
 30
0.0
 10
11.99999999999988
 20
-0.1936732958293005
 30
0.0
 10
11.99999999999989
 20
-0.6985531229358485
 30
0.0
 10
11.99999999999988
 20
-1.358953653674199
 30
0.0
 10
11.99999999999994
 20
-2.16733905613658
 30
0.0
 10
11.99999999999991
 20
-3.093995213377181
 30
0.0
 10
11.99999999999991
 20
-4.117399444872309
 30
0.0
 10
11.99999999999992
 20
-5.205152392362923
 30
0.0
 10
11.99999999999989
 20
-6.328283349157008
 30
0.0
 10
11.99999999999995
 20
-7.454826737138509
 30
0.0
 10
11.99999999999994
 20
-8.549652789032487
 30
0.0
 10
11.99999999999997
 20
-9.571769056637132
 30
0.0
 10
11.99999999999993
 20
-10.17067709376085
 30
0.0
 10
11.99999999999991
 20
-10.46057896300233
 30
0.0
  0
LINE
  5
C3
330
1F
100
AcDbEntity
  8
0
  6
Continuous
 62
     1
370
    15
100
AcDbLine
 10
100.8999999999999
 20
0.9521339936046103
 30
0.0
 11
100.8999999999999
 21
4.711245172910995
 31
0.0
  0
LINE
  5
C4
330
1F
100
AcDbEntity
  8
중심선
100
AcDbLine
 10
-48.1500000000001
 20
-0.000000000000006
 30
0.0
 11
103.8999999999999
 21
0.000000000000013
 31
0.0
  0
LINE
  5
C5
330
1F
100
AcDbEntity
  8
참조1
100
AcDbLine
 10
37.1806036497773
 20
0.0010749287238892
 30
0.0
 11
37.1806036497773
 21
-39.99892507127611
 31
0.0
  0
LINE
  5
C6
330
1F
100
AcDbEntity
  8
참조1
100
AcDbLine
 10
37.1806036497773
 20
-39.99892507127611
 30
0.0
 11
-21.63450316453139
 21
-39.9989250712761
 31
0.0
  0
CIRCLE
  5
C7
330
1F
100
AcDbEntity
  8
해칭선
100
AcDbCircle
 10
0.0
 20
0.0
 30
0.0
 40
3.000000000000001
  0
INSERT
  5
C8
330
1F
100
AcDbEntity
  8
0
  6
Continuous
 62
     7
100
AcDbBlockReference
 66
     1
  2
블럭10
 10
13.93472706787471
 20
-52.04717430164393
 30
0.0
  0
ATTRIB
  5
C9
330
C8
100
AcDbEntity
  8
FORMAT
 62
     2
100
AcDbText
 10
4.753431779133429
 20
-49.97180738881175
 30
0.0
 40
4.233333333333333
  1
E2034056 [ 4 FLUTE ]
 41
0.75
  7
SLDTEXTSTYLE0
 11
4.753431779133429
 21
-52.08847405547841
 31
0.0
100
AcDbAttribute
  2
AUTOATTR0
 70
     0
 74
     1
  0
SEQEND
  5
CA
330
C8
100
AcDbEntity
  8
0
  6
Continuous
 62
     7
  0
HATCH
  5
CB
330
1F
100
AcDbEntity
  8
중심선
100
AcDbHatch
 10
0.0
 20
0.0
 30
0.0
210
0.0
220
0.0
230
1.0
  2
SOLID
 70
     1
 71
     0
 91
        1
 92
        0
 93
        4
 72
     1
 10
19.64963637225554
 20
-35.8
 11
16.20336112841826
 21
-35.8
 72
     1
 10
16.20336112841826
 20
-35.8
 11
14.07513126921424
 21
-38.3363255805726
 72
     1
 10
14.07513126921424
 20
-38.3363255805726
 11
17.52143959816467
 21
-38.33628615127011
 72
     1
 10
17.52143959816467
 20
-38.33628615127011
 11
19.64963637225554
 21
-35.8
 97
        0
 75
     0
 76
     1
 98
        1
 10
-9.305603649777382
 20
-0.0010749287238953
  0
HATCH
  5
CC
330
1F
100
AcDbEntity
  8
중심선
100
AcDbHatch
 10
0.0
 20
0.0
 30
0.0
210
0.0
220
0.0
230
1.0
  2
SOLID
 70
     1
 71
     0
 91
        1
 92
        0
 93
        4
 72
     1
 10
24.66240036329152
 20
-35.79999999999998
 11
21.21612511945424
 21
-35.8
 72
     1
 10
21.21612511945424
 20
-35.8
 11
16.68498711109682
 21
-41.20000000000002
 72
     1
 10
16.68498711109682
 20
-41.20000000000002
 11
20.1312623549341
 21
-41.20000000000002
 72
     1
 10
20.1312623549341
 20
-41.20000000000002
 11
24.66240036329152
 21
-35.79999999999998
 97
        0
 75
     0
 76
     1
 98
        1
 10
-9.305603649777382
 20
-0.0010749287238953
  0
HATCH
  5
CD
330
1F
100
AcDbEntity
  8
중심선
100
AcDbHatch
 10
0.0
 20
0.0
 30
0.0
210
0.0
220
0.0
230
1.0
  2
SOLID
 70
     1
 71
     0
 91
        1
 92
        0
 93
        4
 72
     1
 10
29.67516435432741
 20
-35.79999999999998
 11
26.22888911049024
 21
-35.80000000000003
 72
     1
 10
26.22888911049024
 20
-35.80000000000003
 11
19.18045220860103
 21
-44.20000000000002
 72
     1
 10
19.18045220860103
 20
-44.20000000000002
 11
22.62672745243831
 21
-44.20000000000002
 72
     1
 10
22.62672745243831
 20
-44.20000000000002
 11
29.67516435432741
 21
-35.79999999999998
 97
        0
 75
     0
 76
     1
 98
        1
 10
-9.305603649777382
 20
-0.0010749287238953
  0
HATCH
  5
CE
330
1F
100
AcDbEntity
  8
중심선
100
AcDbHatch
 10
0.0
 20
0.0
 30
0.0
210
0.0
220
0.0
230
1.0
  2
SOLID
 70
     1
 71
     0
 91
        1
 92
        0
 93
        6
 72
     3
 10
34.47505478533956
 20
-40.00000000005127
 11
3.960054785062283
 21
1.540882976769353E-10
 40
0.3939339440162628
 50
17.0953918060842
 51
320.001965768509
 73
     0
 72
     1
 10
36.15805444104024
 20
-38.58789400463827
 11
38.46335631474122
 21
-36.65356729459038
 72
     3
 10
34.47505478528672
 20
-40.00000000000015
 11
6.600054785286829
 21
-1.278976924368180E-13
 40
0.636358354079598
 50
39.99873849337392
 51
368.4976242363725
 73
     1
 72
     1
 10
40.90038727718735
 20
-39.03999999993002
 11
33.15512209212272
 21
-39.03999999993002
 72
     1
 10
33.15512209212272
 20
-39.03999999993002
 11
33.1550970476767
 21
-40.95999999992991
 72
     1
 10
33.1550970476767
 20
-40.95999999992991
 11
37.59647681714877
 21
-40.95999999992988
 97
        0
 75
     0
 76
     1
 98
        1
 10
-9.305603649777382
 20
-0.0010749287238953
  0
DIMENSION
  5
CF
330
1F
100
AcDbEntity
  8
치수문자_일반주서
100
AcDbDimension
  2
_D
 10
11.9999999999999
 20
24.2524726843074
 30
0.0
 11
53.12769453565157
 21
24.2524726843074
 31
0.0
 70
   160
  1
<>
 71
     2
 42
88.90000000000005
  3
SLDDIMSTYLE1
100
AcDbAlignedDimension
 13
100.8999999999999
 23
11.11250000000001
 33
0.0
 14
11.9999999999999
 24
11.11216262504229
 34
0.0
 50
0.0000000000000389
100
AcDbRotatedDimension
1001
ACAD
1000
DSTYLE
1002
{
1070
   171
1070
     6
1070
   273
1070
     7
1002
}
  0
DIMENSION
  5
E4
330
1F
100
AcDbEntity
  8
치수문자_일반주서
100
AcDbDimension
  2
_D_1
 10
-45.15000000000009
 20
39.97367788211007
 30
0.0
 11
27.87499999999991
 21
39.97367788211007
 31
0.0
 70
   160
  1
<>
 71
     2
 42
146.05
  3
SLDDIMSTYLE1
100
AcDbAlignedDimension
 13
100.8999999999999
 23
11.11250000000001
 33
0.0
 14
-45.15000000000009
 24
11.1125
 34
0.0
 50
0.0000000000000028
100
AcDbRotatedDimension
1001
ACAD
1000
DSTYLE
1002
{
1070
   171
1070
     6
1070
   273
1070
     7
1002
}
  0
DIMENSION
  5
F8
330
1F
100
AcDbEntity
  8
치수문자_일반주서
100
AcDbDimension
  2
_D_2
 10
-55.18077283782726
 20
-11.11250000000005
 30
0.0
 11
-55.1807728378273
 21
-0.0000000000000046
 31
0.0
 70
   160
  1
%%c<>
 71
     2
 42
22.225
 52
-270.0
  3
SLDDIMSTYLE1
100
AcDbAlignedDimension
 13
-45.15000000000009
 23
11.1125
 33
0.0
 14
-42.92750000000011
 24
-11.1125
 34
0.0
 50
90.0000000000002
100
AcDbRotatedDimension
1001
ACAD
1000
DSTYLE
1002
{
1070
   171
1070
     6
1070
   273
1070
     7
1002
}
  0
DIMENSION
  5
10D
330
1F
100
AcDbEntity
  8
치수문자_일반주서
100
AcDbDimension
  2
_D_3
 10
116.483195957824
 20
-11.11249999999993
 30
0.0
 11
116.4831959578239
 21
28.87363479835854
 31
0.0
 70
   160
  1
%%c<>
 71
     2
 42
22.225
 52
-270.0
  3
SLDDIMSTYLE1
100
AcDbAlignedDimension
 13
100.8999999999999
 23
11.11250000000001
 33
0.0
 14
100.8999999999999
 24
-11.11249999999999
 34
0.0
 50
90.0000000000002
100
AcDbRotatedDimension
1001
ACAD
1000
DSTYLE
1002
{
1070
   171
1070
     6
1070
   273
1070
     7
1002
}
  0
LINE
  5
120
330
1F
100
AcDbEntity
  8
참조1
100
AcDbLine
 10
76.33783746512287
 20
7.441074928723896
 30
0.0
 11
76.33783746512287
 21
-7.438925071276109
 31
0.0
  0
LINE
  5
121
330
1F
100
AcDbEntity
  8
참조1
100
AcDbLine
 10
89.03783746512288
 20
5.441074928723896
 30
0.0
 11
76.33783746512287
 21
5.441074928723896
 31
0.0
  0
SOLID
  5
122
330
1F
100
AcDbEntity
  8
참조1
100
AcDbTrace
 10
76.33783746512287
 20
5.441074928723896
 30
0.0
 11
82.68783746512287
 21
4.425074928723896
 31
0.0
 12
82.68783746512287
 22
6.457074928723896
 32
0.0
 13
82.68783746512287
 23
6.457074928723896
 33
0.0
  0
LINE
  5
123
330
1F
100
AcDbEntity
  8
참조1
100
AcDbLine
 10
89.03783746512288
 20
-5.438925071276109
 30
0.0
 11
76.33783746512287
 21
-5.438925071276109
 31
0.0
  0
SOLID
  5
124
330
1F
100
AcDbEntity
  8
참조1
100
AcDbTrace
 10
76.33783746512287
 20
-5.438925071276109
 30
0.0
 11
82.68783746512287
 21
-6.454925071276109
 31
0.0
 12
82.68783746512287
 22
-4.422925071276109
 32
0.0
 13
82.68783746512287
 23
-4.422925071276109
 33
0.0
  0
MTEXT
  5
125
330
1F
100
AcDbEntity
  8
참조1
100
AcDbMText
 10
85.72218759774887
 20
11.01136670591222
 30
0.0
 40
3.5
 41
0.0
 71
     1
 72
     1
  1
A
  7
SLDTEXTSTYLE0
 73
     1
 44
1.0
  0
MTEXT
  5
126
330
1F
100
AcDbEntity
  8
참조1
100
AcDbMText
 10
85.72218759774887
 20
0.1313667059122201
 30
0.0
 40
3.5
 41
0.0
 71
     1
 72
     1
  1
A
  7
SLDTEXTSTYLE0
 73
     1
 44
1.0
  0
INSERT
  5
12D
330
1F
100
AcDbEntity
  8
해칭선
100
AcDbBlockReference
  2
SW_DOWELSYMBOL_0
 10
0.0
 20
0.0
 30
0.0
  0
LINE
  5
2FD
330
1F
100
AcDbEntity
  8
외형선
  6
Continuous
370
    15
100
AcDbLine
 10
-25.14432500000009
 20
9.461499999999987
 30
0.0
 11
-13.56192500000009
 21
9.461499999999987
 31
0.0
  0
LINE
  5
2FE
330
1F
100
AcDbEntity
  8
외형선
  6
Continuous
370
    15
100
AcDbLine
 10
-25.14432500000009
 20
9.461499999999987
 30
0.0
 11
-26.7953250000001
 21
11.11249999999997
 31
0.0
  0
LINE
  5
2FF
330
1F
100
AcDbEntity
  8
외형선
  6
Continuous
370
    15
100
AcDbLine
 10
-13.56192500000009
 20
9.461499999999987
 30
0.0
 11
-11.91092499999996
 21
11.11249999999997
 31
0.0
  0
LINE
  5
301
330
1F
100
AcDbEntity
  8
외형선
  6
Continuous
370
    15
100
AcDbLine
 10
-45.15000000000009
 20
9.461499999999987
 30
0.0
 11
-32.4500000000001
 21
9.461499999999987
 31
0.0
  0
LINE
  5
302
330
1F
100
AcDbEntity
  8
외형선
  6
Continuous
370
    15
100
AcDbLine
 10
-32.4500000000001
 20
9.461499999999987
 30
0.0
 11
-30.79900000000009
 21
11.11249999999995
 31
0.0
  0
LINE
  5
304
330
1F
100
AcDbEntity
  8
외형선
  6
Continuous
370
    15
100
AcDbLine
 10
-26.79532500000014
 20
11.1125
 30
0.0
 11
-30.79900000000005
 21
11.1125
 31
0.0
  0
LINE
  5
305
330
1F
100
AcDbEntity
  8
0
100
AcDbLine
 10
-45.15000000000009
 20
11.1125
 30
0.0
 11
-52.35373273608451
 21
11.1125
 31
0.0
  0
ENDSEC
  0
SECTION
  2
OBJECTS
  0
DICTIONARY
  5
C
330
0
100
AcDbDictionary
281
     1
  3
ACAD_GROUP
350
D
  3
ACAD_IMAGE_VARS
350
151
  3
ACAD_LAYOUT
350
1A
  3
ACAD_MLINESTYLE
350
17
  3
ACAD_PLOTSETTINGS
350
19
  3
ACAD_PLOTSTYLENAME
350
E
  3
ACAD_SCALELIST
350
47
  3
APPDATA
350
14F
  3
DWGPROPS
350
309
  0
DICTIONARY
  5
1EC
330
2
100
AcDbDictionary
280
     1
281
     1
  3
ACAD_LAYERSTATES
360
1ED
  0
DICTIONARY
  5
D
102
{ACAD_REACTORS
330
C
102
}
330
C
100
AcDbDictionary
281
     1
  0
RASTERVARIABLES
  5
151
102
{ACAD_REACTORS
330
C
102
}
330
C
100
AcDbRasterVariables
 90
        0
 70
     1
 71
     1
 72
     1
  0
DICTIONARY
  5
1A
102
{ACAD_REACTORS
330
C
102
}
330
C
100
AcDbDictionary
281
     1
  3
Layout1
350
1E
  3
Layout2
350
26
  3
Model
350
22
  0
DICTIONARY
  5
17
102
{ACAD_REACTORS
330
C
102
}
330
C
100
AcDbDictionary
281
     1
  3
Standard
350
18
  0
DICTIONARY
  5
19
102
{ACAD_REACTORS
330
C
102
}
330
C
100
AcDbDictionary
281
     1
  0
ACDBDICTIONARYWDFLT
  5
E
102
{ACAD_REACTORS
330
C
102
}
330
C
100
AcDbDictionary
281
     1
  3
Normal
350
F
100
AcDbDictionaryWithDefault
340
F
  0
DICTIONARY
  5
47
102
{ACAD_REACTORS
330
C
102
}
330
C
100
AcDbDictionary
281
     1
  3
A0
350
48
  3
A1
350
49
  3
A2
350
4A
  3
A3
350
4B
  3
A4
350
4C
  3
A5
350
4D
  3
A6
350
4E
  3
A7
350
4F
  3
A8
350
50
  3
A9
350
51
  3
B0
350
52
  3
B1
350
53
  3
B2
350
54
  3
B3
350
55
  3
B4
350
56
  3
B5
350
57
  3
B6
350
58
  3
B7
350
59
  3
B8
350
5A
  3
B9
350
5B
  3
C0
350
5C
  3
C1
350
5D
  3
C2
350
5E
  3
C3
350
5F
  3
C4
350
60
  3
C5
350
61
  3
C6
350
62
  3
C7
350
63
  3
C8
350
64
  3
C9
350
65
  3
D0
350
66
  3
D1
350
67
  3
D2
350
68
  0
DICTIONARY
  5
14F
102
{ACAD_REACTORS
330
C
102
}
330
C
100
AcDbDictionary
281
     1
  0
XRECORD
  5
309
102
{ACAD_REACTORS
330
C
102
}
330
C
100
AcDbXrecord
280
     1
  1
DWGPROPS COOKIE
  2

  3

  4

  6

  7

  8
12017012
  9

300
=
301
=
302
=
303
=
304
=
305
=
306
=
307
=
308
=
309
=
 40
0.0
 41
2458312.299833218
 42
2458320.134369305
  1

 90
        0
  0
DICTIONARY
  5
1ED
102
{ACAD_REACTORS
330
1EC
102
}
330
1EC
100
AcDbDictionary
281
     1
  0
LAYOUT
  5
1E
102
{ACAD_REACTORS
330
1A
102
}
330
1A
100
AcDbPlotSettings
  1

  2
none_device
  4

  6

 40
0.0
 41
0.0
 42
0.0
 43
0.0
 44
0.0
 45
0.0
 46
0.0
 47
0.0
 48
0.0
 49
0.0
140
0.0
141
0.0
142
1.0
143
1.0
 70
   688
 72
     1
 73
     0
 74
     5
  7

 75
    16
147
1.0
148
0.0
149
0.0
100
AcDbLayout
  1
Layout1
 70
     1
 71
     1
 10
0.0
 20
0.0
 11
420.0
 21
297.0
 12
0.0
 22
0.0
 32
0.0
 14
1.000000000000000E+20
 24
1.000000000000000E+20
 34
1.000000000000000E+20
 15
-1.000000000000000E+20
 25
-1.000000000000000E+20
 35
-1.000000000000000E+20
146
0.0
 13
0.0
 23
0.0
 33
0.0
 16
1.0
 26
0.0
 36
0.0
 17
0.0
 27
1.0
 37
0.0
 76
     0
330
1B
  0
LAYOUT
  5
26
102
{ACAD_REACTORS
330
1A
102
}
330
1A
100
AcDbPlotSettings
  1

  2
none_device
  4

  6

 40
0.0
 41
0.0
 42
0.0
 43
0.0
 44
0.0
 45
0.0
 46
0.0
 47
0.0
 48
0.0
 49
0.0
140
0.0
141
0.0
142
1.0
143
1.0
 70
   688
 72
     1
 73
     0
 74
     5
  7

 75
    16
147
1.0
148
0.0
149
0.0
100
AcDbLayout
  1
Layout2
 70
     1
 71
     2
 10
0.0
 20
0.0
 11
0.0
 21
0.0
 12
0.0
 22
0.0
 32
0.0
 14
0.0
 24
0.0
 34
0.0
 15
0.0
 25
0.0
 35
0.0
146
0.0
 13
0.0
 23
0.0
 33
0.0
 16
1.0
 26
0.0
 36
0.0
 17
0.0
 27
1.0
 37
0.0
 76
     0
330
23
  0
LAYOUT
  5
22
102
{ACAD_REACTORS
330
1A
102
}
330
1A
100
AcDbPlotSettings
  1

  2
none_device
  4
ANSI_A_(11.00_x_8.50_Inches)
  6

 40
6.35
 41
19.05
 42
6.35000508
 43
19.05000254
 44
279.4
 45
215.9
 46
43.27929805118809
 47
67.79183189516475
 48
0.0
 49
0.0
140
0.0
141
0.0
142
0.0335093485976394
143
1.0
 70
  1696
 72
     0
 73
     0
 74
     0
  7

 75
     0
147
0.0235690232323232
148
0.0
149
0.0
100
AcDbLayout
  1
Model
 70
     1
 71
     0
 10
0.0
 20
0.0
 11
420.0
 21
297.0
 12
0.0
 22
0.0
 32
0.0
 14
1.000000000000000E+20
 24
1.000000000000000E+20
 34
1.000000000000000E+20
 15
-1.000000000000000E+20
 25
-1.000000000000000E+20
 35
-1.000000000000000E+20
146
0.0
 13
0.0
 23
0.0
 33
0.0
 16
1.0
 26
0.0
 36
0.0
 17
0.0
 27
1.0
 37
0.0
 76
     0
330
1F
331
29
  0
MLINESTYLE
  5
18
102
{ACAD_REACTORS
330
17
102
}
330
17
100
AcDbMlineStyle
  2
Standard
 70
     0
  3

 62
   256
 51
90.0
 52
90.0
 71
     2
 49
0.5
 62
   256
  6
BYLAYER
 49
-0.5
 62
   256
  6
BYLAYER
  0
ACDBPLACEHOLDER
  5
F
102
{ACAD_REACTORS
330
E
102
}
330
E
  0
SCALE
  5
48
102
{ACAD_REACTORS
330
47
102
}
330
47
100
AcDbScale
 70
     0
300
1:1
140
1.0
141
1.0
290
     1
  0
SCALE
  5
49
102
{ACAD_REACTORS
330
47
102
}
330
47
100
AcDbScale
 70
     0
300
1:2
140
1.0
141
2.0
290
     0
  0
SCALE
  5
4A
102
{ACAD_REACTORS
330
47
102
}
330
47
100
AcDbScale
 70
     0
300
1:4
140
1.0
141
4.0
290
     0
  0
SCALE
  5
4B
102
{ACAD_REACTORS
330
47
102
}
330
47
100
AcDbScale
 70
     0
300
1:5
140
1.0
141
5.0
290
     0
  0
SCALE
  5
4C
102
{ACAD_REACTORS
330
47
102
}
330
47
100
AcDbScale
 70
     0
300
1:8
140
1.0
141
8.0
290
     0
  0
SCALE
  5
4D
102
{ACAD_REACTORS
330
47
102
}
330
47
100
AcDbScale
 70
     0
300
1:10
140
1.0
141
10.0
290
     0
  0
SCALE
  5
4E
102
{ACAD_REACTORS
330
47
102
}
330
47
100
AcDbScale
 70
     0
300
1:16
140
1.0
141
16.0
290
     0
  0
SCALE
  5
4F
102
{ACAD_REACTORS
330
47
102
}
330
47
100
AcDbScale
 70
     0
300
1:20
140
1.0
141
20.0
290
     0
  0
SCALE
  5
50
102
{ACAD_REACTORS
330
47
102
}
330
47
100
AcDbScale
 70
     0
300
1:30
140
1.0
141
30.0
290
     0
  0
SCALE
  5
51
102
{ACAD_REACTORS
330
47
102
}
330
47
100
AcDbScale
 70
     0
300
1:40
140
1.0
141
40.0
290
     0
  0
SCALE
  5
52
102
{ACAD_REACTORS
330
47
102
}
330
47
100
AcDbScale
 70
     0
300
1:50
140
1.0
141
50.0
290
     0
  0
SCALE
  5
53
102
{ACAD_REACTORS
330
47
102
}
330
47
100
AcDbScale
 70
     0
300
1:100
140
1.0
141
100.0
290
     0
  0
SCALE
  5
54
102
{ACAD_REACTORS
330
47
102
}
330
47
100
AcDbScale
 70
     0
300
2:1
140
2.0
141
1.0
290
     0
  0
SCALE
  5
55
102
{ACAD_REACTORS
330
47
102
}
330
47
100
AcDbScale
 70
     0
300
4:1
140
4.0
141
1.0
290
     0
  0
SCALE
  5
56
102
{ACAD_REACTORS
330
47
102
}
330
47
100
AcDbScale
 70
     0
300
8:1
140
8.0
141
1.0
290
     0
  0
SCALE
  5
57
102
{ACAD_REACTORS
330
47
102
}
330
47
100
AcDbScale
 70
     0
300
10:1
140
10.0
141
1.0
290
     0
  0
SCALE
  5
58
102
{ACAD_REACTORS
330
47
102
}
330
47
100
AcDbScale
 70
     0
300
100:1
140
100.0
141
1.0
290
     0
  0
SCALE
  5
59
102
{ACAD_REACTORS
330
47
102
}
330
47
100
AcDbScale
 70
     0
300
1/128" = 1'-0"
140
0.0078125
141
12.0
290
     0
  0
SCALE
  5
5A
102
{ACAD_REACTORS
330
47
102
}
330
47
100
AcDbScale
 70
     0
300
1/64" = 1'-0"
140
0.015625
141
12.0
290
     0
  0
SCALE
  5
5B
102
{ACAD_REACTORS
330
47
102
}
330
47
100
AcDbScale
 70
     0
300
1/32" = 1'-0"
140
0.03125
141
12.0
290
     0
  0
SCALE
  5
5C
102
{ACAD_REACTORS
330
47
102
}
330
47
100
AcDbScale
 70
     0
300
1/16" = 1'-0"
140
0.0625
141
12.0
290
     0
  0
SCALE
  5
5D
102
{ACAD_REACTORS
330
47
102
}
330
47
100
AcDbScale
 70
     0
300
3/32" = 1'-0"
140
0.09375
141
12.0
290
     0
  0
SCALE
  5
5E
102
{ACAD_REACTORS
330
47
102
}
330
47
100
AcDbScale
 70
     0
300
1/8" = 1'-0"
140
0.125
141
12.0
290
     0
  0
SCALE
  5
5F
102
{ACAD_REACTORS
330
47
102
}
330
47
100
AcDbScale
 70
     0
300
3/16" = 1'-0"
140
0.1875
141
12.0
290
     0
  0
SCALE
  5
60
102
{ACAD_REACTORS
330
47
102
}
330
47
100
AcDbScale
 70
     0
300
1/4" = 1'-0"
140
0.25
141
12.0
290
     0
  0
SCALE
  5
61
102
{ACAD_REACTORS
330
47
102
}
330
47
100
AcDbScale
 70
     0
300
3/8" = 1'-0"
140
0.375
141
12.0
290
     0
  0
SCALE
  5
62
102
{ACAD_REACTORS
330
47
102
}
330
47
100
AcDbScale
 70
     0
300
1/2" = 1'-0"
140
0.5
141
12.0
290
     0
  0
SCALE
  5
63
102
{ACAD_REACTORS
330
47
102
}
330
47
100
AcDbScale
 70
     0
300
3/4" = 1'-0"
140
0.75
141
12.0
290
     0
  0
SCALE
  5
64
102
{ACAD_REACTORS
330
47
102
}
330
47
100
AcDbScale
 70
     0
300
1" = 1'-0"
140
1.0
141
12.0
290
     0
  0
SCALE
  5
65
102
{ACAD_REACTORS
330
47
102
}
330
47
100
AcDbScale
 70
     0
300
1-1/2" = 1'-0"
140
1.5
141
12.0
290
     0
  0
SCALE
  5
66
102
{ACAD_REACTORS
330
47
102
}
330
47
100
AcDbScale
 70
     0
300
3" = 1'-0"
140
3.0
141
12.0
290
     0
  0
SCALE
  5
67
102
{ACAD_REACTORS
330
47
102
}
330
47
100
AcDbScale
 70
     0
300
6" = 1'-0"
140
6.0
141
12.0
290
     0
  0
SCALE
  5
68
102
{ACAD_REACTORS
330
47
102
}
330
47
100
AcDbScale
 70
     0
300
1'-0" = 1'-0"
140
12.0
141
12.0
290
     0
  0
ENDSEC
  0
EOF
